  0
SECTION
  2
HEADER
  9
$ACADVER
  1
AC1015
  9
$ACADMAINTVER
 70
     6
  9
$DWGCODEPAGE
  3
ANSI_1252
  9
$INSBASE
 10
0.0
 20
0.0
 30
0.0
  9
$EXTMIN
 10
-0.5
 20
-0.5
 30
-0.5
  9
$EXTMAX
 10
5.0
 20
5.0
 30
5.0
  9
$LIMMIN
 10
-0.5
 20
-0.5
  9
$LIMMAX
 10
5.0
 20
5.0
  9
$ORTHOMODE
 70
     0
  9
$REGENMODE
 70
     1
  9
$FILLMODE
 70
     1
  9
$QTEXTMODE
 70
     0
  9
$MIRRTEXT
 70
     1
  9
$LTSCALE
 40
1.0
  9
$ATTMODE
 70
     1
  9
$TEXTSIZE
 40
0.2
  9
$TRACEWID
 40
0.05
  9
$TEXTSTYLE
  7
Standard
  9
$CLAYER
  8
0
  9
$CELTYPE
  6
ByLayer
  9
$CECOLOR
 62
   256
  9
$CELTSCALE
 40
1.0
  9
$DISPSILH
 70
     0
  9
$DIMSCALE
 40
1.0
  9
$DIMASZ
 40
0.18
  9
$DIMEXO
 40
0.0625
  9
$DIMDLI
 40
0.38
  9
$DIMRND
 40
0.0
  9
$DIMDLE
 40
0.0
  9
$DIMEXE
 40
0.18
  9
$DIMTP
 40
0.0
  9
$DIMTM
 40
0.0
  9
$DIMTXT
 40
0.18
  9
$DIMCEN
 40
0.09
  9
$DIMTSZ
 40
0.0
  9
$DIMTOL
 70
     0
  9
$DIMLIM
 70
     0
  9
$DIMTIH
 70
     1
  9
$DIMTOH
 70
     1
  9
$DIMSE1
 70
     0
  9
$DIMSE2
 70
     0
  9
$DIMTAD
 70
     0
  9
$DIMZIN
 70
     0
  9
$DIMBLK
  1

  9
$DIMASO
 70
     1
  9
$DIMSHO
 70
     1
  9
$DIMPOST
  1

  9
$DIMAPOST
  1

  9
$DIMALT
 70
     0
  9
$DIMALTD
 70
     2
  9
$DIMALTF
 40
25.4
  9
$DIMLFAC
 40
1.0
  9
$DIMTOFL
 70
     0
  9
$DIMTVP
 40
0.0
  9
$DIMTIX
 70
     0
  9
$DIMSOXD
 70
     0
  9
$DIMSAH
 70
     0
  9
$DIMBLK1
  1

  9
$DIMBLK2
  1

  9
$DIMSTYLE
  2
Standard
  9
$DIMCLRD
 70
     0
  9
$DIMCLRE
 70
     0
  9
$DIMCLRT
 70
     0
  9
$DIMTFAC
 40
1.0
  9
$DIMGAP
 40
0.09
  9
$DIMJUST
 70
     0
  9
$DIMSD1
 70
     0
  9
$DIMSD2
 70
     0
  9
$DIMTOLJ
 70
     1
  9
$DIMTZIN
 70
     0
  9
$DIMALTZ
 70
     0
  9
$DIMALTTZ
 70
     0
  9
$DIMUPT
 70
     0
  9
$DIMDEC
 70
     4
  9
$DIMTDEC
 70
     4
  9
$DIMALTU
 70
     2
  9
$DIMALTTD
 70
     2
  9
$DIMTXSTY
  7
Standard
  9
$DIMAUNIT
 70
     0
  9
$DIMADEC
 70
     0
  9
$DIMALTRND
 40
0.0
  9
$DIMAZIN
 70
     0
  9
$DIMDSEP
 70
    46
  9
$DIMATFIT
 70
     3
  9
$DIMFRAC
 70
     0
  9
$DIMLDRBLK
  1

  9
$DIMLUNIT
 70
     2
  9
$DIMLWD
 70
    -2
  9
$DIMLWE
 70
    -2
  9
$DIMTMOVE
 70
     0
  9
$LUNITS
 70
     2
  9
$LUPREC
 70
     4
  9
$SKETCHINC
 40
0.1
  9
$FILLETRAD
 40
0.5
  9
$AUNITS
 70
     0
  9
$AUPREC
 70
     0
  9
$MENU
  1
.
  9
$ELEVATION
 40
0.0
  9
$PELEVATION
 40
0.0
  9
$THICKNESS
 40
0.0
  9
$LIMCHECK
 70
     0
  9
$CHAMFERA
 40
0.0
  9
$CHAMFERB
 40
0.0
  9
$CHAMFERC
 40
0.0
  9
$CHAMFERD
 40
0.0
  9
$SKPOLY
 70
     0
  9
$TDCREATE
 40
2458625.321133299
  9
$TDUCREATE
 40
2458625.237799965
  9
$TDUPDATE
 40
2458625.321481887
  9
$TDUUPDATE
 40
2458625.238148553
  9
$TDINDWG
 40
0.0000000116
  9
$TDUSRTIMER
 40
0.0000000116
  9
$USRTIMER
 70
     1
  9
$ANGBASE
 50
0.0
  9
$ANGDIR
 70
     0
  9
$PDMODE
 70
     0
  9
$PDSIZE
 40
0.0
  9
$PLINEWID
 40
0.0
  9
$SPLFRAME
 70
     0
  9
$SPLINETYPE
 70
     6
  9
$SPLINESEGS
 70
     8
  9
$HANDSEED
  5
518
  9
$SURFTAB1
 70
     6
  9
$SURFTAB2
 70
     6
  9
$SURFTYPE
 70
     6
  9
$SURFU
 70
     6
  9
$SURFV
 70
     6
  9
$UCSBASE
  2

  9
$UCSNAME
  2

  9
$UCSORG
 10
0.0
 20
0.0
 30
0.0
  9
$UCSXDIR
 10
1.0
 20
0.0
 30
0.0
  9
$UCSYDIR
 10
0.0
 20
1.0
 30
0.0
  9
$UCSORTHOREF
  2

  9
$UCSORTHOVIEW
 70
     0
  9
$UCSORGTOP
 10
0.0
 20
0.0
 30
0.0
  9
$UCSORGBOTTOM
 10
0.0
 20
0.0
 30
0.0
  9
$UCSORGLEFT
 10
0.0
 20
0.0
 30
0.0
  9
$UCSORGRIGHT
 10
0.0
 20
0.0
 30
0.0
  9
$UCSORGFRONT
 10
0.0
 20
0.0
 30
0.0
  9
$UCSORGBACK
 10
0.0
 20
0.0
 30
0.0
  9
$PUCSBASE
  2

  9
$PUCSNAME
  2

  9
$PUCSORG
 10
0.0
 20
0.0
 30
0.0
  9
$PUCSXDIR
 10
1.0
 20
0.0
 30
0.0
  9
$PUCSYDIR
 10
0.0
 20
1.0
 30
0.0
  9
$PUCSORTHOREF
  2

  9
$PUCSORTHOVIEW
 70
     0
  9
$PUCSORGTOP
 10
0.0
 20
0.0
 30
0.0
  9
$PUCSORGBOTTOM
 10
0.0
 20
0.0
 30
0.0
  9
$PUCSORGLEFT
 10
0.0
 20
0.0
 30
0.0
  9
$PUCSORGRIGHT
 10
0.0
 20
0.0
 30
0.0
  9
$PUCSORGFRONT
 10
0.0
 20
0.0
 30
0.0
  9
$PUCSORGBACK
 10
0.0
 20
0.0
 30
0.0
  9
$USERI1
 70
     0
  9
$USERI2
 70
     0
  9
$USERI3
 70
     0
  9
$USERI4
 70
     0
  9
$USERI5
 70
     0
  9
$USERR1
 40
0.0
  9
$USERR2
 40
0.0
  9
$USERR3
 40
0.0
  9
$USERR4
 40
0.0
  9
$USERR5
 40
0.0
  9
$WORLDVIEW
 70
     1
  9
$SHADEDGE
 70
     3
  9
$SHADEDIF
 70
    70
  9
$TILEMODE
 70
     1
  9
$MAXACTVP
 70
    64
  9
$PINSBASE
 10
0.0
 20
0.0
 30
0.0
  9
$PLIMCHECK
 70
     0
  9
$PEXTMIN
 10
-0.5
 20
-0.5
 30
-0.5
  9
$PEXTMAX
 10
5.0
 20
5.0
 30
5.0
  9
$PLIMMIN
 10
-0.5
 20
-0.5
  9
$PLIMMAX
 10
5.0
 20
5.0
  9
$UNITMODE
 70
     0
  9
$VISRETAIN
 70
     1
  9
$PLINEGEN
 70
     0
  9
$PSLTSCALE
 70
     1
  9
$TREEDEPTH
 70
  3020
  9
$CMLSTYLE
  2
Standard
  9
$CMLJUST
 70
     0
  9
$CMLSCALE
 40
1.0
  9
$PROXYGRAPHICS
 70
     1
  9
$MEASUREMENT
 70
     1
  9
$CELWEIGHT
370
    13
  9
$ENDCAPS
280
     0
  9
$JOINSTYLE
280
     0
  9
$LWDISPLAY
290
     0
  9
$INSUNITS
 70
     4
  9
$HYPERLINKBASE
  1

  9
$STYLESHEET
  1

  9
$XEDIT
290
     1
  9
$CEPSNTYPE
380
     0
  9
$PSTYLEMODE
290
     1
  9
$FINGERPRINTGUID
  2
{332B8D8D-8D98-4457-9BA1-F863F93037B2}
  9
$VERSIONGUID
  2
{FAEB1C32-E019-11D5-929B-00C0DF256EC4}
  9
$EXTNAMES
290
     1
  9
$PSVPSCALE
 40
0.0
  9
$OLESTARTUP
290
     0
  0
ENDSEC
  0
SECTION
  2
CLASSES
  0
CLASS
  1
ACDBDICTIONARYWDFLT
  2
AcDbDictionaryWithDefault
  3
ObjectDBX Classes
 90
        0
280
     0
281
     0
  0
CLASS
  1
VISUALSTYLE
  2
AcDbVisualStyle
  3
ObjectDBX Classes
 90
     4095
280
     0
281
     0
  0
CLASS
  1
MATERIAL
  2
AcDbMaterial
  3
ObjectDBX Classes
 90
     1153
280
     0
281
     0
  0
CLASS
  1
SCALE
  2
AcDbScale
  3
ObjectDBX Classes
 90
     1153
280
     0
281
     0
  0
CLASS
  1
SUN
  2
AcDbSun
  3
SCENEOE
 90
     1153
280
     0
281
     0
  0
CLASS
  1
DICTIONARYVAR
  2
AcDbDictionaryVar
  3
ObjectDBX Classes
 90
        0
280
     0
281
     0
  0
CLASS
  1
ACDBPLACEHOLDER
  2
AcDbPlaceHolder
  3
ObjectDBX Classes
 90
        0
280
     0
281
     0
  0
CLASS
  1
LAYOUT
  2
AcDbLayout
  3
ObjectDBX Classes
 90
        0
280
     0
281
     0
  0
ENDSEC
  0
SECTION
  2
TABLES
  0
TABLE
  2
VPORT
  5
8
330
0
100
AcDbSymbolTable
 70
    17
  0
VPORT
  5
29
330
8
100
AcDbSymbolTableRecord
100
AcDbViewportTableRecord
  2
DUMMY
 70
     0
 10
0.0
 20
0.0
 11
1.0
 21
1.0
 12
10.429907
 22
4.5
 13
0.0
 23
0.0
 14
0.5
 24
0.5
 15
0.5
 25
0.5
 16
0.0
 26
0.0
 36
1.0
 17
0.0
 27
0.0
 37
0.0
 40
9.0
 41
1.972973
 42
50.0
 43
0.0
 44
0.0
 50
0.0
 51
0.0
 71
     0
 72
   100
 73
     1
 74
     3
 75
     0
 76
     0
 77
     0
 78
     0
281
     0
 65
     1
110
0.0
120
0.0
130
0.0
111
1.0
121
0.0
131
0.0
112
0.0
122
1.0
132
0.0
 79
     0
146
0.0
  0
VPORT
  5
4C8
330
8
100
AcDbSymbolTableRecord
100
AcDbViewportTableRecord
  2
*ACTIVE
 70
     0
 10
0.0
 20
0.0
 11
1.0
 21
1.0
 12
8.921429
 22
20.375
 13
0.0
 23
0.0
 14
0.5
 24
0.5
 15
0.5
 25
0.5
 16
0.0
 26
0.0
 36
1.0
 17
0.0
 27
0.0
 37
0.0
 40
229.922917
 41
0.077229
 42
50.0
 43
206.819002
 44
-206.819002
 50
0.0
 51
0.0
 71
     0
 72
   100
 73
     1
 74
     3
 75
     0
 76
     0
 77
     0
 78
     0
281
     0
 65
     1
110
0.0
120
0.0
130
0.0
111
1.0
121
0.0
131
0.0
112
0.0
122
1.0
132
0.0
 79
     0
146
0.0
  0
VPORT
  5
4CA
330
8
100
AcDbSymbolTableRecord
100
AcDbViewportTableRecord
  2
L1
 70
     0
 10
0.0
 20
0.0
 11
1.0
 21
1.0
 12
8.921429
 22
20.375
 13
0.0
 23
0.0
 14
0.5
 24
0.5
 15
0.5
 25
0.5
 16
0.0
 26
0.0
 36
1.0
 17
0.0
 27
0.0
 37
0.0
 40
229.922917
 41
0.077229
 42
50.0
 43
206.819002
 44
-206.819002
 50
0.0
 51
0.0
 71
     0
 72
   100
 73
     1
 74
     3
 75
     0
 76
     0
 77
     0
 78
     0
281
     0
 65
     1
110
0.0
120
0.0
130
0.0
111
1.0
121
0.0
131
0.0
112
0.0
122
1.0
132
0.0
 79
     0
146
0.0
  0
VPORT
  5
4CB
330
8
100
AcDbSymbolTableRecord
100
AcDbViewportTableRecord
  2
L2
 70
     0
 10
0.0
 20
0.0
 11
0.5
 21
1.0
 12
0.0
 22
0.0
 13
0.0
 23
0.0
 14
0.5
 24
0.5
 15
0.5
 25
0.5
 16
0.0
 26
-1.0
 36
0.0
 17
0.0
 27
0.0
 37
0.0
 40
1482.243488
 41
0.01198
 42
50.0
 43
764.106154
 44
-764.106154
 50
0.0
 51
0.0
 71
     0
 72
   100
 73
     1
 74
     3
 75
     0
 76
     0
 77
     0
 78
     0
281
     0
 65
     1
110
0.0
120
0.0
130
0.0
111
1.0
121
0.0
131
0.0
112
0.0
122
1.0
132
0.0
 79
     0
146
0.0
  0
VPORT
  5
4CC
330
8
100
AcDbSymbolTableRecord
100
AcDbViewportTableRecord
  2
L2
 70
     0
 10
0.5
 20
0.0
 11
1.0
 21
1.0
 12
0.0
 22
0.0
 13
0.0
 23
0.0
 14
0.5
 24
0.5
 15
0.5
 25
0.5
 16
1.0
 26
0.0
 36
0.0
 17
0.0
 27
0.0
 37
0.0
 40
1482.243488
 41
0.01198
 42
50.0
 43
749.985051
 44
-749.985051
 50
0.0
 51
0.0
 71
     0
 72
   100
 73
     1
 74
     3
 75
     0
 76
     0
 77
     0
 78
     0
281
     0
 65
     1
110
0.0
120
0.0
130
0.0
111
1.0
121
0.0
131
0.0
112
0.0
122
1.0
132
0.0
 79
     0
146
0.0
  0
VPORT
  5
4CD
330
8
100
AcDbSymbolTableRecord
100
AcDbViewportTableRecord
  2
L3
 70
     0
 10
0.0
 20
0.5
 11
1.0
 21
1.0
 12
8.921429
 22
20.375
 13
0.0
 23
0.0
 14
0.5
 24
0.5
 15
0.5
 25
0.5
 16
0.0
 26
0.0
 36
1.0
 17
0.0
 27
0.0
 37
0.0
 40
229.922917
 41
0.077229
 42
50.0
 43
206.819002
 44
-206.819002
 50
0.0
 51
0.0
 71
     0
 72
   100
 73
     1
 74
     3
 75
     0
 76
     0
 77
     0
 78
     0
281
     0
 65
     1
110
0.0
120
0.0
130
0.0
111
1.0
121
0.0
131
0.0
112
0.0
122
1.0
132
0.0
 79
     0
146
0.0
  0
VPORT
  5
4CE
330
8
100
AcDbSymbolTableRecord
100
AcDbViewportTableRecord
  2
L3
 70
     0
 10
0.0
 20
0.0
 11
1.0
 21
0.5
 12
0.0
 22
0.0
 13
0.0
 23
0.0
 14
0.5
 24
0.5
 15
0.5
 25
0.5
 16
0.0
 26
-1.0
 36
0.0
 17
0.0
 27
0.0
 37
0.0
 40
1482.243488
 41
0.01198
 42
50.0
 43
764.106154
 44
-764.106154
 50
0.0
 51
0.0
 71
     0
 72
   100
 73
     1
 74
     3
 75
     0
 76
     0
 77
     0
 78
     0
281
     0
 65
     1
110
0.0
120
0.0
130
0.0
111
1.0
121
0.0
131
0.0
112
0.0
122
1.0
132
0.0
 79
     0
146
0.0
  0
VPORT
  5
4CF
330
8
100
AcDbSymbolTableRecord
100
AcDbViewportTableRecord
  2
L4
 70
     0
 10
0.0
 20
0.5
 11
0.5
 21
1.0
 12
8.921429
 22
20.375
 13
0.0
 23
0.0
 14
0.5
 24
0.5
 15
0.5
 25
0.5
 16
0.0
 26
0.0
 36
1.0
 17
0.0
 27
0.0
 37
0.0
 40
229.922917
 41
0.077229
 42
50.0
 43
206.819002
 44
-206.819002
 50
0.0
 51
0.0
 71
     0
 72
   100
 73
     1
 74
     3
 75
     0
 76
     0
 77
     0
 78
     0
281
     0
 65
     1
110
0.0
120
0.0
130
0.0
111
1.0
121
0.0
131
0.0
112
0.0
122
1.0
132
0.0
 79
     0
146
0.0
  0
VPORT
  5
4D0
330
8
100
AcDbSymbolTableRecord
100
AcDbViewportTableRecord
  2
L4
 70
     0
 10
0.0
 20
0.0
 11
0.5
 21
0.5
 12
0.0
 22
0.0
 13
0.0
 23
0.0
 14
0.5
 24
0.5
 15
0.5
 25
0.5
 16
0.0
 26
-1.0
 36
0.0
 17
0.0
 27
0.0
 37
0.0
 40
1482.243488
 41
0.01198
 42
50.0
 43
764.106154
 44
-764.106154
 50
0.0
 51
0.0
 71
     0
 72
   100
 73
     1
 74
     3
 75
     0
 76
     0
 77
     0
 78
     0
281
     0
 65
     1
110
0.0
120
0.0
130
0.0
111
1.0
121
0.0
131
0.0
112
0.0
122
1.0
132
0.0
 79
     0
146
0.0
  0
VPORT
  5
4D1
330
8
100
AcDbSymbolTableRecord
100
AcDbViewportTableRecord
  2
L4
 70
     0
 10
0.5
 20
0.0
 11
1.0
 21
0.5
 12
0.0
 22
0.0
 13
0.0
 23
0.0
 14
0.5
 24
0.5
 15
0.5
 25
0.5
 16
1.0
 26
0.0
 36
0.0
 17
0.0
 27
0.0
 37
0.0
 40
1482.243488
 41
0.01198
 42
50.0
 43
749.985051
 44
-749.985051
 50
0.0
 51
0.0
 71
     0
 72
   100
 73
     1
 74
     3
 75
     0
 76
     0
 77
     0
 78
     0
281
     0
 65
     1
110
0.0
120
0.0
130
0.0
111
1.0
121
0.0
131
0.0
112
0.0
122
1.0
132
0.0
 79
     0
146
0.0
  0
VPORT
  5
4D2
330
8
100
AcDbSymbolTableRecord
100
AcDbViewportTableRecord
  2
L4
 70
     0
 10
0.5
 20
0.5
 11
1.0
 21
1.0
 12
0.0
 22
0.0
 13
0.0
 23
0.0
 14
0.5
 24
0.5
 15
0.5
 25
0.5
 16
0.5773502691896258
 26
-0.5773502691896258
 36
0.5773502691896258
 17
0.0
 27
0.0
 37
0.0
 40
1455.982443
 41
0.012196
 42
50.0
 43
758.459455
 44
-758.459455
 50
0.0
 51
0.0
 71
     0
 72
   100
 73
     1
 74
     3
 75
     0
 76
     0
 77
     0
 78
     0
281
     0
 65
     1
110
0.0
120
0.0
130
0.0
111
1.0
121
0.0
131
0.0
112
0.0
122
1.0
132
0.0
 79
     0
146
0.0
  0
VPORT
  5
4D3
330
8
100
AcDbSymbolTableRecord
100
AcDbViewportTableRecord
  2
L6
 70
     0
 10
0.0
 20
0.5
 11
0.333333
 21
1.0
 12
0.0
 22
0.0
 13
0.0
 23
0.0
 14
0.5
 24
0.5
 15
0.5
 25
0.5
 16
0.7188730927569433
 26
-0.5850486126764433
 36
0.3754192287502549
 17
0.0
 27
0.0
 37
0.0
 40
1536.629211
 41
0.011556
 42
50.0
 43
795.600158
 44
-795.600158
 50
0.0
 51
0.0
 71
     0
 72
   100
 73
     1
 74
     3
 75
     0
 76
     0
 77
     0
 78
     0
281
     0
 65
     1
110
0.0
120
0.0
130
0.0
111
1.0
121
0.0
131
0.0
112
0.0
122
1.0
132
0.0
 79
     0
146
0.0
  0
VPORT
  5
4D4
330
8
100
AcDbSymbolTableRecord
100
AcDbViewportTableRecord
  2
L6
 70
     0
 10
0.0
 20
0.0
 11
0.333333
 21
0.5
 12
0.0
 22
0.0
 13
0.0
 23
0.0
 14
0.5
 24
0.5
 15
0.5
 25
0.5
 16
-1.0
 26
0.0
 36
0.0
 17
0.0
 27
0.0
 37
0.0
 40
1482.243488
 41
0.01198
 42
50.0
 43
749.985051
 44
-749.985051
 50
0.0
 51
0.0
 71
     0
 72
   100
 73
     1
 74
     3
 75
     0
 76
     0
 77
     0
 78
     0
281
     0
 65
     1
110
0.0
120
0.0
130
0.0
111
1.0
121
0.0
131
0.0
112
0.0
122
1.0
132
0.0
 79
     0
146
0.0
  0
VPORT
  5
4D5
330
8
100
AcDbSymbolTableRecord
100
AcDbViewportTableRecord
  2
L6
 70
     0
 10
0.333333
 20
0.5
 11
0.666667
 21
1.0
 12
8.921429
 22
20.375
 13
0.0
 23
0.0
 14
0.5
 24
0.5
 15
0.5
 25
0.5
 16
0.0
 26
0.0
 36
1.0
 17
0.0
 27
0.0
 37
0.0
 40
229.922917
 41
0.077229
 42
50.0
 43
206.819002
 44
-206.819002
 50
0.0
 51
0.0
 71
     0
 72
   100
 73
     1
 74
     3
 75
     0
 76
     0
 77
     0
 78
     0
281
     0
 65
     1
110
0.0
120
0.0
130
0.0
111
1.0
121
0.0
131
0.0
112
0.0
122
1.0
132
0.0
 79
     0
146
0.0
  0
VPORT
  5
4D6
330
8
100
AcDbSymbolTableRecord
100
AcDbViewportTableRecord
  2
L6
 70
     0
 10
0.333333
 20
0.0
 11
0.666667
 21
0.5
 12
0.0
 22
0.0
 13
0.0
 23
0.0
 14
0.5
 24
0.5
 15
0.5
 25
0.5
 16
0.0
 26
-1.0
 36
0.0
 17
0.0
 27
0.0
 37
0.0
 40
1482.243488
 41
0.01198
 42
50.0
 43
764.106154
 44
-764.106154
 50
0.0
 51
0.0
 71
     0
 72
   100
 73
     1
 74
     3
 75
     0
 76
     0
 77
     0
 78
     0
281
     0
 65
     1
110
0.0
120
0.0
130
0.0
111
1.0
121
0.0
131
0.0
112
0.0
122
1.0
132
0.0
 79
     0
146
0.0
  0
VPORT
  5
4D7
330
8
100
AcDbSymbolTableRecord
100
AcDbViewportTableRecord
  2
L6
 70
     0
 10
0.666667
 20
0.5
 11
1.0
 21
1.0
 12
0.0
 22
0.0
 13
0.0
 23
0.0
 14
0.5
 24
0.5
 15
0.5
 25
0.5
 16
0.5773502691896258
 26
-0.5773502691896258
 36
0.5773502691896258
 17
0.0
 27
0.0
 37
0.0
 40
1455.982443
 41
0.012196
 42
50.0
 43
758.459455
 44
-758.459455
 50
0.0
 51
0.0
 71
     0
 72
   100
 73
     1
 74
     3
 75
     0
 76
     0
 77
     0
 78
     0
281
     0
 65
     1
110
0.0
120
0.0
130
0.0
111
1.0
121
0.0
131
0.0
112
0.0
122
1.0
132
0.0
 79
     0
146
0.0
  0
VPORT
  5
4D8
330
8
100
AcDbSymbolTableRecord
100
AcDbViewportTableRecord
  2
L6
 70
     0
 10
0.666667
 20
0.0
 11
1.0
 21
0.5
 12
0.0
 22
0.0
 13
0.0
 23
0.0
 14
0.5
 24
0.5
 15
0.5
 25
0.5
 16
1.0
 26
0.0
 36
0.0
 17
0.0
 27
0.0
 37
0.0
 40
1482.243488
 41
0.01198
 42
50.0
 43
749.985051
 44
-749.985051
 50
0.0
 51
0.0
 71
     0
 72
   100
 73
     1
 74
     3
 75
     0
 76
     0
 77
     0
 78
     0
281
     0
 65
     1
110
0.0
120
0.0
130
0.0
111
1.0
121
0.0
131
0.0
112
0.0
122
1.0
132
0.0
 79
     0
146
0.0
  0
ENDTAB
  0
TABLE
  2
LTYPE
  5
5
330
0
100
AcDbSymbolTable
 70
     6
  0
LTYPE
  5
14
330
5
100
AcDbSymbolTableRecord
100
AcDbLinetypeTableRecord
  2
BYBLOCK
 70
     0
  3

 72
    65
 73
     0
 40
0.0
  0
LTYPE
  5
15
330
5
100
AcDbSymbolTableRecord
100
AcDbLinetypeTableRecord
  2
BYLAYER
 70
     0
  3

 72
    65
 73
     0
 40
0.0
  0
LTYPE
  5
16
330
5
100
AcDbSymbolTableRecord
100
AcDbLinetypeTableRecord
  2
CONTINUOUS
 70
     0
  3
Solid line
 72
    65
 73
     0
 40
0.0
  0
LTYPE
  5
6A
330
5
100
AcDbSymbolTableRecord
100
AcDbLinetypeTableRecord
  2
CENTER
 70
     0
  3
____ _ ____ _ ____ _ ____
 72
    65
 73
     4
 40
47.4
 49
22.0
 74
     4
 75
     0
340
0
 46
0.0
 50
0.0
 44
0.0
 45
0.0
 49
-8.5
 74
     4
 75
     0
340
0
 46
0.0
 50
0.0
 44
0.0
 45
0.0
 49
8.5
 74
     4
 75
     0
340
0
 46
0.0
 50
0.0
 44
0.0
 45
0.0
 49
-8.5
 74
     4
 75
     0
340
0
 46
0.0
 50
0.0
 44
0.0
 45
0.0
  0
LTYPE
  5
6B
330
5
100
AcDbSymbolTableRecord
100
AcDbLinetypeTableRecord
  2
DASHDOT
 70
     0
  3
_._._._._._._._._._._._._._._._.
 72
    65
 73
     4
 40
70.0
 49
31.0
 74
     4
 75
     0
340
0
 46
0.0
 50
0.0
 44
0.0
 45
0.0
 49
-13.0
 74
     4
 75
     0
340
0
 46
0.0
 50
0.0
 44
0.0
 45
0.0
 49
13.0
 74
     4
 75
     0
340
0
 46
0.0
 50
0.0
 44
0.0
 45
0.0
 49
-13.0
 74
     4
 75
     0
340
0
 46
0.0
 50
0.0
 44
0.0
 45
0.0
  0
LTYPE
  5
6C
330
5
100
AcDbSymbolTableRecord
100
AcDbLinetypeTableRecord
  2
DASHED
 70
     0
  3
__ __ __ __ __ __ __ __ __
 72
    65
 73
     2
 40
25.72
 49
12.86
 74
     4
 75
     0
340
0
 46
0.0
 50
0.0
 44
0.0
 45
0.0
 49
-12.86
 74
     4
 75
     0
340
0
 46
0.0
 50
0.0
 44
0.0
 45
0.0
  0
LTYPE
  5
6D
330
5
100
AcDbSymbolTableRecord
100
AcDbLinetypeTableRecord
  2
DOT
 70
     0
  3
.........................
 72
    65
 73
     2
 40
10.0
 49
0.0
 74
     4
 75
     0
340
0
 46
0.0
 50
0.0
 44
0.0
 45
0.0
 49
-10.0
 74
     4
 75
     0
340
0
 46
0.0
 50
0.0
 44
0.0
 45
0.0
  0
LTYPE
  5
6E
330
5
100
AcDbSymbolTableRecord
100
AcDbLinetypeTableRecord
  2
PHANTOM
 70
     0
  3
____ _ _ ____ _ _ _____ _ _ ____
 72
    65
 73
     6
 40
50.5
 49
18.0
 74
     4
 75
     0
340
0
 46
0.0
 50
0.0
 44
0.0
 45
0.0
 49
-6.5
 74
     4
 75
     0
340
0
 46
0.0
 50
0.0
 44
0.0
 45
0.0
 49
6.5
 74
     4
 75
     0
340
0
 46
0.0
 50
0.0
 44
0.0
 45
0.0
 49
-6.5
 74
     4
 75
     0
340
0
 46
0.0
 50
0.0
 44
0.0
 45
0.0
 49
6.5
 74
     4
 75
     0
340
0
 46
0.0
 50
0.0
 44
0.0
 45
0.0
 49
-6.5
 74
     4
 75
     0
340
0
 46
0.0
 50
0.0
 44
0.0
 45
0.0
  0
ENDTAB
  0
TABLE
  2
LAYER
  5
2
330
0
100
AcDbSymbolTable
 70
    19
  0
LAYER
  5
10
102
{ACAD_XDICTIONARY
360
60E
102
}
330
2
100
AcDbSymbolTableRecord
100
AcDbLayerTableRecord
  2
0
 70
     0
 62
     7
  6
CONTINUOUS
370
    -3
390
F
  0
LAYER
  5
601
102
{ACAD_XDICTIONARY
360
610
102
}
330
2
100
AcDbSymbolTableRecord
100
AcDbLayerTableRecord
  2
1
 70
     0
 62
     4
  6
CONTINUOUS
370
    -3
390
F
  0
LAYER
  5
602
102
{ACAD_XDICTIONARY
360
612
102
}
330
2
100
AcDbSymbolTableRecord
100
AcDbLayerTableRecord
  2
2
 70
     0
 62
     7
  6
CONTINUOUS
370
    -3
390
F
  0
LAYER
  5
603
102
{ACAD_XDICTIONARY
360
614
102
}
330
2
100
AcDbSymbolTableRecord
100
AcDbLayerTableRecord
  2
4
 70
     0
 62
     2
  6
CENTER
370
    -3
390
F
  0
LAYER
  5
605
102
{ACAD_XDICTIONARY
360
616
102
}
330
2
100
AcDbSymbolTableRecord
100
AcDbLayerTableRecord
  2
SK2
 70
     0
 62
     7
  6
CONTINUOUS
370
    -3
390
F
  0
LAYER
  5
606
102
{ACAD_XDICTIONARY
360
618
102
}
330
2
100
AcDbSymbolTableRecord
100
AcDbLayerTableRecord
  2
SK3
 70
     0
 62
     1
  6
DASHED
370
    -3
390
F
  0
LAYER
  5
607
102
{ACAD_XDICTIONARY
360
61A
102
}
330
2
100
AcDbSymbolTableRecord
100
AcDbLayerTableRecord
  2
SK4
 70
     0
 62
     2
  6
CENTER
370
    -3
390
F
  0
LAYER
  5
608
102
{ACAD_XDICTIONARY
360
61C
102
}
330
2
100
AcDbSymbolTableRecord
100
AcDbLayerTableRecord
  2
SK6
 70
     0
 62
     5
  6
CONTINUOUS
370
    -3
390
F
  0
LAYER
  5
609
102
{ACAD_XDICTIONARY
360
61E
102
}
330
2
100
AcDbSymbolTableRecord
100
AcDbLayerTableRecord
  2
CUT
 70
     0
 62
     1
  6
CONTINUOUS
370
    -3
390
F
  0
LAYER
  5
60A
102
{ACAD_XDICTIONARY
360
620
102
}
330
2
100
AcDbSymbolTableRecord
100
AcDbLayerTableRecord
  2
NOCUT
 70
     0
 62
     7
  6
CONTINUOUS
370
    -3
390
F
  0
LAYER
  5
60B
102
{ACAD_XDICTIONARY
360
622
102
}
330
2
100
AcDbSymbolTableRecord
100
AcDbLayerTableRecord
  2
80
 70
     0
 62
     6
  6
CONTINUOUS
370
    -3
390
F
  0
LAYER
  5
60C
102
{ACAD_XDICTIONARY
360
624
102
}
330
2
100
AcDbSymbolTableRecord
100
AcDbLayerTableRecord
  2
81
 70
     0
 62
     3
  6
CONTINUOUS
370
    -3
390
F
  0
LAYER
  5
60D
102
{ACAD_XDICTIONARY
360
626
102
}
330
2
100
AcDbSymbolTableRecord
100
AcDbLayerTableRecord
  2
SK1
 70
     0
 62
     4
  6
CONTINUOUS
370
    -3
390
F
  0
ENDTAB
  0
TABLE
  2
STYLE
  5
3
330
0
100
AcDbSymbolTable
 70
     3
  0
STYLE
  5
11
330
3
100
AcDbSymbolTableRecord
100
AcDbTextStyleTableRecord
  2
Standard
 70
     0
 40
0.0
 41
1.0
 50
0.0
 71
     0
 42
0.2
  3
txt
  4

  0
STYLE
  5
47E
330
3
100
AcDbSymbolTableRecord
100
AcDbTextStyleTableRecord
  2
cesky
 70
     0
 40
0.0
 41
1.0
 50
0.0
 71
     0
 42
0.2
  3
simplex.shx
  4

  0
STYLE
  5
47F
330
3
100
AcDbSymbolTableRecord
100
AcDbTextStyleTableRecord
  2
DWGDirectTextStyle
 70
     0
 40
0.0
 41
1.0
 50
0.0
 71
     0
 42
0.2
  3
simplex
  4

  0
ENDTAB
  0
TABLE
  2
VIEW
  5
6
330
0
100
AcDbSymbolTable
 70
     1
  0
VIEW
  5
4C7
330
6
100
AcDbSymbolTableRecord
100
AcDbViewTableRecord
  2
Top
 70
     0
 40
229.922917
 10
8.921429
 20
20.375
 41
372.004167
 11
0.0
 21
0.0
 31
1.0
 12
0.0
 22
0.0
 32
0.0
 42
50.0
 43
206.819002
 44
-206.819002
 50
0.0
 71
     0
281
     0
 72
     0
  0
ENDTAB
  0
TABLE
  2
UCS
  5
7
330
0
100
AcDbSymbolTable
 70
     0
  0
ENDTAB
  0
TABLE
  2
APPID
  5
9
330
0
100
AcDbSymbolTable
 70
     1
  0
APPID
  5
12
330
9
100
AcDbSymbolTableRecord
100
AcDbRegAppTableRecord
  2
ACAD
 70
     0
  0
ENDTAB
  0
TABLE
  2
DIMSTYLE
  5
A
330
0
100
AcDbSymbolTable
 70
     1
100
AcDbDimStyleTable
  0
DIMSTYLE
105
27
102
{ACAD_REACTORS
330
489
330
492
330
49D
330
4A8
330
4B2
330
4BC
330
4C6
102
}
330
A
100
AcDbSymbolTableRecord
100
AcDbDimStyleTableRecord
  2
Standard
 70
     0
178
     0
340
11
  0
ENDTAB
  0
TABLE
  2
BLOCK_RECORD
  5
1
330
0
100
AcDbSymbolTable
 70
     8
  0
BLOCK_RECORD
  5
1F
330
1
100
AcDbSymbolTableRecord
100
AcDbBlockTableRecord
  2
*Model_Space
340
22
  0
BLOCK_RECORD
  5
1B
330
1
100
AcDbSymbolTableRecord
100
AcDbBlockTableRecord
  2
*Paper_Space
340
1E
  0
BLOCK_RECORD
  5
23
330
1
100
AcDbSymbolTableRecord
100
AcDbBlockTableRecord
  2
*Paper_Space0
340
26
  0
BLOCK_RECORD
  5
480
330
1
100
AcDbSymbolTableRecord
100
AcDbBlockTableRecord
  2
DimnDraft3D1
340
0
  0
BLOCK_RECORD
  5
48A
330
1
100
AcDbSymbolTableRecord
100
AcDbBlockTableRecord
  2
DimnDraft3D2
340
0
  0
BLOCK_RECORD
  5
493
330
1
100
AcDbSymbolTableRecord
100
AcDbBlockTableRecord
  2
DimnDraft3D3
340
0
  0
BLOCK_RECORD
  5
49E
330
1
100
AcDbSymbolTableRecord
100
AcDbBlockTableRecord
  2
DimnDraft3D4
340
0
  0
BLOCK_RECORD
  5
4A9
330
1
100
AcDbSymbolTableRecord
100
AcDbBlockTableRecord
  2
DimnDraft3D5
340
0
  0
BLOCK_RECORD
  5
4B3
330
1
100
AcDbSymbolTableRecord
100
AcDbBlockTableRecord
  2
DimnDraft3D6
340
0
  0
BLOCK_RECORD
  5
4BD
330
1
100
AcDbSymbolTableRecord
100
AcDbBlockTableRecord
  2
DimnDraft3D7
340
0
  0
ENDTAB
  0
ENDSEC
  0
SECTION
  2
BLOCKS
  0
BLOCK
  5
20
330
1F
100
AcDbEntity
  8
0
100
AcDbBlockBegin
  2
*Model_Space
 70
     0
 10
0.0
 20
0.0
 30
0.0
  3
*Model_Space
  1
*Model_Space
  0
ENDBLK
  5
21
330
1F
100
AcDbEntity
  8
0
100
AcDbBlockEnd
  0
BLOCK
  5
1C
330
1B
100
AcDbEntity
 67
     1
  8
0
100
AcDbBlockBegin
  2
*Paper_Space
 70
     0
 10
0.0
 20
0.0
 30
0.0
  3
*Paper_Space
  1
*Paper_Space
  0
ENDBLK
  5
1D
330
1B
100
AcDbEntity
 67
     1
  8
0
100
AcDbBlockEnd
  0
BLOCK
  5
24
330
23
100
AcDbEntity
  8
0
100
AcDbBlockBegin
  2
*Paper_Space0
 70
     0
 10
0.0
 20
0.0
 30
0.0
  3
*Paper_Space0
  1
*Paper_Space0
  0
ENDBLK
  5
25
330
23
100
AcDbEntity
  8
0
100
AcDbBlockEnd
  0
BLOCK
  5
487
330
480
100
AcDbEntity
  8
0
100
AcDbBlockBegin
  2
DimnDraft3D1
 70
     0
 10
0.0
 20
0.0
 30
0.0
  3
DimnDraft3D1
  1
DimnDraft3D1
  0
MTEXT
  5
481
330
480
100
AcDbEntity
  8
SK2
370
    13
100
AcDbMText
 10
-12.357143
 20
14.16
 30
0.0
 40
3.0
 41
0.0
 71
     7
 72
     5
  1
\W0.8346;8.15
  7
cesky
 11
6.123233995736766E-17
 21
1.0
 31
0.0
 73
     2
 44
1.084337
  0
LINE
  5
482
330
480
100
AcDbEntity
  8
SK2
370
    13
100
AcDbLine
 10
1.0
 20
4.0975
 30
0.0
 11
-14.0
 21
4.0975
 31
0.0
  0
LINE
  5
483
330
480
100
AcDbEntity
  8
SK2
370
    13
100
AcDbLine
 10
1.0
 20
-4.0975
 30
0.0
 11
-14.0
 21
-4.0975
 31
0.0
  0
LINE
  5
484
330
480
100
AcDbEntity
  8
SK2
370
    13
100
AcDbLine
 10
-12.0
 20
-4.0975
 30
0.0
 11
-12.0
 21
21.354643
 31
0.0
  0
SOLID
  5
485
330
480
100
AcDbEntity
  8
SK2
370
    13
100
AcDbTrace
 10
-12.0
 20
4.0975
 30
0.0
 11
-11.382856
 21
0.597502
 31
0.0
 12
-12.617144
 22
0.597498
 32
0.0
 13
-12.0
 23
4.0975
 33
0.0
  0
SOLID
  5
486
330
480
100
AcDbEntity
  8
SK2
370
    13
100
AcDbTrace
 10
-12.0
 20
-4.0975
 30
0.0
 11
-12.617144
 21
-0.597502
 31
0.0
 12
-11.382856
 22
-0.597498
 32
0.0
 13
-12.0
 23
-4.0975
 33
0.0
  0
ENDBLK
  5
488
330
480
100
AcDbEntity
  8
0
100
AcDbBlockEnd
  0
BLOCK
  5
490
330
48A
100
AcDbEntity
  8
0
100
AcDbBlockBegin
  2
DimnDraft3D2
 70
     0
 10
0.0
 20
0.0
 30
0.0
  3
DimnDraft3D2
  1
DimnDraft3D2
  0
MTEXT
  5
48B
330
48A
100
AcDbEntity
  8
2
370
    13
100
AcDbMText
 10
50.642857
 20
0.433929
 30
0.0
 40
3.0
 41
0.0
 71
     7
 72
     5
  1
\W0.7867;63,5
  7
cesky
 11
6.123233995736766E-17
 21
1.0
 31
0.0
 73
     2
 44
1.084337
  0
MTEXT
  5
48C
330
48A
100
AcDbEntity
  8
2
370
    13
100
AcDbMText
 10
50.642857
 20
-5.542634
 30
0.0
 40
3.0
 41
0.0
 71
     7
 72
     5
  1
%%c
  7
cesky
 11
6.123233995736766E-17
 21
1.0
 31
0.0
 73
     2
 44
1.084337
  0
LINE
  5
48D
330
48A
100
AcDbEntity
  8
2
370
    13
100
AcDbLine
 10
41.0
 20
31.75
 30
0.0
 11
53.75
 21
31.75
 31
0.0
  0
LINE
  5
48E
330
48A
100
AcDbEntity
  8
2
370
    13
100
AcDbLine
 10
51.75
 20
31.75
 30
0.0
 11
51.75
 21
-8.628571
 31
0.0
  0
SOLID
  5
48F
330
48A
100
AcDbEntity
  8
2
370
    13
100
AcDbTrace
 10
51.75
 20
31.75
 30
0.0
 11
52.367144
 21
28.250002
 31
0.0
 12
51.132856
 22
28.249998
 32
0.0
 13
51.75
 23
31.75
 33
0.0
  0
ENDBLK
  5
491
330
48A
100
AcDbEntity
  8
0
100
AcDbBlockEnd
  0
BLOCK
  5
49B
330
493
100
AcDbEntity
  8
0
100
AcDbBlockBegin
  2
DimnDraft3D3
 70
     0
 10
0.0
 20
0.0
 30
0.0
  3
DimnDraft3D3
  1
DimnDraft3D3
  0
MTEXT
  5
494
330
493
100
AcDbEntity
  8
SK2
370
    13
100
AcDbMText
 10
-22.357143
 20
2.598214
 30
0.0
 40
3.0
 41
0.0
 71
     7
 72
     5
  1
\W0.6765;19
  7
cesky
 11
6.123233995736766E-17
 21
1.0
 31
0.0
 73
     2
 44
1.084337
  0
MTEXT
  5
495
330
493
100
AcDbEntity
  8
SK2
370
    13
100
AcDbMText
 10
-22.357143
 20
-3.378348
 30
0.0
 40
3.0
 41
0.0
 71
     7
 72
     5
  1
%%c
  7
cesky
 11
6.123233995736766E-17
 21
1.0
 31
0.0
 73
     2
 44
1.084337
  0
LINE
  5
496
330
493
100
AcDbEntity
  8
SK2
370
    13
100
AcDbLine
 10
0.0
 20
-9.525
 30
0.0
 11
-23.25
 21
-9.525
 31
0.0
  0
LINE
  5
497
330
493
100
AcDbEntity
  8
SK2
370
    13
100
AcDbLine
 10
0.0
 20
9.525
 30
0.0
 11
-23.25
 21
9.525
 31
0.0
  0
LINE
  5
498
330
493
100
AcDbEntity
  8
SK2
370
    13
100
AcDbLine
 10
-21.25
 20
-17.025
 30
0.0
 11
-21.25
 21
17.025
 31
0.0
  0
SOLID
  5
499
330
493
100
AcDbEntity
  8
SK2
370
    13
100
AcDbTrace
 10
-21.25
 20
-9.525
 30
0.0
 11
-20.632856
 21
-13.024998
 31
0.0
 12
-21.867144
 22
-13.025002
 32
0.0
 13
-21.25
 23
-9.525
 33
0.0
  0
SOLID
  5
49A
330
493
100
AcDbEntity
  8
SK2
370
    13
100
AcDbTrace
 10
-21.25
 20
9.525
 30
0.0
 11
-21.867144
 21
13.024998
 31
0.0
 12
-20.632856
 22
13.025002
 32
0.0
 13
-21.25
 23
9.525
 33
0.0
  0
ENDBLK
  5
49C
330
493
100
AcDbEntity
  8
0
100
AcDbBlockEnd
  0
BLOCK
  5
4A6
330
49E
100
AcDbEntity
  8
0
100
AcDbBlockBegin
  2
DimnDraft3D4
 70
     0
 10
0.0
 20
0.0
 30
0.0
  3
DimnDraft3D4
  1
DimnDraft3D4
  0
MTEXT
  5
49F
330
49E
100
AcDbEntity
  8
SK2
370
    13
100
AcDbMText
 10
-32.357143
 20
2.598214
 30
0.0
 40
3.0
 41
0.0
 71
     7
 72
     5
  1
\W0.6087;47
  7
cesky
 11
6.123233995736766E-17
 21
1.0
 31
0.0
 73
     2
 44
1.084337
  0
MTEXT
  5
4A0
330
49E
100
AcDbEntity
  8
SK2
370
    13
100
AcDbMText
 10
-32.357143
 20
-3.378348
 30
0.0
 40
3.0
 41
0.0
 71
     7
 72
     5
  1
%%c
  7
cesky
 11
6.123233995736766E-17
 21
1.0
 31
0.0
 73
     2
 44
1.084337
  0
LINE
  5
4A1
330
49E
100
AcDbEntity
  8
SK2
370
    13
100
AcDbLine
 10
0.5
 20
-23.5
 30
0.0
 11
-33.25
 21
-23.5
 31
0.0
  0
LINE
  5
4A2
330
49E
100
AcDbEntity
  8
SK2
370
    13
100
AcDbLine
 10
0.5
 20
23.5
 30
0.0
 11
-33.25
 21
23.5
 31
0.0
  0
LINE
  5
4A3
330
49E
100
AcDbEntity
  8
SK2
370
    13
100
AcDbLine
 10
-31.25
 20
-23.5
 30
0.0
 11
-31.25
 21
23.5
 31
0.0
  0
SOLID
  5
4A4
330
49E
100
AcDbEntity
  8
SK2
370
    13
100
AcDbTrace
 10
-31.25
 20
-23.5
 30
0.0
 11
-31.867144
 21
-20.000002
 31
0.0
 12
-30.632856
 22
-19.999998
 32
0.0
 13
-31.25
 23
-23.5
 33
0.0
  0
SOLID
  5
4A5
330
49E
100
AcDbEntity
  8
SK2
370
    13
100
AcDbTrace
 10
-31.25
 20
23.5
 30
0.0
 11
-30.632856
 21
20.000002
 31
0.0
 12
-31.867144
 22
19.999998
 32
0.0
 13
-31.25
 23
23.5
 33
0.0
  0
ENDBLK
  5
4A7
330
49E
100
AcDbEntity
  8
0
100
AcDbBlockEnd
  0
BLOCK
  5
4B0
330
4A9
100
AcDbEntity
  8
0
100
AcDbBlockBegin
  2
DimnDraft3D5
 70
     0
 10
0.0
 20
0.0
 30
0.0
  3
DimnDraft3D5
  1
DimnDraft3D5
  0
MTEXT
  5
4AA
330
4A9
100
AcDbEntity
  8
2
370
    13
100
AcDbMText
 10
18.848214
 20
45.107143
 30
0.0
 40
3.0
 41
0.0
 71
     7
 72
     5
  1
\W0.6087;40
  7
cesky
 73
     2
 44
1.084337
  0
LINE
  5
4AB
330
4A9
100
AcDbEntity
  8
2
370
    13
100
AcDbLine
 10
0.0
 20
23.0
 30
0.0
 11
0.0
 21
46.75
 31
0.0
  0
LINE
  5
4AC
330
4A9
100
AcDbEntity
  8
2
370
    13
100
AcDbLine
 10
40.0
 20
32.75
 30
0.0
 11
40.0
 21
46.75
 31
0.0
  0
LINE
  5
4AD
330
4A9
100
AcDbEntity
  8
2
370
    13
100
AcDbLine
 10
0.0
 20
44.75
 30
0.0
 11
40.0
 21
44.75
 31
0.0
  0
SOLID
  5
4AE
330
4A9
100
AcDbEntity
  8
2
370
    13
100
AcDbTrace
 10
0.0
 20
44.75
 30
0.0
 11
3.499998
 21
45.367144
 31
0.0
 12
3.500002
 22
44.132856
 32
0.0
 13
0.0
 23
44.75
 33
0.0
  0
SOLID
  5
4AF
330
4A9
100
AcDbEntity
  8
2
370
    13
100
AcDbTrace
 10
40.0
 20
44.75
 30
0.0
 11
36.500002
 21
44.132856
 31
0.0
 12
36.499998
 22
45.367144
 32
0.0
 13
40.0
 23
44.75
 33
0.0
  0
ENDBLK
  5
4B1
330
4A9
100
AcDbEntity
  8
0
100
AcDbBlockEnd
  0
BLOCK
  5
4BA
330
4B3
100
AcDbEntity
  8
0
100
AcDbBlockBegin
  2
DimnDraft3D6
 70
     0
 10
0.0
 20
0.0
 30
0.0
  3
DimnDraft3D6
  1
DimnDraft3D6
  0
MTEXT
  5
4B4
330
4B3
100
AcDbEntity
  8
2
370
    13
100
AcDbMText
 10
50.0625
 20
37.107143
 30
0.0
 40
3.0
 41
0.0
 71
     7
 72
     5
  1
\W0.8640;1,7
  7
cesky
 73
     2
 44
1.084337
  0
LINE
  5
4B5
330
4B3
100
AcDbEntity
  8
2
370
    13
100
AcDbLine
 10
38.318956
 20
29.911506
 30
0.0
 11
38.318956
 21
38.75
 31
0.0
  0
LINE
  5
4B6
330
4B3
100
AcDbEntity
  8
2
370
    13
100
AcDbLine
 10
40.0
 20
32.75
 30
0.0
 11
40.0
 21
38.75
 31
0.0
  0
LINE
  5
4B7
330
4B3
100
AcDbEntity
  8
2
370
    13
100
AcDbLine
 10
55.092857
 20
36.75
 30
0.0
 11
30.818956
 21
36.75
 31
0.0
  0
SOLID
  5
4B8
330
4B3
100
AcDbEntity
  8
2
370
    13
100
AcDbTrace
 10
38.318956
 20
36.75
 30
0.0
 11
34.818958
 21
36.132856
 31
0.0
 12
34.818954
 22
37.367144
 32
0.0
 13
38.318956
 23
36.75
 33
0.0
  0
SOLID
  5
4B9
330
4B3
100
AcDbEntity
  8
2
370
    13
100
AcDbTrace
 10
40.0
 20
36.75
 30
0.0
 11
43.499998
 21
37.367144
 31
0.0
 12
43.500002
 22
36.132856
 32
0.0
 13
40.0
 23
36.75
 33
0.0
  0
ENDBLK
  5
4BB
330
4B3
100
AcDbEntity
  8
0
100
AcDbBlockEnd
  0
BLOCK
  5
4C4
330
4BD
100
AcDbEntity
  8
0
100
AcDbBlockBegin
  2
DimnDraft3D7
 70
     0
 10
0.0
 20
0.0
 30
0.0
  3
DimnDraft3D7
  1
DimnDraft3D7
  0
MTEXT
  5
4BE
330
4BD
100
AcDbEntity
  8
SK2
370
    13
100
AcDbMText
 10
-14.530357
 20
-41.642857
 30
0.0
 40
3.0
 41
0.0
 71
     7
 72
     5
  1
\W0.7946;4.9
  7
cesky
 73
     2
 44
1.084337
  0
LINE
  5
4BF
330
4BD
100
AcDbEntity
  8
SK2
370
    13
100
AcDbLine
 10
0.0
 20
-23.0
 30
0.0
 11
0.0
 21
-44.0
 31
0.0
  0
LINE
  5
4C0
330
4BD
100
AcDbEntity
  8
SK2
370
    13
100
AcDbLine
 10
4.9
 20
-3.802212
 30
0.0
 11
4.9
 21
-44.0
 31
0.0
  0
LINE
  5
4C1
330
4BD
100
AcDbEntity
  8
SK2
370
    13
100
AcDbLine
 10
12.4
 20
-42.0
 30
0.0
 11
-15.092857
 21
-42.0
 31
0.0
  0
SOLID
  5
4C2
330
4BD
100
AcDbEntity
  8
SK2
370
    13
100
AcDbTrace
 10
0.0
 20
-42.0
 30
0.0
 11
-3.499998
 21
-42.617144
 31
0.0
 12
-3.500002
 22
-41.382856
 32
0.0
 13
0.0
 23
-42.0
 33
0.0
  0
SOLID
  5
4C3
330
4BD
100
AcDbEntity
  8
SK2
370
    13
100
AcDbTrace
 10
4.9
 20
-42.0
 30
0.0
 11
8.399998
 21
-41.382856
 31
0.0
 12
8.400002
 22
-42.617144
 32
0.0
 13
4.9
 23
-42.0
 33
0.0
  0
ENDBLK
  5
4C5
330
4BD
100
AcDbEntity
  8
0
100
AcDbBlockEnd
  0
ENDSEC
  0
SECTION
  2
ENTITIES
  0
LINE
  5
72
330
1F
100
AcDbEntity
  8
1
370
    13
100
AcDbLine
 10
39.669897
 20
-17.001357
 30
0.0
 11
39.96584
 21
-15.963865
 31
0.0
  0
LINE
  5
74
330
1F
100
AcDbEntity
  8
CUT
370
    13
100
AcDbLine
 10
39.396647
 20
22.59325
 30
0.0
 11
38.817173
 21
22.010882
 31
0.0
  0
LINE
  5
76
330
1F
100
AcDbEntity
  8
CUT
370
    13
100
AcDbLine
 10
29.995419
 20
22.087465
 30
0.0
 11
29.235787
 21
24.496391
 31
0.0
  0
LINE
  5
77
330
1F
100
AcDbEntity
  8
CUT
370
    13
100
AcDbLine
 10
37.972414
 20
30.45825
 30
0.0
 11
38.384763
 21
29.80768
 31
0.0
  0
LINE
  5
78
330
1F
100
AcDbEntity
  8
CUT
370
    13
100
AcDbLine
 10
30.99188
 20
20.802091
 30
0.0
 11
30.391447
 21
21.420574
 31
0.0
  0
LINE
  5
79
330
1F
100
AcDbEntity
  8
CUT
370
    13
100
AcDbLine
 10
39.973024
 20
24.243481
 30
0.0
 11
39.815133
 21
23.401583
 31
0.0
  0
LINE
  5
7A
330
1F
100
AcDbEntity
  8
CUT
370
    13
100
AcDbLine
 10
28.946356
 20
29.264716
 30
0.0
 11
29.546687
 21
29.867942
 31
0.0
  0
LINE
  5
7B
330
1F
100
AcDbEntity
  8
CUT
370
    13
100
AcDbLine
 10
30.201685
 20
30.260603
 30
0.0
 11
32.588424
 21
30.972227
 31
0.0
  0
LINE
  5
7C
330
1F
100
AcDbEntity
  8
CUT
370
    13
100
AcDbLine
 10
38.384763
 20
29.80768
 30
0.0
 11
39.168346
 21
27.422705
 31
0.0
  0
LINE
  5
7D
330
1F
100
AcDbEntity
  8
CUT
370
    13
100
AcDbLine
 10
38.178497
 20
21.634543
 30
0.0
 11
35.815709
 21
20.946869
 31
0.0
  0
LINE
  5
7E
330
1F
100
AcDbEntity
  8
1
370
    13
100
AcDbLine
 10
33.31907
 20
17.230407
 30
0.0
 11
33.294876
 21
17.315223
 31
0.0
  0
LINE
  5
80
330
1F
100
AcDbEntity
  8
1
370
    13
100
AcDbLine
 10
35.120397
 20
17.488258
 30
0.0
 11
35.31079
 21
16.820793
 31
0.0
  0
LINE
  5
81
330
1F
100
AcDbEntity
  8
1
370
    13
100
AcDbLine
 10
32.922255
 20
15.848501
 30
0.0
 11
32.676821
 21
16.708921
 31
0.0
  0
LINE
  5
82
330
1F
100
AcDbEntity
  8
1
370
    13
100
AcDbLine
 10
27.911309
 20
17.936277
 30
0.0
 11
28.038402
 21
17.507548
 31
0.0
  0
LINE
  5
84
330
1F
100
AcDbEntity
  8
1
370
    13
100
AcDbLine
 10
26.595295
 20
19.654353
 30
0.0
 11
28.3041
 21
16.576052
 31
0.0
  0
LINE
  5
85
330
1F
100
AcDbEntity
  8
1
370
    13
100
AcDbLine
 10
26.595295
 20
-21.104421
 30
0.0
 11
28.158923
 21
-20.803354
 31
0.0
  0
LINE
  5
86
330
1F
100
AcDbEntity
  8
1
370
    13
100
AcDbLine
 10
28.171745
 20
-20.862789
 30
0.0
 11
26.493478
 21
-21.185928
 31
0.0
  0
LINE
  5
87
330
1F
100
AcDbEntity
  8
1
370
    13
100
AcDbLine
 10
31.728671
 20
-18.835587
 30
0.0
 11
31.715787
 21
-18.887036
 31
0.0
  0
LINE
  5
88
330
1F
100
AcDbEntity
  8
1
370
    13
100
AcDbLine
 10
39.706337
 20
16.873508
 30
0.0
 11
39.986276
 21
18.185948
 31
0.0
  0
LINE
  5
89
330
1F
100
AcDbEntity
  8
1
370
    13
100
AcDbLine
 10
28.095705
 20
26.344181
 30
0.0
 11
28.494169
 21
25.718796
 31
0.0
  0
LINE
  5
8A
330
1F
100
AcDbEntity
  8
1
370
    13
100
AcDbLine
 10
35.917736
 20
18.169867
 30
0.0
 11
35.603468
 21
18.424441
 31
0.0
  0
LINE
  5
8B
330
1F
100
AcDbEntity
  8
1
370
    13
100
AcDbLine
 10
31.750832
 20
17.325484
 30
0.0
 11
31.618164
 21
16.943421
 31
0.0
  0
LINE
  5
8C
330
1F
100
AcDbEntity
  8
1
370
    13
100
AcDbLine
 10
29.772845
 20
-23.173686
 30
0.0
 11
28.685524
 21
-26.394976
 31
0.0
  0
LINE
  5
8D
330
1F
100
AcDbEntity
  8
1
370
    13
100
AcDbLine
 10
30.009841
 20
-23.236567
 30
0.0
 11
28.685524
 21
-26.394976
 31
0.0
  0
LINE
  5
8E
330
1F
100
AcDbEntity
  8
1
370
    13
100
AcDbLine
 10
39.79488
 20
-0.000006
 30
0.0
 11
39.999766
 21
1.161962
 31
0.0
  0
LINE
  5
8F
330
1F
100
AcDbEntity
  8
1
370
    13
100
AcDbLine
 10
39.133096
 20
-3.753169
 30
0.0
 11
39.536273
 21
-1.466635
 31
0.0
  0
LINE
  5
90
330
1F
100
AcDbEntity
  8
1
370
    13
100
AcDbLine
 10
39.103921
 20
-22.300524
 30
0.0
 11
39.396647
 21
-22.59325
 31
0.0
  0
LINE
  5
91
330
1F
100
AcDbEntity
  8
NOCUT
370
    13
100
AcDbLine
 10
13.092945
 20
24.074973
 30
0.0
 11
21.646933
 21
28.575025
 31
0.0
  0
LINE
  5
93
330
1F
100
AcDbEntity
  8
NOCUT
370
    13
100
AcDbLine
 10
36.83412
 20
8.0
 30
0.0
 11
26.4
 21
8.0
 31
0.0
  0
LINE
  5
94
330
1F
100
AcDbEntity
  8
NOCUT
370
    13
100
AcDbLine
 10
10.765042
 20
-23.5
 30
0.0
 11
0.5
 21
-23.5
 31
0.0
  0
LINE
  5
95
330
1F
100
AcDbEntity
  8
1
370
    13
100
AcDbLine
 10
26.595295
 20
-29.093406
 30
0.0
 11
26.666247
 21
-28.995336
 31
0.0
  0
LINE
  5
96
330
1F
100
AcDbEntity
  8
81
370
    13
100
AcDbLine
 10
39.0
 20
31.75
 30
0.0
 11
41.0
 21
31.75
 31
0.0
  0
LINE
  5
97
330
1F
100
AcDbEntity
  8
NOCUT
370
    13
100
AcDbLine
 10
20.5
 20
6.0
 30
0.0
 11
20.5
 21
8.170382
 31
0.0
  0
LINE
  5
98
330
1F
100
AcDbEntity
  8
SK3
370
    13
100
AcDbLine
 10
19.0
 20
9.525
 30
0.0
 11
0.0
 21
9.525
 31
0.0
  0
LINE
  5
99
330
1F
100
AcDbEntity
  8
SK3
370
    13
100
AcDbLine
 10
0.0
 20
-9.525
 30
0.0
 11
19.0
 21
-9.525
 31
0.0
  0
LINE
  5
9A
330
1F
100
AcDbEntity
  8
81
370
    13
100
AcDbLine
 10
40.0
 20
30.75
 30
0.0
 11
40.0
 21
32.75
 31
0.0
  0
LINE
  5
9B
330
1F
100
AcDbEntity
  8
80
370
    13
100
AcDbLine
 10
0.0
 20
2.0
 30
0.0
 11
0.0
 21
-2.0
 31
0.0
  0
LINE
  5
9C
330
1F
100
AcDbEntity
  8
NOCUT
370
    13
100
AcDbLine
 10
18.594546
 20
-10.586801
 30
0.0
 11
20.406418
 21
-8.427497
 31
0.0
  0
LINE
  5
9D
330
1F
100
AcDbEntity
  8
NOCUT
370
    13
100
AcDbLine
 10
5.4
 20
-9.625
 30
0.0
 11
6.505858
 21
-9.52825
 31
0.0
  0
LINE
  5
9E
330
1F
100
AcDbEntity
  8
NOCUT
370
    13
100
AcDbLine
 10
6.505858
 20
9.52825
 30
0.0
 11
5.4
 21
9.625
 31
0.0
  0
LINE
  5
9F
330
1F
100
AcDbEntity
  8
NOCUT
370
    13
100
AcDbLine
 10
33.872011
 20
-30.464752
 30
0.0
 11
31.219339
 21
-29.62073
 31
0.0
  0
LINE
  5
A0
330
1F
100
AcDbEntity
  8
NOCUT
370
    13
100
AcDbLine
 10
0.0
 20
-23.0
 30
0.0
 11
0.0
 21
-10.624
 31
0.0
  0
LINE
  5
A1
330
1F
100
AcDbEntity
  8
NOCUT
370
    13
100
AcDbLine
 10
20.5
 20
6.0
 30
0.0
 11
21.0
 21
5.5
 31
0.0
  0
LINE
  5
A2
330
1F
100
AcDbEntity
  8
NOCUT
370
    13
100
AcDbLine
 10
25.5
 20
5.5
 30
0.0
 11
26.0
 21
6.0
 31
0.0
  0
LINE
  5
A3
330
1F
100
AcDbEntity
  8
NOCUT
370
    13
100
AcDbLine
 10
5.4
 20
9.625
 30
0.0
 11
1.0
 21
9.625
 31
0.0
  0
LINE
  5
A4
330
1F
100
AcDbEntity
  8
NOCUT
370
    13
100
AcDbLine
 10
16.1
 20
-9.52825
 30
0.0
 11
18.088128
 21
-10.676096
 31
0.0
  0
LINE
  5
A5
330
1F
100
AcDbEntity
  8
NOCUT
370
    13
100
AcDbLine
 10
0.001
 20
-10.624
 30
0.0
 11
1.0
 21
-9.625
 31
0.0
  0
LINE
  5
A6
330
1F
100
AcDbEntity
  8
NOCUT
370
    13
100
AcDbLine
 10
37.830314
 20
-8.912844
 30
0.0
 11
39.096315
 21
-23.383292
 31
0.0
  0
LINE
  5
A7
330
1F
100
AcDbEntity
  8
NOCUT
370
    13
100
AcDbLine
 10
31.219339
 20
29.62073
 30
0.0
 11
33.872011
 21
30.464752
 31
0.0
  0
LINE
  5
A8
330
1F
100
AcDbEntity
  8
NOCUT
370
    13
100
AcDbLine
 10
0.0
 20
-23.0
 30
0.0
 11
0.5
 21
-23.5
 31
0.0
  0
LINE
  5
A9
330
1F
100
AcDbEntity
  8
NOCUT
370
    13
100
AcDbLine
 10
0.5
 20
23.5
 30
0.0
 11
0.0
 21
23.0
 31
0.0
  0
LINE
  5
AA
330
1F
100
AcDbEntity
  8
NOCUT
370
    13
100
AcDbLine
 10
18.088128
 20
10.676096
 30
0.0
 11
16.1
 21
9.52825
 31
0.0
  0
LINE
  5
AB
330
1F
100
AcDbEntity
  8
NOCUT
370
    13
100
AcDbLine
 10
1.0
 20
-9.625
 30
0.0
 11
5.4
 21
-9.625
 31
0.0
  0
LINE
  5
AC
330
1F
100
AcDbEntity
  8
NOCUT
370
    13
100
AcDbLine
 10
39.096315
 20
23.383292
 30
0.0
 11
37.830314
 21
8.912844
 31
0.0
  0
LINE
  5
AD
330
1F
100
AcDbEntity
  8
NOCUT
370
    13
100
AcDbLine
 10
28.187334
 20
-29.149998
 30
0.0
 11
23.974836
 21
-29.149998
 31
0.0
  0
LINE
  5
AE
330
1F
100
AcDbEntity
  8
NOCUT
370
    13
100
AcDbLine
 10
0.5
 20
23.5
 30
0.0
 11
10.765042
 21
23.5
 31
0.0
  0
LINE
  5
AF
330
1F
100
AcDbEntity
  8
NOCUT
370
    13
100
AcDbLine
 10
20.5
 20
-8.170382
 30
0.0
 11
20.5
 21
-6.0
 31
0.0
  0
LINE
  5
B0
330
1F
100
AcDbEntity
  8
NOCUT
370
    13
100
AcDbLine
 10
6.505858
 20
-9.52825
 30
0.0
 11
16.1
 21
-9.52825
 31
0.0
  0
LINE
  5
B1
330
1F
100
AcDbEntity
  8
NOCUT
370
    13
100
AcDbLine
 10
37.643265
 20
28.506496
 30
0.0
 11
39.011694
 21
24.157953
 31
0.0
  0
LINE
  5
B2
330
1F
100
AcDbEntity
  8
NOCUT
370
    13
100
AcDbLine
 10
26.0
 20
-6.0
 30
0.0
 11
26.0
 21
-7.6
 31
0.0
  0
LINE
  5
B3
330
1F
100
AcDbEntity
  8
NOCUT
370
    13
100
AcDbLine
 10
26.0
 20
7.6
 30
0.0
 11
26.0
 21
6.0
 31
0.0
  0
LINE
  5
B4
330
1F
100
AcDbEntity
  8
NOCUT
370
    13
100
AcDbLine
 10
20.406418
 20
8.427497
 30
0.0
 11
18.594546
 21
10.586801
 31
0.0
  0
LINE
  5
B5
330
1F
100
AcDbEntity
  8
NOCUT
370
    13
100
AcDbLine
 10
26.4
 20
-8.0
 30
0.0
 11
36.83412
 21
-8.0
 31
0.0
  0
LINE
  5
B6
330
1F
100
AcDbEntity
  8
NOCUT
370
    13
100
AcDbLine
 10
23.974836
 20
29.149998
 30
0.0
 11
28.187334
 21
29.149998
 31
0.0
  0
LINE
  5
B7
330
1F
100
AcDbEntity
  8
NOCUT
370
    13
100
AcDbLine
 10
0.0
 20
10.624
 30
0.0
 11
0.0
 21
23.0
 31
0.0
  0
LINE
  5
B8
330
1F
100
AcDbEntity
  8
NOCUT
370
    13
100
AcDbLine
 10
21.0
 20
-5.5
 30
0.0
 11
20.5
 21
-6.0
 31
0.0
  0
LINE
  5
B9
330
1F
100
AcDbEntity
  8
NOCUT
370
    13
100
AcDbLine
 10
21.646933
 20
-28.575025
 30
0.0
 11
13.092945
 21
-24.074973
 31
0.0
  0
LINE
  5
BA
330
1F
100
AcDbEntity
  8
NOCUT
370
    13
100
AcDbLine
 10
25.5
 20
5.5
 30
0.0
 11
21.0
 21
5.5
 31
0.0
  0
LINE
  5
BB
330
1F
100
AcDbEntity
  8
NOCUT
370
    13
100
AcDbLine
 10
21.0
 20
-5.5
 30
0.0
 11
25.5
 21
-5.5
 31
0.0
  0
LINE
  5
BC
330
1F
100
AcDbEntity
  8
NOCUT
370
    13
100
AcDbLine
 10
16.1
 20
9.52825
 30
0.0
 11
6.505858
 21
9.52825
 31
0.0
  0
LINE
  5
BD
330
1F
100
AcDbEntity
  8
NOCUT
370
    13
100
AcDbLine
 10
1.0
 20
9.625
 30
0.0
 11
0.001
 21
10.624
 31
0.0
  0
LINE
  5
BE
330
1F
100
AcDbEntity
  8
NOCUT
370
    13
100
AcDbLine
 10
39.011694
 20
-24.157953
 30
0.0
 11
37.643265
 21
-28.506496
 31
0.0
  0
LINE
  5
BF
330
1F
100
AcDbEntity
  8
NOCUT
370
    13
100
AcDbLine
 10
26.0
 20
-6.0
 30
0.0
 11
25.5
 21
-5.5
 31
0.0
  0
LINE
  5
C0
330
1F
100
AcDbEntity
  8
80
370
    13
100
AcDbLine
 10
-2.0
 20
0.0
 30
0.0
 11
2.0
 21
0.0
 31
0.0
  0
LINE
  5
C1
330
1F
100
AcDbEntity
  8
SK3
370
    13
100
AcDbLine
 10
19.0
 20
-9.525
 30
0.0
 11
19.0
 21
9.525
 31
0.0
  0
LINE
  5
C2
330
1F
100
AcDbEntity
  8
1
370
    13
100
AcDbLine
 10
34.834329
 20
-1.190035
 30
0.0
 11
34.911767
 21
-1.629209
 31
0.0
  0
LINE
  5
C3
330
1F
100
AcDbEntity
  8
1
370
    13
100
AcDbLine
 10
35.278441
 20
-1.14909
 30
0.0
 11
35.29687
 21
-1.253606
 31
0.0
  0
LINE
  5
C4
330
1F
100
AcDbEntity
  8
1
370
    13
100
AcDbLine
 10
33.661144
 20
10.373356
 30
0.0
 11
33.606968
 21
10.410086
 31
0.0
  0
LINE
  5
C5
330
1F
100
AcDbEntity
  8
1
370
    13
100
AcDbLine
 10
30.50346
 20
9.862853
 30
0.0
 11
30.309093
 21
9.59399
 31
0.0
  0
LINE
  5
C6
330
1F
100
AcDbEntity
  8
1
370
    13
100
AcDbLine
 10
9.999975
 20
23.5
 30
0.0
 11
0.5
 21
23.5
 31
0.0
  0
LINE
  5
C7
330
1F
100
AcDbEntity
  8
1
370
    13
100
AcDbLine
 10
32.936175
 20
-1.85398
 30
0.0
 11
32.898864
 21
-1.642379
 31
0.0
  0
LINE
  5
C8
330
1F
100
AcDbEntity
  8
1
370
    13
100
AcDbLine
 10
0.5
 20
-23.5
 30
0.0
 11
0.5
 21
-6.976746
 31
0.0
  0
LINE
  5
C9
330
1F
100
AcDbEntity
  8
1
370
    13
100
AcDbLine
 10
0.5
 20
23.5
 30
0.0
 11
0.5
 21
6.976746
 31
0.0
  0
LINE
  5
CA
330
1F
100
AcDbEntity
  8
1
370
    13
100
AcDbLine
 10
39.103925
 20
18.985544
 30
0.0
 11
39.103925
 21
23.081889
 31
0.0
  0
LINE
  5
CB
330
1F
100
AcDbEntity
  8
1
370
    13
100
AcDbLine
 10
39.103925
 20
-23.117522
 30
0.0
 11
39.103925
 21
-20.668466
 31
0.0
  0
LINE
  5
CC
330
1F
100
AcDbEntity
  8
1
370
    13
100
AcDbLine
 10
27.714691
 20
28.893835
 30
0.0
 11
27.759809
 21
28.75264
 31
0.0
  0
LINE
  5
CD
330
1F
100
AcDbEntity
  8
1
370
    13
100
AcDbLine
 10
34.662041
 20
16.322096
 30
0.0
 11
34.913975
 21
15.438888
 31
0.0
  0
LINE
  5
CE
330
1F
100
AcDbEntity
  8
1
370
    13
100
AcDbLine
 10
29.546687
 20
-29.867942
 30
0.0
 11
28.687037
 21
-29.008292
 31
0.0
  0
LINE
  5
CF
330
1F
100
AcDbEntity
  8
1
370
    13
100
AcDbLine
 10
32.930404
 20
-26.856992
 30
0.0
 11
33.793188
 21
-24.300913
 31
0.0
  0
LINE
  5
D0
330
1F
100
AcDbEntity
  8
1
370
    13
100
AcDbLine
 10
28.685524
 20
-26.394976
 30
0.0
 11
32.930404
 21
-26.856992
 31
0.0
  0
LINE
  5
D1
330
1F
100
AcDbEntity
  8
1
370
    13
100
AcDbLine
 10
39.96584
 20
15.963865
 30
0.0
 11
39.092892
 21
19.024174
 31
0.0
  0
LINE
  5
D2
330
1F
100
AcDbEntity
  8
1
370
    13
100
AcDbLine
 10
27.53837
 20
19.260519
 30
0.0
 11
28.411318
 21
16.200209
 31
0.0
  0
LINE
  5
D3
330
1F
100
AcDbEntity
  8
1
370
    13
100
AcDbLine
 10
4.1
 20
-5.0975
 30
0.0
 11
1.0
 21
-5.0975
 31
0.0
  0
LINE
  5
D4
330
1F
100
AcDbEntity
  8
1
370
    13
100
AcDbLine
 10
30.840285
 20
-9.904225
 30
0.0
 11
30.602925
 21
-10.113622
 31
0.0
  0
LINE
  5
D5
330
1F
100
AcDbEntity
  8
1
370
    13
100
AcDbLine
 10
27.759809
 20
21.558155
 30
0.0
 11
27.714691
 21
21.666035
 31
0.0
  0
LINE
  5
D6
330
1F
100
AcDbEntity
  8
1
370
    13
100
AcDbLine
 10
39.985325
 20
-18.46145
 30
0.0
 11
39.124004
 21
-14.4742
 31
0.0
  0
LINE
  5
D7
330
1F
100
AcDbEntity
  8
1
370
    13
100
AcDbLine
 10
28.434478
 20
16.091257
 30
0.0
 11
26.493478
 21
19.58784
 31
0.0
  0
LINE
  5
D8
330
1F
100
AcDbEntity
  8
1
370
    13
100
AcDbLine
 10
0.5
 20
23.5
 30
0.0
 11
0.0
 21
23.0
 31
0.0
  0
LINE
  5
D9
330
1F
100
AcDbEntity
  8
1
370
    13
100
AcDbLine
 10
28.326498
 20
26.700547
 30
0.0
 11
28.449058
 21
26.474726
 31
0.0
  0
LINE
  5
DA
330
1F
100
AcDbEntity
  8
1
370
    13
100
AcDbLine
 10
0.0
 20
-23.0
 30
0.0
 11
0.5
 21
-23.5
 31
0.0
  0
LINE
  5
DB
330
1F
100
AcDbEntity
  8
1
370
    13
100
AcDbLine
 10
26.595295
 20
29.093406
 30
0.0
 11
28.326498
 21
26.700547
 31
0.0
  0
LINE
  5
DC
330
1F
100
AcDbEntity
  8
1
370
    13
100
AcDbLine
 10
0.0
 20
-5.0975
 30
0.0
 11
0.0
 21
-6.900396
 31
0.0
  0
LINE
  5
DD
330
1F
100
AcDbEntity
  8
1
370
    13
100
AcDbLine
 10
0.0
 20
-5.0975
 30
0.0
 11
1.0
 21
-4.0975
 31
0.0
  0
LINE
  5
DE
330
1F
100
AcDbEntity
  8
1
370
    13
100
AcDbLine
 10
4.1
 20
-4.0975
 30
0.0
 11
1.0
 21
-4.0975
 31
0.0
  0
LINE
  5
DF
330
1F
100
AcDbEntity
  8
1
370
    13
100
AcDbLine
 10
0.0
 20
5.0975
 30
0.0
 11
1.0
 21
4.0975
 31
0.0
  0
LINE
  5
E0
330
1F
100
AcDbEntity
  8
1
370
    13
100
AcDbLine
 10
4.1
 20
4.0975
 30
0.0
 11
1.0
 21
4.0975
 31
0.0
  0
LINE
  5
E1
330
1F
100
AcDbEntity
  8
1
370
    13
100
AcDbLine
 10
0.0
 20
6.900396
 30
0.0
 11
0.0
 21
5.0975
 31
0.0
  0
LINE
  5
E2
330
1F
100
AcDbEntity
  8
1
370
    13
100
AcDbLine
 10
39.999766
 20
-1.161962
 30
0.0
 11
39.133096
 21
3.753169
 31
0.0
  0
LINE
  5
E3
330
1F
100
AcDbEntity
  8
1
370
    13
100
AcDbLine
 10
27.504445
 20
2.187801
 30
0.0
 11
28.371115
 21
-2.727331
 31
0.0
  0
LINE
  5
E4
330
1F
100
AcDbEntity
  8
1
370
    13
100
AcDbLine
 10
31.578791
 20
15.935058
 30
0.0
 11
31.622315
 21
15.782474
 31
0.0
  0
LINE
  5
E5
330
1F
100
AcDbEntity
  8
1
370
    13
100
AcDbLine
 10
36.52669
 20
17.181439
 30
0.0
 11
36.483166
 21
17.334023
 31
0.0
  0
LINE
  5
E6
330
1F
100
AcDbEntity
  8
1
370
    13
100
AcDbLine
 10
4.1
 20
5.0975
 30
0.0
 11
1.0
 21
5.0975
 31
0.0
  0
LINE
  5
E7
330
1F
100
AcDbEntity
  8
1
370
    13
100
AcDbLine
 10
28.434478
 20
26.42488
 30
0.0
 11
26.493478
 21
29.107717
 31
0.0
  0
LINE
  5
E8
330
1F
100
AcDbEntity
  8
1
370
    13
100
AcDbLine
 10
32.27138
 20
27.635107
 30
0.0
 11
32.227856
 21
27.591582
 31
0.0
  0
LINE
  5
E9
330
1F
100
AcDbEntity
  8
1
370
    13
100
AcDbLine
 10
29.546687
 20
29.867942
 30
0.0
 11
28.687037
 21
29.008292
 31
0.0
  0
LINE
  5
EA
330
1F
100
AcDbEntity
  8
1
370
    13
100
AcDbLine
 10
28.107564
 20
28.425924
 30
0.0
 11
28.946356
 21
29.264716
 31
0.0
  0
LINE
  5
EB
330
1F
100
AcDbEntity
  8
1
370
    13
100
AcDbLine
 10
28.279167
 20
-2.205927
 30
0.0
 11
26.493478
 21
-0.104505
 31
0.0
  0
LINE
  5
EC
330
1F
100
AcDbEntity
  8
1
370
    13
100
AcDbLine
 10
33.430629
 20
10.202228
 30
0.0
 11
33.862007
 21
10.522477
 31
0.0
  0
LINE
  5
ED
330
1F
100
AcDbEntity
  8
1
370
    13
100
AcDbLine
 10
32.323013
 20
-12.222193
 30
0.0
 11
33.586639
 21
-9.159243
 31
0.0
  0
LINE
  5
EE
330
1F
100
AcDbEntity
  8
1
370
    13
100
AcDbLine
 10
13.092945
 20
-24.074973
 30
0.0
 11
19.320016
 21
-27.350889
 31
0.0
  0
LINE
  5
EF
330
1F
100
AcDbEntity
  8
1
370
    13
100
AcDbLine
 10
19.320257
 20
27.351015
 30
0.0
 11
13.092945
 21
24.074973
 31
0.0
  0
LINE
  5
F0
330
1F
100
AcDbEntity
  8
1
370
    13
100
AcDbLine
 10
29.727448
 20
-8.483002
 30
0.0
 11
28.136112
 21
-12.340301
 31
0.0
  0
LINE
  5
F1
330
1F
100
AcDbEntity
  8
1
370
    13
100
AcDbLine
 10
35.348105
 20
26.633493
 30
0.0
 11
35.292044
 21
26.577432
 31
0.0
  0
LINE
  5
F2
330
1F
100
AcDbEntity
  8
1
370
    13
100
AcDbLine
 10
34.57711
 20
26.95786
 30
0.0
 11
34.775725
 21
27.156475
 31
0.0
  0
LINE
  5
F3
330
1F
100
AcDbEntity
  8
1
370
    13
100
AcDbLine
 10
26.595295
 20
-0.001177
 30
0.0
 11
28.229523
 21
-1.924358
 31
0.0
  0
LINE
  5
F4
330
1F
100
AcDbEntity
  8
1
370
    13
100
AcDbLine
 10
0.943763
 20
4.153763
 30
0.0
 11
0.6
 21
3.81
 31
0.0
  0
LINE
  5
F5
330
1F
100
AcDbEntity
  8
1
370
    13
100
AcDbLine
 10
0.6
 20
-3.81
 30
0.0
 11
0.943763
 21
-4.153763
 31
0.0
  0
LINE
  5
F6
330
1F
100
AcDbEntity
  8
1
370
    13
100
AcDbLine
 10
28.681804
 20
25.746364
 30
0.0
 11
28.449058
 21
26.474726
 31
0.0
  0
LINE
  5
F7
330
1F
100
AcDbEntity
  8
1
370
    13
100
AcDbLine
 10
27.760674
 20
-18.959706
 30
0.0
 11
28.380206
 21
-21.82766
 31
0.0
  0
LINE
  5
F8
330
1F
100
AcDbEntity
  8
1
370
    13
100
AcDbLine
 10
0.5
 20
-23.5
 30
0.0
 11
9.999975
 21
-23.5
 31
0.0
  0
LINE
  5
F9
330
1F
100
AcDbEntity
  8
1
370
    13
100
AcDbLine
 10
1.5525
 20
4.097617
 30
0.0
 11
1.5525
 21
-4.097379
 31
0.0
  0
LINE
  5
FA
330
1F
100
AcDbEntity
  8
1
370
    13
100
AcDbLine
 10
39.103925
 20
12.128059
 30
0.0
 11
39.103925
 21
13.311623
 31
0.0
  0
LINE
  5
FB
330
1F
100
AcDbEntity
  8
1
370
    13
100
AcDbLine
 10
39.103925
 20
-4.720449
 30
0.0
 11
39.103925
 21
-4.532844
 31
0.0
  0
LINE
  5
FC
330
1F
100
AcDbEntity
  8
1
370
    13
100
AcDbLine
 10
1.0
 20
-4.0975
 30
0.0
 11
1.0
 21
-5.0975
 31
0.0
  0
LINE
  5
FD
330
1F
100
AcDbEntity
  8
1
370
    13
100
AcDbLine
 10
1.0
 20
4.0975
 30
0.0
 11
1.0
 21
5.0975
 31
0.0
  0
LINE
  5
FE
330
1F
100
AcDbEntity
  8
1
370
    13
100
AcDbLine
 10
39.103925
 20
-13.649253
 30
0.0
 11
39.103925
 21
-4.720333
 31
0.0
  0
LINE
  5
FF
330
1F
100
AcDbEntity
  8
1
370
    13
100
AcDbLine
 10
39.103925
 20
4.53307
 30
0.0
 11
39.103925
 21
12.115206
 31
0.0
  0
LINE
  5
100
330
1F
100
AcDbEntity
  8
1
370
    13
100
AcDbLine
 10
4.9
 20
3.802212
 30
0.0
 11
4.9
 21
-3.802212
 31
0.0
  0
LINE
  5
101
330
1F
100
AcDbEntity
  8
1
370
    13
100
AcDbLine
 10
0.0
 20
6.900396
 30
0.0
 11
0.0
 21
23.0
 31
0.0
  0
LINE
  5
102
330
1F
100
AcDbEntity
  8
1
370
    13
100
AcDbLine
 10
0.0
 20
-23.0
 30
0.0
 11
0.0
 21
-6.900396
 31
0.0
  0
LINE
  5
103
330
1F
100
AcDbEntity
  8
1
370
    13
100
AcDbLine
 10
0.6
 20
3.81
 30
0.0
 11
0.6
 21
-3.81
 31
0.0
  0
LINE
  5
104
330
1F
100
AcDbEntity
  8
CUT
370
    13
100
AcDbLine
 10
35.70393
 20
31.681978
 30
0.0
 11
36.529798
 21
31.498937
 31
0.0
  0
LINE
  5
105
330
1F
100
AcDbEntity
  8
CUT
370
    13
100
AcDbLine
 10
28.390837
 20
27.635342
 30
0.0
 11
28.52787
 21
28.456384
 31
0.0
  0
LINE
  5
106
330
1F
100
AcDbEntity
  8
CUT
370
    13
100
AcDbLine
 10
29.235787
 20
24.496391
 30
0.0
 11
28.452204
 21
26.881367
 31
0.0
  0
LINE
  5
107
330
1F
100
AcDbEntity
  8
1
370
    13
100
AcDbLine
 10
38.9998
 20
-3.871411
 30
0.0
 11
39.052007
 21
-3.843952
 31
0.0
  0
LINE
  5
108
330
1F
100
AcDbEntity
  8
1
370
    13
100
AcDbLine
 10
37.416356
 20
-0.551962
 30
0.0
 11
37.974507
 21
-0.765837
 31
0.0
  0
LINE
  5
109
330
1F
100
AcDbEntity
  8
CUT
370
    13
100
AcDbLine
 10
39.927979
 20
25.013778
 30
0.0
 11
39.973024
 21
24.243481
 31
0.0
  0
LINE
  5
10A
330
1F
100
AcDbEntity
  8
CUT
370
    13
100
AcDbLine
 10
33.428969
 20
20.235245
 30
0.0
 11
32.659931
 21
20.196846
 31
0.0
  0
LINE
  5
10B
330
1F
100
AcDbEntity
  8
CUT
370
    13
100
AcDbLine
 10
28.452204
 20
26.881367
 30
0.0
 11
28.390837
 21
27.635342
 31
0.0
  0
LINE
  5
10C
330
1F
100
AcDbEntity
  8
CUT
370
    13
100
AcDbLine
 10
34.951213
 20
31.6599
 30
0.0
 11
35.70393
 21
31.681978
 31
0.0
  0
LINE
  5
10D
330
1F
100
AcDbEntity
  8
CUT
370
    13
100
AcDbLine
 10
39.168346
 20
27.422705
 30
0.0
 11
39.927979
 21
25.013778
 31
0.0
  0
LINE
  5
10E
330
1F
100
AcDbEntity
  8
CUT
370
    13
100
AcDbLine
 10
35.815709
 20
20.946869
 30
0.0
 11
33.428969
 21
20.235245
 31
0.0
  0
LINE
  5
10F
330
1F
100
AcDbEntity
  8
CUT
370
    13
100
AcDbLine
 10
32.588424
 20
30.972227
 30
0.0
 11
34.951213
 21
31.6599
 31
0.0
  0
LINE
  5
110
330
1F
100
AcDbEntity
  8
CUT
370
    13
100
AcDbLine
 10
32.659931
 20
20.196846
 30
0.0
 11
31.813205
 21
20.359029
 31
0.0
  0
LINE
  5
111
330
1F
100
AcDbEntity
  8
CUT
370
    13
100
AcDbLine
 10
37.351123
 20
31.055875
 30
0.0
 11
37.972414
 21
30.45825
 31
0.0
  0
LINE
  5
112
330
1F
100
AcDbEntity
  8
CUT
370
    13
100
AcDbLine
 10
38.817173
 20
22.010882
 30
0.0
 11
38.178497
 21
21.634543
 31
0.0
  0
LINE
  5
113
330
1F
100
AcDbEntity
  8
CUT
370
    13
100
AcDbLine
 10
30.391447
 20
21.420574
 30
0.0
 11
29.995419
 21
22.087465
 31
0.0
  0
LINE
  5
114
330
1F
100
AcDbEntity
  8
CUT
370
    13
100
AcDbLine
 10
29.546687
 20
29.867942
 30
0.0
 11
30.201685
 21
30.260603
 31
0.0
  0
LINE
  5
115
330
1F
100
AcDbEntity
  8
1
370
    13
100
AcDbLine
 10
37.292022
 20
-0.508831
 30
0.0
 11
37.351229
 21
-0.527789
 31
0.0
  0
LINE
  5
116
330
1F
100
AcDbEntity
  8
1
370
    13
100
AcDbLine
 10
37.351229
 20
-0.527789
 30
0.0
 11
37.416356
 21
-0.551962
 31
0.0
  0
LINE
  5
117
330
1F
100
AcDbEntity
  8
1
370
    13
100
AcDbLine
 10
39.085701
 20
-23.218902
 30
0.0
 11
39.113373
 21
-23.383831
 31
0.0
  0
LINE
  5
118
330
1F
100
AcDbEntity
  8
1
370
    13
100
AcDbLine
 10
39.396647
 20
-22.59325
 30
0.0
 11
39.103973
 21
-22.299113
 31
0.0
  0
LINE
  5
119
330
1F
100
AcDbEntity
  8
1
370
    13
100
AcDbLine
 10
28.821153
 20
-28.997387
 30
0.0
 11
29.356159
 21
-29.290052
 31
0.0
  0
LINE
  5
11A
330
1F
100
AcDbEntity
  8
1
370
    13
100
AcDbLine
 10
39.542674
 20
1.464142
 30
0.0
 11
39.815133
 21
1.316119
 31
0.0
  0
LINE
  5
11B
330
1F
100
AcDbEntity
  8
1
370
    13
100
AcDbLine
 10
39.011694
 20
-23.719327
 30
0.0
 11
39.103807
 21
-23.093937
 31
0.0
  0
LINE
  5
11C
330
1F
100
AcDbEntity
  8
1
370
    13
100
AcDbLine
 10
38.230071
 20
-23.406853
 30
0.0
 11
38.751714
 21
-21.326471
 31
0.0
  0
LINE
  5
11D
330
1F
100
AcDbEntity
  8
1
370
    13
100
AcDbLine
 10
27.531187
 20
19.732411
 30
0.0
 11
27.538319
 21
19.260693
 31
0.0
  0
LINE
  5
11E
330
1F
100
AcDbEntity
  8
1
370
    13
100
AcDbLine
 10
39.103644
 20
23.049067
 30
0.0
 11
39.011694
 21
23.564273
 31
0.0
  0
LINE
  5
11F
330
1F
100
AcDbEntity
  8
1
370
    13
100
AcDbLine
 10
39.011694
 20
19.403191
 30
0.0
 11
39.103611
 21
18.938287
 31
0.0
  0
LINE
  5
120
330
1F
100
AcDbEntity
  8
1
370
    13
100
AcDbLine
 10
38.99992
 20
-3.481938
 30
0.0
 11
39.113373
 21
-3.672666
 31
0.0
  0
LINE
  5
121
330
1F
100
AcDbEntity
  8
1
370
    13
100
AcDbLine
 10
39.011694
 20
19.403191
 30
0.0
 11
38.605967
 21
20.210705
 31
0.0
  0
LINE
  5
122
330
1F
100
AcDbEntity
  8
1
370
    13
100
AcDbLine
 10
39.168346
 20
20.193757
 30
0.0
 11
39.103968
 21
20.319086
 31
0.0
  0
LINE
  5
123
330
1F
100
AcDbEntity
  8
1
370
    13
100
AcDbLine
 10
39.325774
 20
14.181563
 30
0.0
 11
39.000345
 21
13.84856
 31
0.0
  0
LINE
  5
124
330
1F
100
AcDbEntity
  8
1
370
    13
100
AcDbLine
 10
39.092879
 20
19.024222
 30
0.0
 11
39.052007
 21
19.141324
 31
0.0
  0
LINE
  5
125
330
1F
100
AcDbEntity
  8
1
370
    13
100
AcDbLine
 10
28.331572
 20
21.752571
 30
0.0
 11
28.605503
 21
21.603001
 31
0.0
  0
LINE
  5
126
330
1F
100
AcDbEntity
  8
1
370
    13
100
AcDbLine
 10
27.759809
 20
21.558155
 30
0.0
 11
28.079806
 21
21.059606
 31
0.0
  0
LINE
  5
127
330
1F
100
AcDbEntity
  8
1
370
    13
100
AcDbLine
 10
29.01723
 20
-2.198692
 30
0.0
 11
28.758276
 21
-2.292762
 31
0.0
  0
LINE
  5
128
330
1F
100
AcDbEntity
  8
1
370
    13
100
AcDbLine
 10
27.71469
 20
-18.955581
 30
0.0
 11
27.631711
 21
-18.934468
 31
0.0
  0
LINE
  5
129
330
1F
100
AcDbEntity
  8
1
370
    13
100
AcDbLine
 10
39.032038
 20
3.854052
 30
0.0
 11
39.086708
 21
4.46476
 31
0.0
  0
LINE
  5
12A
330
1F
100
AcDbEntity
  8
1
370
    13
100
AcDbLine
 10
27.759809
 20
28.75264
 30
0.0
 11
27.990609
 21
28.281614
 31
0.0
  0
LINE
  5
12B
330
1F
100
AcDbEntity
  8
1
370
    13
100
AcDbLine
 10
27.71469
 20
28.893835
 30
0.0
 11
26.717572
 21
28.915856
 31
0.0
  0
LINE
  5
12C
330
1F
100
AcDbEntity
  8
1
370
    13
100
AcDbLine
 10
26.660492
 20
28.994033
 30
0.0
 11
27.721947
 21
28.992629
 31
0.0
  0
LINE
  5
12D
330
1F
100
AcDbEntity
  8
1
370
    13
100
AcDbLine
 10
28.331572
 20
28.903978
 30
0.0
 11
28.474108
 21
28.79294
 31
0.0
  0
LINE
  5
12E
330
1F
100
AcDbEntity
  8
1
370
    13
100
AcDbLine
 10
37.418678
 20
-0.55218
 30
0.0
 11
37.346203
 21
-0.525931
 31
0.0
  0
LINE
  5
12F
330
1F
100
AcDbEntity
  8
1
370
    13
100
AcDbLine
 10
37.346203
 20
-0.525931
 30
0.0
 11
37.271792
 21
-0.503049
 31
0.0
  0
LINE
  5
130
330
1F
100
AcDbEntity
  8
1
370
    13
100
AcDbLine
 10
39.965891
 20
-15.963691
 30
0.0
 11
39.973024
 21
-15.49197
 31
0.0
  0
LINE
  5
131
330
1F
100
AcDbEntity
  8
1
370
    13
100
AcDbLine
 10
28.371112
 20
-2.727318
 30
0.0
 11
28.390837
 21
-2.646828
 31
0.0
  0
LINE
  5
132
330
1F
100
AcDbEntity
  8
1
370
    13
100
AcDbLine
 10
39.396647
 20
-14.133944
 30
0.0
 11
39.076661
 21
-13.806485
 31
0.0
  0
LINE
  5
133
330
1F
100
AcDbEntity
  8
1
370
    13
100
AcDbLine
 10
39.132952
 20
3.753287
 30
0.0
 11
39.052007
 21
3.843952
 31
0.0
  0
LINE
  5
134
330
1F
100
AcDbEntity
  8
1
370
    13
100
AcDbLine
 10
39.396647
 20
14.133944
 30
0.0
 11
39.000042
 21
13.728523
 31
0.0
  0
LINE
  5
135
330
1F
100
AcDbEntity
  8
1
370
    13
100
AcDbLine
 10
28.605857
 20
28.985953
 30
0.0
 11
28.665519
 21
28.986574
 31
0.0
  0
LINE
  5
136
330
1F
100
AcDbEntity
  8
1
370
    13
100
AcDbLine
 10
31.297538
 20
-18.836702
 30
0.0
 11
32.138817
 21
-18.884091
 31
0.0
  0
LINE
  5
137
330
1F
100
AcDbEntity
  8
1
370
    13
100
AcDbLine
 10
28.757911
 20
-19.045392
 30
0.0
 11
28.363248
 21
-18.882181
 31
0.0
  0
LINE
  5
138
330
1F
100
AcDbEntity
  8
1
370
    13
100
AcDbLine
 10
28.687037
 20
-19.096605
 30
0.0
 11
28.21399
 21
-18.901486
 31
0.0
  0
LINE
  5
139
330
1F
100
AcDbEntity
  8
1
370
    13
100
AcDbLine
 10
39.123984
 20
-14.474096
 30
0.0
 11
39.052007
 21
-14.862944
 31
0.0
  0
LINE
  5
13A
330
1F
100
AcDbEntity
  8
1
370
    13
100
AcDbLine
 10
39.927979
 20
-18.918017
 30
0.0
 11
39.985313
 21
-18.461381
 31
0.0
  0
LINE
  5
13B
330
1F
100
AcDbEntity
  8
1
370
    13
100
AcDbLine
 10
38.943624
 20
-14.226023
 30
0.0
 11
39.016345
 21
-14.457808
 31
0.0
  0
LINE
  5
13C
330
1F
100
AcDbEntity
  8
1
370
    13
100
AcDbLine
 10
39.001449
 20
-14.077562
 30
0.0
 11
39.113373
 21
-14.433935
 31
0.0
  0
LINE
  5
13D
330
1F
100
AcDbEntity
  8
1
370
    13
100
AcDbLine
 10
39.396647
 20
-1.532441
 30
0.0
 11
39.000042
 21
-1.717093
 31
0.0
  0
LINE
  5
13E
330
1F
100
AcDbEntity
  8
1
370
    13
100
AcDbLine
 10
28.452204
 20
26.881367
 30
0.0
 11
28.822239
 21
25.767159
 31
0.0
  0
LINE
  5
13F
330
1F
100
AcDbEntity
  8
1
370
    13
100
AcDbLine
 10
28.545907
 20
26.908974
 30
0.0
 11
28.919386
 21
25.784296
 31
0.0
  0
LINE
  5
140
330
1F
100
AcDbEntity
  8
1
370
    13
100
AcDbLine
 10
39.325774
 20
22.663797
 30
0.0
 11
39.104248
 21
22.441164
 31
0.0
  0
LINE
  5
141
330
1F
100
AcDbEntity
  8
1
370
    13
100
AcDbLine
 10
39.396647
 20
22.59325
 30
0.0
 11
39.103973
 21
22.299113
 31
0.0
  0
LINE
  5
142
330
1F
100
AcDbEntity
  8
1
370
    13
100
AcDbLine
 10
39.588215
 20
17.294996
 30
0.0
 11
39.815133
 21
17.61367
 31
0.0
  0
LINE
  5
143
330
1F
100
AcDbEntity
  8
1
370
    13
100
AcDbLine
 10
39.562675
 20
17.387496
 30
0.0
 11
39.718104
 21
17.63747
 31
0.0
  0
LINE
  5
144
330
1F
100
AcDbEntity
  8
1
370
    13
100
AcDbLine
 10
27.759809
 20
2.893284
 30
0.0
 11
28.29934
 21
2.651596
 31
0.0
  0
LINE
  5
145
330
1F
100
AcDbEntity
  8
1
370
    13
100
AcDbLine
 10
28.331572
 20
3.018303
 30
0.0
 11
29.00442
 21
2.95171
 31
0.0
  0
LINE
  5
146
330
1F
100
AcDbEntity
  8
1
370
    13
100
AcDbLine
 10
19.319955
 20
-27.350856
 30
0.0
 11
21.646933
 21
-28.571446
 31
0.0
  0
LINE
  5
147
330
1F
100
AcDbEntity
  8
1
370
    13
100
AcDbLine
 10
39.011694
 20
4.582598
 30
0.0
 11
39.099859
 21
4.5681
 31
0.0
  0
LINE
  5
148
330
1F
100
AcDbEntity
  8
1
370
    13
100
AcDbLine
 10
39.325774
 20
-1.532498
 30
0.0
 11
39.000345
 21
-1.684474
 31
0.0
  0
LINE
  5
149
330
1F
100
AcDbEntity
  8
1
370
    13
100
AcDbLine
 10
39.103876
 20
12.102861
 30
0.0
 11
39.011694
 21
11.995444
 31
0.0
  0
LINE
  5
14A
330
1F
100
AcDbEntity
  8
1
370
    13
100
AcDbLine
 10
39.011694
 20
-14.05094
 30
0.0
 11
39.103873
 21
-13.632616
 31
0.0
  0
LINE
  5
14B
330
1F
100
AcDbEntity
  8
1
370
    13
100
AcDbLine
 10
38.230071
 20
11.565923
 30
0.0
 11
38.894282
 21
12.077201
 31
0.0
  0
LINE
  5
14C
330
1F
100
AcDbEntity
  8
1
370
    13
100
AcDbLine
 10
4.263063
 20
-5.031301
 30
0.0
 11
4.1
 21
-5.0975
 31
0.0
  0
LINE
  5
14D
330
1F
100
AcDbEntity
  8
1
370
    13
100
AcDbLine
 10
4.835683
 20
4.196979
 30
0.0
 11
4.9
 21
3.802212
 31
0.0
  0
LINE
  5
14E
330
1F
100
AcDbEntity
  8
1
370
    13
100
AcDbLine
 10
39.005578
 20
12.727309
 30
0.0
 11
39.096315
 21
13.213567
 31
0.0
  0
LINE
  5
14F
330
1F
100
AcDbEntity
  8
1
370
    13
100
AcDbLine
 10
39.096315
 20
-4.572078
 30
0.0
 11
39.011694
 21
-5.322756
 31
0.0
  0
LINE
  5
150
330
1F
100
AcDbEntity
  8
1
370
    13
100
AcDbLine
 10
39.096315
 20
-4.572078
 30
0.0
 11
38.974672
 21
-4.511367
 31
0.0
  0
LINE
  5
151
330
1F
100
AcDbEntity
  8
1
370
    13
100
AcDbLine
 10
39.005578
 20
4.179973
 30
0.0
 11
39.096315
 21
4.498493
 31
0.0
  0
LINE
  5
152
330
1F
100
AcDbEntity
  8
1
370
    13
100
AcDbLine
 10
38.347482
 20
-7.495929
 30
0.0
 11
38.230071
 21
-7.424948
 31
0.0
  0
LINE
  5
153
330
1F
100
AcDbEntity
  8
1
370
    13
100
AcDbLine
 10
38.230071
 20
-7.424948
 30
0.0
 11
38.894282
 21
-5.253727
 31
0.0
  0
LINE
  5
154
330
1F
100
AcDbEntity
  8
1
370
    13
100
AcDbLine
 10
33.664259
 20
-8.176653
 30
0.0
 11
33.635371
 21
-8.108873
 31
0.0
  0
LINE
  5
155
330
1F
100
AcDbEntity
  8
1
370
    13
100
AcDbLine
 10
33.635371
 20
-8.108873
 30
0.0
 11
33.596615
 21
-8.027693
 31
0.0
  0
LINE
  5
156
330
1F
100
AcDbEntity
  8
1
370
    13
100
AcDbLine
 10
38.894282
 20
-5.253727
 30
0.0
 11
38.974672
 21
-4.511367
 31
0.0
  0
LINE
  5
157
330
1F
100
AcDbEntity
  8
1
370
    13
100
AcDbLine
 10
38.188893
 20
-7.51842
 30
0.0
 11
38.230071
 21
-7.424948
 31
0.0
  0
LINE
  5
158
330
1F
100
AcDbEntity
  8
1
370
    13
100
AcDbLine
 10
37.806267
 20
11.205041
 30
0.0
 11
38.189748
 21
11.551579
 31
0.0
  0
LINE
  5
159
330
1F
100
AcDbEntity
  8
1
370
    13
100
AcDbLine
 10
38.309677
 20
11.47189
 30
0.0
 11
38.189748
 21
11.551579
 31
0.0
  0
LINE
  5
15A
330
1F
100
AcDbEntity
  8
1
370
    13
100
AcDbLine
 10
29.703375
 20
-5.661959
 30
0.0
 11
29.848175
 21
-6.567505
 31
0.0
  0
LINE
  5
15B
330
1F
100
AcDbEntity
  8
1
370
    13
100
AcDbLine
 10
38.347482
 20
11.482383
 30
0.0
 11
38.230071
 21
11.565923
 31
0.0
  0
LINE
  5
15C
330
1F
100
AcDbEntity
  8
1
370
    13
100
AcDbLine
 10
28.046895
 20
-18.905193
 30
0.0
 11
28.187334
 21
-18.887048
 31
0.0
  0
LINE
  5
15D
330
1F
100
AcDbEntity
  8
1
370
    13
100
AcDbLine
 10
27.721929
 20
-18.948363
 30
0.0
 11
28.046896
 21
-18.905193
 31
0.0
  0
LINE
  5
15E
330
1F
100
AcDbEntity
  8
1
370
    13
100
AcDbLine
 10
27.00934
 20
-18.888463
 30
0.0
 11
27.721947
 21
-18.948327
 31
0.0
  0
LINE
  5
15F
330
1F
100
AcDbEntity
  8
1
370
    13
100
AcDbLine
 10
23.974836
 20
-20.839827
 30
0.0
 11
26.508201
 21
-21.161362
 31
0.0
  0
LINE
  5
160
330
1F
100
AcDbEntity
  8
1
370
    13
100
AcDbLine
 10
21.646933
 20
-20.41369
 30
0.0
 11
23.974836
 21
-20.839827
 31
0.0
  0
LINE
  5
161
330
1F
100
AcDbEntity
  8
1
370
    13
100
AcDbLine
 10
22.617744
 20
-12.994674
 30
0.0
 11
21.646933
 21
-12.575484
 31
0.0
  0
LINE
  5
162
330
1F
100
AcDbEntity
  8
1
370
    13
100
AcDbLine
 10
28.136112
 20
-12.340301
 30
0.0
 11
28.119197
 21
-12.450597
 31
0.0
  0
LINE
  5
163
330
1F
100
AcDbEntity
  8
1
370
    13
100
AcDbLine
 10
29.449081
 20
-4.110277
 30
0.0
 11
29.2283
 21
-4.012642
 31
0.0
  0
LINE
  5
164
330
1F
100
AcDbEntity
  8
1
370
    13
100
AcDbLine
 10
26.297238
 20
-12.838377
 30
0.0
 11
23.974836
 21
-13.148261
 31
0.0
  0
LINE
  5
165
330
1F
100
AcDbEntity
  8
1
370
    13
100
AcDbLine
 10
14.114299
 20
13.534226
 30
0.0
 11
14.000869
 21
13.51284
 31
0.0
  0
LINE
  5
166
330
1F
100
AcDbEntity
  8
1
370
    13
100
AcDbLine
 10
39.011694
 20
4.582598
 30
0.0
 11
38.427449
 21
4.397846
 31
0.0
  0
LINE
  5
167
330
1F
100
AcDbEntity
  8
1
370
    13
100
AcDbLine
 10
37.914243
 20
11.114119
 30
0.0
 11
37.643265
 21
8.678629
 31
0.0
  0
LINE
  5
168
330
1F
100
AcDbEntity
  8
1
370
    13
100
AcDbLine
 10
38.309677
 20
11.471883
 30
0.0
 11
37.914325
 21
11.113668
 31
0.0
  0
LINE
  5
169
330
1F
100
AcDbEntity
  8
1
370
    13
100
AcDbLine
 10
33.535694
 20
-12.305603
 30
0.0
 11
33.648394
 21
-12.191836
 31
0.0
  0
LINE
  5
16A
330
1F
100
AcDbEntity
  8
1
370
    13
100
AcDbLine
 10
31.219339
 20
-18.807398
 30
0.0
 11
33.872011
 21
-18.954242
 31
0.0
  0
LINE
  5
16B
330
1F
100
AcDbEntity
  8
1
370
    13
100
AcDbLine
 10
32.402185
 20
-13.199547
 30
0.0
 11
31.219339
 21
-13.15927
 31
0.0
  0
LINE
  5
16C
330
1F
100
AcDbEntity
  8
1
370
    13
100
AcDbLine
 10
33.535694
 20
-12.305603
 30
0.0
 11
32.323013
 21
-12.222193
 31
0.0
  0
LINE
  5
16D
330
1F
100
AcDbEntity
  8
1
370
    13
100
AcDbLine
 10
37.643265
 20
-17.161718
 30
0.0
 11
37.253473
 21
-17.716063
 31
0.0
  0
LINE
  5
16E
330
1F
100
AcDbEntity
  8
1
370
    13
100
AcDbLine
 10
35.952728
 20
-18.62012
 30
0.0
 11
35.794182
 21
-18.684816
 31
0.0
  0
LINE
  5
16F
330
1F
100
AcDbEntity
  8
1
370
    13
100
AcDbLine
 10
34.296459
 20
-18.967412
 30
0.0
 11
33.872011
 21
-18.954242
 31
0.0
  0
LINE
  5
170
330
1F
100
AcDbEntity
  8
1
370
    13
100
AcDbLine
 10
37.913918
 20
11.113827
 30
0.0
 11
37.806267
 21
11.205041
 31
0.0
  0
LINE
  5
171
330
1F
100
AcDbEntity
  8
1
370
    13
100
AcDbLine
 10
37.733666
 20
11.186124
 30
0.0
 11
37.806267
 21
11.205041
 31
0.0
  0
LINE
  5
172
330
1F
100
AcDbEntity
  8
1
370
    13
100
AcDbLine
 10
28.213589
 20
-13.347807
 30
0.0
 11
28.187334
 21
-13.113959
 31
0.0
  0
LINE
  5
173
330
1F
100
AcDbEntity
  8
1
370
    13
100
AcDbLine
 10
29.201007
 20
-18.771416
 30
0.0
 11
31.219339
 21
-18.807398
 31
0.0
  0
LINE
  5
174
330
1F
100
AcDbEntity
  8
1
370
    13
100
AcDbLine
 10
28.605857
 20
-18.843702
 30
0.0
 11
29.201007
 21
-18.771416
 31
0.0
  0
LINE
  5
175
330
1F
100
AcDbEntity
  8
1
370
    13
100
AcDbLine
 10
28.187334
 20
-18.887048
 30
0.0
 11
28.604475
 21
-18.843633
 31
0.0
  0
LINE
  5
176
330
1F
100
AcDbEntity
  8
1
370
    13
100
AcDbLine
 10
39.011694
 20
-14.05094
 30
0.0
 11
38.427449
 21
-15.571403
 31
0.0
  0
LINE
  5
177
330
1F
100
AcDbEntity
  8
1
370
    13
100
AcDbLine
 10
37.643265
 20
-17.161718
 30
0.0
 11
38.427452
 21
-15.572723
 31
0.0
  0
LINE
  5
178
330
1F
100
AcDbEntity
  8
1
370
    13
100
AcDbLine
 10
37.914243
 20
-8.906973
 30
0.0
 11
37.643265
 21
-11.945947
 31
0.0
  0
LINE
  5
179
330
1F
100
AcDbEntity
  8
1
370
    13
100
AcDbLine
 10
38.309677
 20
-7.597289
 30
0.0
 11
37.914325
 21
-8.907249
 31
0.0
  0
LINE
  5
17A
330
1F
100
AcDbEntity
  8
1
370
    13
100
AcDbLine
 10
38.347482
 20
-7.495929
 30
0.0
 11
38.326905
 21
-7.555574
 31
0.0
  0
LINE
  5
17B
330
1F
100
AcDbEntity
  8
1
370
    13
100
AcDbLine
 10
37.733666
 20
-8.839249
 30
0.0
 11
37.806267
 21
-8.81218
 31
0.0
  0
LINE
  5
17C
330
1F
100
AcDbEntity
  8
1
370
    13
100
AcDbLine
 10
37.913918
 20
-8.90733
 30
0.0
 11
37.806267
 21
-8.81218
 31
0.0
  0
LINE
  5
17D
330
1F
100
AcDbEntity
  8
1
370
    13
100
AcDbLine
 10
37.806267
 20
-8.81218
 30
0.0
 11
38.189748
 21
-7.542408
 31
0.0
  0
LINE
  5
17E
330
1F
100
AcDbEntity
  8
1
370
    13
100
AcDbLine
 10
38.309677
 20
-7.597273
 30
0.0
 11
38.189748
 21
-7.542408
 31
0.0
  0
LINE
  5
17F
330
1F
100
AcDbEntity
  8
1
370
    13
100
AcDbLine
 10
30.430012
 20
-7.597082
 30
0.0
 11
30.363119
 21
-7.521386
 31
0.0
  0
LINE
  5
180
330
1F
100
AcDbEntity
  8
1
370
    13
100
AcDbLine
 10
26.276673
 20
-12.734759
 30
0.0
 11
28.136112
 21
-12.340301
 31
0.0
  0
LINE
  5
181
330
1F
100
AcDbEntity
  8
1
370
    13
100
AcDbLine
 10
28.119197
 20
-12.450597
 30
0.0
 11
26.297238
 21
-12.838377
 31
0.0
  0
LINE
  5
182
330
1F
100
AcDbEntity
  8
1
370
    13
100
AcDbLine
 10
13.710499
 20
24.256121
 30
0.0
 11
13.905652
 21
24.444861
 31
0.0
  0
LINE
  5
183
330
1F
100
AcDbEntity
  8
1
370
    13
100
AcDbLine
 10
15.20911
 20
24.415406
 30
0.0
 11
14.000869
 21
24.243037
 31
0.0
  0
LINE
  5
184
330
1F
100
AcDbEntity
  8
1
370
    13
100
AcDbLine
 10
14.248536
 20
15.764599
 30
0.0
 11
14.900204
 21
16.251644
 31
0.0
  0
LINE
  5
185
330
1F
100
AcDbEntity
  8
1
370
    13
100
AcDbLine
 10
15.20911
 20
11.929907
 30
0.0
 11
14.000869
 21
13.51284
 31
0.0
  0
LINE
  5
186
330
1F
100
AcDbEntity
  8
1
370
    13
100
AcDbLine
 10
23.969163
 20
7.953274
 30
0.0
 11
26.276673
 21
8.283327
 31
0.0
  0
LINE
  5
187
330
1F
100
AcDbEntity
  8
1
370
    13
100
AcDbLine
 10
14.114299
 20
-3.83769
 30
0.0
 11
14.000869
 21
-3.886622
 31
0.0
  0
LINE
  5
188
330
1F
100
AcDbEntity
  8
1
370
    13
100
AcDbLine
 10
23.969163
 20
-13.0442
 30
0.0
 11
26.276673
 21
-12.734759
 31
0.0
  0
LINE
  5
189
330
1F
100
AcDbEntity
  8
1
370
    13
100
AcDbLine
 10
22.923135
 20
-12.963954
 30
0.0
 11
23.969163
 21
-13.0442
 31
0.0
  0
LINE
  5
18A
330
1F
100
AcDbEntity
  8
1
370
    13
100
AcDbLine
 10
28.166769
 20
8.709322
 30
0.0
 11
31.229094
 21
9.308502
 31
0.0
  0
LINE
  5
18B
330
1F
100
AcDbEntity
  8
1
370
    13
100
AcDbLine
 10
26.276673
 20
8.283327
 30
0.0
 11
28.166769
 21
8.709322
 31
0.0
  0
LINE
  5
18C
330
1F
100
AcDbEntity
  8
1
370
    13
100
AcDbLine
 10
34.433945
 20
-8.070026
 30
0.0
 11
34.821005
 21
-7.868418
 31
0.0
  0
LINE
  5
18D
330
1F
100
AcDbEntity
  8
1
370
    13
100
AcDbLine
 10
36.520839
 20
-7.647294
 30
0.0
 11
36.797753
 21
-7.731765
 31
0.0
  0
LINE
  5
18E
330
1F
100
AcDbEntity
  8
1
370
    13
100
AcDbLine
 10
37.491861
 20
-11.926106
 30
0.0
 11
37.733833
 21
-8.839287
 31
0.0
  0
LINE
  5
18F
330
1F
100
AcDbEntity
  8
1
370
    13
100
AcDbLine
 10
37.335924
 20
-12.878223
 30
0.0
 11
37.491861
 21
-11.926106
 31
0.0
  0
LINE
  5
190
330
1F
100
AcDbEntity
  8
1
370
    13
100
AcDbLine
 10
37.491861
 20
-11.926106
 30
0.0
 11
37.643265
 21
-11.945947
 31
0.0
  0
LINE
  5
191
330
1F
100
AcDbEntity
  8
1
370
    13
100
AcDbLine
 10
34.250586
 20
-14.048579
 30
0.0
 11
33.872011
 21
-13.292707
 31
0.0
  0
LINE
  5
192
330
1F
100
AcDbEntity
  8
1
370
    13
100
AcDbLine
 10
33.872017
 20
-13.292706
 30
0.0
 11
33.993038
 21
-13.225216
 31
0.0
  0
LINE
  5
193
330
1F
100
AcDbEntity
  8
1
370
    13
100
AcDbLine
 10
14.932039
 20
-0.952272
 30
0.0
 11
14.900204
 21
-0.875051
 31
0.0
  0
LINE
  5
194
330
1F
100
AcDbEntity
  8
1
370
    13
100
AcDbLine
 10
14.509992
 20
-1.018496
 30
0.0
 11
14.900204
 21
-0.875051
 31
0.0
  0
LINE
  5
195
330
1F
100
AcDbEntity
  8
1
370
    13
100
AcDbLine
 10
14.509992
 20
-18.690039
 30
0.0
 11
14.900204
 21
-18.744267
 31
0.0
  0
LINE
  5
196
330
1F
100
AcDbEntity
  8
1
370
    13
100
AcDbLine
 10
15.20911
 20
-21.972303
 30
0.0
 11
14.000869
 21
-20.260651
 31
0.0
  0
LINE
  5
197
330
1F
100
AcDbEntity
  8
1
370
    13
100
AcDbLine
 10
31.229094
 20
9.308502
 30
0.0
 11
33.579161
 21
9.693563
 31
0.0
  0
LINE
  5
198
330
1F
100
AcDbEntity
  8
1
370
    13
100
AcDbLine
 10
28.203472
 20
2.997466
 30
0.0
 11
28.064005
 21
2.973673
 31
0.0
  0
LINE
  5
199
330
1F
100
AcDbEntity
  8
1
370
    13
100
AcDbLine
 10
28.064005
 20
2.973674
 30
0.0
 11
27.742255
 21
2.917975
 31
0.0
  0
LINE
  5
19A
330
1F
100
AcDbEntity
  8
1
370
    13
100
AcDbLine
 10
28.046895
 20
3.081273
 30
0.0
 11
28.064005
 21
2.973673
 31
0.0
  0
LINE
  5
19B
330
1F
100
AcDbEntity
  8
1
370
    13
100
AcDbLine
 10
37.643265
 20
4.697419
 30
0.0
 11
38.427452
 21
4.396215
 31
0.0
  0
LINE
  5
19C
330
1F
100
AcDbEntity
  8
1
370
    13
100
AcDbLine
 10
28.331572
 20
3.018303
 30
0.0
 11
28.203472
 21
2.997466
 31
0.0
  0
LINE
  5
19D
330
1F
100
AcDbEntity
  8
1
370
    13
100
AcDbLine
 10
23.974836
 20
0.439356
 30
0.0
 11
26.508201
 21
-0.024273
 31
0.0
  0
LINE
  5
19E
330
1F
100
AcDbEntity
  8
1
370
    13
100
AcDbLine
 10
26.508201
 20
-0.024273
 30
0.0
 11
26.493478
 21
-0.104505
 31
0.0
  0
LINE
  5
19F
330
1F
100
AcDbEntity
  8
1
370
    13
100
AcDbLine
 10
26.399701
 20
0.756519
 30
0.0
 11
26.595295
 21
-0.001177
 31
0.0
  0
LINE
  5
1A0
330
1F
100
AcDbEntity
  8
1
370
    13
100
AcDbLine
 10
26.595295
 20
-0.001177
 30
0.0
 11
26.508201
 21
-0.024273
 31
0.0
  0
LINE
  5
1A1
330
1F
100
AcDbEntity
  8
1
370
    13
100
AcDbLine
 10
26.595295
 20
-0.001177
 30
0.0
 11
26.493478
 21
-0.104505
 31
0.0
  0
LINE
  5
1A2
330
1F
100
AcDbEntity
  8
1
370
    13
100
AcDbLine
 10
28.046895
 20
3.081273
 30
0.0
 11
28.187334
 21
3.104968
 31
0.0
  0
LINE
  5
1A3
330
1F
100
AcDbEntity
  8
1
370
    13
100
AcDbLine
 10
27.721929
 20
3.024823
 30
0.0
 11
28.046896
 21
3.081273
 31
0.0
  0
LINE
  5
1A4
330
1F
100
AcDbEntity
  8
1
370
    13
100
AcDbLine
 10
26.297238
 20
8.215133
 30
0.0
 11
23.974836
 21
7.882414
 31
0.0
  0
LINE
  5
1A5
330
1F
100
AcDbEntity
  8
1
370
    13
100
AcDbLine
 10
28.187334
 20
8.642595
 30
0.0
 11
26.297238
 21
8.215133
 31
0.0
  0
LINE
  5
1A6
330
1F
100
AcDbEntity
  8
1
370
    13
100
AcDbLine
 10
28.605857
 20
3.169828
 30
0.0
 11
29.201007
 21
3.304344
 31
0.0
  0
LINE
  5
1A7
330
1F
100
AcDbEntity
  8
1
370
    13
100
AcDbLine
 10
28.187334
 20
3.104968
 30
0.0
 11
28.604475
 21
3.169862
 31
0.0
  0
LINE
  5
1A8
330
1F
100
AcDbEntity
  8
1
370
    13
100
AcDbLine
 10
33.550606
 20
9.624312
 30
0.0
 11
33.579161
 21
9.693563
 31
0.0
  0
LINE
  5
1A9
330
1F
100
AcDbEntity
  8
1
370
    13
100
AcDbLine
 10
33.579161
 20
9.693563
 30
0.0
 11
33.648394
 21
9.721298
 31
0.0
  0
LINE
  5
1AA
330
1F
100
AcDbEntity
  8
1
370
    13
100
AcDbLine
 10
26.493478
 20
-0.104505
 30
0.0
 11
23.960113
 21
0.357533
 31
0.0
  0
LINE
  5
1AB
330
1F
100
AcDbEntity
  8
1
370
    13
100
AcDbLine
 10
21.678768
 20
0.370528
 30
0.0
 11
14.932039
 21
-0.952272
 31
0.0
  0
LINE
  5
1AC
330
1F
100
AcDbEntity
  8
1
370
    13
100
AcDbLine
 10
34.250586
 20
7.976438
 30
0.0
 11
33.872011
 21
8.718711
 31
0.0
  0
LINE
  5
1AD
330
1F
100
AcDbEntity
  8
1
370
    13
100
AcDbLine
 10
33.872017
 20
8.718714
 30
0.0
 11
33.993038
 21
8.73297
 31
0.0
  0
LINE
  5
1AE
330
1F
100
AcDbEntity
  8
1
370
    13
100
AcDbLine
 10
37.357887
 20
8.113786
 30
0.0
 11
37.491861
 21
8.730594
 31
0.0
  0
LINE
  5
1AF
330
1F
100
AcDbEntity
  8
1
370
    13
100
AcDbLine
 10
37.643265
 20
8.678629
 30
0.0
 11
37.491861
 21
8.730594
 31
0.0
  0
LINE
  5
1B0
330
1F
100
AcDbEntity
  8
1
370
    13
100
AcDbLine
 10
34.433945
 20
10.764013
 30
0.0
 11
34.821005
 21
10.811786
 31
0.0
  0
LINE
  5
1B1
330
1F
100
AcDbEntity
  8
1
370
    13
100
AcDbLine
 10
36.520839
 20
11.187815
 30
0.0
 11
36.797753
 21
11.261042
 31
0.0
  0
LINE
  5
1B2
330
1F
100
AcDbEntity
  8
1
370
    13
100
AcDbLine
 10
37.491861
 20
8.730594
 30
0.0
 11
37.733833
 21
11.185976
 31
0.0
  0
LINE
  5
1B3
330
1F
100
AcDbEntity
  8
1
370
    13
100
AcDbLine
 10
37.643265
 20
4.697419
 30
0.0
 11
37.253473
 21
4.738782
 31
0.0
  0
LINE
  5
1B4
330
1F
100
AcDbEntity
  8
1
370
    13
100
AcDbLine
 10
37.253473
 20
4.738782
 30
0.0
 11
35.952728
 21
4.584229
 31
0.0
  0
LINE
  5
1B5
330
1F
100
AcDbEntity
  8
1
370
    13
100
AcDbLine
 10
35.952728
 20
4.584229
 30
0.0
 11
35.794182
 21
4.560166
 31
0.0
  0
LINE
  5
1B6
330
1F
100
AcDbEntity
  8
1
370
    13
100
AcDbLine
 10
34.296459
 20
4.33071
 30
0.0
 11
33.872011
 21
4.253172
 31
0.0
  0
LINE
  5
1B7
330
1F
100
AcDbEntity
  8
1
370
    13
100
AcDbLine
 10
29.201007
 20
3.304344
 30
0.0
 11
31.219339
 21
3.653181
 31
0.0
  0
LINE
  5
1B8
330
1F
100
AcDbEntity
  8
1
370
    13
100
AcDbLine
 10
31.219339
 20
3.653181
 30
0.0
 11
33.872011
 21
4.253172
 31
0.0
  0
LINE
  5
1B9
330
1F
100
AcDbEntity
  8
1
370
    13
100
AcDbLine
 10
33.550597
 20
9.62431
 30
0.0
 11
31.219339
 21
9.241858
 31
0.0
  0
LINE
  5
1BA
330
1F
100
AcDbEntity
  8
1
370
    13
100
AcDbLine
 10
26.399701
 20
0.756519
 30
0.0
 11
26.309293
 21
0.749256
 31
0.0
  0
LINE
  5
1BB
330
1F
100
AcDbEntity
  8
1
370
    13
100
AcDbLine
 10
27.742255
 20
2.917975
 30
0.0
 11
27.72202
 21
3.024841
 31
0.0
  0
LINE
  5
1BC
330
1F
100
AcDbEntity
  8
1
370
    13
100
AcDbLine
 10
37.351123
 20
31.055875
 30
0.0
 11
37.972414
 21
30.45825
 31
0.0
  0
LINE
  5
1BD
330
1F
100
AcDbEntity
  8
1
370
    13
100
AcDbLine
 10
37.972414
 20
30.45825
 30
0.0
 11
38.384763
 21
29.80768
 31
0.0
  0
LINE
  5
1BE
330
1F
100
AcDbEntity
  8
1
370
    13
100
AcDbLine
 10
35.70393
 20
31.681978
 30
0.0
 11
36.529798
 21
31.498937
 31
0.0
  0
LINE
  5
1BF
330
1F
100
AcDbEntity
  8
1
370
    13
100
AcDbLine
 10
37.282682
 20
30.987098
 30
0.0
 11
37.903973
 21
30.389473
 31
0.0
  0
LINE
  5
1C0
330
1F
100
AcDbEntity
  8
1
370
    13
100
AcDbLine
 10
34.951213
 20
31.6599
 30
0.0
 11
35.70393
 21
31.681978
 31
0.0
  0
LINE
  5
1C1
330
1F
100
AcDbEntity
  8
1
370
    13
100
AcDbLine
 10
38.29106
 20
29.780074
 30
0.0
 11
37.903973
 21
30.389473
 31
0.0
  0
LINE
  5
1C2
330
1F
100
AcDbEntity
  8
1
370
    13
100
AcDbLine
 10
39.168346
 20
27.422705
 30
0.0
 11
38.384763
 21
29.80768
 31
0.0
  0
LINE
  5
1C3
330
1F
100
AcDbEntity
  8
1
370
    13
100
AcDbLine
 10
35.686821
 20
31.585509
 30
0.0
 11
36.512689
 21
31.402468
 31
0.0
  0
LINE
  5
1C4
330
1F
100
AcDbEntity
  8
1
370
    13
100
AcDbLine
 10
35.686821
 20
31.585509
 30
0.0
 11
34.981659
 21
31.565321
 31
0.0
  0
LINE
  5
1C5
330
1F
100
AcDbEntity
  8
1
370
    13
100
AcDbLine
 10
39.834275
 20
24.986172
 30
0.0
 11
39.074643
 21
27.395098
 31
0.0
  0
LINE
  5
1C6
330
1F
100
AcDbEntity
  8
1
370
    13
100
AcDbLine
 10
39.875995
 20
18.158425
 30
0.0
 11
39.718104
 21
17.63747
 31
0.0
  0
LINE
  5
1C7
330
1F
100
AcDbEntity
  8
1
370
    13
100
AcDbLine
 10
39.074643
 20
27.395098
 30
0.0
 11
38.29106
 21
29.780074
 31
0.0
  0
LINE
  5
1C8
330
1F
100
AcDbEntity
  8
1
370
    13
100
AcDbLine
 10
39.927979
 20
25.013778
 30
0.0
 11
39.168346
 21
27.422705
 31
0.0
  0
LINE
  5
1C9
330
1F
100
AcDbEntity
  8
1
370
    13
100
AcDbLine
 10
39.927979
 20
25.013778
 30
0.0
 11
39.973024
 21
24.243481
 31
0.0
  0
LINE
  5
1CA
330
1F
100
AcDbEntity
  8
1
370
    13
100
AcDbLine
 10
39.973024
 20
24.243481
 30
0.0
 11
39.815133
 21
23.401583
 31
0.0
  0
LINE
  5
1CB
330
1F
100
AcDbEntity
  8
1
370
    13
100
AcDbLine
 10
34.951213
 20
31.6599
 30
0.0
 11
32.588424
 21
30.972227
 31
0.0
  0
LINE
  5
1CC
330
1F
100
AcDbEntity
  8
1
370
    13
100
AcDbLine
 10
39.875995
 20
24.263508
 30
0.0
 11
39.834275
 21
24.986172
 31
0.0
  0
LINE
  5
1CD
330
1F
100
AcDbEntity
  8
1
370
    13
100
AcDbLine
 10
39.973024
 20
18.134624
 30
0.0
 11
39.815133
 21
17.61367
 31
0.0
  0
LINE
  5
1CE
330
1F
100
AcDbEntity
  8
1
370
    13
100
AcDbLine
 10
39.875995
 20
18.158425
 30
0.0
 11
39.834275
 21
18.624164
 31
0.0
  0
LINE
  5
1CF
330
1F
100
AcDbEntity
  8
1
370
    13
100
AcDbLine
 10
39.875995
 20
24.263508
 30
0.0
 11
39.718104
 21
23.421609
 31
0.0
  0
LINE
  5
1D0
330
1F
100
AcDbEntity
  8
1
370
    13
100
AcDbLine
 10
34.981659
 20
31.565321
 30
0.0
 11
32.61887
 21
30.877648
 31
0.0
  0
LINE
  5
1D1
330
1F
100
AcDbEntity
  8
1
370
    13
100
AcDbLine
 10
32.588424
 20
30.972227
 30
0.0
 11
30.201685
 21
30.260603
 31
0.0
  0
LINE
  5
1D2
330
1F
100
AcDbEntity
  8
1
370
    13
100
AcDbLine
 10
29.546687
 20
29.867942
 30
0.0
 11
30.201685
 21
30.260603
 31
0.0
  0
LINE
  5
1D3
330
1F
100
AcDbEntity
  8
1
370
    13
100
AcDbLine
 10
32.61887
 20
30.877648
 30
0.0
 11
30.232131
 21
30.166024
 31
0.0
  0
LINE
  5
1D4
330
1F
100
AcDbEntity
  8
1
370
    13
100
AcDbLine
 10
30.232131
 20
30.166024
 30
0.0
 11
29.617561
 21
29.797394
 31
0.0
  0
LINE
  5
1D5
330
1F
100
AcDbEntity
  8
1
370
    13
100
AcDbLine
 10
28.687037
 20
29.008292
 30
0.0
 11
28.107564
 21
28.425924
 31
0.0
  0
LINE
  5
1D6
330
1F
100
AcDbEntity
  8
1
370
    13
100
AcDbLine
 10
28.946356
 20
29.264716
 30
0.0
 11
29.546687
 21
29.867942
 31
0.0
  0
LINE
  5
1D7
330
1F
100
AcDbEntity
  8
1
370
    13
100
AcDbLine
 10
29.01723
 20
29.194169
 30
0.0
 11
29.617561
 21
29.797394
 31
0.0
  0
LINE
  5
1D8
330
1F
100
AcDbEntity
  8
1
370
    13
100
AcDbLine
 10
28.390837
 20
27.635342
 30
0.0
 11
28.52787
 21
28.456384
 31
0.0
  0
LINE
  5
1D9
330
1F
100
AcDbEntity
  8
1
370
    13
100
AcDbLine
 10
28.487866
 20
27.615316
 30
0.0
 11
28.624899
 21
28.436357
 31
0.0
  0
LINE
  5
1DA
330
1F
100
AcDbEntity
  8
1
370
    13
100
AcDbLine
 10
28.487866
 20
27.615316
 30
0.0
 11
28.545907
 21
26.908974
 31
0.0
  0
LINE
  5
1DB
330
1F
100
AcDbEntity
  8
1
370
    13
100
AcDbLine
 10
28.452204
 20
26.881367
 30
0.0
 11
28.390837
 21
27.635342
 31
0.0
  0
LINE
  5
1DC
330
1F
100
AcDbEntity
  8
1
370
    13
100
AcDbLine
 10
35.691006
 20
-19.287456
 30
0.0
 11
34.84428
 21
-19.444942
 31
0.0
  0
LINE
  5
1DD
330
1F
100
AcDbEntity
  8
1
370
    13
100
AcDbLine
 10
26.399701
 20
-29.084154
 30
0.0
 11
26.595295
 21
-29.093406
 31
0.0
  0
LINE
  5
1DE
330
1F
100
AcDbEntity
  8
1
370
    13
100
AcDbLine
 10
26.595295
 20
-29.093406
 30
0.0
 11
26.508201
 21
-29.149988
 31
0.0
  0
LINE
  5
1DF
330
1F
100
AcDbEntity
  8
1
370
    13
100
AcDbLine
 10
28.390837
 20
-21.867925
 30
0.0
 11
28.52787
 21
-22.303956
 31
0.0
  0
LINE
  5
1E0
330
1F
100
AcDbEntity
  8
1
370
    13
100
AcDbLine
 10
28.946356
 20
-22.741394
 30
0.0
 11
29.546687
 21
-23.076121
 31
0.0
  0
LINE
  5
1E1
330
1F
100
AcDbEntity
  8
1
370
    13
100
AcDbLine
 10
38.174721
 20
-16.343617
 30
0.0
 11
38.958303
 21
-14.857643
 31
0.0
  0
LINE
  5
1E2
330
1F
100
AcDbEntity
  8
1
370
    13
100
AcDbLine
 10
28.757911
 20
-19.045392
 30
0.0
 11
29.356159
 21
-19.151733
 31
0.0
  0
LINE
  5
1E3
330
1F
100
AcDbEntity
  8
1
370
    13
100
AcDbLine
 10
29.325713
 20
-19.212554
 30
0.0
 11
28.687037
 21
-19.096605
 31
0.0
  0
LINE
  5
1E4
330
1F
100
AcDbEntity
  8
1
370
    13
100
AcDbLine
 10
29.546687
 20
-23.076121
 30
0.0
 11
30.201685
 21
-23.267626
 31
0.0
  0
LINE
  5
1E5
330
1F
100
AcDbEntity
  8
1
370
    13
100
AcDbLine
 10
37.508792
 20
-17.945764
 30
0.0
 11
38.268424
 21
-16.348918
 31
0.0
  0
LINE
  5
1E6
330
1F
100
AcDbEntity
  8
1
370
    13
100
AcDbLine
 10
38.268424
 20
-16.348918
 30
0.0
 11
39.052007
 21
-14.862944
 31
0.0
  0
LINE
  5
1E7
330
1F
100
AcDbEntity
  8
1
370
    13
100
AcDbLine
 10
39.927979
 20
-18.918017
 30
0.0
 11
39.168346
 21
-20.514863
 31
0.0
  0
LINE
  5
1E8
330
1F
100
AcDbEntity
  8
1
370
    13
100
AcDbLine
 10
39.168346
 20
-20.514863
 30
0.0
 11
38.384763
 21
-22.000837
 31
0.0
  0
LINE
  5
1E9
330
1F
100
AcDbEntity
  8
1
370
    13
100
AcDbLine
 10
37.415088
 20
-17.940463
 30
0.0
 11
38.174721
 21
-16.343617
 31
0.0
  0
LINE
  5
1EA
330
1F
100
AcDbEntity
  8
1
370
    13
100
AcDbLine
 10
29.356159
 20
-19.151733
 30
0.0
 11
31.718948
 21
-19.230646
 31
0.0
  0
LINE
  5
1EB
330
1F
100
AcDbEntity
  8
1
370
    13
100
AcDbLine
 10
37.508792
 20
-17.945764
 30
0.0
 11
37.112764
 21
-18.430474
 31
0.0
  0
LINE
  5
1EC
330
1F
100
AcDbEntity
  8
1
370
    13
100
AcDbLine
 10
37.972414
 20
-22.409989
 30
0.0
 11
38.384763
 21
-22.000837
 31
0.0
  0
LINE
  5
1ED
330
1F
100
AcDbEntity
  8
1
370
    13
100
AcDbLine
 10
37.044322
 20
-18.397239
 30
0.0
 11
37.415088
 21
-17.940463
 31
0.0
  0
LINE
  5
1EE
330
1F
100
AcDbEntity
  8
1
370
    13
100
AcDbLine
 10
37.112764
 20
-18.430474
 30
0.0
 11
36.512331
 21
-18.920159
 31
0.0
  0
LINE
  5
1EF
330
1F
100
AcDbEntity
  8
1
370
    13
100
AcDbLine
 10
37.351123
 20
-22.80312
 30
0.0
 11
37.972414
 21
-22.409989
 31
0.0
  0
LINE
  5
1F0
330
1F
100
AcDbEntity
  8
1
370
    13
100
AcDbLine
 10
37.044322
 20
-18.397239
 30
0.0
 11
36.443889
 21
-18.886924
 31
0.0
  0
LINE
  5
1F1
330
1F
100
AcDbEntity
  8
1
370
    13
100
AcDbLine
 10
34.951213
 20
-23.536324
 30
0.0
 11
32.588424
 21
-23.457411
 31
0.0
  0
LINE
  5
1F2
330
1F
100
AcDbEntity
  8
1
370
    13
100
AcDbLine
 10
32.588424
 20
-23.457411
 30
0.0
 11
30.201685
 21
-23.267626
 31
0.0
  0
LINE
  5
1F3
330
1F
100
AcDbEntity
  8
1
370
    13
100
AcDbLine
 10
29.325713
 20
-19.212554
 30
0.0
 11
31.688502
 21
-19.291467
 31
0.0
  0
LINE
  5
1F4
330
1F
100
AcDbEntity
  8
1
370
    13
100
AcDbLine
 10
31.718948
 20
-19.230646
 30
0.0
 11
34.105687
 21
-19.420431
 31
0.0
  0
LINE
  5
1F5
330
1F
100
AcDbEntity
  8
1
370
    13
100
AcDbLine
 10
31.688502
 20
-19.291467
 30
0.0
 11
34.075241
 21
-19.481252
 31
0.0
  0
LINE
  5
1F6
330
1F
100
AcDbEntity
  8
1
370
    13
100
AcDbLine
 10
34.105687
 20
-19.420431
 30
0.0
 11
34.827171
 21
-19.388752
 31
0.0
  0
LINE
  5
1F7
330
1F
100
AcDbEntity
  8
1
370
    13
100
AcDbLine
 10
34.84428
 20
-19.444942
 30
0.0
 11
34.075241
 21
-19.481252
 31
0.0
  0
LINE
  5
1F8
330
1F
100
AcDbEntity
  8
1
370
    13
100
AcDbLine
 10
34.951213
 20
-23.536324
 30
0.0
 11
35.70393
 21
-23.424458
 31
0.0
  0
LINE
  5
1F9
330
1F
100
AcDbEntity
  8
1
370
    13
100
AcDbLine
 10
37.351123
 20
-22.80312
 30
0.0
 11
36.529798
 21
-23.170417
 31
0.0
  0
LINE
  5
1FA
330
1F
100
AcDbEntity
  8
1
370
    13
100
AcDbLine
 10
35.70393
 20
-23.424458
 30
0.0
 11
36.529798
 21
-23.170417
 31
0.0
  0
LINE
  5
1FB
330
1F
100
AcDbEntity
  8
1
370
    13
100
AcDbLine
 10
35.673897
 20
-19.231266
 30
0.0
 11
34.827171
 21
-19.388752
 31
0.0
  0
LINE
  5
1FC
330
1F
100
AcDbEntity
  8
1
370
    13
100
AcDbLine
 10
28.064005
 20
28.904358
 30
0.0
 11
27.742255
 21
28.910224
 31
0.0
  0
LINE
  5
1FD
330
1F
100
AcDbEntity
  8
1
370
    13
100
AcDbLine
 10
28.064005
 20
28.904358
 30
0.0
 11
28.046896
 21
28.986689
 31
0.0
  0
LINE
  5
1FE
330
1F
100
AcDbEntity
  8
1
370
    13
100
AcDbLine
 10
28.187334
 20
28.98416
 30
0.0
 11
28.604475
 21
28.985891
 31
0.0
  0
LINE
  5
1FF
330
1F
100
AcDbEntity
  8
1
370
    13
100
AcDbLine
 10
39.011694
 20
13.705836
 30
0.0
 11
39.096315
 21
13.213567
 31
0.0
  0
LINE
  5
200
330
1F
100
AcDbEntity
  8
1
370
    13
100
AcDbLine
 10
35.686821
 20
-0.663828
 30
0.0
 11
36.512689
 21
-0.487657
 31
0.0
  0
LINE
  5
201
330
1F
100
AcDbEntity
  8
1
370
    13
100
AcDbLine
 10
35.70393
 20
-0.643801
 30
0.0
 11
36.529798
 21
-0.467631
 31
0.0
  0
LINE
  5
202
330
1F
100
AcDbEntity
  8
1
370
    13
100
AcDbLine
 10
35.686821
 20
-0.663828
 30
0.0
 11
34.981659
 21
-0.840887
 31
0.0
  0
LINE
  5
203
330
1F
100
AcDbEntity
  8
1
370
    13
100
AcDbLine
 10
37.351123
 20
-0.400932
 30
0.0
 11
36.529798
 21
-0.467631
 31
0.0
  0
LINE
  5
204
330
1F
100
AcDbEntity
  8
1
370
    13
100
AcDbLine
 10
37.282682
 20
-0.425128
 30
0.0
 11
36.512689
 21
-0.487657
 31
0.0
  0
LINE
  5
205
330
1F
100
AcDbEntity
  8
1
370
    13
100
AcDbLine
 10
32.588424
 20
-1.439595
 30
0.0
 11
30.201685
 21
-1.913782
 31
0.0
  0
LINE
  5
206
330
1F
100
AcDbEntity
  8
1
370
    13
100
AcDbLine
 10
29.325713
 20
3.054101
 30
0.0
 11
31.688502
 21
3.664117
 31
0.0
  0
LINE
  5
207
330
1F
100
AcDbEntity
  8
1
370
    13
100
AcDbLine
 10
31.688502
 20
3.664117
 30
0.0
 11
34.075241
 21
4.138304
 31
0.0
  0
LINE
  5
208
330
1F
100
AcDbEntity
  8
1
370
    13
100
AcDbLine
 10
34.981659
 20
-0.840887
 30
0.0
 11
32.61887
 21
-1.450903
 31
0.0
  0
LINE
  5
209
330
1F
100
AcDbEntity
  8
1
370
    13
100
AcDbLine
 10
37.351123
 20
-0.400932
 30
0.0
 11
37.972414
 21
-0.459582
 31
0.0
  0
LINE
  5
20A
330
1F
100
AcDbEntity
  8
1
370
    13
100
AcDbLine
 10
39.325774
 20
-1.532498
 30
0.0
 11
39.718104
 21
-1.329697
 31
0.0
  0
LINE
  5
20B
330
1F
100
AcDbEntity
  8
1
370
    13
100
AcDbLine
 10
39.900952
 20
-1.17779
 30
0.0
 11
39.834275
 21
-1.145321
 31
0.0
  0
LINE
  5
20C
330
1F
100
AcDbEntity
  8
1
370
    13
100
AcDbLine
 10
39.927979
 20
-1.123931
 30
0.0
 11
39.99687
 21
-1.177242
 31
0.0
  0
LINE
  5
20D
330
1F
100
AcDbEntity
  8
1
370
    13
100
AcDbLine
 10
39.973024
 20
-15.49197
 30
0.0
 11
39.815133
 21
-14.839535
 31
0.0
  0
LINE
  5
20E
330
1F
100
AcDbEntity
  8
1
370
    13
100
AcDbLine
 10
28.452204
 20
-2.818113
 30
0.0
 11
29.235787
 21
-3.17262
 31
0.0
  0
LINE
  5
20F
330
1F
100
AcDbEntity
  8
1
370
    13
100
AcDbLine
 10
35.192349
 20
16.80687
 30
0.0
 11
35.303152
 21
16.809324
 31
0.0
  0
LINE
  5
210
330
1F
100
AcDbEntity
  8
1
370
    13
100
AcDbLine
 10
35.192349
 20
16.80687
 30
0.0
 11
35.126843
 21
16.819987
 31
0.0
  0
LINE
  5
211
330
1F
100
AcDbEntity
  8
1
370
    13
100
AcDbLine
 10
39.834275
 20
-1.145321
 30
0.0
 11
39.074643
 21
-0.926644
 31
0.0
  0
LINE
  5
212
330
1F
100
AcDbEntity
  8
1
370
    13
100
AcDbLine
 10
28.390837
 20
-2.646828
 30
0.0
 11
28.52787
 21
-2.415071
 31
0.0
  0
LINE
  5
213
330
1F
100
AcDbEntity
  8
1
370
    13
100
AcDbLine
 10
28.487866
 20
-2.63325
 30
0.0
 11
28.545907
 21
-2.796723
 31
0.0
  0
LINE
  5
214
330
1F
100
AcDbEntity
  8
1
370
    13
100
AcDbLine
 10
28.487866
 20
-2.63325
 30
0.0
 11
28.624899
 21
-2.401493
 31
0.0
  0
LINE
  5
215
330
1F
100
AcDbEntity
  8
1
370
    13
100
AcDbLine
 10
37.508792
 20
4.417136
 30
0.0
 11
38.268424
 21
4.198459
 31
0.0
  0
LINE
  5
216
330
1F
100
AcDbEntity
  8
1
370
    13
100
AcDbLine
 10
38.268424
 20
4.198459
 30
0.0
 11
39.052007
 21
3.843952
 31
0.0
  0
LINE
  5
217
330
1F
100
AcDbEntity
  8
1
370
    13
100
AcDbLine
 10
39.927979
 20
-1.123931
 30
0.0
 11
39.168346
 21
-0.905254
 31
0.0
  0
LINE
  5
218
330
1F
100
AcDbEntity
  8
1
370
    13
100
AcDbLine
 10
28.687037
 20
2.825966
 30
0.0
 11
28.107564
 21
2.558279
 31
0.0
  0
LINE
  5
219
330
1F
100
AcDbEntity
  8
1
370
    13
100
AcDbLine
 10
39.168346
 20
-0.905254
 30
0.0
 11
38.384763
 21
-0.550747
 31
0.0
  0
LINE
  5
21A
330
1F
100
AcDbEntity
  8
1
370
    13
100
AcDbLine
 10
28.946356
 20
-2.198749
 30
0.0
 11
29.546687
 21
-2.049352
 31
0.0
  0
LINE
  5
21B
330
1F
100
AcDbEntity
  8
1
370
    13
100
AcDbLine
 10
29.01723
 20
-2.198692
 30
0.0
 11
29.617561
 21
-2.049295
 31
0.0
  0
LINE
  5
21C
330
1F
100
AcDbEntity
  8
1
370
    13
100
AcDbLine
 10
30.232131
 20
-1.92509
 30
0.0
 11
29.617561
 21
-2.049295
 31
0.0
  0
LINE
  5
21D
330
1F
100
AcDbEntity
  8
1
370
    13
100
AcDbLine
 10
39.074643
 20
-0.926644
 30
0.0
 11
38.29106
 21
-0.572137
 31
0.0
  0
LINE
  5
21E
330
1F
100
AcDbEntity
  8
1
370
    13
100
AcDbLine
 10
38.29106
 20
-0.572137
 30
0.0
 11
37.903973
 21
-0.483778
 31
0.0
  0
LINE
  5
21F
330
1F
100
AcDbEntity
  8
1
370
    13
100
AcDbLine
 10
37.972414
 20
-0.459582
 30
0.0
 11
38.384763
 21
-0.550747
 31
0.0
  0
LINE
  5
220
330
1F
100
AcDbEntity
  8
1
370
    13
100
AcDbLine
 10
27.742255
 20
28.910224
 30
0.0
 11
27.72202
 21
28.992633
 31
0.0
  0
LINE
  5
221
330
1F
100
AcDbEntity
  8
1
370
    13
100
AcDbLine
 10
28.203472
 20
28.903691
 30
0.0
 11
28.064005
 21
28.904356
 31
0.0
  0
LINE
  5
222
330
1F
100
AcDbEntity
  8
1
370
    13
100
AcDbLine
 10
28.331572
 20
28.903978
 30
0.0
 11
28.203472
 21
28.903691
 31
0.0
  0
LINE
  5
223
330
1F
100
AcDbEntity
  8
1
370
    13
100
AcDbLine
 10
37.282682
 20
-0.425128
 30
0.0
 11
37.903973
 21
-0.483778
 31
0.0
  0
LINE
  5
224
330
1F
100
AcDbEntity
  8
1
370
    13
100
AcDbLine
 10
37.112764
 20
4.415736
 30
0.0
 11
36.512331
 21
4.356096
 31
0.0
  0
LINE
  5
225
330
1F
100
AcDbEntity
  8
1
370
    13
100
AcDbLine
 10
32.61887
 20
-1.450903
 30
0.0
 11
30.232131
 21
-1.92509
 31
0.0
  0
LINE
  5
226
330
1F
100
AcDbEntity
  8
1
370
    13
100
AcDbLine
 10
23.974836
 20
29.146687
 30
0.0
 11
26.508201
 21
29.149988
 31
0.0
  0
LINE
  5
227
330
1F
100
AcDbEntity
  8
1
370
    13
100
AcDbLine
 10
26.595295
 20
29.093406
 30
0.0
 11
26.508201
 21
29.149988
 31
0.0
  0
LINE
  5
228
330
1F
100
AcDbEntity
  8
1
370
    13
100
AcDbLine
 10
28.046895
 20
28.986689
 30
0.0
 11
28.187334
 21
28.98416
 31
0.0
  0
LINE
  5
229
330
1F
100
AcDbEntity
  8
1
370
    13
100
AcDbLine
 10
27.721929
 20
28.992634
 30
0.0
 11
28.046896
 21
28.986689
 31
0.0
  0
LINE
  5
22A
330
1F
100
AcDbEntity
  8
1
370
    13
100
AcDbLine
 10
39.973024
 20
-1.202652
 30
0.0
 11
39.815133
 21
-1.316119
 31
0.0
  0
LINE
  5
22B
330
1F
100
AcDbEntity
  8
1
370
    13
100
AcDbLine
 10
39.875995
 20
-1.21623
 30
0.0
 11
39.718104
 21
-1.329697
 31
0.0
  0
LINE
  5
22C
330
1F
100
AcDbEntity
  8
1
370
    13
100
AcDbLine
 10
39.005523
 20
-3.55785
 30
0.0
 11
39.096315
 21
-4.572078
 31
0.0
  0
LINE
  5
22D
330
1F
100
AcDbEntity
  8
1
370
    13
100
AcDbLine
 10
39.005523
 20
12.280723
 30
0.0
 11
39.096315
 21
12.121713
 31
0.0
  0
LINE
  5
22E
330
1F
100
AcDbEntity
  8
1
370
    13
100
AcDbLine
 10
0.0
 20
6.900396
 30
0.0
 11
0.5
 21
6.976746
 31
0.0
  0
LINE
  5
22F
330
1F
100
AcDbEntity
  8
1
370
    13
100
AcDbLine
 10
0.5
 20
-6.976746
 30
0.0
 11
0.0
 21
-6.900396
 31
0.0
  0
LINE
  5
230
330
1F
100
AcDbEntity
  8
1
370
    13
100
AcDbLine
 10
37.977702
 20
-0.766912
 30
0.0
 11
38.379512
 21
-0.908969
 31
0.0
  0
LINE
  5
231
330
1F
100
AcDbEntity
  8
1
370
    13
100
AcDbLine
 10
26.405435
 20
-20.524199
 30
0.0
 11
26.399701
 21
-20.576146
 31
0.0
  0
LINE
  5
232
330
1F
100
AcDbEntity
  8
1
370
    13
100
AcDbLine
 10
26.399701
 20
-20.576146
 30
0.0
 11
26.309293
 21
-20.621922
 31
0.0
  0
LINE
  5
233
330
1F
100
AcDbEntity
  8
1
370
    13
100
AcDbLine
 10
28.331572
 20
-18.888542
 30
0.0
 11
28.203472
 21
-18.902677
 31
0.0
  0
LINE
  5
234
330
1F
100
AcDbEntity
  8
1
370
    13
100
AcDbLine
 10
28.203472
 20
-18.902677
 30
0.0
 11
28.064005
 21
-18.919538
 31
0.0
  0
LINE
  5
235
330
1F
100
AcDbEntity
  8
1
370
    13
100
AcDbLine
 10
28.064005
 20
-18.919539
 30
0.0
 11
27.742255
 21
-18.962135
 31
0.0
  0
LINE
  5
236
330
1F
100
AcDbEntity
  8
1
370
    13
100
AcDbLine
 10
21.678768
 20
19.55499
 30
0.0
 11
14.932039
 21
16.173958
 31
0.0
  0
LINE
  5
237
330
1F
100
AcDbEntity
  8
1
370
    13
100
AcDbLine
 10
14.932039
 20
16.173958
 30
0.0
 11
14.900204
 21
16.251644
 31
0.0
  0
LINE
  5
238
330
1F
100
AcDbEntity
  8
1
370
    13
100
AcDbLine
 10
28.946356
 20
-2.198749
 30
0.0
 11
28.52787
 21
-2.415071
 31
0.0
  0
LINE
  5
239
330
1F
100
AcDbEntity
  8
1
370
    13
100
AcDbLine
 10
39.396647
 20
-1.532441
 30
0.0
 11
39.815133
 21
-1.316119
 31
0.0
  0
LINE
  5
23A
330
1F
100
AcDbEntity
  8
1
370
    13
100
AcDbLine
 10
13.866876
 20
14.081433
 30
0.0
 11
14.114299
 21
13.534226
 31
0.0
  0
LINE
  5
23B
330
1F
100
AcDbEntity
  8
1
370
    13
100
AcDbLine
 10
26.493478
 20
19.58784
 30
0.0
 11
23.960113
 21
19.926267
 31
0.0
  0
LINE
  5
23C
330
1F
100
AcDbEntity
  8
1
370
    13
100
AcDbLine
 10
22.645221
 20
19.885044
 30
0.0
 11
21.678768
 21
19.55499
 31
0.0
  0
LINE
  5
23D
330
1F
100
AcDbEntity
  8
1
370
    13
100
AcDbLine
 10
23.974836
 20
20.015143
 30
0.0
 11
26.508201
 21
19.675551
 31
0.0
  0
LINE
  5
23E
330
1F
100
AcDbEntity
  8
1
370
    13
100
AcDbLine
 10
26.493478
 20
19.58784
 30
0.0
 11
26.508201
 21
19.675551
 31
0.0
  0
LINE
  5
23F
330
1F
100
AcDbEntity
  8
1
370
    13
100
AcDbLine
 10
26.399701
 20
20.206734
 30
0.0
 11
26.595295
 21
19.654353
 31
0.0
  0
LINE
  5
240
330
1F
100
AcDbEntity
  8
1
370
    13
100
AcDbLine
 10
26.595295
 20
19.654353
 30
0.0
 11
26.508201
 21
19.675551
 31
0.0
  0
LINE
  5
241
330
1F
100
AcDbEntity
  8
1
370
    13
100
AcDbLine
 10
26.399701
 20
20.206734
 30
0.0
 11
26.309293
 21
20.239356
 31
0.0
  0
LINE
  5
242
330
1F
100
AcDbEntity
  8
1
370
    13
100
AcDbLine
 10
26.493478
 20
19.58784
 30
0.0
 11
26.595295
 21
19.654353
 31
0.0
  0
LINE
  5
243
330
1F
100
AcDbEntity
  8
1
370
    13
100
AcDbLine
 10
27.00934
 20
21.869409
 30
0.0
 11
27.721947
 21
21.817305
 31
0.0
  0
LINE
  5
244
330
1F
100
AcDbEntity
  8
1
370
    13
100
AcDbLine
 10
28.077951
 20
26.353119
 30
0.0
 11
26.297238
 21
26.170565
 31
0.0
  0
LINE
  5
245
330
1F
100
AcDbEntity
  8
1
370
    13
100
AcDbLine
 10
28.046895
 20
21.854876
 30
0.0
 11
28.187334
 21
21.870638
 31
0.0
  0
LINE
  5
246
330
1F
100
AcDbEntity
  8
1
370
    13
100
AcDbLine
 10
27.721929
 20
21.817273
 30
0.0
 11
28.046896
 21
21.854876
 31
0.0
  0
LINE
  5
247
330
1F
100
AcDbEntity
  8
1
370
    13
100
AcDbLine
 10
22.919037
 20
20.018282
 30
0.0
 11
23.974836
 21
20.015143
 31
0.0
  0
LINE
  5
248
330
1F
100
AcDbEntity
  8
1
370
    13
100
AcDbLine
 10
26.09789
 20
20.459539
 30
0.0
 11
26.405426
 21
20.214399
 31
0.0
  0
LINE
  5
249
330
1F
100
AcDbEntity
  8
1
370
    13
100
AcDbLine
 10
27.742255
 20
21.682821
 30
0.0
 11
27.72202
 21
21.817286
 31
0.0
  0
LINE
  5
24A
330
1F
100
AcDbEntity
  8
1
370
    13
100
AcDbLine
 10
39.096315
 20
12.121713
 30
0.0
 11
38.974672
 21
12.222892
 31
0.0
  0
LINE
  5
24B
330
1F
100
AcDbEntity
  8
1
370
    13
100
AcDbLine
 10
26.399701
 20
-20.576146
 30
0.0
 11
26.595295
 21
-21.104421
 31
0.0
  0
LINE
  5
24C
330
1F
100
AcDbEntity
  8
1
370
    13
100
AcDbLine
 10
26.595295
 20
-21.104421
 30
0.0
 11
26.508201
 21
-21.161362
 31
0.0
  0
LINE
  5
24D
330
1F
100
AcDbEntity
  8
1
370
    13
100
AcDbLine
 10
23.960113
 20
-20.865496
 30
0.0
 11
21.678768
 21
-20.447627
 31
0.0
  0
LINE
  5
24E
330
1F
100
AcDbEntity
  8
1
370
    13
100
AcDbLine
 10
39.973024
 20
15.49197
 30
0.0
 11
39.815133
 21
14.839535
 31
0.0
  0
LINE
  5
24F
330
1F
100
AcDbEntity
  8
1
370
    13
100
AcDbLine
 10
26.493478
 20
-21.185928
 30
0.0
 11
23.960113
 21
-20.865496
 31
0.0
  0
LINE
  5
250
330
1F
100
AcDbEntity
  8
1
370
    13
100
AcDbLine
 10
21.678768
 20
-20.447627
 30
0.0
 11
14.932039
 21
-18.775141
 31
0.0
  0
LINE
  5
251
330
1F
100
AcDbEntity
  8
1
370
    13
100
AcDbLine
 10
26.595295
 20
-21.104421
 30
0.0
 11
26.493478
 21
-21.185928
 31
0.0
  0
LINE
  5
252
330
1F
100
AcDbEntity
  8
1
370
    13
100
AcDbLine
 10
34.327709
 20
27.08791
 30
0.0
 11
33.872011
 21
27.411769
 31
0.0
  0
LINE
  5
253
330
1F
100
AcDbEntity
  8
1
370
    13
100
AcDbLine
 10
28.213589
 20
25.677585
 30
0.0
 11
28.187334
 21
25.800729
 31
0.0
  0
LINE
  5
254
330
1F
100
AcDbEntity
  8
1
370
    13
100
AcDbLine
 10
28.605857
 20
21.919668
 30
0.0
 11
29.201007
 21
22.037759
 31
0.0
  0
LINE
  5
255
330
1F
100
AcDbEntity
  8
1
370
    13
100
AcDbLine
 10
28.187334
 20
21.870638
 30
0.0
 11
28.604475
 21
21.919652
 31
0.0
  0
LINE
  5
256
330
1F
100
AcDbEntity
  8
1
370
    13
100
AcDbLine
 10
39.875995
 20
15.49549
 30
0.0
 11
39.718104
 21
14.843055
 31
0.0
  0
LINE
  5
257
330
1F
100
AcDbEntity
  8
1
370
    13
100
AcDbLine
 10
39.875995
 20
15.49549
 30
0.0
 11
39.834275
 21
16.035994
 31
0.0
  0
LINE
  5
258
330
1F
100
AcDbEntity
  8
1
370
    13
100
AcDbLine
 10
28.331572
 20
21.752571
 30
0.0
 11
28.203472
 21
21.737015
 31
0.0
  0
LINE
  5
259
330
1F
100
AcDbEntity
  8
1
370
    13
100
AcDbLine
 10
28.203472
 20
21.737015
 30
0.0
 11
28.064005
 21
21.719922
 31
0.0
  0
LINE
  5
25A
330
1F
100
AcDbEntity
  8
1
370
    13
100
AcDbLine
 10
28.064005
 20
21.719923
 30
0.0
 11
27.742255
 21
21.682821
 31
0.0
  0
LINE
  5
25B
330
1F
100
AcDbEntity
  8
1
370
    13
100
AcDbLine
 10
28.064005
 20
21.719923
 30
0.0
 11
28.046896
 21
21.854876
 31
0.0
  0
LINE
  5
25C
330
1F
100
AcDbEntity
  8
1
370
    13
100
AcDbLine
 10
33.550597
 20
27.733285
 30
0.0
 11
32.293377
 21
27.333706
 31
0.0
  0
LINE
  5
25D
330
1F
100
AcDbEntity
  8
1
370
    13
100
AcDbLine
 10
32.402185
 20
26.702443
 30
0.0
 11
31.219339
 21
26.303465
 31
0.0
  0
LINE
  5
25E
330
1F
100
AcDbEntity
  8
1
370
    13
100
AcDbLine
 10
38.309677
 20
25.271521
 30
0.0
 11
37.914325
 21
26.170865
 31
0.0
  0
LINE
  5
25F
330
1F
100
AcDbEntity
  8
1
370
    13
100
AcDbLine
 10
38.347482
 20
25.176447
 30
0.0
 11
38.326905
 21
25.22688
 31
0.0
  0
LINE
  5
260
330
1F
100
AcDbEntity
  8
1
370
    13
100
AcDbLine
 10
39.927979
 20
16.070415
 30
0.0
 11
39.973024
 21
15.49197
 31
0.0
  0
LINE
  5
261
330
1F
100
AcDbEntity
  8
1
370
    13
100
AcDbLine
 10
13.910209
 20
-19.816581
 30
0.0
 11
14.114299
 21
-20.211196
 31
0.0
  0
LINE
  5
262
330
1F
100
AcDbEntity
  8
1
370
    13
100
AcDbLine
 10
14.114299
 20
-20.211196
 30
0.0
 11
14.000869
 21
-20.260651
 31
0.0
  0
LINE
  5
263
330
1F
100
AcDbEntity
  8
1
370
    13
100
AcDbLine
 10
19.622223
 20
-25.815872
 30
0.0
 11
21.703238
 21
-27.204447
 31
0.0
  0
LINE
  5
264
330
1F
100
AcDbEntity
  8
1
370
    13
100
AcDbLine
 10
39.927979
 20
18.628862
 30
0.0
 11
39.973024
 21
18.134624
 31
0.0
  0
LINE
  5
265
330
1F
100
AcDbEntity
  8
1
370
    13
100
AcDbLine
 10
39.927979
 20
18.628862
 30
0.0
 11
39.168346
 21
20.193757
 31
0.0
  0
LINE
  5
266
330
1F
100
AcDbEntity
  8
1
370
    13
100
AcDbLine
 10
39.834275
 20
18.624164
 30
0.0
 11
39.074643
 21
20.189059
 31
0.0
  0
LINE
  5
267
330
1F
100
AcDbEntity
  8
1
370
    13
100
AcDbLine
 10
39.834275
 20
16.035994
 30
0.0
 11
39.074643
 21
17.824666
 31
0.0
  0
LINE
  5
268
330
1F
100
AcDbEntity
  8
1
370
    13
100
AcDbLine
 10
33.872017
 20
27.411772
 30
0.0
 11
33.993038
 21
27.359222
 31
0.0
  0
LINE
  5
269
330
1F
100
AcDbEntity
  8
1
370
    13
100
AcDbLine
 10
37.643265
 20
25.88271
 30
0.0
 11
37.491861
 21
25.937975
 31
0.0
  0
LINE
  5
26A
330
1F
100
AcDbEntity
  8
1
370
    13
100
AcDbLine
 10
22.923135
 20
-27.726222
 30
0.0
 11
23.969163
 21
-27.844267
 31
0.0
  0
LINE
  5
26B
330
1F
100
AcDbEntity
  8
1
370
    13
100
AcDbLine
 10
39.011694
 20
-23.719327
 30
0.0
 11
38.427449
 21
-25.640113
 31
0.0
  0
LINE
  5
26C
330
1F
100
AcDbEntity
  8
1
370
    13
100
AcDbLine
 10
37.643265
 20
-28.116802
 30
0.0
 11
38.427452
 21
-25.640385
 31
0.0
  0
LINE
  5
26D
330
1F
100
AcDbEntity
  8
1
370
    13
100
AcDbLine
 10
37.914243
 20
-25.115096
 30
0.0
 11
37.643265
 21
-26.997702
 31
0.0
  0
LINE
  5
26E
330
1F
100
AcDbEntity
  8
1
370
    13
100
AcDbLine
 10
38.309677
 20
-23.560942
 30
0.0
 11
37.914325
 21
-25.115021
 31
0.0
  0
LINE
  5
26F
330
1F
100
AcDbEntity
  8
1
370
    13
100
AcDbLine
 10
38.347482
 20
-23.422206
 30
0.0
 11
38.326905
 21
-23.499846
 31
0.0
  0
LINE
  5
270
330
1F
100
AcDbEntity
  8
1
370
    13
100
AcDbLine
 10
38.326905
 20
-23.499846
 30
0.0
 11
38.309676
 21
-23.560943
 31
0.0
  0
LINE
  5
271
330
1F
100
AcDbEntity
  8
1
370
    13
100
AcDbLine
 10
38.347482
 20
-23.422206
 30
0.0
 11
38.230071
 21
-23.406853
 31
0.0
  0
LINE
  5
272
330
1F
100
AcDbEntity
  8
1
370
    13
100
AcDbLine
 10
28.452204
 20
16.083057
 30
0.0
 11
28.390837
 21
16.718721
 31
0.0
  0
LINE
  5
273
330
1F
100
AcDbEntity
  8
1
370
    13
100
AcDbLine
 10
28.487866
 20
16.715201
 30
0.0
 11
28.545907
 21
16.117479
 31
0.0
  0
LINE
  5
274
330
1F
100
AcDbEntity
  8
1
370
    13
100
AcDbLine
 10
37.508792
 20
22.802633
 30
0.0
 11
38.268424
 21
21.01396
 31
0.0
  0
LINE
  5
275
330
1F
100
AcDbEntity
  8
1
370
    13
100
AcDbLine
 10
38.268424
 20
21.01396
 30
0.0
 11
39.052007
 21
19.141324
 31
0.0
  0
LINE
  5
276
330
1F
100
AcDbEntity
  8
1
370
    13
100
AcDbLine
 10
39.927979
 20
16.070415
 30
0.0
 11
39.168346
 21
17.859088
 31
0.0
  0
LINE
  5
277
330
1F
100
AcDbEntity
  8
1
370
    13
100
AcDbLine
 10
39.168346
 20
17.859088
 30
0.0
 11
38.384763
 21
19.731724
 31
0.0
  0
LINE
  5
278
330
1F
100
AcDbEntity
  8
1
370
    13
100
AcDbLine
 10
39.074643
 20
17.824666
 30
0.0
 11
38.29106
 21
19.697302
 31
0.0
  0
LINE
  5
279
330
1F
100
AcDbEntity
  8
1
370
    13
100
AcDbLine
 10
28.390837
 20
16.718721
 30
0.0
 11
28.52787
 21
17.444277
 31
0.0
  0
LINE
  5
27A
330
1F
100
AcDbEntity
  8
1
370
    13
100
AcDbLine
 10
27.689078
 20
20.384847
 30
0.0
 11
27.531187
 21
19.732411
 31
0.0
  0
LINE
  5
27B
330
1F
100
AcDbEntity
  8
1
370
    13
100
AcDbLine
 10
28.487866
 20
16.715201
 30
0.0
 11
28.624899
 21
17.440758
 31
0.0
  0
LINE
  5
27C
330
1F
100
AcDbEntity
  8
1
370
    13
100
AcDbLine
 10
38.29106
 20
19.697302
 30
0.0
 11
37.903973
 21
20.174152
 31
0.0
  0
LINE
  5
27D
330
1F
100
AcDbEntity
  8
1
370
    13
100
AcDbLine
 10
33.579161
 20
27.729859
 30
0.0
 11
33.648394
 21
27.694395
 31
0.0
  0
LINE
  5
27E
330
1F
100
AcDbEntity
  8
1
370
    13
100
AcDbLine
 10
37.913918
 20
-25.115312
 30
0.0
 11
37.806267
 21
-25.072428
 31
0.0
  0
LINE
  5
27F
330
1F
100
AcDbEntity
  8
1
370
    13
100
AcDbLine
 10
37.806267
 20
-25.072428
 30
0.0
 11
38.189748
 21
-23.565289
 31
0.0
  0
LINE
  5
280
330
1F
100
AcDbEntity
  8
1
370
    13
100
AcDbLine
 10
38.309677
 20
-23.560925
 30
0.0
 11
38.189748
 21
-23.565289
 31
0.0
  0
LINE
  5
281
330
1F
100
AcDbEntity
  8
1
370
    13
100
AcDbLine
 10
38.188893
 20
-23.535261
 30
0.0
 11
38.230071
 21
-23.406853
 31
0.0
  0
LINE
  5
282
330
1F
100
AcDbEntity
  8
1
370
    13
100
AcDbLine
 10
36.520839
 20
-23.329947
 30
0.0
 11
36.797753
 21
-23.533584
 31
0.0
  0
LINE
  5
283
330
1F
100
AcDbEntity
  8
1
370
    13
100
AcDbLine
 10
37.733666
 20
-25.09218
 30
0.0
 11
37.806267
 21
-25.072428
 31
0.0
  0
LINE
  5
284
330
1F
100
AcDbEntity
  8
1
370
    13
100
AcDbLine
 10
37.913918
 20
26.17119
 30
0.0
 11
37.806267
 21
26.202365
 31
0.0
  0
LINE
  5
285
330
1F
100
AcDbEntity
  8
1
370
    13
100
AcDbLine
 10
37.733666
 20
26.203906
 30
0.0
 11
37.806267
 21
26.202365
 31
0.0
  0
LINE
  5
286
330
1F
100
AcDbEntity
  8
1
370
    13
100
AcDbLine
 10
37.491861
 20
-27.024132
 30
0.0
 11
37.643265
 21
-26.997702
 31
0.0
  0
LINE
  5
287
330
1F
100
AcDbEntity
  8
1
370
    13
100
AcDbLine
 10
37.491861
 20
-27.024132
 30
0.0
 11
37.733833
 21
-25.092076
 31
0.0
  0
LINE
  5
288
330
1F
100
AcDbEntity
  8
1
370
    13
100
AcDbLine
 10
37.357887
 20
-27.615635
 30
0.0
 11
37.491861
 21
-27.024132
 31
0.0
  0
LINE
  5
289
330
1F
100
AcDbEntity
  8
1
370
    13
100
AcDbLine
 10
33.579161
 20
-28.555099
 30
0.0
 11
33.648394
 21
-28.48111
 31
0.0
  0
LINE
  5
28A
330
1F
100
AcDbEntity
  8
1
370
    13
100
AcDbLine
 10
31.229094
 20
-27.901789
 30
0.0
 11
33.579161
 21
-28.555099
 31
0.0
  0
LINE
  5
28B
330
1F
100
AcDbEntity
  8
1
370
    13
100
AcDbLine
 10
26.276673
 20
-27.74068
 30
0.0
 11
28.166769
 21
-27.604586
 31
0.0
  0
LINE
  5
28C
330
1F
100
AcDbEntity
  8
1
370
    13
100
AcDbLine
 10
34.250586
 20
-29.355582
 30
0.0
 11
33.872011
 21
-29.03389
 31
0.0
  0
LINE
  5
28D
330
1F
100
AcDbEntity
  8
1
370
    13
100
AcDbLine
 10
33.872017
 20
-29.033891
 30
0.0
 11
33.993038
 21
-28.949317
 31
0.0
  0
LINE
  5
28E
330
1F
100
AcDbEntity
  8
1
370
    13
100
AcDbLine
 10
33.550597
 20
-28.624403
 30
0.0
 11
31.219339
 21
-27.976484
 31
0.0
  0
LINE
  5
28F
330
1F
100
AcDbEntity
  8
1
370
    13
100
AcDbLine
 10
37.508792
 20
22.802633
 30
0.0
 11
37.112764
 21
23.252146
 31
0.0
  0
LINE
  5
290
330
1F
100
AcDbEntity
  8
1
370
    13
100
AcDbLine
 10
37.972414
 20
20.238456
 30
0.0
 11
38.384763
 21
19.731724
 31
0.0
  0
LINE
  5
291
330
1F
100
AcDbEntity
  8
1
370
    13
100
AcDbLine
 10
33.550606
 20
-28.624405
 30
0.0
 11
33.579161
 21
-28.555099
 31
0.0
  0
LINE
  5
292
330
1F
100
AcDbEntity
  8
1
370
    13
100
AcDbLine
 10
31.219339
 20
-29.39459
 30
0.0
 11
33.872011
 21
-30.166399
 31
0.0
  0
LINE
  5
293
330
1F
100
AcDbEntity
  8
1
370
    13
100
AcDbLine
 10
37.643265
 20
-28.116802
 30
0.0
 11
37.253473
 21
-28.920274
 31
0.0
  0
LINE
  5
294
330
1F
100
AcDbEntity
  8
1
370
    13
100
AcDbLine
 10
35.952728
 20
-30.01994
 30
0.0
 11
35.794182
 21
-30.086294
 31
0.0
  0
LINE
  5
295
330
1F
100
AcDbEntity
  8
1
370
    13
100
AcDbLine
 10
34.296459
 20
-30.258136
 30
0.0
 11
33.872011
 21
-30.166399
 31
0.0
  0
LINE
  5
296
330
1F
100
AcDbEntity
  8
1
370
    13
100
AcDbLine
 10
29.201007
 20
-29.013951
 30
0.0
 11
31.219339
 21
-29.39459
 31
0.0
  0
LINE
  5
297
330
1F
100
AcDbEntity
  8
1
370
    13
100
AcDbLine
 10
28.605857
 20
-28.985953
 30
0.0
 11
29.201007
 21
-29.013951
 31
0.0
  0
LINE
  5
298
330
1F
100
AcDbEntity
  8
1
370
    13
100
AcDbLine
 10
28.187334
 20
-28.98416
 30
0.0
 11
28.604475
 21
-28.985891
 31
0.0
  0
LINE
  5
299
330
1F
100
AcDbEntity
  8
1
370
    13
100
AcDbLine
 10
28.187334
 20
-27.684249
 30
0.0
 11
26.297238
 21
-27.820812
 31
0.0
  0
LINE
  5
29A
330
1F
100
AcDbEntity
  8
1
370
    13
100
AcDbLine
 10
28.046895
 20
-28.986689
 30
0.0
 11
28.187334
 21
-28.98416
 31
0.0
  0
LINE
  5
29B
330
1F
100
AcDbEntity
  8
1
370
    13
100
AcDbLine
 10
27.721929
 20
-28.992634
 30
0.0
 11
28.046896
 21
-28.986689
 31
0.0
  0
LINE
  5
29C
330
1F
100
AcDbEntity
  8
1
370
    13
100
AcDbLine
 10
26.508201
 20
-29.149988
 30
0.0
 11
26.309284
 21
-29.140366
 31
0.0
  0
LINE
  5
29D
330
1F
100
AcDbEntity
  8
1
370
    13
100
AcDbLine
 10
23.974836
 20
-29.146687
 30
0.0
 11
26.508201
 21
-29.149988
 31
0.0
  0
LINE
  5
29E
330
1F
100
AcDbEntity
  8
1
370
    13
100
AcDbLine
 10
22.617744
 20
-27.720143
 30
0.0
 11
21.646933
 21
-27.268843
 31
0.0
  0
LINE
  5
29F
330
1F
100
AcDbEntity
  8
1
370
    13
100
AcDbLine
 10
26.493478
 20
29.107717
 30
0.0
 11
23.960113
 21
29.104427
 31
0.0
  0
LINE
  5
2A0
330
1F
100
AcDbEntity
  8
1
370
    13
100
AcDbLine
 10
21.678768
 20
28.540686
 30
0.0
 11
14.932039
 21
24.979709
 31
0.0
  0
LINE
  5
2A1
330
1F
100
AcDbEntity
  8
1
370
    13
100
AcDbLine
 10
26.399701
 20
-29.084154
 30
0.0
 11
26.309293
 21
-29.140367
 31
0.0
  0
LINE
  5
2A2
330
1F
100
AcDbEntity
  8
1
370
    13
100
AcDbLine
 10
26.493478
 20
29.107717
 30
0.0
 11
26.595295
 21
29.093406
 31
0.0
  0
LINE
  5
2A3
330
1F
100
AcDbEntity
  8
1
370
    13
100
AcDbLine
 10
37.282682
 20
20.621143
 30
0.0
 11
37.903973
 21
20.174152
 31
0.0
  0
LINE
  5
2A4
330
1F
100
AcDbEntity
  8
1
370
    13
100
AcDbLine
 10
37.112764
 20
23.252146
 30
0.0
 11
36.512331
 21
23.626016
 31
0.0
  0
LINE
  5
2A5
330
1F
100
AcDbEntity
  8
1
370
    13
100
AcDbLine
 10
37.351123
 20
20.685447
 30
0.0
 11
37.972414
 21
20.238456
 31
0.0
  0
LINE
  5
2A6
330
1F
100
AcDbEntity
  8
1
370
    13
100
AcDbLine
 10
28.687037
 20
21.681238
 30
0.0
 11
28.107564
 21
21.090437
 31
0.0
  0
LINE
  5
2A7
330
1F
100
AcDbEntity
  8
1
370
    13
100
AcDbLine
 10
28.946356
 20
18.149868
 30
0.0
 11
29.546687
 21
18.667548
 31
0.0
  0
LINE
  5
2A8
330
1F
100
AcDbEntity
  8
1
370
    13
100
AcDbLine
 10
29.01723
 20
18.102249
 30
0.0
 11
29.617561
 21
18.619929
 31
0.0
  0
LINE
  5
2A9
330
1F
100
AcDbEntity
  8
1
370
    13
100
AcDbLine
 10
30.232131
 20
18.960545
 30
0.0
 11
29.617561
 21
18.619929
 31
0.0
  0
LINE
  5
2AA
330
1F
100
AcDbEntity
  8
1
370
    13
100
AcDbLine
 10
29.325713
 20
22.103688
 30
0.0
 11
28.687037
 21
21.681238
 31
0.0
  0
LINE
  5
2AB
330
1F
100
AcDbEntity
  8
1
370
    13
100
AcDbLine
 10
29.546687
 20
18.667548
 30
0.0
 11
30.201685
 21
19.032779
 31
0.0
  0
LINE
  5
2AC
330
1F
100
AcDbEntity
  8
1
370
    13
100
AcDbLine
 10
35.691006
 20
23.876169
 30
0.0
 11
34.84428
 21
23.943065
 31
0.0
  0
LINE
  5
2AD
330
1F
100
AcDbEntity
  8
1
370
    13
100
AcDbLine
 10
32.61887
 20
19.790918
 30
0.0
 11
30.232131
 21
18.960545
 31
0.0
  0
LINE
  5
2AE
330
1F
100
AcDbEntity
  8
1
370
    13
100
AcDbLine
 10
35.686821
 20
20.849436
 30
0.0
 11
36.512689
 21
20.855661
 31
0.0
  0
LINE
  5
2AF
330
1F
100
AcDbEntity
  8
1
370
    13
100
AcDbLine
 10
35.70393
 20
20.929374
 30
0.0
 11
36.529798
 21
20.9356
 31
0.0
  0
LINE
  5
2B0
330
1F
100
AcDbEntity
  8
1
370
    13
100
AcDbLine
 10
35.686821
 20
20.849436
 30
0.0
 11
34.981659
 21
20.705256
 31
0.0
  0
LINE
  5
2B1
330
1F
100
AcDbEntity
  8
1
370
    13
100
AcDbLine
 10
34.951213
 20
20.777489
 30
0.0
 11
32.588424
 21
19.863152
 31
0.0
  0
LINE
  5
2B2
330
1F
100
AcDbEntity
  8
1
370
    13
100
AcDbLine
 10
32.588424
 20
19.863152
 30
0.0
 11
30.201685
 21
19.032779
 31
0.0
  0
LINE
  5
2B3
330
1F
100
AcDbEntity
  8
1
370
    13
100
AcDbLine
 10
29.325713
 20
22.103688
 30
0.0
 11
31.688502
 21
23.018025
 31
0.0
  0
LINE
  5
2B4
330
1F
100
AcDbEntity
  8
1
370
    13
100
AcDbLine
 10
31.688502
 20
23.018025
 30
0.0
 11
34.075241
 21
23.848399
 31
0.0
  0
LINE
  5
2B5
330
1F
100
AcDbEntity
  8
1
370
    13
100
AcDbLine
 10
34.84428
 20
23.943065
 30
0.0
 11
34.075241
 21
23.848399
 31
0.0
  0
LINE
  5
2B6
330
1F
100
AcDbEntity
  8
1
370
    13
100
AcDbLine
 10
34.951213
 20
20.777489
 30
0.0
 11
35.70393
 21
20.929374
 31
0.0
  0
LINE
  5
2B7
330
1F
100
AcDbEntity
  8
1
370
    13
100
AcDbLine
 10
34.981659
 20
20.705256
 30
0.0
 11
32.61887
 21
19.790918
 31
0.0
  0
LINE
  5
2B8
330
1F
100
AcDbEntity
  8
1
370
    13
100
AcDbLine
 10
39.973024
 20
1.202652
 30
0.0
 11
39.815133
 21
1.316119
 31
0.0
  0
LINE
  5
2B9
330
1F
100
AcDbEntity
  8
1
370
    13
100
AcDbLine
 10
39.113373
 20
-3.672666
 30
0.0
 11
39.052007
 21
-3.843952
 31
0.0
  0
LINE
  5
2BA
330
1F
100
AcDbEntity
  8
1
370
    13
100
AcDbLine
 10
29.325713
 20
-29.384631
 30
0.0
 11
28.687037
 21
-29.008292
 31
0.0
  0
LINE
  5
2BB
330
1F
100
AcDbEntity
  8
1
370
    13
100
AcDbLine
 10
29.546687
 20
-29.867942
 30
0.0
 11
30.201685
 21
-30.260603
 31
0.0
  0
LINE
  5
2BC
330
1F
100
AcDbEntity
  8
1
370
    13
100
AcDbLine
 10
39.973024
 20
-24.243481
 30
0.0
 11
39.815133
 21
-23.401583
 31
0.0
  0
LINE
  5
2BD
330
1F
100
AcDbEntity
  8
1
370
    13
100
AcDbLine
 10
29.356159
 20
-29.290052
 30
0.0
 11
31.718948
 21
-29.977726
 31
0.0
  0
LINE
  5
2BE
330
1F
100
AcDbEntity
  8
1
370
    13
100
AcDbLine
 10
39.113373
 20
-23.383831
 30
0.0
 11
39.052007
 21
-24.137807
 31
0.0
  0
LINE
  5
2BF
330
1F
100
AcDbEntity
  8
1
370
    13
100
AcDbLine
 10
39.927979
 20
-25.013778
 30
0.0
 11
39.973024
 21
-24.243481
 31
0.0
  0
LINE
  5
2C0
330
1F
100
AcDbEntity
  8
1
370
    13
100
AcDbLine
 10
34.951213
 20
-31.6599
 30
0.0
 11
32.588424
 21
-30.972227
 31
0.0
  0
LINE
  5
2C1
330
1F
100
AcDbEntity
  8
1
370
    13
100
AcDbLine
 10
32.588424
 20
-30.972227
 30
0.0
 11
30.201685
 21
-30.260603
 31
0.0
  0
LINE
  5
2C2
330
1F
100
AcDbEntity
  8
1
370
    13
100
AcDbLine
 10
29.325713
 20
-29.384631
 30
0.0
 11
31.688502
 21
-30.072304
 31
0.0
  0
LINE
  5
2C3
330
1F
100
AcDbEntity
  8
1
370
    13
100
AcDbLine
 10
38.174721
 20
-26.495176
 30
0.0
 11
38.958303
 21
-24.1102
 31
0.0
  0
LINE
  5
2C4
330
1F
100
AcDbEntity
  8
1
370
    13
100
AcDbLine
 10
31.688502
 20
-30.072304
 30
0.0
 11
34.075241
 21
-30.783929
 31
0.0
  0
LINE
  5
2C5
330
1F
100
AcDbEntity
  8
1
370
    13
100
AcDbLine
 10
31.718948
 20
-29.977726
 30
0.0
 11
34.105687
 21
-30.68935
 31
0.0
  0
LINE
  5
2C6
330
1F
100
AcDbEntity
  8
1
370
    13
100
AcDbLine
 10
34.105687
 20
-30.68935
 30
0.0
 11
34.827171
 21
-30.725859
 31
0.0
  0
LINE
  5
2C7
330
1F
100
AcDbEntity
  8
1
370
    13
100
AcDbLine
 10
34.84428
 20
-30.822328
 30
0.0
 11
34.075241
 21
-30.783929
 31
0.0
  0
LINE
  5
2C8
330
1F
100
AcDbEntity
  8
1
370
    13
100
AcDbLine
 10
34.951213
 20
-31.6599
 30
0.0
 11
35.70393
 21
-31.681978
 31
0.0
  0
LINE
  5
2C9
330
1F
100
AcDbEntity
  8
1
370
    13
100
AcDbLine
 10
35.673897
 20
-30.563676
 30
0.0
 11
34.827171
 21
-30.725859
 31
0.0
  0
LINE
  5
2CA
330
1F
100
AcDbEntity
  8
1
370
    13
100
AcDbLine
 10
35.70393
 20
-31.681978
 30
0.0
 11
36.529798
 21
-31.498937
 31
0.0
  0
LINE
  5
2CB
330
1F
100
AcDbEntity
  8
1
370
    13
100
AcDbLine
 10
35.691006
 20
-30.660144
 30
0.0
 11
34.84428
 21
-30.822328
 31
0.0
  0
LINE
  5
2CC
330
1F
100
AcDbEntity
  8
1
370
    13
100
AcDbLine
 10
37.415088
 20
-28.904102
 30
0.0
 11
38.174721
 21
-26.495176
 31
0.0
  0
LINE
  5
2CD
330
1F
100
AcDbEntity
  8
1
370
    13
100
AcDbLine
 10
37.351123
 20
-31.055875
 30
0.0
 11
37.972414
 21
-30.45825
 31
0.0
  0
LINE
  5
2CE
330
1F
100
AcDbEntity
  8
1
370
    13
100
AcDbLine
 10
37.508792
 20
-28.931709
 30
0.0
 11
38.268424
 21
-26.522782
 31
0.0
  0
LINE
  5
2CF
330
1F
100
AcDbEntity
  8
1
370
    13
100
AcDbLine
 10
38.268424
 20
-26.522782
 30
0.0
 11
39.052007
 21
-24.137807
 31
0.0
  0
LINE
  5
2D0
330
1F
100
AcDbEntity
  8
1
370
    13
100
AcDbLine
 10
39.927979
 20
-25.013778
 30
0.0
 11
39.168346
 21
-27.422705
 31
0.0
  0
LINE
  5
2D1
330
1F
100
AcDbEntity
  8
1
370
    13
100
AcDbLine
 10
39.168346
 20
-27.422705
 30
0.0
 11
38.384763
 21
-29.80768
 31
0.0
  0
LINE
  5
2D2
330
1F
100
AcDbEntity
  8
1
370
    13
100
AcDbLine
 10
37.044322
 20
-29.529822
 30
0.0
 11
37.415088
 21
-28.904102
 31
0.0
  0
LINE
  5
2D3
330
1F
100
AcDbEntity
  8
1
370
    13
100
AcDbLine
 10
37.112764
 20
-29.5986
 30
0.0
 11
36.512331
 21
-30.217083
 31
0.0
  0
LINE
  5
2D4
330
1F
100
AcDbEntity
  8
1
370
    13
100
AcDbLine
 10
37.508792
 20
-28.931709
 30
0.0
 11
37.112764
 21
-29.5986
 31
0.0
  0
LINE
  5
2D5
330
1F
100
AcDbEntity
  8
1
370
    13
100
AcDbLine
 10
37.972414
 20
-30.45825
 30
0.0
 11
38.384763
 21
-29.80768
 31
0.0
  0
LINE
  5
2D6
330
1F
100
AcDbEntity
  8
1
370
    13
100
AcDbLine
 10
37.044322
 20
-29.529822
 30
0.0
 11
36.443889
 21
-30.148305
 31
0.0
  0
LINE
  5
2D7
330
1F
100
AcDbEntity
  8
1
370
    13
100
AcDbLine
 10
33.390479
 20
-9.634873
 30
0.0
 11
33.000294
 21
-9.437648
 31
0.0
  0
LINE
  5
2D8
330
1F
100
AcDbEntity
  8
1
370
    13
100
AcDbLine
 10
31.25568
 20
-11.838517
 30
0.0
 11
31.522981
 21
-11.867065
 31
0.0
  0
LINE
  5
2D9
330
1F
100
AcDbEntity
  8
1
370
    13
100
AcDbLine
 10
31.522981
 20
-11.867065
 30
0.0
 11
32.511776
 21
-11.764951
 31
0.0
  0
LINE
  5
2DA
330
1F
100
AcDbEntity
  8
1
370
    13
100
AcDbLine
 10
32.687051
 20
-1.983245
 30
0.0
 11
32.808337
 21
-1.988547
 31
0.0
  0
LINE
  5
2DB
330
1F
100
AcDbEntity
  8
1
370
    13
100
AcDbLine
 10
35.494578
 20
-1.514876
 30
0.0
 11
35.889176
 21
-1.241226
 31
0.0
  0
LINE
  5
2DC
330
1F
100
AcDbEntity
  8
1
370
    13
100
AcDbLine
 10
32.008308
 20
27.725587
 30
0.0
 11
31.495748
 21
27.002748
 31
0.0
  0
LINE
  5
2DD
330
1F
100
AcDbEntity
  8
1
370
    13
100
AcDbLine
 10
31.545505
 20
16.076393
 30
0.0
 11
31.578761
 21
15.935163
 31
0.0
  0
LINE
  5
2DE
330
1F
100
AcDbEntity
  8
1
370
    13
100
AcDbLine
 10
35.361273
 20
18.491351
 30
0.0
 11
35.203118
 21
18.547835
 31
0.0
  0
LINE
  5
2DF
330
1F
100
AcDbEntity
  8
1
370
    13
100
AcDbLine
 10
37.974333
 20
-0.76619
 30
0.0
 11
38.034021
 21
-0.781633
 31
0.0
  0
LINE
  5
2E0
330
1F
100
AcDbEntity
  8
1
370
    13
100
AcDbLine
 10
35.977346
 20
18.119441
 30
0.0
 11
35.915153
 21
18.277057
 31
0.0
  0
LINE
  5
2E1
330
1F
100
AcDbEntity
  8
1
370
    13
100
AcDbLine
 10
31.563763
 20
17.036215
 30
0.0
 11
31.594039
 21
16.869497
 31
0.0
  0
LINE
  5
2E2
330
1F
100
AcDbEntity
  8
1
370
    13
100
AcDbLine
 10
35.954218
 20
18.139486
 30
0.0
 11
35.943746
 21
18.211408
 31
0.0
  0
LINE
  5
2E3
330
1F
100
AcDbEntity
  8
1
370
    13
100
AcDbLine
 10
31.574144
 20
16.965009
 30
0.0
 11
31.60319
 21
16.898386
 31
0.0
  0
LINE
  5
2E4
330
1F
100
AcDbEntity
  8
1
370
    13
100
AcDbLine
 10
33.298127
 20
28.243745
 30
0.0
 11
32.27138
 21
27.635107
 31
0.0
  0
LINE
  5
2E5
330
1F
100
AcDbEntity
  8
1
370
    13
100
AcDbLine
 10
33.680409
 20
28.32404
 30
0.0
 11
33.298127
 21
28.243745
 31
0.0
  0
LINE
  5
2E6
330
1F
100
AcDbEntity
  8
1
370
    13
100
AcDbLine
 10
34.089207
 20
28.696777
 30
0.0
 11
33.244055
 21
28.584271
 31
0.0
  0
LINE
  5
2E7
330
1F
100
AcDbEntity
  8
1
370
    13
100
AcDbLine
 10
31.650137
 20
27.321916
 30
0.0
 11
31.319783
 21
26.344996
 31
0.0
  0
LINE
  5
2E8
330
1F
100
AcDbEntity
  8
1
370
    13
100
AcDbLine
 10
33.628486
 20
-23.584676
 30
0.0
 11
33.615191
 21
-23.496398
 31
0.0
  0
LINE
  5
2E9
330
1F
100
AcDbEntity
  8
1
370
    13
100
AcDbLine
 10
34.296015
 20
27.136281
 30
0.0
 11
34.746861
 21
27.13711
 31
0.0
  0
LINE
  5
2EA
330
1F
100
AcDbEntity
  8
1
370
    13
100
AcDbLine
 10
31.568357
 20
-1.775294
 30
0.0
 11
31.857948
 21
-1.903008
 31
0.0
  0
LINE
  5
2EB
330
1F
100
AcDbEntity
  8
1
370
    13
100
AcDbLine
 10
36.35839
 20
-1.109435
 30
0.0
 11
36.586774
 21
-0.890385
 31
0.0
  0
LINE
  5
2EC
330
1F
100
AcDbEntity
  8
1
370
    13
100
AcDbLine
 10
31.522982
 20
9.927709
 30
0.0
 11
30.563463
 21
9.643561
 31
0.0
  0
LINE
  5
2ED
330
1F
100
AcDbEntity
  8
1
370
    13
100
AcDbLine
 10
31.654863
 20
9.956929
 30
0.0
 11
31.522981
 21
9.927709
 31
0.0
  0
LINE
  5
2EE
330
1F
100
AcDbEntity
  8
1
370
    13
100
AcDbLine
 10
33.215319
 20
-25.50191
 30
0.0
 11
33.451918
 21
-25.311953
 31
0.0
  0
LINE
  5
2EF
330
1F
100
AcDbEntity
  8
1
370
    13
100
AcDbLine
 10
35.364356
 20
26.646361
 30
0.0
 11
35.326304
 21
26.598143
 31
0.0
  0
LINE
  5
2F0
330
1F
100
AcDbEntity
  8
1
370
    13
100
AcDbLine
 10
35.364356
 20
26.646361
 30
0.0
 11
35.405144
 21
26.743011
 31
0.0
  0
LINE
  5
2F1
330
1F
100
AcDbEntity
  8
1
370
    13
100
AcDbLine
 10
34.885126
 20
27.226705
 30
0.0
 11
34.792002
 21
27.178736
 31
0.0
  0
LINE
  5
2F2
330
1F
100
AcDbEntity
  8
1
370
    13
100
AcDbLine
 10
34.746861
 20
27.13711
 30
0.0
 11
34.792002
 21
27.178736
 31
0.0
  0
LINE
  5
2F3
330
1F
100
AcDbEntity
  8
1
370
    13
100
AcDbLine
 10
32.890193
 20
29.729804
 30
0.0
 11
32.871074
 21
29.82791
 31
0.0
  0
LINE
  5
2F4
330
1F
100
AcDbEntity
  8
1
370
    13
100
AcDbLine
 10
35.380427
 20
-1.455248
 30
0.0
 11
34.912201
 21
-1.626971
 31
0.0
  0
LINE
  5
2F5
330
1F
100
AcDbEntity
  8
1
370
    13
100
AcDbLine
 10
35.442225
 20
-1.446136
 30
0.0
 11
35.380427
 21
-1.455248
 31
0.0
  0
LINE
  5
2F6
330
1F
100
AcDbEntity
  8
1
370
    13
100
AcDbLine
 10
35.442225
 20
-1.446136
 30
0.0
 11
35.547424
 21
-1.425742
 31
0.0
  0
LINE
  5
2F7
330
1F
100
AcDbEntity
  8
1
370
    13
100
AcDbLine
 10
35.692911
 20
-1.280228
 30
0.0
 11
35.602354
 21
-1.285977
 31
0.0
  0
LINE
  5
2F8
330
1F
100
AcDbEntity
  8
1
370
    13
100
AcDbLine
 10
35.542539
 20
-1.293106
 30
0.0
 11
35.602354
 21
-1.285977
 31
0.0
  0
LINE
  5
2F9
330
1F
100
AcDbEntity
  8
1
370
    13
100
AcDbLine
 10
35.405144
 20
-1.173345
 30
0.0
 11
34.885126
 21
-1.17975
 31
0.0
  0
LINE
  5
2FA
330
1F
100
AcDbEntity
  8
1
370
    13
100
AcDbLine
 10
34.885126
 20
-1.17975
 30
0.0
 11
34.792002
 21
-1.204629
 31
0.0
  0
LINE
  5
2FB
330
1F
100
AcDbEntity
  8
1
370
    13
100
AcDbLine
 10
34.062399
 20
-1.311336
 30
0.0
 11
34.746861
 21
-1.219928
 31
0.0
  0
LINE
  5
2FC
330
1F
100
AcDbEntity
  8
1
370
    13
100
AcDbLine
 10
34.038653
 20
-1.305236
 30
0.0
 11
33.974243
 21
-1.301396
 31
0.0
  0
LINE
  5
2FD
330
1F
100
AcDbEntity
  8
1
370
    13
100
AcDbLine
 10
33.974243
 20
-1.301396
 30
0.0
 11
33.308737
 21
-1.453315
 31
0.0
  0
LINE
  5
2FE
330
1F
100
AcDbEntity
  8
1
370
    13
100
AcDbLine
 10
32.79082
 20
16.73842
 30
0.0
 11
32.852618
 21
16.738302
 31
0.0
  0
LINE
  5
2FF
330
1F
100
AcDbEntity
  8
1
370
    13
100
AcDbLine
 10
32.79082
 20
16.73842
 30
0.0
 11
32.685621
 21
16.716317
 31
0.0
  0
LINE
  5
300
330
1F
100
AcDbEntity
  8
1
370
    13
100
AcDbLine
 10
32.540134
 20
16.149791
 30
0.0
 11
32.630691
 21
16.114877
 31
0.0
  0
LINE
  5
301
330
1F
100
AcDbEntity
  8
1
370
    13
100
AcDbLine
 10
32.690505
 20
16.107037
 30
0.0
 11
32.630691
 21
16.114877
 31
0.0
  0
LINE
  5
302
330
1F
100
AcDbEntity
  8
1
370
    13
100
AcDbLine
 10
32.868689
 20
15.550222
 30
0.0
 11
32.906741
 21
15.594013
 31
0.0
  0
LINE
  5
303
330
1F
100
AcDbEntity
  8
1
370
    13
100
AcDbLine
 10
32.868689
 20
15.550222
 30
0.0
 11
32.827901
 21
15.467059
 31
0.0
  0
LINE
  5
304
330
1F
100
AcDbEntity
  8
1
370
    13
100
AcDbLine
 10
35.442225
 20
15.930874
 30
0.0
 11
35.380427
 21
15.930993
 31
0.0
  0
LINE
  5
305
330
1F
100
AcDbEntity
  8
1
370
    13
100
AcDbLine
 10
35.442225
 20
15.930874
 30
0.0
 11
35.547424
 21
15.952977
 31
0.0
  0
LINE
  5
306
330
1F
100
AcDbEntity
  8
1
370
    13
100
AcDbLine
 10
35.692911
 20
16.519503
 30
0.0
 11
35.602354
 21
16.554417
 31
0.0
  0
LINE
  5
307
330
1F
100
AcDbEntity
  8
1
370
    13
100
AcDbLine
 10
35.542539
 20
16.562258
 30
0.0
 11
35.602354
 21
16.554417
 31
0.0
  0
LINE
  5
308
330
1F
100
AcDbEntity
  8
1
370
    13
100
AcDbLine
 10
35.364356
 20
17.119073
 30
0.0
 11
35.326304
 21
17.075281
 31
0.0
  0
LINE
  5
309
330
1F
100
AcDbEntity
  8
1
370
    13
100
AcDbLine
 10
35.364356
 20
17.119073
 30
0.0
 11
35.405144
 21
17.202236
 31
0.0
  0
LINE
  5
30A
330
1F
100
AcDbEntity
  8
1
370
    13
100
AcDbLine
 10
34.885126
 20
17.524292
 30
0.0
 11
34.792002
 21
17.473542
 31
0.0
  0
LINE
  5
30B
330
1F
100
AcDbEntity
  8
1
370
    13
100
AcDbLine
 10
34.746861
 20
17.434141
 30
0.0
 11
34.792002
 21
17.473542
 31
0.0
  0
LINE
  5
30C
330
1F
100
AcDbEntity
  8
1
370
    13
100
AcDbLine
 10
34.038653
 20
17.522846
 30
0.0
 11
33.974243
 21
17.583906
 31
0.0
  0
LINE
  5
30D
330
1F
100
AcDbEntity
  8
1
370
    13
100
AcDbLine
 10
33.308737
 20
17.339436
 30
0.0
 11
33.30617
 21
17.253772
 31
0.0
  0
LINE
  5
30E
330
1F
100
AcDbEntity
  8
1
370
    13
100
AcDbLine
 10
32.852618
 20
-1.652338
 30
0.0
 11
33.320844
 21
-1.480615
 31
0.0
  0
LINE
  5
30F
330
1F
100
AcDbEntity
  8
1
370
    13
100
AcDbLine
 10
32.79082
 20
-1.661451
 30
0.0
 11
32.852618
 21
-1.652338
 31
0.0
  0
LINE
  5
310
330
1F
100
AcDbEntity
  8
1
370
    13
100
AcDbLine
 10
32.79082
 20
-1.661451
 30
0.0
 11
32.685621
 21
-1.681844
 31
0.0
  0
LINE
  5
311
330
1F
100
AcDbEntity
  8
1
370
    13
100
AcDbLine
 10
32.540134
 20
-1.827358
 30
0.0
 11
32.630691
 21
-1.82161
 31
0.0
  0
LINE
  5
312
330
1F
100
AcDbEntity
  8
1
370
    13
100
AcDbLine
 10
32.690505
 20
-1.814481
 30
0.0
 11
32.630691
 21
-1.82161
 31
0.0
  0
LINE
  5
313
330
1F
100
AcDbEntity
  8
1
370
    13
100
AcDbLine
 10
32.827901
 20
-1.934241
 30
0.0
 11
33.347919
 21
-1.927836
 31
0.0
  0
LINE
  5
314
330
1F
100
AcDbEntity
  8
1
370
    13
100
AcDbLine
 10
33.347919
 20
-1.927836
 30
0.0
 11
33.441043
 21
-1.902958
 31
0.0
  0
LINE
  5
315
330
1F
100
AcDbEntity
  8
1
370
    13
100
AcDbLine
 10
34.170646
 20
-1.79625
 30
0.0
 11
33.486184
 21
-1.887659
 31
0.0
  0
LINE
  5
316
330
1F
100
AcDbEntity
  8
1
370
    13
100
AcDbLine
 10
31.301586
 20
16.212614
 30
0.0
 11
31.360825
 21
15.548589
 31
0.0
  0
LINE
  5
317
330
1F
100
AcDbEntity
  8
1
370
    13
100
AcDbLine
 10
36.520839
 20
-23.329947
 30
0.0
 11
36.338788
 21
-23.202248
 31
0.0
  0
LINE
  5
318
330
1F
100
AcDbEntity
  8
1
370
    13
100
AcDbLine
 10
37.552155
 20
25.932467
 30
0.0
 11
37.733895
 21
26.203869
 31
0.0
  0
LINE
  5
319
330
1F
100
AcDbEntity
  8
1
370
    13
100
AcDbLine
 10
26.405425
 20
-20.524187
 30
0.0
 11
27.793196
 21
-19.110382
 31
0.0
  0
LINE
  5
31A
330
1F
100
AcDbEntity
  8
1
370
    13
100
AcDbLine
 10
28.434478
 20
26.42488
 30
0.0
 11
28.588977
 21
25.733004
 31
0.0
  0
LINE
  5
31B
330
1F
100
AcDbEntity
  8
1
370
    13
100
AcDbLine
 10
26.405425
 20
0.797188
 30
0.0
 11
27.85221
 21
0.2154
 31
0.0
  0
LINE
  5
31C
330
1F
100
AcDbEntity
  8
1
370
    13
100
AcDbLine
 10
28.578566
 20
-2.887028
 30
0.0
 11
29.2283
 21
-4.012642
 31
0.0
  0
LINE
  5
31D
330
1F
100
AcDbEntity
  8
1
370
    13
100
AcDbLine
 10
38.367419
 20
4.161425
 30
0.0
 11
38.424874
 21
4.395201
 31
0.0
  0
LINE
  5
31E
330
1F
100
AcDbEntity
  8
1
370
    13
100
AcDbLine
 10
33.862007
 20
10.522477
 30
0.0
 11
33.978832
 21
10.668738
 31
0.0
  0
LINE
  5
31F
330
1F
100
AcDbEntity
  8
1
370
    13
100
AcDbLine
 10
33.978832
 20
10.668738
 30
0.0
 11
34.433945
 21
10.764013
 31
0.0
  0
LINE
  5
320
330
1F
100
AcDbEntity
  8
1
370
    13
100
AcDbLine
 10
34.980062
 20
-7.757764
 30
0.0
 11
34.821005
 21
-7.868418
 31
0.0
  0
LINE
  5
321
330
1F
100
AcDbEntity
  8
1
370
    13
100
AcDbLine
 10
32.323013
 20
-12.222193
 30
0.0
 11
32.402185
 21
-13.199547
 31
0.0
  0
LINE
  5
322
330
1F
100
AcDbEntity
  8
1
370
    13
100
AcDbLine
 10
33.664259
 20
-8.176653
 30
0.0
 11
34.433945
 21
-8.070026
 31
0.0
  0
LINE
  5
323
330
1F
100
AcDbEntity
  8
1
370
    13
100
AcDbLine
 10
28.119197
 20
-12.450597
 30
0.0
 11
28.187334
 21
-13.113959
 31
0.0
  0
LINE
  5
324
330
1F
100
AcDbEntity
  8
1
370
    13
100
AcDbLine
 10
36.797753
 20
-7.731765
 30
0.0
 11
38.188893
 21
-7.51842
 31
0.0
  0
LINE
  5
325
330
1F
100
AcDbEntity
  8
1
370
    13
100
AcDbLine
 10
36.797753
 20
11.261042
 30
0.0
 11
38.188893
 21
11.556676
 31
0.0
  0
LINE
  5
326
330
1F
100
AcDbEntity
  8
1
370
    13
100
AcDbLine
 10
0.5
 20
-6.976746
 30
0.0
 11
1.0
 21
-5.0975
 31
0.0
  0
LINE
  5
327
330
1F
100
AcDbEntity
  8
1
370
    13
100
AcDbLine
 10
1.0
 20
5.0975
 30
0.0
 11
0.5
 21
6.976746
 31
0.0
  0
LINE
  5
328
330
1F
100
AcDbEntity
  8
1
370
    13
100
AcDbLine
 10
29.2283
 20
-4.012642
 30
0.0
 11
29.500608
 21
-4.726967
 31
0.0
  0
LINE
  5
329
330
1F
100
AcDbEntity
  8
1
370
    13
100
AcDbLine
 10
28.449058
 20
26.474726
 30
0.0
 11
28.434478
 21
26.42488
 31
0.0
  0
LINE
  5
32A
330
1F
100
AcDbEntity
  8
1
370
    13
100
AcDbLine
 10
28.077958
 20
26.35312
 30
0.0
 11
28.187334
 21
25.800729
 31
0.0
  0
LINE
  5
32B
330
1F
100
AcDbEntity
  8
1
370
    13
100
AcDbLine
 10
32.293377
 20
27.333706
 30
0.0
 11
32.402185
 21
26.702443
 31
0.0
  0
LINE
  5
32C
330
1F
100
AcDbEntity
  8
1
370
    13
100
AcDbLine
 10
36.797753
 20
-23.533584
 30
0.0
 11
38.188893
 21
-23.535261
 31
0.0
  0
LINE
  5
32D
330
1F
100
AcDbEntity
  8
1
370
    13
100
AcDbLine
 10
33.636926
 20
-28.369061
 30
0.0
 11
33.648394
 21
-28.48111
 31
0.0
  0
LINE
  5
32E
330
1F
100
AcDbEntity
  8
1
370
    13
100
AcDbLine
 10
33.793188
 20
-24.300913
 30
0.0
 11
33.911356
 21
-23.490439
 31
0.0
  0
LINE
  5
32F
330
1F
100
AcDbEntity
  8
1
370
    13
100
AcDbLine
 10
36.520839
 20
11.187815
 30
0.0
 11
34.821005
 21
10.811786
 31
0.0
  0
LINE
  5
330
330
1F
100
AcDbEntity
  8
1
370
    13
100
AcDbLine
 10
37.733895
 20
11.186194
 30
0.0
 11
36.797753
 21
11.261042
 31
0.0
  0
LINE
  5
331
330
1F
100
AcDbEntity
  8
1
370
    13
100
AcDbLine
 10
33.58098
 20
9.991604
 30
0.0
 11
33.648394
 21
9.721298
 31
0.0
  0
LINE
  5
332
330
1F
100
AcDbEntity
  8
4
370
    13
100
AcDbLine
 10
-2.0
 20
0.0
 30
0.0
 11
42.0
 21
0.0
 31
0.0
  0
LINE
  5
333
330
1F
100
AcDbEntity
  8
SK4
370
    13
100
AcDbLine
 10
-2.0
 20
0.0
 30
0.0
 11
42.0
 21
0.0
 31
0.0
  0
ARC
  5
334
330
1F
100
AcDbEntity
  8
1
370
    13
100
AcDbCircle
 10
32.959179
 20
5.009827
 30
0.0
 40
6.999999999999999
100
AcDbArc
 50
291.235372
 51
299.051803
  0
ARC
  5
335
330
1F
100
AcDbEntity
  8
1
370
    13
100
AcDbCircle
 10
32.959179
 20
5.009827
 30
0.0
 40
6.999999999999999
100
AcDbArc
 50
260.948197
 51
268.764628
  0
ARC
  5
336
330
1F
100
AcDbEntity
  8
NOCUT
370
    13
100
AcDbCircle
 10
10.765042
 20
28.5
 30
0.0
 40
5.0
100
AcDbArc
 50
270.0
 51
297.747805
  0
ARC
  5
337
330
1F
100
AcDbEntity
  8
NOCUT
370
    13
100
AcDbCircle
 10
18.288128
 20
10.329686
 30
0.0
 40
0.4
100
AcDbArc
 50
40.0
 51
120.0
  0
ARC
  5
338
330
1F
100
AcDbEntity
  8
NOCUT
370
    13
100
AcDbCircle
 10
36.83412
 20
-9.0
 30
0.0
 40
1.0
100
AcDbArc
 50
5.0
 51
90.0
  0
ARC
  5
339
330
1F
100
AcDbEntity
  8
NOCUT
370
    13
100
AcDbCircle
 10
26.4
 20
-7.6
 30
0.0
 40
0.4
100
AcDbArc
 50
180.0
 51
270.0
  0
ARC
  5
33A
330
1F
100
AcDbEntity
  8
NOCUT
370
    13
100
AcDbCircle
 10
28.187334
 20
39.149998
 30
0.0
 40
10.0
100
AcDbArc
 50
270.0
 51
287.649932
  0
ARC
  5
33B
330
1F
100
AcDbEntity
  8
NOCUT
370
    13
100
AcDbCircle
 10
18.288128
 20
-10.329686
 30
0.0
 40
0.4
100
AcDbArc
 50
240.0
 51
320.0
  0
ARC
  5
33C
330
1F
100
AcDbEntity
  8
NOCUT
370
    13
100
AcDbCircle
 10
37.103925
 20
23.557603
 30
0.0
 40
2.0
100
AcDbArc
 50
355.0
 51
17.4681
  0
ARC
  5
33D
330
1F
100
AcDbEntity
  8
NOCUT
370
    13
100
AcDbCircle
 10
10.765042
 20
-28.5
 30
0.0
 40
5.0
100
AcDbArc
 50
62.252195
 51
90.0
  0
ARC
  5
33E
330
1F
100
AcDbEntity
  8
NOCUT
370
    13
100
AcDbCircle
 10
23.974836
 20
24.149998
 30
0.0
 40
5.0
100
AcDbArc
 50
90.0
 51
117.747805
  0
ARC
  5
33F
330
1F
100
AcDbEntity
  8
NOCUT
370
    13
100
AcDbCircle
 10
28.187334
 20
-39.149998
 30
0.0
 40
10.0
100
AcDbArc
 50
72.350068
 51
90.0
  0
ARC
  5
340
330
1F
100
AcDbEntity
  8
NOCUT
370
    13
100
AcDbCircle
 10
36.83412
 20
9.0
 30
0.0
 40
1.0
100
AcDbArc
 50
270.0
 51
355.0
  0
ARC
  5
341
330
1F
100
AcDbEntity
  8
NOCUT
370
    13
100
AcDbCircle
 10
34.781612
 20
27.605972
 30
0.0
 40
3.0
100
AcDbArc
 50
17.4681
 51
107.649932
  0
ARC
  5
342
330
1F
100
AcDbEntity
  8
NOCUT
370
    13
100
AcDbCircle
 10
23.974836
 20
-24.149998
 30
0.0
 40
5.0
100
AcDbArc
 50
242.252195
 51
270.0
  0
ARC
  5
343
330
1F
100
AcDbEntity
  8
NOCUT
370
    13
100
AcDbCircle
 10
20.1
 20
8.170382
 30
0.0
 40
0.4
100
AcDbArc
 50
0.0
 51
40.0
  0
ARC
  5
344
330
1F
100
AcDbEntity
  8
NOCUT
370
    13
100
AcDbCircle
 10
34.781612
 20
-27.605972
 30
0.0
 40
3.0
100
AcDbArc
 50
252.350068
 51
342.5319
  0
ARC
  5
345
330
1F
100
AcDbEntity
  8
NOCUT
370
    13
100
AcDbCircle
 10
26.4
 20
7.6
 30
0.0
 40
0.4
100
AcDbArc
 50
90.0
 51
180.0
  0
ARC
  5
346
330
1F
100
AcDbEntity
  8
NOCUT
370
    13
100
AcDbCircle
 10
37.103925
 20
-23.557603
 30
0.0
 40
2.0
100
AcDbArc
 50
342.5319
 51
5.0
  0
ARC
  5
347
330
1F
100
AcDbEntity
  8
NOCUT
370
    13
100
AcDbCircle
 10
20.1
 20
-8.170382
 30
0.0
 40
0.4
100
AcDbArc
 50
320.0
 51
0.0
  0
ARC
  5
348
330
1F
100
AcDbEntity
  8
1
370
    13
100
AcDbCircle
 10
-10.765042
 20
-28.5
 30
0.0
 40
5.0
210
0.0
220
0.0
230
-1.0
100
AcDbArc
 50
101.759865
 51
117.747805
  0
ARC
  5
349
330
1F
100
AcDbEntity
  8
1
370
    13
100
AcDbCircle
 10
-10.765042
 20
28.5
 30
0.0
 40
5.0
210
0.0
220
0.0
230
-1.0
100
AcDbArc
 50
242.252195
 51
258.240135
  0
ARC
  5
34A
330
1F
100
AcDbEntity
  8
1
370
    13
100
AcDbCircle
 10
-4.1
 20
-3.2975
 30
0.0
 40
0.8
210
0.0
220
0.0
230
-1.0
100
AcDbArc
 50
180.0
 51
270.0
  0
ARC
  5
34B
330
1F
100
AcDbEntity
  8
1
370
    13
100
AcDbCircle
 10
4.1
 20
3.2975
 30
0.0
 40
0.8
100
AcDbArc
 50
0.0
 51
90.0
  0
ARC
  5
34C
330
1F
100
AcDbEntity
  8
CUT
370
    13
100
AcDbCircle
 10
-30.005967
 20
28.203645
 30
0.0
 40
1.499548553842596
210
0.0
220
0.0
230
-1.0
100
AcDbArc
 50
9.703105
 51
45.039463
  0
ARC
  5
34D
330
1F
100
AcDbEntity
  8
CUT
370
    13
100
AcDbCircle
 10
-32.108682
 20
21.889566
 30
0.0
 40
1.558797103165639
210
0.0
220
0.0
230
-1.0
100
AcDbArc
 50
280.926788
 51
315.762271
  0
ARC
  5
34E
330
1F
100
AcDbEntity
  8
CUT
370
    13
100
AcDbCircle
 10
-36.153931
 20
29.819377
 30
0.0
 40
1.721103408793564
210
0.0
220
0.0
230
-1.0
100
AcDbArc
 50
102.614333
 51
134.074725
  0
ARC
  5
34F
330
1F
100
AcDbEntity
  8
CUT
370
    13
100
AcDbCircle
 10
-38.299513
 20
23.673747
 30
0.0
 40
1.539862942359336
210
0.0
220
0.0
230
-1.0
100
AcDbArc
 50
190.180281
 51
224.562287
  0
ARC
  5
350
330
1F
100
AcDbEntity
  8
1
370
    13
100
AcDbCircle
 10
21.083975
 20
12.960191
 30
0.0
 40
13.50241194956438
100
AcDbArc
 50
117.104677
 51
120.977615
  0
ARC
  5
351
330
1F
100
AcDbEntity
  8
1
370
    13
100
AcDbCircle
 10
14.25915
 20
24.06341
 30
0.0
 40
0.4895267169557969
100
AcDbArc
 50
104.783216
 51
155.718272
  0
ARC
  5
352
330
1F
100
AcDbEntity
  8
1
370
    13
100
AcDbCircle
 10
27.22641
 20
-20.575231
 30
0.0
 40
1.686771519698987
100
AcDbArc
 50
82.932673
 51
124.565237
  0
ARC
  5
353
330
1F
100
AcDbEntity
  8
1
370
    13
100
AcDbCircle
 10
26.65379
 20
-19.82408
 30
0.0
 40
0.7447251204539902
100
AcDbArc
 50
121.071718
 51
197.334192
  0
ARC
  5
354
330
1F
100
AcDbEntity
  8
1
370
    13
100
AcDbCircle
 10
26.806153
 20
-19.673809
 30
0.0
 40
0.940067425112005
100
AcDbArc
 50
203.321142
 51
244.768653
  0
ARC
  5
355
330
1F
100
AcDbEntity
  8
1
370
    13
100
AcDbCircle
 10
33187.999926
 20
-584613.967795
 30
0.0
 40
585538.2049949077
210
0.0
220
0.0
230
-1.0
100
AcDbArc
 50
93.252386
 51
93.252467
  0
ARC
  5
356
330
1F
100
AcDbEntity
  8
1
370
    13
100
AcDbCircle
 10
37.81798
 20
65.296685
 30
0.0
 40
84.36741953166661
100
AcDbArc
 50
266.700226
 51
267.14489
  0
ARC
  5
357
330
1F
100
AcDbEntity
  8
1
370
    13
100
AcDbCircle
 10
34.581871
 20
26.397794
 30
0.0
 40
0.5876076120909876
100
AcDbArc
 50
27.889553
 51
84.239016
  0
ARC
  5
358
330
1F
100
AcDbEntity
  8
1
370
    13
100
AcDbCircle
 10
-32.08132
 20
-5.977898
 30
0.0
 40
2.309669396025803
210
0.0
220
0.0
230
-1.0
100
AcDbArc
 50
318.066125
 51
345.209939
  0
ARC
  5
359
330
1F
100
AcDbEntity
  8
1
370
    13
100
AcDbCircle
 10
-3.430604
 20
-3.765456
 30
0.0
 40
1.469855790875751
210
0.0
220
0.0
230
-1.0
100
AcDbArc
 50
181.432894
 51
212.678493
  0
ARC
  5
35A
330
1F
100
AcDbEntity
  8
1
370
    13
100
AcDbCircle
 10
-3.154105
 20
-3.671284
 30
0.0
 40
1.754832112784572
210
0.0
220
0.0
230
-1.0
100
AcDbArc
 50
210.391628
 51
230.806189
  0
ARC
  5
35B
330
1F
100
AcDbEntity
  8
1
370
    13
100
AcDbCircle
 10
-3.936437
 20
4.497628
 30
0.0
 40
0.621770996836516
210
0.0
220
0.0
230
-1.0
100
AcDbArc
 50
105.251673
 51
142.353756
  0
ARC
  5
35C
330
1F
100
AcDbEntity
  8
1
370
    13
100
AcDbCircle
 10
-3.036417
 20
3.582806
 30
0.0
 40
1.90120066588387
210
0.0
220
0.0
230
-1.0
100
AcDbArc
 50
137.083413
 51
161.152846
  0
ARC
  5
35D
330
1F
100
AcDbEntity
  8
1
370
    13
100
AcDbCircle
 10
-25.290508
 20
-6.129472
 30
0.0
 40
4.437563108686772
210
0.0
220
0.0
230
-1.0
100
AcDbArc
 50
161.575596
 51
173.952463
  0
ARC
  5
35E
330
1F
100
AcDbEntity
  8
1
370
    13
100
AcDbCircle
 10
-26.760053
 20
-19.758519
 30
0.0
 40
0.9739851284893661
210
0.0
220
0.0
230
-1.0
100
AcDbArc
 50
297.569471
 51
343.265036
  0
ARC
  5
35F
330
1F
100
AcDbEntity
  8
1
370
    13
100
AcDbCircle
 10
-26.517882
 20
-19.871355
 30
0.0
 40
0.7106151156826285
210
0.0
220
0.0
230
-1.0
100
AcDbArc
 50
346.356668
 51
29.977973
  0
ARC
  5
360
330
1F
100
AcDbEntity
  8
1
370
    13
100
AcDbCircle
 10
-27.07931
 20
-20.301711
 30
0.0
 40
1.414978537841176
210
0.0
220
0.0
230
-1.0
100
AcDbArc
 50
33.716228
 51
87.165604
  0
ARC
  5
361
330
1F
100
AcDbEntity
  8
1
370
    13
100
AcDbCircle
 10
-47.245976
 20
-13.209947
 30
0.0
 40
22.20991485356772
210
0.0
220
0.0
230
-1.0
100
AcDbArc
 50
339.021847
 51
339.848659
  0
ARC
  5
362
330
1F
100
AcDbEntity
  8
1
370
    13
100
AcDbCircle
 10
-47.818699
 20
-12.99972
 30
0.0
 40
22.82000202992871
210
0.0
220
0.0
230
-1.0
100
AcDbArc
 50
339.848521
 51
340.487473
  0
ARC
  5
363
330
1F
100
AcDbEntity
  8
1
370
    13
100
AcDbCircle
 10
15.165986
 20
-2.188591
 30
0.0
 40
1.258259147573302
100
AcDbArc
 50
100.715325
 51
137.665738
  0
ARC
  5
364
330
1F
100
AcDbEntity
  8
1
370
    13
100
AcDbCircle
 10
15.434625
 20
-2.408277
 30
0.0
 40
1.604900632657417
100
AcDbArc
 50
138.326855
 51
168.923862
  0
ARC
  5
365
330
1F
100
AcDbEntity
  8
1
370
    13
100
AcDbCircle
 10
16.639948
 20
-2.580005
 30
0.0
 40
2.82146667781495
100
AcDbArc
 50
170.203907
 51
206.471693
  0
ARC
  5
366
330
1F
100
AcDbEntity
  8
1
370
    13
100
AcDbCircle
 10
-23.747111
 20
-9.088009
 30
0.0
 40
4.066632713408679
210
0.0
220
0.0
230
-1.0
100
AcDbArc
 50
266.789841
 51
286.123905
  0
ARC
  5
367
330
1F
100
AcDbEntity
  8
1
370
    13
100
AcDbCircle
 10
23.241054
 20
-14.19406
 30
0.0
 40
11.84154939829276
100
AcDbArc
 50
52.723458
 51
58.381694
  0
ARC
  5
368
330
1F
100
AcDbEntity
  8
1
370
    13
100
AcDbCircle
 10
-11.861162
 20
46.481123
 30
0.0
 40
43.89092643192063
210
0.0
220
0.0
230
-1.0
100
AcDbArc
 50
231.786686
 51
232.395553
  0
ARC
  5
369
330
1F
100
AcDbEntity
  8
1
370
    13
100
AcDbCircle
 10
-7.169492
 20
52.565004
 30
0.0
 40
51.57372249259696
210
0.0
220
0.0
230
-1.0
100
AcDbArc
 50
232.390538
 51
232.804794
  0
ARC
  5
36A
330
1F
100
AcDbEntity
  8
1
370
    13
100
AcDbCircle
 10
-41.95733
 20
-9.988015
 30
0.0
 40
8.734602328848284
210
0.0
220
0.0
230
-1.0
100
AcDbArc
 50
337.768953
 51
341.606726
  0
ARC
  5
36B
330
1F
100
AcDbEntity
  8
1
370
    13
100
AcDbCircle
 10
-42.043798
 20
-9.959564
 30
0.0
 40
8.82562975690708
210
0.0
220
0.0
230
-1.0
100
AcDbArc
 50
341.608587
 51
344.584261
  0
ARC
  5
36C
330
1F
100
AcDbEntity
  8
1
370
    13
100
AcDbCircle
 10
-34.552919
 20
-15.21832
 30
0.0
 40
3.6785474195251
210
0.0
220
0.0
230
-1.0
100
AcDbArc
 50
222.765736
 51
247.633285
  0
ARC
  5
36D
330
1F
100
AcDbEntity
  8
1
370
    13
100
AcDbCircle
 10
-34.330091
 20
-15.035493
 30
0.0
 40
3.932063271964645
210
0.0
220
0.0
230
-1.0
100
AcDbArc
 50
248.139566
 51
270.490062
  0
ARC
  5
36E
330
1F
100
AcDbEntity
  8
1
370
    13
100
AcDbCircle
 10
30.725571
 20
-29.341275
 30
0.0
 40
16.18953648781032
100
AcDbArc
 50
88.252256
 51
98.926124
  0
ARC
  5
36F
330
1F
100
AcDbEntity
  8
1
370
    13
100
AcDbCircle
 10
110.586919
 20
39.241429
 30
0.0
 40
156.0952006673737
210
0.0
220
0.0
230
-1.0
100
AcDbArc
 50
196.588358
 51
197.05511
  0
ARC
  5
370
330
1F
100
AcDbEntity
  8
1
370
    13
100
AcDbCircle
 10
130.24315
 20
45.26664
 30
0.0
 40
176.6541533745114
210
0.0
220
0.0
230
-1.0
100
AcDbArc
 50
197.053565
 51
197.37817
  0
ARC
  5
371
330
1F
100
AcDbEntity
  8
1
370
    13
100
AcDbCircle
 10
24.819713
 20
20.48055
 30
0.0
 40
12.76155577686373
100
AcDbArc
 50
212.977961
 51
228.25942
  0
ARC
  5
372
330
1F
100
AcDbEntity
  8
1
370
    13
100
AcDbCircle
 10
24.689049
 20
20.335638
 30
0.0
 40
12.56643683284319
100
AcDbArc
 50
228.26407
 51
242.92208
  0
ARC
  5
373
330
1F
100
AcDbEntity
  8
1
370
    13
100
AcDbCircle
 10
24.59291
 20
20.153925
 30
0.0
 40
12.36087915759247
100
AcDbArc
 50
242.935455
 51
256.480541
  0
ARC
  5
374
330
1F
100
AcDbEntity
  8
1
370
    13
100
AcDbCircle
 10
23.451073
 20
15.687705
 30
0.0
 40
7.751763634854787
100
AcDbArc
 50
256.969143
 51
273.832227
  0
ARC
  5
375
330
1F
100
AcDbEntity
  8
1
370
    13
100
AcDbCircle
 10
-420.861487
 20
-736.317444
 30
0.0
 40
862.800491894099
210
0.0
220
0.0
230
-1.0
100
AcDbArc
 50
61.932215
 51
62.215855
  0
ARC
  5
376
330
1F
100
AcDbEntity
  8
1
370
    13
100
AcDbCircle
 10
-528.901962
 20
-941.29138
 30
0.0
 40
1094.50516963293
210
0.0
220
0.0
230
-1.0
100
AcDbArc
 50
62.213888
 51
62.389655
  0
ARC
  5
377
330
1F
100
AcDbEntity
  8
1
370
    13
100
AcDbCircle
 10
-13.840611
 20
24.848176
 30
0.0
 40
0.6259996291490786
210
0.0
220
0.0
230
-1.0
100
AcDbArc
 50
255.166995
 51
279.368622
  0
ARC
  5
378
330
1F
100
AcDbEntity
  8
1
370
    13
100
AcDbCircle
 10
-20.239247
 20
14.464405
 30
0.0
 40
11.82048809828092
210
0.0
220
0.0
230
-1.0
100
AcDbArc
 50
57.600799
 51
63.148667
  0
ARC
  5
379
330
1F
100
AcDbEntity
  8
1
370
    13
100
AcDbCircle
 10
-12.572922
 20
56.580641
 30
0.0
 40
32.22544916255839
210
0.0
220
0.0
230
-1.0
100
AcDbArc
 50
253.64553
 51
259.941226
  0
ARC
  5
37A
330
1F
100
AcDbEntity
  8
1
370
    13
100
AcDbCircle
 10
-8.584124
 20
80.480646
 30
0.0
 40
56.45530582864578
210
0.0
220
0.0
230
-1.0
100
AcDbArc
 50
260.191749
 51
263.260857
  0
ARC
  5
37B
330
1F
100
AcDbEntity
  8
1
370
    13
100
AcDbCircle
 10
-327.862988
 20
-599.594804
 30
0.0
 40
690.8057265872072
210
0.0
220
0.0
230
-1.0
100
AcDbArc
 50
63.06109
 51
63.411652
  0
ARC
  5
37C
330
1F
100
AcDbEntity
  8
1
370
    13
100
AcDbCircle
 10
-408.370737
 20
-760.338811
 30
0.0
 40
870.583732723656
210
0.0
220
0.0
230
-1.0
100
AcDbArc
 50
63.408473
 51
63.627062
  0
ARC
  5
37D
330
1F
100
AcDbEntity
  8
1
370
    13
100
AcDbCircle
 10
-15.462232
 20
14.479049
 30
0.0
 40
1.751896692516892
210
0.0
220
0.0
230
-1.0
100
AcDbArc
 50
326.52854
 51
1.561167
  0
ARC
  5
37E
330
1F
100
AcDbEntity
  8
1
370
    13
100
AcDbCircle
 10
-15.611574
 20
14.437039
 30
0.0
 40
1.902705434176799
210
0.0
220
0.0
230
-1.0
100
AcDbArc
 50
2.703292
 51
44.244562
  0
ARC
  5
37F
330
1F
100
AcDbEntity
  8
1
370
    13
100
AcDbCircle
 10
-24.548706
 20
20.133447
 30
0.0
 40
12.41394202905672
210
0.0
220
0.0
230
-1.0
100
AcDbArc
 50
283.518016
 51
300.75096
  0
ARC
  5
380
330
1F
100
AcDbEntity
  8
1
370
    13
100
AcDbCircle
 10
-24.726974
 20
20.435078
 30
0.0
 40
12.76431251545966
210
0.0
220
0.0
230
-1.0
100
AcDbArc
 50
300.746373
 51
318.216005
  0
ARC
  5
381
330
1F
100
AcDbEntity
  8
1
370
    13
100
AcDbCircle
 10
-31.21475
 20
3.47091
 30
0.0
 40
18.68234182917872
210
0.0
220
0.0
230
-1.0
100
AcDbArc
 50
300.805917
 51
314.15172
  0
ARC
  5
382
330
1F
100
AcDbEntity
  8
1
370
    13
100
AcDbCircle
 10
-31.479495
 20
3.751059
 30
0.0
 40
19.06775938744089
210
0.0
220
0.0
230
-1.0
100
AcDbArc
 50
314.136135
 51
325.963413
  0
ARC
  5
383
330
1F
100
AcDbEntity
  8
1
370
    13
100
AcDbCircle
 10
-32.060682
 20
4.114658
 30
0.0
 40
19.75290656129523
210
0.0
220
0.0
230
-1.0
100
AcDbArc
 50
326.033015
 51
336.104582
  0
ARC
  5
384
330
1F
100
AcDbEntity
  8
1
370
    13
100
AcDbCircle
 10
23.779657
 20
-9.028084
 30
0.0
 40
4.027989925246235
100
AcDbArc
 50
238.969284
 51
257.722748
  0
ARC
  5
385
330
1F
100
AcDbEntity
  8
1
370
    13
100
AcDbCircle
 10
38.461538
 20
-11.551763
 30
0.0
 40
4.771581961557391
100
AcDbArc
 50
200.530918
 51
220.098744
  0
ARC
  5
386
330
1F
100
AcDbEntity
  8
1
370
    13
100
AcDbCircle
 10
36.064427
 20
-13.554902
 30
0.0
 40
1.647752635250223
100
AcDbArc
 50
220.506414
 51
248.26811
  0
ARC
  5
387
330
1F
100
AcDbEntity
  8
1
370
    13
100
AcDbCircle
 10
35.759205
 20
-14.252665
 30
0.0
 40
0.8869261909874696
100
AcDbArc
 50
249.894434
 51
305.671926
  0
ARC
  5
388
330
1F
100
AcDbEntity
  8
1
370
    13
100
AcDbCircle
 10
35.085536
 20
-13.387719
 30
0.0
 40
1.982891552297136
100
AcDbArc
 50
306.911071
 51
334.42066
  0
ARC
  5
389
330
1F
100
AcDbEntity
  8
1
370
    13
100
AcDbCircle
 10
32.19827
 20
-11.901629
 30
0.0
 40
5.229647831237216
100
AcDbArc
 50
333.392625
 51
349.237298
  0
ARC
  5
38A
330
1F
100
AcDbEntity
  8
1
370
    13
100
AcDbCircle
 10
42.370113
 20
-9.858498
 30
0.0
 40
9.028446808120647
100
AcDbArc
 50
194.977686
 51
198.846624
  0
ARC
  5
38B
330
1F
100
AcDbEntity
  8
1
370
    13
100
AcDbCircle
 10
42.265677
 20
-9.894461
 30
0.0
 40
8.917992442357537
100
AcDbArc
 50
198.844708
 51
201.93085
  0
ARC
  5
38C
330
1F
100
AcDbEntity
  8
1
370
    13
100
AcDbCircle
 10
-29.751505
 20
-11.011
 30
0.0
 40
7.946949087515998
210
0.0
220
0.0
230
-1.0
100
AcDbArc
 50
186.756411
 51
201.105713
  0
ARC
  5
38D
330
1F
100
AcDbEntity
  8
1
370
    13
100
AcDbCircle
 10
-34.239623
 20
-12.731041
 30
0.0
 40
3.140555724816747
210
0.0
220
0.0
230
-1.0
100
AcDbArc
 50
201.314956
 51
220.237858
  0
ARC
  5
38E
330
1F
100
AcDbEntity
  8
1
370
    13
100
AcDbCircle
 10
-35.672625
 20
-13.984077
 30
0.0
 40
1.237617168459493
210
0.0
220
0.0
230
-1.0
100
AcDbArc
 50
218.808853
 51
262.022478
  0
ARC
  5
38F
330
1F
100
AcDbEntity
  8
1
370
    13
100
AcDbCircle
 10
-35.766897
 20
-14.039217
 30
0.0
 40
1.17306258372327
210
0.0
220
0.0
230
-1.0
100
AcDbArc
 50
266.21241
 51
306.507793
  0
ARC
  5
390
330
1F
100
AcDbEntity
  8
1
370
    13
100
AcDbCircle
 10
-36.74258
 20
-12.68935
 30
0.0
 40
2.838580832684221
210
0.0
220
0.0
230
-1.0
100
AcDbArc
 50
306.127329
 51
331.390255
  0
ARC
  5
391
330
1F
100
AcDbEntity
  8
1
370
    13
100
AcDbCircle
 10
-186.011996
 20
-853.650943
 30
0.0
 40
869.7735153469624
210
0.0
220
0.0
230
-1.0
100
AcDbArc
 50
78.654113
 51
78.907558
  0
ARC
  5
392
330
1F
100
AcDbEntity
  8
1
370
    13
100
AcDbCircle
 10
-229.223014
 20
-1073.750761
 30
0.0
 40
1094.0749181713
210
0.0
220
0.0
230
-1.0
100
AcDbArc
 50
78.90451
 51
79.063119
  0
ARC
  5
393
330
1F
100
AcDbEntity
  8
1
370
    13
100
AcDbCircle
 10
-16.942291
 20
-2.542687
 30
0.0
 40
3.233902207170017
210
0.0
220
0.0
230
-1.0
100
AcDbArc
 50
335.444362
 51
357.50796
  0
ARC
  5
394
330
1F
100
AcDbEntity
  8
1
370
    13
100
AcDbCircle
 10
-15.839462
 20
-2.576002
 30
0.0
 40
2.130718221324132
210
0.0
220
0.0
230
-1.0
100
AcDbArc
 50
357.113522
 51
25.935338
  0
ARC
  5
395
330
1F
100
AcDbEntity
  8
1
370
    13
100
AcDbCircle
 10
-15.235452
 20
-2.286649
 30
0.0
 40
1.460994167855818
210
0.0
220
0.0
230
-1.0
100
AcDbArc
 50
26.090494
 51
60.227853
  0
ARC
  5
396
330
1F
100
AcDbEntity
  8
1
370
    13
100
AcDbCircle
 10
709.348892
 20
2773.941262
 30
0.0
 40
2877.733734328571
100
AcDbArc
 50
256.035663
 51
256.113076
  0
ARC
  5
397
330
1F
100
AcDbEntity
  8
1
370
    13
100
AcDbCircle
 10
924.468296
 20
3644.128822
 30
0.0
 40
3774.116881699148
100
AcDbArc
 50
256.113363
 51
256.159849
  0
ARC
  5
398
330
1F
100
AcDbEntity
  8
1
370
    13
100
AcDbCircle
 10
-15.549024
 20
-19.253501
 30
0.0
 40
1.846926270307789
210
0.0
220
0.0
230
-1.0
100
AcDbArc
 50
326.954041
 51
354.232547
  0
ARC
  5
399
330
1F
100
AcDbEntity
  8
1
370
    13
100
AcDbCircle
 10
-14.378933
 20
-19.365308
 30
0.0
 40
0.671551964152638
210
0.0
220
0.0
230
-1.0
100
AcDbArc
 50
353.691327
 51
47.279022
  0
ARC
  5
39A
330
1F
100
AcDbEntity
  8
1
370
    13
100
AcDbCircle
 10
-14.451962
 20
-19.539866
 30
0.0
 40
0.8518055432654471
210
0.0
220
0.0
230
-1.0
100
AcDbArc
 50
51.640125
 51
93.906386
  0
ARC
  5
39B
330
1F
100
AcDbEntity
  8
1
370
    13
100
AcDbCircle
 10
-40.824264
 20
3.876012
 30
0.0
 40
36.57556586516703
210
0.0
220
0.0
230
-1.0
100
AcDbArc
 50
301.622533
 51
308.208498
  0
ARC
  5
39C
330
1F
100
AcDbEntity
  8
1
370
    13
100
AcDbCircle
 10
-30.520063
 20
-9.121796
 30
0.0
 40
19.98901822893272
210
0.0
220
0.0
230
-1.0
100
AcDbArc
 50
308.044503
 51
319.993211
  0
ARC
  5
39D
330
1F
100
AcDbEntity
  8
1
370
    13
100
AcDbCircle
 10
31.934208
 20
4.030725
 30
0.0
 40
19.47976161878058
100
AcDbArc
 50
203.823947
 51
216.738286
  0
ARC
  5
39E
330
1F
100
AcDbEntity
  8
1
370
    13
100
AcDbCircle
 10
31.436895
 20
3.689602
 30
0.0
 40
18.87719616326421
100
AcDbArc
 50
216.811451
 51
228.663106
  0
ARC
  5
39F
330
1F
100
AcDbEntity
  8
1
370
    13
100
AcDbCircle
 10
31.270679
 20
3.501997
 30
0.0
 40
18.62655180047461
100
AcDbArc
 50
228.665848
 51
239.093052
  0
ARC
  5
3A0
330
1F
100
AcDbEntity
  8
1
370
    13
100
AcDbCircle
 10
29.333784
 20
1.521091
 30
0.0
 40
1.802142301909878
100
AcDbArc
 50
113.777962
 51
119.421039
  0
ARC
  5
3A1
330
1F
100
AcDbEntity
  8
1
370
    13
100
AcDbCircle
 10
29.262184
 20
1.647912
 30
0.0
 40
1.656506047610947
100
AcDbArc
 50
119.418656
 51
124.179816
  0
ARC
  5
3A2
330
1F
100
AcDbEntity
  8
1
370
    13
100
AcDbCircle
 10
-22.775221
 20
-5.995603
 30
0.0
 40
6.545821051463942
210
0.0
220
0.0
230
-1.0
100
AcDbArc
 50
80.074493
 51
100.559955
  0
ARC
  5
3A3
330
1F
100
AcDbEntity
  8
1
370
    13
100
AcDbCircle
 10
-23.43728
 20
16.02913
 30
0.0
 40
8.164432518784393
210
0.0
220
0.0
230
-1.0
100
AcDbArc
 50
266.224847
 51
282.66711
  0
ARC
  5
3A4
330
1F
100
AcDbEntity
  8
1
370
    13
100
AcDbCircle
 10
-89.07368
 20
16.476767
 30
0.0
 40
64.70489476673171
210
0.0
220
0.0
230
-1.0
100
AcDbArc
 50
345.225232
 51
345.621335
  0
ARC
  5
3A5
330
1F
100
AcDbEntity
  8
1
370
    13
100
AcDbCircle
 10
-88.845178
 20
16.418029
 30
0.0
 40
64.46896479114322
210
0.0
220
0.0
230
-1.0
100
AcDbArc
 50
345.621472
 51
345.933784
  0
ARC
  5
3A6
330
1F
100
AcDbEntity
  8
1
370
    13
100
AcDbCircle
 10
39.149398
 20
-38.71526
 30
0.0
 40
48.60834338704129
100
AcDbArc
 50
99.389314
 51
101.415692
  0
ARC
  5
3A7
330
1F
100
AcDbEntity
  8
1
370
    13
100
AcDbCircle
 10
40.321014
 20
-44.435846
 30
0.0
 40
54.44765414079303
100
AcDbArc
 50
101.432725
 51
102.876505
  0
ARC
  5
3A8
330
1F
100
AcDbEntity
  8
1
370
    13
100
AcDbCircle
 10
22.784602
 20
-5.751848
 30
0.0
 40
6.221444162178718
100
AcDbArc
 50
79.108778
 51
100.238474
  0
ARC
  5
3A9
330
1F
100
AcDbEntity
  8
1
370
    13
100
AcDbCircle
 10
-33.294345
 20
9.404544
 30
0.0
 40
4.409088002545954
210
0.0
220
0.0
230
-1.0
100
AcDbArc
 50
189.476357
 51
206.430767
  0
ARC
  5
3AA
330
1F
100
AcDbEntity
  8
1
370
    13
100
AcDbCircle
 10
-35.536132
 20
8.283439
 30
0.0
 40
1.902615748595387
210
0.0
220
0.0
230
-1.0
100
AcDbArc
 50
206.248176
 51
232.927028
  0
ARC
  5
3AB
330
1F
100
AcDbEntity
  8
1
370
    13
100
AcDbCircle
 10
-36.046916
 20
7.64031
 30
0.0
 40
1.081748348627439
210
0.0
220
0.0
230
-1.0
100
AcDbArc
 50
233.977897
 51
280.790798
  0
ARC
  5
3AC
330
1F
100
AcDbEntity
  8
1
370
    13
100
AcDbCircle
 10
-36.218438
 20
8.267277
 30
0.0
 40
1.730496735883103
210
0.0
220
0.0
230
-1.0
100
AcDbArc
 50
282.483118
 51
311.622612
  0
ARC
  5
3AD
330
1F
100
AcDbEntity
  8
1
370
    13
100
AcDbCircle
 10
-37.574347
 20
9.853789
 30
0.0
 40
3.817307461671273
210
0.0
220
0.0
230
-1.0
100
AcDbArc
 50
311.019158
 51
330.541058
  0
ARC
  5
3AE
330
1F
100
AcDbEntity
  8
1
370
    13
100
AcDbCircle
 10
39.124961
 20
10.806501
 30
0.0
 40
5.535000292111374
100
AcDbArc
 50
202.000963
 51
218.804312
  0
ARC
  5
3AF
330
1F
100
AcDbEntity
  8
1
370
    13
100
AcDbCircle
 10
36.683551
 20
8.857942
 30
0.0
 40
2.411370212016308
100
AcDbArc
 50
219.076261
 51
239.351958
  0
ARC
  5
3B0
330
1F
100
AcDbEntity
  8
1
370
    13
100
AcDbCircle
 10
36.019909
 20
7.706318
 30
0.0
 40
1.082431319693751
100
AcDbArc
 50
238.498973
 51
281.333131
  0
ARC
  5
3B1
330
1F
100
AcDbEntity
  8
1
370
    13
100
AcDbCircle
 10
35.898946
 20
7.82702
 30
0.0
 40
1.228221007628099
100
AcDbArc
 50
285.763885
 51
327.071435
  0
ARC
  5
3B2
330
1F
100
AcDbEntity
  8
1
370
    13
100
AcDbCircle
 10
34.430732
 20
8.853357
 30
0.0
 40
3.019139148004065
100
AcDbArc
 50
325.869221
 51
345.820463
  0
ARC
  5
3B3
330
1F
100
AcDbEntity
  8
1
370
    13
100
AcDbCircle
 10
41.628637
 20
11.947938
 30
0.0
 40
8.285059443570189
100
AcDbArc
 50
195.590114
 51
199.64275
  0
ARC
  5
3B4
330
1F
100
AcDbEntity
  8
1
370
    13
100
AcDbCircle
 10
41.480328
 20
11.894537
 30
0.0
 40
8.127430019474634
100
AcDbArc
 50
199.639661
 51
202.892286
  0
ARC
  5
3B5
330
1F
100
AcDbEntity
  8
1
370
    13
100
AcDbCircle
 10
-28.970441
 20
44.363237
 30
0.0
 40
40.38375784530869
210
0.0
220
0.0
230
-1.0
100
AcDbArc
 50
260.271921
 51
261.463396
  0
ARC
  5
3B6
330
1F
100
AcDbEntity
  8
1
370
    13
100
AcDbCircle
 10
-24.624296
 20
73.945506
 30
0.0
 40
70.28350060834681
210
0.0
220
0.0
230
-1.0
100
AcDbArc
 50
261.539401
 51
262.090059
  0
ARC
  5
3B7
330
1F
100
AcDbEntity
  8
1
370
    13
100
AcDbCircle
 10
-41.393043
 20
11.896258
 30
0.0
 40
8.164718013944796
210
0.0
220
0.0
230
-1.0
100
AcDbArc
 50
337.096667
 51
340.878024
  0
ARC
  5
3B8
330
1F
100
AcDbEntity
  8
1
370
    13
100
AcDbCircle
 10
-41.525598
 20
11.942112
 30
0.0
 40
8.304980256890856
210
0.0
220
0.0
230
-1.0
100
AcDbArc
 50
340.878703
 51
343.794377
  0
ARC
  5
3B9
330
1F
100
AcDbEntity
  8
1
370
    13
100
AcDbCircle
 10
27.204775
 20
1.606687
 30
0.0
 40
1.399722886141183
100
AcDbArc
 50
68.635656
 51
105.966637
  0
ARC
  5
3BA
330
1F
100
AcDbEntity
  8
1
370
    13
100
AcDbCircle
 10
27.168583
 20
1.707548
 30
0.0
 40
1.292816423720496
100
AcDbArc
 50
105.654133
 51
146.160567
  0
ARC
  5
3BB
330
1F
100
AcDbEntity
  8
1
370
    13
100
AcDbCircle
 10
27.06866
 20
1.785761
 30
0.0
 40
1.166303124014083
100
AcDbArc
 50
146.618389
 51
191.595177
  0
ARC
  5
3BC
330
1F
100
AcDbEntity
  8
1
370
    13
100
AcDbCircle
 10
27.181011
 20
1.819441
 30
0.0
 40
1.283173866206359
100
AcDbArc
 50
192.060051
 51
232.812368
  0
ARC
  5
3BD
330
1F
100
AcDbEntity
  8
1
370
    13
100
AcDbCircle
 10
-27.180962
 20
1.815413
 30
0.0
 40
1.377134735710988
210
0.0
220
0.0
230
-1.0
100
AcDbArc
 50
309.270036
 51
349.402121
  0
ARC
  5
3BE
330
1F
100
AcDbEntity
  8
1
370
    13
100
AcDbCircle
 10
-27.081709
 20
1.789213
 30
0.0
 40
1.274778163711069
210
0.0
220
0.0
230
-1.0
100
AcDbArc
 50
349.739132
 51
33.151211
  0
ARC
  5
3BF
330
1F
100
AcDbEntity
  8
1
370
    13
100
AcDbCircle
 10
-27.17273
 20
1.722359
 30
0.0
 40
1.387556766159282
210
0.0
220
0.0
230
-1.0
100
AcDbArc
 50
33.407153
 51
73.296116
  0
ARC
  5
3C0
330
1F
100
AcDbEntity
  8
1
370
    13
100
AcDbCircle
 10
-27.208557
 20
1.629277
 30
0.0
 40
1.487027780300392
210
0.0
220
0.0
230
-1.0
100
AcDbArc
 50
73.004784
 51
110.196801
  0
ARC
  5
3C1
330
1F
100
AcDbEntity
  8
1
370
    13
100
AcDbCircle
 10
36.155802
 20
29.822846
 30
0.0
 40
1.717310555929192
100
AcDbArc
 50
45.88963
 51
77.421311
  0
ARC
  5
3C2
330
1F
100
AcDbEntity
  8
1
370
    13
100
AcDbCircle
 10
36.162323
 20
29.831605
 30
0.0
 40
1.609461784317539
100
AcDbArc
 50
45.884436
 51
77.426506
  0
ARC
  5
3C3
330
1F
100
AcDbEntity
  8
1
370
    13
100
AcDbCircle
 10
38.292941
 20
23.677149
 30
0.0
 40
1.546933961870231
100
AcDbArc
 50
315.518722
 51
349.73871
  0
ARC
  5
3C4
330
1F
100
AcDbEntity
  8
1
370
    13
100
AcDbCircle
 10
38.29146
 20
23.679741
 30
0.0
 40
1.449808800570866
100
AcDbArc
 50
315.513347
 51
349.744085
  0
ARC
  5
3C5
330
1F
100
AcDbEntity
  8
1
370
    13
100
AcDbCircle
 10
-29.204606
 20
27.345474
 30
0.0
 40
1.539763991348095
210
0.0
220
0.0
230
-1.0
100
AcDbArc
 50
10.179142
 51
44.563426
  0
ARC
  5
3C6
330
1F
100
AcDbEntity
  8
1
370
    13
100
AcDbCircle
 10
30.007128
 20
28.20122
 30
0.0
 40
1.40208695021045
100
AcDbArc
 50
134.911851
 51
170.345581
  0
ARC
  5
3C7
330
1F
100
AcDbEntity
  8
1
370
    13
100
AcDbCircle
 10
30.002664
 20
28.205355
 30
0.0
 40
1.496005512538255
100
AcDbArc
 50
134.917309
 51
170.340123
  0
ARC
  5
3C8
330
1F
100
AcDbEntity
  8
1
370
    13
100
AcDbCircle
 10
-29.275336
 20
-22.007771
 30
0.0
 40
0.8040091662987049
210
0.0
220
0.0
230
-1.0
100
AcDbArc
 50
294.15296
 51
338.383939
  0
ARC
  5
3C9
330
1F
100
AcDbEntity
  8
1
370
    13
100
AcDbCircle
 10
35.360893
 20
-17.447338
 30
0.0
 40
1.869494680736232
100
AcDbArc
 50
280.170528
 51
308.017968
  0
ARC
  5
3CA
330
1F
100
AcDbEntity
  8
1
370
    13
100
AcDbCircle
 10
35.364605
 20
-17.506576
 30
0.0
 40
1.752203265140585
100
AcDbArc
 50
280.166896
 51
308.021599
  0
ARC
  5
3CB
330
1F
100
AcDbEntity
  8
1
370
    13
100
AcDbCircle
 10
35.524252
 20
-4.637143
 30
0.0
 40
8.894689533913654
100
AcDbArc
 50
94.384363
 51
97.196997
  0
ARC
  5
3CC
330
1F
100
AcDbEntity
  8
1
370
    13
100
AcDbCircle
 10
35.388479
 20
-3.637723
 30
0.0
 40
7.886139446659748
100
AcDbArc
 50
97.128016
 51
99.585822
  0
ARC
  5
3CD
330
1F
100
AcDbEntity
  8
1
370
    13
100
AcDbCircle
 10
-37.767011
 20
-10.598418
 30
0.0
 40
10.16655974409602
210
0.0
220
0.0
230
-1.0
100
AcDbArc
 50
73.920756
 51
76.363084
  0
ARC
  5
3CE
330
1F
100
AcDbEntity
  8
1
370
    13
100
AcDbCircle
 10
-37.697558
 20
-10.343043
 30
0.0
 40
9.902012869824599
210
0.0
220
0.0
230
-1.0
100
AcDbArc
 50
76.405238
 51
78.384926
  0
ARC
  5
3CF
330
1F
100
AcDbEntity
  8
1
370
    13
100
AcDbCircle
 10
33.750043
 20
32.036602
 30
0.0
 40
27.8150073498059
100
AcDbArc
 50
274.001415
 51
275.022191
  0
ARC
  5
3D0
330
1F
100
AcDbEntity
  8
1
370
    13
100
AcDbCircle
 10
35.637009
 20
12.746637
 30
0.0
 40
8.436075515850227
100
AcDbArc
 50
273.72453
 51
275.955693
  0
ARC
  5
3D1
330
1F
100
AcDbEntity
  8
1
370
    13
100
AcDbCircle
 10
-38.347766
 20
-15.232934
 30
0.0
 40
1.519186449473694
210
0.0
220
0.0
230
-1.0
100
AcDbArc
 50
133.663567
 51
164.992031
  0
ARC
  5
3D2
330
1F
100
AcDbEntity
  8
1
370
    13
100
AcDbCircle
 10
35.146033
 20
16.332571
 30
0.0
 40
0.487793365962709
100
AcDbArc
 50
92.254543
 51
177.745693
  0
ARC
  5
3D3
330
1F
100
AcDbEntity
  8
1
370
    13
100
AcDbCircle
 10
30.873897
 20
-2.350027
 30
0.0
 40
5.621518362642245
100
AcDbArc
 50
105.986041
 51
110.08789
  0
ARC
  5
3D4
330
1F
100
AcDbEntity
  8
1
370
    13
100
AcDbCircle
 10
30.268371
 20
-0.716318
 30
0.0
 40
3.879225490643613
100
AcDbArc
 50
109.97602
 51
114.05677
  0
ARC
  5
3D5
330
1F
100
AcDbEntity
  8
1
370
    13
100
AcDbCircle
 10
-31.156244
 20
-8.324709
 30
0.0
 40
6.478485065715078
210
0.0
220
0.0
230
-1.0
100
AcDbArc
 50
75.614404
 51
78.723899
  0
ARC
  5
3D6
330
1F
100
AcDbEntity
  8
1
370
    13
100
AcDbCircle
 10
-31.971362
 20
-12.399525
 30
0.0
 40
10.63402861686109
210
0.0
220
0.0
230
-1.0
100
AcDbArc
 50
78.709858
 51
80.420472
  0
ARC
  5
3D7
330
1F
100
AcDbEntity
  8
1
370
    13
100
AcDbCircle
 10
37.360831
 20
3.466395
 30
0.0
 40
0.9621853973404454
100
AcDbArc
 50
81.154203
 51
92.08539
  0
ARC
  5
3D8
330
1F
100
AcDbEntity
  8
1
370
    13
100
AcDbCircle
 10
37.392364
 20
1.401059
 30
0.0
 40
3.027614948182447
100
AcDbArc
 50
91.259446
 51
95.298813
  0
ARC
  5
3D9
330
1F
100
AcDbEntity
  8
1
370
    13
100
AcDbCircle
 10
29.120956
 20
26.727841
 30
0.0
 40
2.315833100828453
100
AcDbArc
 50
102.818138
 51
106.879563
  0
ARC
  5
3DA
330
1F
100
AcDbEntity
  8
1
370
    13
100
AcDbCircle
 10
28.969021
 20
27.227834
 30
0.0
 40
1.793265244106631
100
AcDbArc
 50
106.872802
 51
110.822133
  0
ARC
  5
3DB
330
1F
100
AcDbEntity
  8
1
370
    13
100
AcDbCircle
 10
-23.989889
 20
24.087832
 30
0.0
 40
5.058877427580505
210
0.0
220
0.0
230
-1.0
100
AcDbArc
 50
62.410254
 51
89.82952
  0
ARC
  5
3DC
330
1F
100
AcDbEntity
  8
1
370
    13
100
AcDbCircle
 10
29.349224
 20
-24.245764
 30
0.0
 40
5.453077041078559
100
AcDbArc
 50
97.821042
 51
99.507216
  0
ARC
  5
3DD
330
1F
100
AcDbEntity
  8
1
370
    13
100
AcDbCircle
 10
29.315093
 20
-24.040798
 30
0.0
 40
5.245289322360559
100
AcDbArc
 50
99.509321
 51
100.807248
  0
ARC
  5
3DE
330
1F
100
AcDbEntity
  8
1
370
    13
100
AcDbCircle
 10
15.831529
 20
14.311112
 30
0.0
 40
2.068641799312957
100
AcDbArc
 50
115.773951
 51
152.181392
  0
ARC
  5
3DF
330
1F
100
AcDbEntity
  8
1
370
    13
100
AcDbCircle
 10
15.490618
 20
14.503056
 30
0.0
 40
1.677588839290571
100
AcDbArc
 50
152.545705
 51
194.55604
  0
ARC
  5
3E0
330
1F
100
AcDbEntity
  8
1
370
    13
100
AcDbCircle
 10
23.426419
 20
15.958349
 30
0.0
 40
4.003648900952973
100
AcDbArc
 50
82.339557
 51
101.251822
  0
ARC
  5
3E1
330
1F
100
AcDbEntity
  8
1
370
    13
100
AcDbCircle
 10
-94.907751
 20
44.126147
 30
0.0
 40
72.63835156884636
210
0.0
220
0.0
230
-1.0
100
AcDbArc
 50
340.329696
 51
340.595231
  0
ARC
  5
3E2
330
1F
100
AcDbEntity
  8
1
370
    13
100
AcDbCircle
 10
-92.300692
 20
43.207524
 30
0.0
 40
69.8741838035031
210
0.0
220
0.0
230
-1.0
100
AcDbArc
 50
340.595454
 51
340.809678
  0
ARC
  5
3E3
330
1F
100
AcDbEntity
  8
1
370
    13
100
AcDbCircle
 10
-26.776819
 20
21.119409
 30
0.0
 40
0.9965300537304025
210
0.0
220
0.0
230
-1.0
100
AcDbArc
 50
297.980918
 51
342.327269
  0
ARC
  5
3E4
330
1F
100
AcDbEntity
  8
1
370
    13
100
AcDbCircle
 10
-26.436475
 20
20.975609
 30
0.0
 40
0.6294960258489385
210
0.0
220
0.0
230
-1.0
100
AcDbArc
 50
345.395286
 51
31.948986
  0
ARC
  5
3E5
330
1F
100
AcDbEntity
  8
1
370
    13
100
AcDbCircle
 10
-27.036464
 20
20.442702
 30
0.0
 40
1.426964309878431
210
0.0
220
0.0
230
-1.0
100
AcDbArc
 50
37.36513
 51
88.910864
  0
ARC
  5
3E6
330
1F
100
AcDbEntity
  8
1
370
    13
100
AcDbCircle
 10
-23.039254
 20
57.570916
 30
0.0
 40
31.56891669949771
210
0.0
220
0.0
230
-1.0
100
AcDbArc
 50
264.076399
 51
266.432397
  0
ARC
  5
3E7
330
1F
100
AcDbEntity
  8
1
370
    13
100
AcDbCircle
 10
-23.07873
 20
56.96835
 30
0.0
 40
30.96506194926492
210
0.0
220
0.0
230
-1.0
100
AcDbArc
 50
266.43592
 51
268.341671
  0
ARC
  5
3E8
330
1F
100
AcDbEntity
  8
1
370
    13
100
AcDbCircle
 10
-23.420353
 20
16.042188
 30
0.0
 40
4.007572172888738
210
0.0
220
0.0
230
-1.0
100
AcDbArc
 50
63.735403
 51
82.813931
  0
ARC
  5
3E9
330
1F
100
AcDbEntity
  8
1
370
    13
100
AcDbCircle
 10
24.181324
 20
16.905398
 30
0.0
 40
9.113198590653553
100
AcDbArc
 50
91.298323
 51
106.146906
  0
ARC
  5
3EA
330
1F
100
AcDbEntity
  8
1
370
    13
100
AcDbCircle
 10
27.182673
 20
19.768641
 30
0.0
 40
1.970569686249345
100
AcDbArc
 50
74.336841
 51
113.091494
  0
ARC
  5
3EB
330
1F
100
AcDbEntity
  8
1
370
    13
100
AcDbCircle
 10
26.651622
 20
20.864491
 30
0.0
 40
0.7565224116557748
100
AcDbArc
 50
108.64055
 51
169.655043
  0
ARC
  5
3EC
330
1F
100
AcDbEntity
  8
1
370
    13
100
AcDbCircle
 10
26.577657
 20
20.932484
 30
0.0
 40
0.6736857318612407
100
AcDbArc
 50
174.218853
 51
224.589734
  0
ARC
  5
3ED
330
1F
100
AcDbEntity
  8
1
370
    13
100
AcDbCircle
 10
-38.061892
 20
30.423755
 30
0.0
 40
4.560300974137435
210
0.0
220
0.0
230
-1.0
100
AcDbArc
 50
275.267071
 51
281.337998
  0
ARC
  5
3EE
330
1F
100
AcDbEntity
  8
1
370
    13
100
AcDbCircle
 10
-38.715818
 20
33.782334
 30
0.0
 40
7.981917895675497
210
0.0
220
0.0
230
-1.0
100
AcDbArc
 50
281.200745
 51
290.956714
  0
ARC
  5
3EF
330
1F
100
AcDbEntity
  8
1
370
    13
100
AcDbCircle
 10
-38.816516
 20
34.222494
 30
0.0
 40
8.42921526747724
210
0.0
220
0.0
230
-1.0
100
AcDbArc
 50
290.525817
 51
302.176529
  0
ARC
  5
3F0
330
1F
100
AcDbEntity
  8
1
370
    13
100
AcDbCircle
 10
-27.119115
 20
38.46414
 30
0.0
 40
12.83331096370434
210
0.0
220
0.0
230
-1.0
100
AcDbArc
 50
251.367399
 51
265.107649
  0
ARC
  5
3F1
330
1F
100
AcDbEntity
  8
1
370
    13
100
AcDbCircle
 10
38.342153
 20
15.21204
 30
0.0
 40
1.424567323990399
100
AcDbArc
 50
313.667289
 51
344.988309
  0
ARC
  5
3F2
330
1F
100
AcDbEntity
  8
1
370
    13
100
AcDbCircle
 10
29.325307
 20
20.422103
 30
0.0
 40
1.661140657082375
100
AcDbArc
 50
115.614536
 51
121.85808
  0
ARC
  5
3F3
330
1F
100
AcDbEntity
  8
1
370
    13
100
AcDbCircle
 10
29.255517
 20
20.534353
 30
0.0
 40
1.528963177021051
100
AcDbArc
 50
121.856979
 51
127.178127
  0
ARC
  5
3F4
330
1F
100
AcDbEntity
  8
1
370
    13
100
AcDbCircle
 10
-35.482652
 20
29.353928
 30
0.0
 40
2.523116774473853
210
0.0
220
0.0
230
-1.0
100
AcDbArc
 50
309.66925
 51
315.636608
  0
ARC
  5
3F5
330
1F
100
AcDbEntity
  8
1
370
    13
100
AcDbCircle
 10
-35.210784
 20
29.087239
 30
0.0
 40
2.142282762746599
210
0.0
220
0.0
230
-1.0
100
AcDbArc
 50
315.651822
 51
320.80121
  0
ARC
  5
3F6
330
1F
100
AcDbEntity
  8
1
370
    13
100
AcDbCircle
 10
-37.633769
 20
26.163141
 30
0.0
 40
0.2805916133574731
210
0.0
220
0.0
230
-1.0
100
AcDbArc
 50
178.347529
 51
268.060572
  0
ARC
  5
3F7
330
1F
100
AcDbEntity
  8
1
370
    13
100
AcDbCircle
 10
-39.868932
 20
-8.013518
 30
0.0
 40
84.96652290107546
100
AcDbArc
 50
21.8174
 51
22.475673
  0
ARC
  5
3F8
330
1F
100
AcDbEntity
  8
1
370
    13
100
AcDbCircle
 10
-50.145089
 20
-12.26244
 30
0.0
 40
96.0864476365562
100
AcDbArc
 50
22.474302
 51
22.931948
  0
ARC
  5
3F9
330
1F
100
AcDbEntity
  8
1
370
    13
100
AcDbCircle
 10
38.347766
 20
15.232934
 30
0.0
 40
1.519186449474013
100
AcDbArc
 50
313.663567
 51
344.992031
  0
ARC
  5
3FA
330
1F
100
AcDbEntity
  8
1
370
    13
100
AcDbCircle
 10
14.567622
 20
-20.02756
 30
0.0
 40
1.30435863676537
100
AcDbArc
 50
73.776574
 51
104.735685
  0
ARC
  5
3FB
330
1F
100
AcDbEntity
  8
1
370
    13
100
AcDbCircle
 10
14.388446
 20
-19.317411
 30
0.0
 40
0.572039194913315
100
AcDbArc
 50
105.471974
 51
157.586864
  0
ARC
  5
3FC
330
1F
100
AcDbEntity
  8
1
370
    13
100
AcDbCircle
 10
14.802496
 20
-19.393224
 30
0.0
 40
0.9876266390354222
100
AcDbArc
 50
162.686236
 51
205.382588
  0
ARC
  5
3FD
330
1F
100
AcDbEntity
  8
1
370
    13
100
AcDbCircle
 10
26.9419
 20
-12.488843
 30
0.0
 40
14.97271099608065
100
AcDbArc
 50
211.04839
 51
224.831979
  0
ARC
  5
3FE
330
1F
100
AcDbEntity
  8
1
370
    13
100
AcDbCircle
 10
33.736964
 20
-5.663505
 30
0.0
 40
24.60373613510007
100
AcDbArc
 50
224.947601
 51
234.992559
  0
ARC
  5
3FF
330
1F
100
AcDbEntity
  8
1
370
    13
100
AcDbCircle
 10
37.581336
 20
31.945552
 30
0.0
 40
5.823261135798655
100
AcDbArc
 50
231.960711
 51
240.371905
  0
ARC
  5
400
330
1F
100
AcDbEntity
  8
1
370
    13
100
AcDbCircle
 10
38.701429
 20
33.858243
 30
0.0
 40
8.039660609331094
100
AcDbArc
 50
240.171856
 51
249.72577
  0
ARC
  5
401
330
1F
100
AcDbEntity
  8
1
370
    13
100
AcDbCircle
 10
38.374703
 20
32.852659
 30
0.0
 40
6.98328779869672
100
AcDbArc
 50
249.381461
 51
258.977278
  0
ARC
  5
402
330
1F
100
AcDbEntity
  8
1
370
    13
100
AcDbCircle
 10
37.735192
 20
29.494426
 30
0.0
 40
3.564765828669513
100
AcDbArc
 50
258.746227
 51
266.085951
  0
ARC
  5
403
330
1F
100
AcDbEntity
  8
1
370
    13
100
AcDbCircle
 10
37.489235
 20
26.183402
 30
0.0
 40
0.2454405075968605
100
AcDbArc
 50
270.612963
 51
4.750302
  0
ARC
  5
404
330
1F
100
AcDbEntity
  8
1
370
    13
100
AcDbCircle
 10
35.250377
 20
29.010585
 30
0.0
 40
2.073332345403559
100
AcDbArc
 50
219.406548
 51
226.596005
  0
ARC
  5
405
330
1F
100
AcDbEntity
  8
1
370
    13
100
AcDbCircle
 10
35.552833
 20
29.327749
 30
0.0
 40
2.511589501605685
100
AcDbArc
 50
226.554779
 51
231.607803
  0
ARC
  5
406
330
1F
100
AcDbEntity
  8
1
370
    13
100
AcDbCircle
 10
23.079768
 20
18.087763
 30
0.0
 40
45.94064075315089
100
AcDbArc
 50
271.109296
 51
272.730874
  0
ARC
  5
407
330
1F
100
AcDbEntity
  8
1
370
    13
100
AcDbCircle
 10
23.230819
 20
14.917764
 30
0.0
 40
42.76704448320851
100
AcDbArc
 50
272.73108
 51
274.084043
  0
ARC
  5
408
330
1F
100
AcDbEntity
  8
1
370
    13
100
AcDbCircle
 10
23.94772
 20
-23.643835
 30
0.0
 40
4.208997241188647
100
AcDbArc
 50
237.774135
 51
255.911083
  0
ARC
  5
409
330
1F
100
AcDbEntity
  8
1
370
    13
100
AcDbCircle
 10
168.969027
 20
29.689765
 30
0.0
 40
214.0113133883318
210
0.0
220
0.0
230
-1.0
100
AcDbArc
 50
193.634035
 51
194.045895
  0
ARC
  5
40A
330
1F
100
AcDbEntity
  8
1
370
    13
100
AcDbCircle
 10
195.295194
 20
36.271333
 30
0.0
 40
241.1477114327037
210
0.0
220
0.0
230
-1.0
100
AcDbArc
 50
194.044815
 51
194.331949
  0
ARC
  5
40B
330
1F
100
AcDbEntity
  8
1
370
    13
100
AcDbCircle
 10
35.512013
 20
-27.653935
 30
0.0
 40
1.996324981566414
100
AcDbArc
 50
220.457424
 51
249.460177
  0
ARC
  5
40C
330
1F
100
AcDbEntity
  8
1
370
    13
100
AcDbCircle
 10
35.333054
 20
-28.067442
 30
0.0
 40
1.546479563985684
100
AcDbArc
 50
250.293814
 51
284.287885
  0
ARC
  5
40D
330
1F
100
AcDbEntity
  8
1
370
    13
100
AcDbCircle
 10
35.184265
 20
-27.675523
 30
0.0
 40
1.963569198976701
100
AcDbArc
 50
285.672978
 51
325.1809
  0
ARC
  5
40E
330
1F
100
AcDbEntity
  8
1
370
    13
100
AcDbCircle
 10
33.827306
 20
-26.660849
 30
0.0
 40
3.657405900409612
100
AcDbArc
 50
324.269129
 51
344.867304
  0
ARC
  5
40F
330
1F
100
AcDbEntity
  8
1
370
    13
100
AcDbCircle
 10
36.152875
 20
-26.987231
 30
0.0
 40
2.916179484471452
100
AcDbArc
 50
210.81534
 51
217.058739
  0
ARC
  5
410
330
1F
100
AcDbEntity
  8
1
370
    13
100
AcDbCircle
 10
36.549024
 20
-26.689304
 30
0.0
 40
3.411854120366368
100
AcDbArc
 50
217.042246
 51
221.483165
  0
ARC
  5
411
330
1F
100
AcDbEntity
  8
1
370
    13
100
AcDbCircle
 10
-28.848275
 20
-36.507879
 30
0.0
 40
8.929338152382623
210
0.0
220
0.0
230
-1.0
100
AcDbArc
 50
85.622807
 51
105.463758
  0
ARC
  5
412
330
1F
100
AcDbEntity
  8
1
370
    13
100
AcDbCircle
 10
-32.874449
 20
-26.123864
 30
0.0
 40
4.848215253793318
210
0.0
220
0.0
230
-1.0
100
AcDbArc
 50
190.383688
 51
205.713661
  0
ARC
  5
413
330
1F
100
AcDbEntity
  8
1
370
    13
100
AcDbCircle
 10
-34.703673
 20
-27.040686
 30
0.0
 40
2.802534480104577
210
0.0
220
0.0
230
-1.0
100
AcDbArc
 50
205.05165
 51
236.652695
  0
ARC
  5
414
330
1F
100
AcDbEntity
  8
1
370
    13
100
AcDbCircle
 10
-35.25123
 20
-27.819389
 30
0.0
 40
1.851275585237875
210
0.0
220
0.0
230
-1.0
100
AcDbArc
 50
237.560798
 51
272.028945
  0
ARC
  5
415
330
1F
100
AcDbEntity
  8
1
370
    13
100
AcDbCircle
 10
-35.274654
 20
-27.854809
 30
0.0
 40
1.816874908937587
210
0.0
220
0.0
230
-1.0
100
AcDbArc
 50
272.806739
 51
304.308091
  0
ARC
  5
416
330
1F
100
AcDbEntity
  8
1
370
    13
100
AcDbCircle
 10
-36.237578
 20
-26.835461
 30
0.0
 40
3.229391932933875
210
0.0
220
0.0
230
-1.0
100
AcDbArc
 50
317.097414
 51
322.403984
  0
ARC
  5
417
330
1F
100
AcDbEntity
  8
1
370
    13
100
AcDbCircle
 10
-35.864727
 20
-27.123557
 30
0.0
 40
2.758205791551267
210
0.0
220
0.0
230
-1.0
100
AcDbArc
 50
322.420496
 51
327.034151
  0
ARC
  5
418
330
1F
100
AcDbEntity
  8
1
370
    13
100
AcDbCircle
 10
28.867591
 20
-36.501428
 30
0.0
 40
8.843380976410721
100
AcDbArc
 50
74.577595
 51
94.411705
  0
ARC
  5
419
330
1F
100
AcDbEntity
  8
1
370
    13
100
AcDbCircle
 10
-34.671277
 20
-27.185042
 30
0.0
 40
3.111071632754696
210
0.0
220
0.0
230
-1.0
100
AcDbArc
 50
213.901036
 51
245.675732
  0
ARC
  5
41A
330
1F
100
AcDbEntity
  8
1
370
    13
100
AcDbCircle
 10
-34.719875
 20
-27.335735
 30
0.0
 40
2.952915533447813
210
0.0
220
0.0
230
-1.0
100
AcDbArc
 50
248.665491
 51
278.24401
  0
ARC
  5
41B
330
1F
100
AcDbEntity
  8
1
370
    13
100
AcDbCircle
 10
-26.242343
 20
-26.523694
 30
0.0
 40
2.617528282244169
210
0.0
220
0.0
230
-1.0
100
AcDbArc
 50
268.534876
 51
279.123079
  0
ARC
  5
41C
330
1F
100
AcDbEntity
  8
1
370
    13
100
AcDbCircle
 10
-26.372329
 20
-31.256761
 30
0.0
 40
2.245211737620543
210
0.0
220
0.0
230
-1.0
100
AcDbArc
 50
76.441781
 51
89.301751
  0
ARC
  5
41D
330
1F
100
AcDbEntity
  8
1
370
    13
100
AcDbCircle
 10
-27.214171
 20
-42.03925
 30
0.0
 40
13.05649870347209
210
0.0
220
0.0
230
-1.0
100
AcDbArc
 50
86.182855
 51
92.228831
  0
ARC
  5
41E
330
1F
100
AcDbEntity
  8
1
370
    13
100
AcDbCircle
 10
-23.244539
 20
15.841502
 30
0.0
 40
43.7689007503833
210
0.0
220
0.0
230
-1.0
100
AcDbArc
 50
266.00061
 51
267.696588
  0
ARC
  5
41F
330
1F
100
AcDbEntity
  8
1
370
    13
100
AcDbCircle
 10
-23.114907
 20
18.978547
 30
0.0
 40
46.90862141351242
210
0.0
220
0.0
230
-1.0
100
AcDbArc
 50
267.69238
 51
268.949594
  0
ARC
  5
420
330
1F
100
AcDbEntity
  8
1
370
    13
100
AcDbCircle
 10
-23.902227
 20
-23.75129
 30
0.0
 40
4.171533108013156
210
0.0
220
0.0
230
-1.0
100
AcDbArc
 50
269.00267
 51
287.933708
  0
ARC
  5
421
330
1F
100
AcDbEntity
  8
1
370
    13
100
AcDbCircle
 10
23.989889
 20
-24.087832
 30
0.0
 40
5.058877427579264
100
AcDbArc
 50
242.410254
 51
269.82952
  0
ARC
  5
422
330
1F
100
AcDbEntity
  8
1
370
    13
100
AcDbCircle
 10
23.974611
 20
24.147819
 30
0.0
 40
4.956630023899963
100
AcDbArc
 50
90.167589
 51
117.592904
  0
ARC
  5
423
330
1F
100
AcDbEntity
  8
1
370
    13
100
AcDbCircle
 10
29.748224
 20
17.197382
 30
0.0
 40
1.245078584394447
100
AcDbArc
 50
130.092973
 51
168.562625
  0
ARC
  5
424
330
1F
100
AcDbEntity
  8
1
370
    13
100
AcDbCircle
 10
-29.189872
 20
19.971622
 30
0.0
 40
1.556642864952507
210
0.0
220
0.0
230
-1.0
100
AcDbArc
 50
15.394205
 51
45.950197
  0
ARC
  5
425
330
1F
100
AcDbEntity
  8
1
370
    13
100
AcDbCircle
 10
29.768683
 20
17.20947
 30
0.0
 40
1.166935059300269
100
AcDbArc
 50
130.087386
 51
168.568212
  0
ARC
  5
426
330
1F
100
AcDbEntity
  8
1
370
    13
100
AcDbCircle
 10
-35.596658
 20
22.092997
 30
0.0
 40
1.785666465088626
210
0.0
220
0.0
230
-1.0
100
AcDbArc
 50
93.028708
 51
120.849902
  0
ARC
  5
427
330
1F
100
AcDbEntity
  8
1
370
    13
100
AcDbCircle
 10
36.550094
 20
19.528837
 30
0.0
 40
1.40690908153494
100
AcDbArc
 50
55.294813
 51
90.826577
  0
ARC
  5
428
330
1F
100
AcDbEntity
  8
1
370
    13
100
AcDbCircle
 10
36.531823
 20
19.537169
 30
0.0
 40
1.318630718398909
100
AcDbArc
 50
55.289989
 51
90.831401
  0
ARC
  5
429
330
1F
100
AcDbEntity
  8
1
370
    13
100
AcDbCircle
 10
-38.292941
 20
-23.677149
 30
0.0
 40
1.546933961869143
210
0.0
220
0.0
230
-1.0
100
AcDbArc
 50
135.518722
 51
169.73871
  0
ARC
  5
42A
330
1F
100
AcDbEntity
  8
1
370
    13
100
AcDbCircle
 10
35.395625
 20
-29.129787
 30
0.0
 40
1.558602603865246
100
AcDbArc
 50
280.924544
 51
315.764514
  0
ARC
  5
42B
330
1F
100
AcDbEntity
  8
1
370
    13
100
AcDbCircle
 10
-36.155802
 20
-29.822846
 30
0.0
 40
1.717310555929546
210
0.0
220
0.0
230
-1.0
100
AcDbArc
 50
225.88963
 51
257.421311
  0
ARC
  5
42C
330
1F
100
AcDbEntity
  8
1
370
    13
100
AcDbCircle
 10
35.397188
 20
-29.129355
 30
0.0
 40
1.460768492885547
100
AcDbArc
 50
280.919358
 51
315.7697
  0
ARC
  5
42D
330
1F
100
AcDbEntity
  8
1
370
    13
100
AcDbCircle
 10
31.23791
 20
-10.52878
 30
0.0
 40
0.7403877684043655
100
AcDbArc
 50
122.482898
 51
205.036703
  0
ARC
  5
42E
330
1F
100
AcDbEntity
  8
1
370
    13
100
AcDbCircle
 10
31.537408
 20
-10.063506
 30
0.0
 40
1.244082740144235
100
AcDbArc
 50
218.744399
 51
271.792824
  0
ARC
  5
42F
330
1F
100
AcDbEntity
  8
1
370
    13
100
AcDbCircle
 10
31.701859
 20
-8.651872
 30
0.0
 40
2.658072774712679
100
AcDbArc
 50
267.293193
 51
294.327895
  0
ARC
  5
430
330
1F
100
AcDbEntity
  8
1
370
    13
100
AcDbCircle
 10
31.152034
 20
-10.922923
 30
0.0
 40
0.9780023901451915
100
AcDbArc
 50
124.156775
 51
194.738684
  0
ARC
  5
431
330
1F
100
AcDbEntity
  8
1
370
    13
100
AcDbCircle
 10
31.319528
 20
-10.578736
 30
0.0
 40
1.261397609317169
100
AcDbArc
 50
208.041717
 51
267.098624
  0
ARC
  5
432
330
1F
100
AcDbEntity
  8
1
370
    13
100
AcDbCircle
 10
34.803522
 20
17.063047
 30
0.0
 40
1.940051268132242
100
AcDbArc
 50
325.26338
 51
14.614366
  0
ARC
  5
433
330
1F
100
AcDbEntity
  8
1
370
    13
100
AcDbCircle
 10
34.236238
 20
-5.108231
 30
0.0
 40
3.816851640460446
100
AcDbArc
 50
100.075557
 51
118.26987
  0
ARC
  5
434
330
1F
100
AcDbEntity
  8
1
370
    13
100
AcDbCircle
 10
32.541622
 20
-1.882578
 30
0.0
 40
0.176870600762936
100
AcDbArc
 50
129.76802
 51
325.308619
  0
ARC
  5
435
330
1F
100
AcDbEntity
  8
1
370
    13
100
AcDbCircle
 10
35.3704
 20
-2.051744
 30
0.0
 40
0.9623245883724306
100
AcDbArc
 50
57.378476
 51
105.607393
  0
ARC
  5
436
330
1F
100
AcDbEntity
  8
1
370
    13
100
AcDbCircle
 10
35.722514
 20
-10.704265
 30
0.0
 40
9.598829727646185
100
AcDbArc
 50
93.649681
 51
102.967865
  0
ARC
  5
437
330
1F
100
AcDbEntity
  8
1
370
    13
100
AcDbCircle
 10
32.078262
 20
7.233351
 30
0.0
 40
3.078434857680857
100
AcDbArc
 50
99.38383
 51
120.03012
  0
ARC
  5
438
330
1F
100
AcDbEntity
  8
1
370
    13
100
AcDbCircle
 10
33.041665
 20
8.361125
 30
0.0
 40
2.125501978834984
100
AcDbArc
 50
74.575013
 51
101.330485
  0
ARC
  5
439
330
1F
100
AcDbEntity
  8
1
370
    13
100
AcDbCircle
 10
33.589328
 20
1.422466
 30
0.0
 40
9.074220280355494
100
AcDbArc
 50
96.106305
 51
102.816949
  0
ARC
  5
43A
330
1F
100
AcDbEntity
  8
1
370
    13
100
AcDbCircle
 10
36.315295
 20
-1.852919
 30
0.0
 40
1.01636475850836
100
AcDbArc
 50
52.289906
 51
102.451138
  0
ARC
  5
43B
330
1F
100
AcDbEntity
  8
1
370
    13
100
AcDbCircle
 10
36.302031
 20
-12.997326
 30
0.0
 40
12.13861272640313
100
AcDbArc
 50
90.971782
 51
99.983745
  0
ARC
  5
43C
330
1F
100
AcDbEntity
  8
1
370
    13
100
AcDbCircle
 10
32.287479
 20
-2.795357
 30
0.0
 40
1.25649699827954
100
AcDbArc
 50
99.187025
 51
142.267949
  0
ARC
  5
43D
330
1F
100
AcDbEntity
  8
1
370
    13
100
AcDbCircle
 10
33.886425
 20
25.641705
 30
0.0
 40
2.862597361895727
100
AcDbArc
 50
8.836672
 51
51.125596
  0
ARC
  5
43E
330
1F
100
AcDbEntity
  8
1
370
    13
100
AcDbCircle
 10
33.899553
 20
25.676989
 30
0.0
 40
2.826913086063709
100
AcDbArc
 50
50.883916
 51
93.536581
  0
ARC
  5
43F
330
1F
100
AcDbEntity
  8
1
370
    13
100
AcDbCircle
 10
33.891527
 20
25.835758
 30
0.0
 40
2.66795234322361
100
AcDbArc
 50
93.574861
 51
134.89962
  0
ARC
  5
440
330
1F
100
AcDbEntity
  8
1
370
    13
100
AcDbCircle
 10
33.413617
 20
16.359371
 30
0.0
 40
1.889422575274217
100
AcDbArc
 50
137.250879
 51
188.613574
  0
ARC
  5
441
330
1F
100
AcDbEntity
  8
1
370
    13
100
AcDbCircle
 10
34.760165
 20
16.786213
 30
0.0
 40
1.807989784154901
100
AcDbArc
 50
17.637493
 51
70.581052
  0
ARC
  5
442
330
1F
100
AcDbEntity
  8
1
370
    13
100
AcDbCircle
 10
33.988592
 20
25.923231
 30
0.0
 40
2.424733485131013
100
AcDbArc
 50
135.089167
 51
167.454789
  0
ARC
  5
443
330
1F
100
AcDbEntity
  8
1
370
    13
100
AcDbCircle
 10
33.981355
 20
25.737281
 30
0.0
 40
2.607382173144689
100
AcDbArc
 50
8.242129
 51
52.555065
  0
ARC
  5
444
330
1F
100
AcDbEntity
  8
1
370
    13
100
AcDbCircle
 10
33.996766
 20
25.777527
 30
0.0
 40
2.566088578850325
100
AcDbArc
 50
52.281901
 51
97.081654
  0
ARC
  5
445
330
1F
100
AcDbEntity
  8
1
370
    13
100
AcDbCircle
 10
34.021451
 20
25.772704
 30
0.0
 40
2.919484096772181
100
AcDbArc
 50
4.967378
 51
46.86805
  0
ARC
  5
446
330
1F
100
AcDbEntity
  8
1
370
    13
100
AcDbCircle
 10
34.01991
 20
25.78875
 30
0.0
 40
2.908852853033954
100
AcDbArc
 50
46.629812
 51
88.63492
  0
ARC
  5
447
330
1F
100
AcDbEntity
  8
1
370
    13
100
AcDbCircle
 10
34.0045
 20
25.98663
 30
0.0
 40
2.706661553518722
100
AcDbArc
 50
106.317123
 51
150.44011
  0
ARC
  5
448
330
1F
100
AcDbEntity
  8
1
370
    13
100
AcDbCircle
 10
34.043903
 20
25.801483
 30
0.0
 40
1.849148540527357
100
AcDbArc
 50
18.033623
 51
70.626785
  0
ARC
  5
449
330
1F
100
AcDbEntity
  8
1
370
    13
100
AcDbCircle
 10
34.06532
 20
25.875075
 30
0.0
 40
1.772624506699655
100
AcDbArc
 50
70.490768
 51
101.211907
  0
ARC
  5
44A
330
1F
100
AcDbEntity
  8
1
370
    13
100
AcDbCircle
 10
32.043844
 20
-23.864
 30
0.0
 40
1.557515798488138
100
AcDbArc
 50
158.872322
 51
216.794679
  0
ARC
  5
44B
330
1F
100
AcDbEntity
  8
1
370
    13
100
AcDbCircle
 10
32.003957
 20
-23.879292
 30
0.0
 40
1.51646114274743
100
AcDbArc
 50
217.234655
 51
253.621028
  0
ARC
  5
44C
330
1F
100
AcDbEntity
  8
1
370
    13
100
AcDbCircle
 10
32.018457
 20
-23.79357
 30
0.0
 40
1.602825546690785
100
AcDbArc
 50
253.987808
 51
310.765317
  0
ARC
  5
44D
330
1F
100
AcDbEntity
  8
1
370
    13
100
AcDbCircle
 10
32.018115
 20
-23.769968
 30
0.0
 40
1.620995899728231
100
AcDbArc
 50
310.229719
 51
6.563667
  0
ARC
  5
44E
330
1F
100
AcDbEntity
  8
1
370
    13
100
AcDbCircle
 10
33.944553
 20
25.880046
 30
0.0
 40
2.424129824949739
100
AcDbArc
 50
135.086235
 51
166.742094
  0
ARC
  5
44F
330
1F
100
AcDbEntity
  8
1
370
    13
100
AcDbCircle
 10
33.853184
 20
-0.049205
 30
0.0
 40
10.24477140655272
100
AcDbArc
 50
92.942825
 51
102.39088
  0
ARC
  5
450
330
1F
100
AcDbEntity
  8
1
370
    13
100
AcDbCircle
 10
32.113627
 20
-23.943805
 30
0.0
 40
1.952779826412288
100
AcDbArc
 50
159.735466
 51
211.403771
  0
ARC
  5
451
330
1F
100
AcDbEntity
  8
1
370
    13
100
AcDbCircle
 10
32.054928
 20
-23.96637
 30
0.0
 40
1.890955076047428
100
AcDbArc
 50
211.746979
 51
253.66153
  0
ARC
  5
452
330
1F
100
AcDbEntity
  8
1
370
    13
100
AcDbCircle
 10
32.075955
 20
-23.863325
 30
0.0
 40
1.995773261778872
100
AcDbArc
 50
253.914471
 51
304.812208
  0
ARC
  5
453
330
1F
100
AcDbEntity
  8
1
370
    13
100
AcDbCircle
 10
34.80294
 20
26.616966
 30
0.0
 40
0.6152531947885763
100
AcDbArc
 50
11.821732
 51
82.323506
  0
ARC
  5
454
330
1F
100
AcDbEntity
  8
1
370
    13
100
AcDbCircle
 10
35.656127
 20
-1.388938
 30
0.0
 40
0.1147647963354173
100
AcDbArc
 50
198.704537
 51
71.306124
  0
ARC
  5
455
330
1F
100
AcDbEntity
  8
1
370
    13
100
AcDbCircle
 10
35.459233
 20
-1.186146
 30
0.0
 40
0.1355737481079633
100
AcDbArc
 50
191.334346
 51
307.913466
  0
ARC
  5
456
330
1F
100
AcDbEntity
  8
1
370
    13
100
AcDbCircle
 10
32.743205
 20
17.31594
 30
0.0
 40
0.5879090386048805
100
AcDbArc
 50
280.725505
 51
349.274732
  0
ARC
  5
457
330
1F
100
AcDbEntity
  8
1
370
    13
100
AcDbCircle
 10
32.917711
 20
16.354772
 30
0.0
 40
0.4296287295685849
100
AcDbArc
 50
122.697883
 51
208.496849
  0
ARC
  5
458
330
1F
100
AcDbEntity
  8
1
370
    13
100
AcDbCircle
 10
32.538147
 20
15.740736
 30
0.0
 40
0.3967229127997109
100
AcDbArc
 50
338.294399
 51
67.415747
  0
ARC
  5
459
330
1F
100
AcDbEntity
  8
1
370
    13
100
AcDbCircle
 10
35.489839
 20
15.353355
 30
0.0
 40
0.5879090386046306
100
AcDbArc
 50
100.725505
 51
169.274732
  0
ARC
  5
45A
330
1F
100
AcDbEntity
  8
1
370
    13
100
AcDbCircle
 10
35.315334
 20
16.314523
 30
0.0
 40
0.4296287295684568
100
AcDbArc
 50
302.697883
 51
28.496849
  0
ARC
  5
45B
330
1F
100
AcDbEntity
  8
1
370
    13
100
AcDbCircle
 10
35.694898
 20
16.928558
 30
0.0
 40
0.3967229127997374
100
AcDbArc
 50
158.294399
 51
247.415747
  0
ARC
  5
45C
330
1F
100
AcDbEntity
  8
1
370
    13
100
AcDbCircle
 10
34.928398
 20
17.013304
 30
0.0
 40
0.5128177491077669
100
AcDbArc
 50
21.618173
 51
94.840451
  0
ARC
  5
45D
330
1F
100
AcDbEntity
  8
1
370
    13
100
AcDbCircle
 10
34.443538
 20
18.051044
 30
0.0
 40
0.6874410454700474
100
AcDbArc
 50
236.328429
 51
296.182725
  0
ARC
  5
45E
330
1F
100
AcDbEntity
  8
1
370
    13
100
AcDbCircle
 10
33.861249
 20
16.863435
 30
0.0
 40
0.7292779110749302
100
AcDbArc
 50
81.086708
 51
139.254305
  0
ARC
  5
45F
330
1F
100
AcDbEntity
  8
1
370
    13
100
AcDbCircle
 10
34.80369
 20
16.63363
 30
0.0
 40
1.807989784154857
100
AcDbArc
 50
17.637493
 51
70.581052
  0
ARC
  5
460
330
1F
100
AcDbEntity
  8
1
370
    13
100
AcDbCircle
 10
34.375699
 20
15.559351
 30
0.0
 40
2.963815205212309
100
AcDbArc
 50
69.682575
 51
107.418433
  0
ARC
  5
461
330
1F
100
AcDbEntity
  8
1
370
    13
100
AcDbCircle
 10
34.282982
 20
15.574004
 30
0.0
 40
2.923289064874596
100
AcDbArc
 50
105.770286
 51
143.86223
  0
ARC
  5
462
330
1F
100
AcDbEntity
  8
1
370
    13
100
AcDbCircle
 10
33.342189
 20
16.231494
 30
0.0
 40
1.77592179723456
100
AcDbArc
 50
143.093596
 51
196.693567
  0
ARC
  5
463
330
1F
100
AcDbEntity
  8
1
370
    13
100
AcDbCircle
 10
33.37119
 20
16.354881
 30
0.0
 40
1.842421662546384
100
AcDbArc
 50
200.111896
 51
252.372458
  0
ARC
  5
464
330
1F
100
AcDbEntity
  8
1
370
    13
100
AcDbCircle
 10
33.772836
 20
17.443362
 30
0.0
 40
3.001894206655885
100
AcDbArc
 50
251.35767
 51
288.766397
  0
ARC
  5
465
330
1F
100
AcDbEntity
  8
1
370
    13
100
AcDbCircle
 10
33.890715
 20
17.353971
 30
0.0
 40
2.880524274797456
100
AcDbArc
 50
287.118142
 51
325.595048
  0
ARC
  5
466
330
1F
100
AcDbEntity
  8
1
370
    13
100
AcDbCircle
 10
34.822043
 20
16.734628
 30
0.0
 40
1.762232063740787
100
AcDbArc
 50
325.099587
 51
14.687575
  0
ARC
  5
467
330
1F
100
AcDbEntity
  8
1
370
    13
100
AcDbCircle
 10
32.576918
 20
-1.718648
 30
0.0
 40
0.1147647963354708
100
AcDbArc
 50
18.704537
 51
251.306124
  0
ARC
  5
468
330
1F
100
AcDbEntity
  8
1
370
    13
100
AcDbCircle
 10
32.773812
 20
-1.92144
 30
0.0
 40
0.1355737481081753
100
AcDbArc
 50
11.334346
 51
127.913466
  0
ARC
  5
469
330
1F
100
AcDbEntity
  8
1
370
    13
100
AcDbCircle
 10
33.27234
 20
16.147502
 30
0.0
 40
2.003144425377319
100
AcDbArc
 50
197.396722
 51
247.788742
  0
ARC
  5
46A
330
1F
100
AcDbEntity
  8
1
370
    13
100
AcDbCircle
 10
33.771181
 20
17.275287
 30
0.0
 40
3.236011639801319
100
AcDbArc
 50
247.160228
 51
283.47186
  0
ARC
  5
46B
330
1F
100
AcDbEntity
  8
1
370
    13
100
AcDbCircle
 10
33.80506
 20
17.489877
 30
0.0
 40
3.437805252457941
100
AcDbArc
 50
282.089426
 51
316.937005
  0
ARC
  5
46C
330
1F
100
AcDbEntity
  8
1
370
    13
100
AcDbCircle
 10
34.740145
 20
16.671247
 30
0.0
 40
2.196038499150015
100
AcDbArc
 50
315.883293
 51
3.19741
  0
ARC
  5
46D
330
1F
100
AcDbEntity
  8
1
370
    13
100
AcDbCircle
 10
35.074148
 20
16.602647
 30
0.0
 40
1.868414699711611
100
AcDbArc
 50
5.870058
 51
58.729508
  0
ARC
  5
46E
330
1F
100
AcDbEntity
  8
1
370
    13
100
AcDbCircle
 10
34.4961
 20
15.645869
 30
0.0
 40
2.986251350859453
100
AcDbArc
 50
58.778832
 51
97.132103
  0
ARC
  5
46F
330
1F
100
AcDbEntity
  8
1
370
    13
100
AcDbCircle
 10
34.482939
 20
15.057319
 30
0.0
 40
3.569652191873767
100
AcDbArc
 50
95.749478
 51
129.716728
  0
ARC
  5
470
330
1F
100
AcDbEntity
  8
1
370
    13
100
AcDbCircle
 10
33.715903
 20
15.896015
 30
0.0
 40
2.434987538214779
100
AcDbArc
 50
128.443783
 51
172.529213
  0
ARC
  5
471
330
1F
100
AcDbEntity
  8
1
370
    13
100
AcDbCircle
 10
36.223311
 20
17.059404
 30
0.0
 40
7.848772328768993
100
AcDbArc
 50
187.085486
 51
202.647795
  0
ARC
  5
472
330
1F
100
AcDbEntity
  8
1
370
    13
100
AcDbCircle
 10
35.850675
 20
-9.100421
 30
0.0
 40
1.600217488769565
100
AcDbArc
 50
65.241449
 51
122.960428
  0
ARC
  5
473
330
1F
100
AcDbEntity
  8
1
370
    13
100
AcDbCircle
 10
34.679268
 20
-10.472081
 30
0.0
 40
3.46371291430986
100
AcDbArc
 50
28.128316
 51
52.293081
  0
ARC
  5
474
330
1F
100
AcDbEntity
  8
1
370
    13
100
AcDbCircle
 10
37.991241
 20
-10.603481
 30
0.0
 40
4.367236359162376
100
AcDbArc
 50
144.542082
 51
173.214651
  0
ARC
  5
475
330
1F
100
AcDbEntity
  8
1
370
    13
100
AcDbCircle
 10
41.106687
 20
-11.16163
 30
0.0
 40
7.529107811384844
100
AcDbArc
 50
171.797923
 51
187.864436
  0
ARC
  5
476
330
1F
100
AcDbEntity
  8
1
370
    13
100
AcDbCircle
 10
32.231763
 20
-8.557852
 30
0.0
 40
1.482349301608072
100
AcDbArc
 50
336.064955
 51
14.901564
  0
ARC
  5
477
330
1F
100
AcDbEntity
  8
1
370
    13
100
AcDbCircle
 10
31.6738
 20
-9.304986
 30
0.0
 40
2.11280545421955
100
AcDbArc
 50
126.064145
 51
157.104677
  0
ARC
  5
478
330
1F
100
AcDbEntity
  8
1
370
    13
100
AcDbCircle
 10
101.69014
 20
68.574842
 30
0.0
 40
89.47916413857156
100
AcDbArc
 50
212.715365
 51
214.424708
  0
ARC
  5
479
330
1F
100
AcDbEntity
  8
1
370
    13
100
AcDbCircle
 10
32.601761
 20
-27.114418
 30
0.0
 40
5.516223417706808
100
AcDbArc
 50
21.507273
 51
40.47724
  0
ARC
  5
47A
330
1F
100
AcDbEntity
  8
1
370
    13
100
AcDbCircle
 10
38.601322
 20
-26.149375
 30
0.0
 40
4.937950183108977
100
AcDbArc
 50
147.559478
 51
172.852463
  0
ARC
  5
47B
330
1F
100
AcDbEntity
  8
1
370
    13
100
AcDbCircle
 10
44.71271
 20
-27.204588
 30
0.0
 40
11.13683002123758
100
AcDbArc
 50
171.3778
 51
186.00185
  0
ARC
  5
47C
330
1F
100
AcDbEntity
  8
1
370
    13
100
AcDbCircle
 10
34.80557
 20
9.496465
 30
0.0
 40
1.320902395266089
100
AcDbArc
 50
106.340311
 51
157.98499
  0
MTEXT
  5
47D
330
1F
100
AcDbEntity
  8
SK6
370
    13
100
AcDbMText
 10
0.5625
 20
80.607143
 30
0.0
 40
3.0
 41
0.0
 71
     7
 72
     5
  1
\W0.7350;250A08R-ISMOSN11-C
  7
cesky
 73
     2
 44
1.084337
  0
DIMENSION
  5
489
330
1F
100
AcDbEntity
  8
SK2
370
    13
100
AcDbDimension
  2
DimnDraft3D1
 10
-12.0
 20
-4.0975
 30
0.0
 11
-12.0
 21
17.476071
 31
0.0
 70
   160
  1
\C95;8.15
 71
     5
 42
-1.0
  3
Standard
100
AcDbAlignedDimension
 13
1.0
 23
4.0975
 33
0.0
 14
1.0
 24
-4.0975
 34
0.0
 50
90.0
100
AcDbRotatedDimension
1001
ACAD
1000
DSTYLE
1002
{
1070
    74
1070
     0
1070
   279
1070
     0
1070
   172
1070
     1
1070
   173
1070
     1
1070
   340
1005
47E
1070
   271
1070
     1
1070
   272
1070
     2
1070
    77
1070
     1
1070
    73
1070
     0
1070
   171
1070
     3
1070
   274
1070
     4
1070
   177
1070
    95
1070
   176
1070
    95
1070
   178
1070
    95
1070
    78
1070
     8
1070
    48
1040
-0.005
1070
    41
1041
3.5
1070
   147
1041
1.5
1070
    42
1041
0.0
1070
    44
1041
2.0
1070
   140
1041
3.0
1070
   343
1005
0
1070
   344
1005
0
1002
}
  0
DIMENSION
  5
492
330
1F
100
AcDbEntity
  8
2
370
    13
100
AcDbDimension
  2
DimnDraft3D2
 10
48.0
 20
0.0
 30
0.0
 11
49.5
 21
-0.128571
 31
0.0
 70
   161
  1
\C254;%%c 63,5
 71
     5
 42
-1.0
  3
Standard
100
AcDbAlignedDimension
 13
39.0
 23
31.75
 33
0.0
 14
40.0
 24
-31.75
 34
0.0
1001
ACAD
1000
DSTYLE
1002
{
1070
   279
1070
     0
1070
    74
1070
     0
1070
   173
1070
     1
1070
   340
1005
47E
1070
    76
1070
     1
1070
   271
1070
     2
1070
   272
1070
     2
1070
    77
1070
     1
1070
    73
1070
     0
1070
   171
1070
     3
1070
   274
1070
     4
1070
   282
1070
     1
1070
   177
1070
   254
1070
   176
1070
   254
1070
   178
1070
   254
1070
    78
1070
     8
1070
    48
1040
-0.005
1070
    41
1041
3.5
1070
   147
1041
1.5
1070
    42
1041
0.0
1070
    44
1041
2.0
1070
   140
1041
3.0
1070
   343
1005
0
1070
   344
1005
0
1002
}
  0
DIMENSION
  5
49D
330
1F
100
AcDbEntity
  8
SK2
370
    13
100
AcDbDimension
  2
DimnDraft3D3
 10
-23.25
 20
9.525
 30
0.0
 11
-23.5
 21
2.035714
 31
0.0
 70
   161
  1
\C95;%%c 19
 71
     5
 42
-1.0
  3
Standard
100
AcDbAlignedDimension
 13
0.0
 23
-9.525
 33
0.0
 14
0.0
 24
9.525
 34
0.0
1001
ACAD
1000
DSTYLE
1002
{
1070
   279
1070
     0
1070
    74
1070
     0
1070
   173
1070
     1
1070
   340
1005
47E
1070
   271
1070
     1
1070
   272
1070
     2
1070
    77
1070
     1
1070
    73
1070
     0
1070
   171
1070
     3
1070
   274
1070
     4
1070
   177
1070
    95
1070
   176
1070
    95
1070
   178
1070
    95
1070
    78
1070
     8
1070
    48
1040
-0.005
1070
    41
1041
3.5
1070
   147
1041
1.5
1070
    42
1041
0.0
1070
    44
1041
2.0
1070
   140
1041
3.0
1070
   343
1005
0
1070
   344
1005
0
1002
}
  0
DIMENSION
  5
4A8
330
1F
100
AcDbEntity
  8
SK2
370
    13
100
AcDbDimension
  2
DimnDraft3D4
 10
-33.25
 20
23.5
 30
0.0
 11
-33.5
 21
2.035714
 31
0.0
 70
   161
  1
\C95;%%c 47
 71
     5
 42
-1.0
  3
Standard
100
AcDbAlignedDimension
 13
0.5
 23
-23.5
 33
0.0
 14
0.5
 24
23.5
 34
0.0
1001
ACAD
1000
DSTYLE
1002
{
1070
   279
1070
     0
1070
    74
1070
     0
1070
   173
1070
     1
1070
   340
1005
47E
1070
   271
1070
     1
1070
   272
1070
     2
1070
    77
1070
     1
1070
    73
1070
     0
1070
   171
1070
     3
1070
   274
1070
     4
1070
   177
1070
    95
1070
   176
1070
    95
1070
   178
1070
    95
1070
    78
1070
     8
1070
    48
1040
-0.005
1070
    41
1041
3.5
1070
   147
1041
1.5
1070
    42
1041
0.0
1070
    44
1041
2.0
1070
   140
1041
3.0
1070
   343
1005
0
1070
   344
1005
0
1002
}
  0
DIMENSION
  5
4B2
330
1F
100
AcDbEntity
  8
2
370
    13
100
AcDbDimension
  2
DimnDraft3D5
 10
40.0
 20
44.75
 30
0.0
 11
20.0
 21
44.75
 31
0.0
 70
   160
  1
\C254;40
 71
     5
 42
-1.0
  3
Standard
100
AcDbAlignedDimension
 13
0.0
 23
23.0
 33
0.0
 14
40.0
 24
32.75
 34
0.0
100
AcDbRotatedDimension
1001
ACAD
1000
DSTYLE
1002
{
1070
   279
1070
     0
1070
   172
1070
     1
1070
   173
1070
     1
1070
   340
1005
47E
1070
   271
1070
     1
1070
   272
1070
     2
1070
    77
1070
     1
1070
    73
1070
     0
1070
   171
1070
     3
1070
   274
1070
     4
1070
   177
1070
   254
1070
   176
1070
   254
1070
   178
1070
   254
1070
    78
1070
     8
1070
    48
1040
-0.005
1070
    41
1041
3.5
1070
   147
1041
1.5
1070
    42
1041
0.0
1070
    44
1041
2.0
1070
   140
1041
3.0
1070
   343
1005
0
1070
   344
1005
0
1002
}
  0
DIMENSION
  5
4BC
330
1F
100
AcDbEntity
  8
2
370
    13
100
AcDbDimension
  2
DimnDraft3D6
 10
40.0
 20
36.75
 30
0.0
 11
52.296429
 21
36.75
 31
0.0
 70
   160
  1
\C254;1,7
 71
     5
 42
-1.0
  3
Standard
100
AcDbAlignedDimension
 13
38.318956
 23
29.911506
 33
0.0
 14
40.0
 24
32.75
 34
0.0
100
AcDbRotatedDimension
1001
ACAD
1000
DSTYLE
1002
{
1070
   279
1070
     0
1070
   172
1070
     1
1070
   173
1070
     1
1070
   340
1005
47E
1070
   271
1070
     1
1070
   272
1070
     2
1070
    77
1070
     1
1070
    73
1070
     0
1070
   171
1070
     3
1070
   274
1070
     4
1070
   177
1070
   254
1070
   176
1070
   254
1070
   178
1070
   254
1070
    78
1070
     8
1070
    48
1040
-0.005
1070
    41
1041
3.5
1070
   147
1041
1.5
1070
    42
1041
0.0
1070
    44
1041
2.0
1070
   140
1041
3.0
1070
   343
1005
0
1070
   344
1005
0
1002
}
  0
DIMENSION
  5
4C6
330
1F
100
AcDbEntity
  8
SK2
370
    13
100
AcDbDimension
  2
DimnDraft3D7
 10
4.9
 20
-42.0
 30
0.0
 11
-12.296429
 21
-42.0
 31
0.0
 70
   160
  1
\C95;4.9
 71
     5
 42
-1.0
  3
Standard
100
AcDbAlignedDimension
 13
0.0
 23
-23.0
 33
0.0
 14
4.9
 24
-3.802212
 34
0.0
100
AcDbRotatedDimension
1001
ACAD
1000
DSTYLE
1002
{
1070
   279
1070
     0
1070
   172
1070
     1
1070
   173
1070
     1
1070
   340
1005
47E
1070
   271
1070
     1
1070
   272
1070
     2
1070
    77
1070
     1
1070
    73
1070
     0
1070
   171
1070
     3
1070
   274
1070
     4
1070
   177
1070
    95
1070
   176
1070
    95
1070
   178
1070
    95
1070
    78
1070
     8
1070
    48
1040
-0.005
1070
    41
1041
3.5
1070
   147
1041
1.5
1070
    42
1041
0.0
1070
    44
1041
2.0
1070
   140
1041
3.0
1070
   343
1005
0
1070
   344
1005
0
1002
}
  0
ENDSEC
  0
SECTION
  2
OBJECTS
  0
DICTIONARY
  5
C
330
0
100
AcDbDictionary
281
     1
  3
ACAD_GROUP
350
D
  3
ACAD_LAYOUT
350
1A
  3
ACAD_MATERIAL
350
43
  3
ACAD_MLEADERSTYLE
350
4DB
  3
ACAD_MLINESTYLE
350
17
  3
ACAD_PLOTSETTINGS
350
19
  3
ACAD_PLOTSTYLENAME
350
E
  3
ACAD_SCALELIST
350
47
  3
ACAD_VISUALSTYLE
350
2A
  3
AcDbVariableDictionary
350
4D9
  0
DICTIONARY
  5
D
102
{ACAD_REACTORS
330
C
102
}
330
C
100
AcDbDictionary
281
     1
  0
DICTIONARY
  5
1A
102
{ACAD_REACTORS
330
C
102
}
330
C
100
AcDbDictionary
281
     1
  3
Layout1
350
1E
  3
Layout2
350
26
  3
Model
350
22
  0
DICTIONARY
  5
43
102
{ACAD_REACTORS
330
C
102
}
330
C
100
AcDbDictionary
281
     1
  3
ByBlock
350
45
  3
ByLayer
350
44
  3
Global
350
46
  0
DICTIONARY
  5
4DB
102
{ACAD_REACTORS
330
C
102
}
330
C
100
AcDbDictionary
281
     1
  0
DICTIONARY
  5
17
102
{ACAD_REACTORS
330
C
102
}
330
C
100
AcDbDictionary
281
     1
  3
Standard
350
18
  0
DICTIONARY
  5
19
102
{ACAD_REACTORS
330
C
102
}
330
C
100
AcDbDictionary
281
     1
  0
ACDBDICTIONARYWDFLT
  5
E
102
{ACAD_REACTORS
330
C
102
}
330
C
100
AcDbDictionary
281
     1
  3
Normal
350
F
100
AcDbDictionaryWithDefault
340
F
  0
DICTIONARY
  5
47
102
{ACAD_REACTORS
330
C
102
}
330
C
100
AcDbDictionary
281
     1
  3
A0
350
48
  3
A1
350
49
  3
A2
350
4A
  3
A3
350
4B
  3
A4
350
4C
  3
A5
350
4D
  3
A6
350
4E
  3
A7
350
4F
  3
A8
350
50
  3
A9
350
51
  3
B0
350
52
  3
B1
350
53
  3
B2
350
54
  3
B3
350
55
  3
B4
350
56
  3
B5
350
57
  3
B6
350
58
  3
B7
350
59
  3
B8
350
5A
  3
B9
350
5B
  3
C0
350
5C
  3
C1
350
5D
  3
C2
350
5E
  3
C3
350
5F
  3
C4
350
60
  3
C5
350
61
  3
C6
350
62
  3
C7
350
63
  3
C8
350
64
  3
C9
350
65
  3
D0
350
66
  3
D1
350
67
  3
D2
350
68
  0
DICTIONARY
  5
2A
102
{ACAD_REACTORS
330
C
102
}
330
C
100
AcDbDictionary
281
     1
  3
2dWireframe
350
2F
  3
Basic
350
32
  3
Brighten
350
36
  3
ColorChange
350
3A
  3
Conceptual
350
34
  3
Dim
350
35
  3
EdgeColorOff
350
3D
  3
Facepattern
350
39
  3
Flat
350
2B
  3
FlatWithEdges
350
2C
  3
Gouraud
350
2D
  3
GouraudWithEdges
350
2E
  3
Hidden
350
31
  3
JitterOff
350
3B
  3
Linepattern
350
38
  3
OverhangOff
350
3C
  3
Realistic
350
33
  3
Shaded
350
42
  3
Shaded with edges
350
41
  3
Shades of Gray
350
3E
  3
Sketchy
350
3F
  3
Thicken
350
37
  3
Wireframe
350
30
  3
X-Ray
350
40
  0
DICTIONARY
  5
4D9
102
{ACAD_REACTORS
330
C
102
}
330
C
100
AcDbDictionary
281
     1
  3
CANNOSCALE
350
4E0
  3
DIMASSOC
350
4DE
  3
HIDETEXT
350
4DF
  3
MSLTSCALE
350
4E1
  0
LAYOUT
  5
1E
102
{ACAD_REACTORS
330
1A
102
}
330
1A
100
AcDbPlotSettings
  1

  2
none_device
  4

  6

 40
0.0
 41
0.0
 42
0.0
 43
0.0
 44
0.0
 45
0.0
 46
0.0
 47
0.0
 48
0.0
 49
0.0
140
0.0
141
0.0
142
1.0
143
1.0
 70
   688
 72
     0
 73
     0
 74
     5
  7

 75
    16
147
1.0
148
0.0
149
0.0
100
AcDbLayout
  1
Layout1
 70
     1
 71
     1
 10
-0.5
 20
-0.5
 11
5.0
 21
5.0
 12
0.0
 22
0.0
 32
0.0
 14
-0.5
 24
-0.5
 34
-0.5
 15
5.0
 25
5.0
 35
5.0
146
0.0
 13
0.0
 23
0.0
 33
0.0
 16
1.0
 26
0.0
 36
0.0
 17
0.0
 27
1.0
 37
0.0
 76
     0
330
1B
  0
LAYOUT
  5
26
102
{ACAD_REACTORS
330
1A
102
}
330
1A
100
AcDbPlotSettings
  1

  2
none_device
  4

  6

 40
0.0
 41
0.0
 42
0.0
 43
0.0
 44
0.0
 45
0.0
 46
0.0
 47
0.0
 48
0.0
 49
0.0
140
0.0
141
0.0
142
1.0
143
1.0
 70
   688
 72
     0
 73
     0
 74
     5
  7

 75
    16
147
1.0
148
0.0
149
0.0
100
AcDbLayout
  1
Layout2
 70
     1
 71
     2
 10
0.0
 20
0.0
 11
0.0
 21
0.0
 12
0.0
 22
0.0
 32
0.0
 14
0.0
 24
0.0
 34
0.0
 15
0.0
 25
0.0
 35
0.0
146
0.0
 13
0.0
 23
0.0
 33
0.0
 16
1.0
 26
0.0
 36
0.0
 17
0.0
 27
1.0
 37
0.0
 76
     0
330
23
  0
LAYOUT
  5
22
102
{ACAD_REACTORS
330
1A
102
}
330
1A
100
AcDbPlotSettings
  1

  2
none_device
  4
Letter_(8.50_x_11.00_Inches)
  6

 40
6.35
 41
6.35
 42
6.350005
 43
6.350005
 44
215.9
 45
279.4
 46
0.0
 47
0.0
 48
0.0
 49
0.0
140
0.0
141
0.0
142
1.0
143
1.0
 70
  1712
 72
     0
 73
     0
 74
     0
  7

 75
     0
147
1.0
148
0.0
149
0.0
100
AcDbLayout
  1
Model
 70
     1
 71
     0
 10
-0.5
 20
-0.5
 11
5.0
 21
5.0
 12
0.0
 22
0.0
 32
0.0
 14
-0.5
 24
-0.5
 34
-0.5
 15
5.0
 25
5.0
 35
5.0
146
0.0
 13
0.0
 23
0.0
 33
0.0
 16
1.0
 26
0.0
 36
0.0
 17
0.0
 27
1.0
 37
0.0
 76
     0
330
1F
331
4C8
  0
MATERIAL
  5
45
102
{ACAD_REACTORS
330
43
102
}
102
{ACAD_XDICTIONARY
360
514
102
}
330
43
100
AcDbMaterial
  1
ByBlock
  0
MATERIAL
  5
44
102
{ACAD_REACTORS
330
43
102
}
102
{ACAD_XDICTIONARY
360
512
102
}
330
43
100
AcDbMaterial
  1
ByLayer
  0
MATERIAL
  5
46
102
{ACAD_REACTORS
330
43
102
}
102
{ACAD_XDICTIONARY
360
516
102
}
330
43
100
AcDbMaterial
  1
Global
  0
MLINESTYLE
  5
18
102
{ACAD_REACTORS
330
17
102
}
330
17
100
AcDbMlineStyle
  2
Standard
 70
     0
  3

 62
   256
 51
90.0
 52
90.0
 71
     2
 49
0.5
 62
   256
  6
BYLAYER
 49
-0.5
 62
   256
  6
BYLAYER
  0
ACDBPLACEHOLDER
  5
F
102
{ACAD_REACTORS
330
E
102
}
330
E
  0
SCALE
  5
48
102
{ACAD_REACTORS
330
47
102
}
330
47
100
AcDbScale
 70
     0
300
1:1
140
1.0
141
1.0
290
     1
  0
SCALE
  5
49
102
{ACAD_REACTORS
330
47
102
}
330
47
100
AcDbScale
 70
     0
300
1:2
140
1.0
141
2.0
290
     0
  0
SCALE
  5
4A
102
{ACAD_REACTORS
330
47
102
}
330
47
100
AcDbScale
 70
     0
300
1:4
140
1.0
141
4.0
290
     0
  0
SCALE
  5
4B
102
{ACAD_REACTORS
330
47
102
}
330
47
100
AcDbScale
 70
     0
300
1:5
140
1.0
141
5.0
290
     0
  0
SCALE
  5
4C
102
{ACAD_REACTORS
330
47
102
}
330
47
100
AcDbScale
 70
     0
300
1:8
140
1.0
141
8.0
290
     0
  0
SCALE
  5
4D
102
{ACAD_REACTORS
330
47
102
}
330
47
100
AcDbScale
 70
     0
300
1:10
140
1.0
141
10.0
290
     0
  0
SCALE
  5
4E
102
{ACAD_REACTORS
330
47
102
}
330
47
100
AcDbScale
 70
     0
300
1:16
140
1.0
141
16.0
290
     0
  0
SCALE
  5
4F
102
{ACAD_REACTORS
330
47
102
}
330
47
100
AcDbScale
 70
     0
300
1:20
140
1.0
141
20.0
290
     0
  0
SCALE
  5
50
102
{ACAD_REACTORS
330
47
102
}
330
47
100
AcDbScale
 70
     0
300
1:30
140
1.0
141
30.0
290
     0
  0
SCALE
  5
51
102
{ACAD_REACTORS
330
47
102
}
330
47
100
AcDbScale
 70
     0
300
1:40
140
1.0
141
40.0
290
     0
  0
SCALE
  5
52
102
{ACAD_REACTORS
330
47
102
}
330
47
100
AcDbScale
 70
     0
300
1:50
140
1.0
141
50.0
290
     0
  0
SCALE
  5
53
102
{ACAD_REACTORS
330
47
102
}
330
47
100
AcDbScale
 70
     0
300
1:100
140
1.0
141
100.0
290
     0
  0
SCALE
  5
54
102
{ACAD_REACTORS
330
47
102
}
330
47
100
AcDbScale
 70
     0
300
2:1
140
2.0
141
1.0
290
     0
  0
SCALE
  5
55
102
{ACAD_REACTORS
330
47
102
}
330
47
100
AcDbScale
 70
     0
300
4:1
140
4.0
141
1.0
290
     0
  0
SCALE
  5
56
102
{ACAD_REACTORS
330
47
102
}
330
47
100
AcDbScale
 70
     0
300
8:1
140
8.0
141
1.0
290
     0
  0
SCALE
  5
57
102
{ACAD_REACTORS
330
47
102
}
330
47
100
AcDbScale
 70
     0
300
10:1
140
10.0
141
1.0
290
     0
  0
SCALE
  5
58
102
{ACAD_REACTORS
330
47
102
}
330
47
100
AcDbScale
 70
     0
300
100:1
140
100.0
141
1.0
290
     0
  0
SCALE
  5
59
102
{ACAD_REACTORS
330
47
102
}
330
47
100
AcDbScale
 70
     0
300
1/128" = 1'-0"
140
0.007812
141
12.0
290
     0
  0
SCALE
  5
5A
102
{ACAD_REACTORS
330
47
102
}
330
47
100
AcDbScale
 70
     0
300
1/64" = 1'-0"
140
0.015625
141
12.0
290
     0
  0
SCALE
  5
5B
102
{ACAD_REACTORS
330
47
102
}
330
47
100
AcDbScale
 70
     0
300
1/32" = 1'-0"
140
0.03125
141
12.0
290
     0
  0
SCALE
  5
5C
102
{ACAD_REACTORS
330
47
102
}
330
47
100
AcDbScale
 70
     0
300
1/16" = 1'-0"
140
0.0625
141
12.0
290
     0
  0
SCALE
  5
5D
102
{ACAD_REACTORS
330
47
102
}
330
47
100
AcDbScale
 70
     0
300
3/32" = 1'-0"
140
0.09375
141
12.0
290
     0
  0
SCALE
  5
5E
102
{ACAD_REACTORS
330
47
102
}
330
47
100
AcDbScale
 70
     0
300
1/8" = 1'-0"
140
0.125
141
12.0
290
     0
  0
SCALE
  5
5F
102
{ACAD_REACTORS
330
47
102
}
330
47
100
AcDbScale
 70
     0
300
3/16" = 1'-0"
140
0.1875
141
12.0
290
     0
  0
SCALE
  5
60
102
{ACAD_REACTORS
330
47
102
}
330
47
100
AcDbScale
 70
     0
300
1/4" = 1'-0"
140
0.25
141
12.0
290
     0
  0
SCALE
  5
61
102
{ACAD_REACTORS
330
47
102
}
330
47
100
AcDbScale
 70
     0
300
3/8" = 1'-0"
140
0.375
141
12.0
290
     0
  0
SCALE
  5
62
102
{ACAD_REACTORS
330
47
102
}
330
47
100
AcDbScale
 70
     0
300
1/2" = 1'-0"
140
0.5
141
12.0
290
     0
  0
SCALE
  5
63
102
{ACAD_REACTORS
330
47
102
}
330
47
100
AcDbScale
 70
     0
300
3/4" = 1'-0"
140
0.75
141
12.0
290
     0
  0
SCALE
  5
64
102
{ACAD_REACTORS
330
47
102
}
330
47
100
AcDbScale
 70
     0
300
1" = 1'-0"
140
1.0
141
12.0
290
     0
  0
SCALE
  5
65
102
{ACAD_REACTORS
330
47
102
}
330
47
100
AcDbScale
 70
     0
300
1-1/2" = 1'-0"
140
1.5
141
12.0
290
     0
  0
SCALE
  5
66
102
{ACAD_REACTORS
330
47
102
}
330
47
100
AcDbScale
 70
     0
300
3" = 1'-0"
140
3.0
141
12.0
290
     0
  0
SCALE
  5
67
102
{ACAD_REACTORS
330
47
102
}
330
47
100
AcDbScale
 70
     0
300
6" = 1'-0"
140
6.0
141
12.0
290
     0
  0
SCALE
  5
68
102
{ACAD_REACTORS
330
47
102
}
330
47
100
AcDbScale
 70
     0
300
1'-0" = 1'-0"
140
12.0
141
12.0
290
     0
  0
VISUALSTYLE
  5
2F
102
{ACAD_REACTORS
330
2A
102
}
102
{ACAD_XDICTIONARY
360
4EA
102
}
330
2A
100
AcDbVisualStyle
  2
2dWireframe
 70
     4
 71
     0
 72
     2
 73
     0
 90
        0
 40
0.6
 41
30.0
 62
     5
 63
     7
 74
     1
 91
        4
 64
     7
 65
   257
 75
     1
175
     1
 42
1.0
 92
        0
 66
   257
 43
1.0
 76
     1
 77
     6
 78
     2
 67
     7
 79
     5
170
     0
171
     0
290
     0
174
     0
 93
        1
 44
0.0
173
     0
291
     0
 45
0.0
1001
ACAD
1000
AcDbSavedByObjectVersion
1070
     0
  0
VISUALSTYLE
  5
32
102
{ACAD_REACTORS
330
2A
102
}
102
{ACAD_XDICTIONARY
360
4F0
102
}
330
2A
100
AcDbVisualStyle
  2
Basic
 70
     7
 71
     1
 72
     0
 73
     1
 90
        0
 40
0.6
 41
30.0
 62
     5
 63
     7
 74
     0
 91
        4
 64
     7
 65
   257
 75
     1
175
     1
 42
1.0
 92
        8
 66
     7
 43
1.0
 76
     1
 77
     6
 78
     2
 67
     7
 79
     5
170
     0
171
     0
290
     0
174
     0
 93
        1
 44
0.0
173
     0
291
     1
 45
0.0
1001
ACAD
1000
AcDbSavedByObjectVersion
1070
     0
  0
VISUALSTYLE
  5
36
102
{ACAD_REACTORS
330
2A
102
}
102
{ACAD_XDICTIONARY
360
4F8
102
}
330
2A
100
AcDbVisualStyle
  2
Brighten
 70
    12
 71
     2
 72
     2
 73
     0
 90
        0
 40
0.6
 41
30.0
 62
     5
 63
     7
 74
     1
 91
        4
 64
     7
 65
   257
 75
     1
175
     1
 42
1.0
 92
        8
 66
     7
 43
1.0
 76
     1
 77
     6
 78
     2
 67
     7
 79
     5
170
     0
171
     0
290
     0
174
     0
 93
        1
 44
50.0
173
     0
291
     1
 45
0.0
1001
ACAD
1000
AcDbSavedByObjectVersion
1070
     0
  0
VISUALSTYLE
  5
3A
102
{ACAD_REACTORS
330
2A
102
}
102
{ACAD_XDICTIONARY
360
500
102
}
330
2A
100
AcDbVisualStyle
  2
ColorChange
 70
    16
 71
     2
 72
     2
 73
     3
 90
        0
 40
0.6
 41
30.0
 62
     5
 63
     8
 74
     1
 91
        4
 64
     7
 65
   257
 75
     1
175
     1
 42
1.0
 92
        8
 66
     8
 43
1.0
 76
     1
 77
     6
 78
     2
 67
     7
 79
     5
170
     0
171
     0
290
     0
174
     0
 93
        1
 44
0.0
173
     0
291
     1
 45
0.0
1001
ACAD
1000
AcDbSavedByObjectVersion
1070
     0
  0
VISUALSTYLE
  5
34
102
{ACAD_REACTORS
330
2A
102
}
102
{ACAD_XDICTIONARY
360
4F4
102
}
330
2A
100
AcDbVisualStyle
  2
Conceptual
 70
     9
 71
     3
 72
     2
 73
     0
 90
        0
 40
0.6
 41
30.0
 62
     5
 63
     7
 74
     2
 91
        2
 64
     7
 65
   257
 75
     1
175
     1
 42
179.0
 92
        8
 66
     7
 43
1.0
 76
     1
 77
     6
 78
     2
 67
     7
 79
     3
170
     0
171
     0
290
     0
174
     0
 93
        1
 44
0.0
173
     0
291
     0
 45
0.0
1001
ACAD
1000
AcDbSavedByObjectVersion
1070
     0
  0
VISUALSTYLE
  5
35
102
{ACAD_REACTORS
330
2A
102
}
102
{ACAD_XDICTIONARY
360
4F6
102
}
330
2A
100
AcDbVisualStyle
  2
Dim
 70
    11
 71
     2
 72
     2
 73
     0
 90
        0
 40
0.6
 41
30.0
 62
     5
 63
     7
 74
     1
 91
        4
 64
     7
 65
   257
 75
     1
175
     1
 42
1.0
 92
        8
 66
     7
 43
1.0
 76
     1
 77
     6
 78
     2
 67
     7
 79
     5
170
     0
171
     0
290
     0
174
     0
 93
        1
 44
-50.0
173
     0
291
     1
 45
0.0
1001
ACAD
1000
AcDbSavedByObjectVersion
1070
     0
  0
VISUALSTYLE
  5
3D
102
{ACAD_REACTORS
330
2A
102
}
102
{ACAD_XDICTIONARY
360
506
102
}
330
2A
100
AcDbVisualStyle
  2
EdgeColorOff
 70
    22
 71
     2
 72
     2
 73
     0
 90
        0
 40
0.6
 41
30.0
 62
     5
 63
     7
 74
     1
 91
        4
 64
     7
 65
   257
 75
     1
175
     1
 42
1.0
 92
        8
 66
     7
 43
1.0
 76
     1
 77
     6
 78
     2
 67
     7
 79
     5
170
     0
171
     0
290
     0
174
     0
 93
        1
 44
0.0
173
     0
291
     1
 45
0.0
1001
ACAD
1000
AcDbSavedByObjectVersion
1070
     0
  0
VISUALSTYLE
  5
39
102
{ACAD_REACTORS
330
2A
102
}
102
{ACAD_XDICTIONARY
360
4FE
102
}
330
2A
100
AcDbVisualStyle
  2
Facepattern
 70
    15
 71
     2
 72
     2
 73
     0
 90
        0
 40
0.6
 41
30.0
 62
     5
 63
     7
 74
     1
 91
        4
 64
     7
 65
   257
 75
     1
175
     1
 42
1.0
 92
        8
 66
     7
 43
1.0
 76
     1
 77
     6
 78
     2
 67
     7
 79
     5
170
     0
171
     0
290
     0
174
     0
 93
        1
 44
0.0
173
     0
291
     1
 45
0.0
1001
ACAD
1000
AcDbSavedByObjectVersion
1070
     0
  0
VISUALSTYLE
  5
2B
102
{ACAD_REACTORS
330
2A
102
}
102
{ACAD_XDICTIONARY
360
4E2
102
}
330
2A
100
AcDbVisualStyle
  2
Flat
 70
     0
 71
     2
 72
     1
 73
     1
 90
        2
 40
0.6
 41
30.0
 62
     5
 63
     7
 74
     0
 91
        0
 64
     7
 65
   257
 75
     1
175
     1
 42
1.0
 92
        8
 66
     7
 43
1.0
 76
     1
 77
     6
 78
     2
 67
     7
 79
     5
170
     0
171
     0
290
     0
174
     0
 93
       13
 44
0.0
173
     0
291
     1
 45
0.0
1001
ACAD
1000
AcDbSavedByObjectVersion
1070
     0
  0
VISUALSTYLE
  5
2C
102
{ACAD_REACTORS
330
2A
102
}
102
{ACAD_XDICTIONARY
360
4E4
102
}
330
2A
100
AcDbVisualStyle
  2
FlatWithEdges
 70
     1
 71
     2
 72
     1
 73
     1
 90
        2
 40
0.6
 41
30.0
 62
     5
 63
     7
 74
     1
 91
        0
 64
     7
 65
   257
 75
     1
175
     1
 42
1.0
 92
        0
 66
   257
 43
1.0
 76
     1
 77
     6
 78
     2
 67
     7
 79
     5
170
     0
171
     0
290
     0
174
     0
 93
       13
 44
0.0
173
     0
291
     1
 45
0.0
1001
ACAD
1000
AcDbSavedByObjectVersion
1070
     0
  0
VISUALSTYLE
  5
2D
102
{ACAD_REACTORS
330
2A
102
}
102
{ACAD_XDICTIONARY
360
4E6
102
}
330
2A
100
AcDbVisualStyle
  2
Gouraud
 70
     2
 71
     2
 72
     2
 73
     1
 90
        2
 40
0.6
 41
30.0
 62
     5
 63
     7
 74
     0
 91
        0
 64
     7
 65
   257
 75
     1
175
     1
 42
1.0
 92
        0
 66
     7
 43
1.0
 76
     1
 77
     6
 78
     2
 67
     7
 79
     5
170
     0
171
     0
290
     0
174
     0
 93
       13
 44
0.0
173
     0
291
     1
 45
0.0
1001
ACAD
1000
AcDbSavedByObjectVersion
1070
     0
  0
VISUALSTYLE
  5
2E
102
{ACAD_REACTORS
330
2A
102
}
102
{ACAD_XDICTIONARY
360
4E8
102
}
330
2A
100
AcDbVisualStyle
  2
GouraudWithEdges
 70
     3
 71
     2
 72
     2
 73
     1
 90
        2
 40
0.6
 41
30.0
 62
     5
 63
     7
 74
     1
 91
        0
 64
     7
 65
   257
 75
     1
175
     1
 42
1.0
 92
        0
 66
   257
 43
1.0
 76
     1
 77
     6
 78
     2
 67
     7
 79
     5
170
     0
171
     0
290
     0
174
     0
 93
       13
 44
0.0
173
     0
291
     1
 45
0.0
1001
ACAD
1000
AcDbSavedByObjectVersion
1070
     0
  0
VISUALSTYLE
  5
31
102
{ACAD_REACTORS
330
2A
102
}
102
{ACAD_XDICTIONARY
360
4EE
102
}
330
2A
100
AcDbVisualStyle
  2
Hidden
 70
     6
 71
     1
 72
     2
 73
     2
 90
        0
 40
0.6
 41
30.0
 62
     5
 63
     7
 74
     2
 91
        2
 64
     7
 65
   257
 75
     2
175
     1
 42
40.0
 92
        0
 66
   257
 43
1.0
 76
     1
 77
     6
 78
     2
 67
     7
 79
     3
170
     0
171
     0
290
     0
174
     0
 93
        1
 44
0.0
173
     0
291
     0
 45
0.0
1001
ACAD
1000
AcDbSavedByObjectVersion
1070
     0
  0
VISUALSTYLE
  5
3B
102
{ACAD_REACTORS
330
2A
102
}
102
{ACAD_XDICTIONARY
360
502
102
}
330
2A
100
AcDbVisualStyle
  2
JitterOff
 70
    20
 71
     2
 72
     2
 73
     0
 90
        0
 40
0.6
 41
30.0
 62
     5
 63
     7
 74
     1
 91
        4
 64
     7
 65
   257
 75
     1
175
     1
 42
1.0
 92
       10
 66
     7
 43
1.0
 76
     1
 77
     6
 78
     2
 67
     7
 79
     5
170
     0
171
     0
290
     0
174
     0
 93
        1
 44
0.0
173
     0
291
     1
 45
0.0
1001
ACAD
1000
AcDbSavedByObjectVersion
1070
     0
  0
VISUALSTYLE
  5
38
102
{ACAD_REACTORS
330
2A
102
}
102
{ACAD_XDICTIONARY
360
4FC
102
}
330
2A
100
AcDbVisualStyle
  2
Linepattern
 70
    14
 71
     2
 72
     2
 73
     0
 90
        0
 40
0.6
 41
30.0
 62
     5
 63
     7
 74
     1
 91
        4
 64
     7
 65
   257
 75
     7
175
     7
 42
1.0
 92
        8
 66
     7
 43
1.0
 76
     1
 77
     6
 78
     2
 67
     7
 79
     5
170
     0
171
     0
290
     0
174
     0
 93
        1
 44
0.0
173
     0
291
     1
 45
0.0
1001
ACAD
1000
AcDbSavedByObjectVersion
1070
     0
  0
VISUALSTYLE
  5
3C
102
{ACAD_REACTORS
330
2A
102
}
102
{ACAD_XDICTIONARY
360
504
102
}
330
2A
100
AcDbVisualStyle
  2
OverhangOff
 70
    21
 71
     2
 72
     2
 73
     0
 90
        0
 40
0.6
 41
30.0
 62
     5
 63
     7
 74
     1
 91
        4
 64
     7
 65
   257
 75
     1
175
     1
 42
1.0
 92
        9
 66
     7
 43
1.0
 76
     1
 77
     6
 78
     2
 67
     7
 79
     5
170
     0
171
     0
290
     0
174
     0
 93
        1
 44
0.0
173
     0
291
     1
 45
0.0
1001
ACAD
1000
AcDbSavedByObjectVersion
1070
     0
  0
VISUALSTYLE
  5
33
102
{ACAD_REACTORS
330
2A
102
}
102
{ACAD_XDICTIONARY
360
4F2
102
}
330
2A
100
AcDbVisualStyle
  2
Realistic
 70
     8
 71
     2
 72
     3
 73
     0
 90
        2
 40
0.6
 41
30.0
 62
     5
 63
     7
 74
     0
 91
        0
 64
     7
 65
   257
 75
     1
175
     1
 42
1.0
 92
        8
 66
   257
 43
1.0
 76
     1
 77
     6
 78
     2
 67
     7
 79
     3
170
     0
171
     0
290
     0
174
     0
 93
       13
 44
0.0
173
     0
291
     0
 45
0.0
1001
ACAD
1000
AcDbSavedByObjectVersion
1070
     0
  0
VISUALSTYLE
  5
42
102
{ACAD_REACTORS
330
2A
102
}
102
{ACAD_XDICTIONARY
360
510
102
}
330
2A
100
AcDbVisualStyle
  2
Shaded
 70
    27
 71
     2
 72
     2
 73
     1
 90
        2
 40
0.6
 41
30.0
 62
     5
 63
     7
 74
     0
 91
        4
 64
     7
 65
   257
 75
     1
175
     1
 42
1.0
 92
        8
 66
   257
 43
1.0
 76
     1
 77
     6
 78
     2
 67
     8
 79
     3
170
     0
171
     0
290
     0
174
     0
 93
        5
 44
0.0
173
     0
291
     0
 45
0.0
1001
ACAD
1000
AcDbSavedByObjectVersion
1070
     0
  0
VISUALSTYLE
  5
41
102
{ACAD_REACTORS
330
2A
102
}
102
{ACAD_XDICTIONARY
360
50E
102
}
330
2A
100
AcDbVisualStyle
  2
Shaded with edges
 70
    26
 71
     2
 72
     2
 73
     1
 90
        2
 40
0.6
 41
30.0
 62
     5
 63
     7
 74
     1
 91
       10
 64
     7
 65
   257
 75
     2
175
     1
 42
1.0
 92
        8
 66
   257
 43
1.0
 76
     1
 77
     6
 78
     2
 67
     7
 79
     3
170
     0
171
     0
290
     0
174
     0
 93
        5
 44
0.0
173
     0
291
     0
 45
0.0
1001
ACAD
1000
AcDbSavedByObjectVersion
1070
     0
  0
VISUALSTYLE
  5
3E
102
{ACAD_REACTORS
330
2A
102
}
102
{ACAD_XDICTIONARY
360
508
102
}
330
2A
100
AcDbVisualStyle
  2
Shades of Gray
 70
    23
 71
     2
 72
     2
 73
     3
 90
        0
 40
0.6
 41
30.0
 62
     5
 63
     7
 74
     2
 91
        2
 64
     7
 65
     7
 75
     1
175
     1
 42
40.0
 92
        8
 66
     7
 43
1.0
 76
     1
 77
     6
 78
     2
 67
     7
 79
     3
170
     0
171
     0
290
     0
174
     0
 93
        1
 44
0.0
173
     0
291
     0
 45
0.0
1001
ACAD
1000
AcDbSavedByObjectVersion
1070
     0
  0
VISUALSTYLE
  5
3F
102
{ACAD_REACTORS
330
2A
102
}
102
{ACAD_XDICTIONARY
360
50A
102
}
330
2A
100
AcDbVisualStyle
  2
Sketchy
 70
    24
 71
     1
 72
     2
 73
     2
 90
        0
 40
0.6
 41
30.0
 62
     5
 63
     7
 74
     2
 91
        2
 64
     7
 65
     7
 75
     1
175
     1
 42
40.0
 92
       11
 66
     7
 43
1.0
 76
     1
 77
     6
 78
     2
 67
     7
 79
     6
170
     0
171
     0
290
     0
174
     0
 93
        1
 44
0.0
173
     0
291
     0
 45
0.0
1001
ACAD
1000
AcDbSavedByObjectVersion
1070
     0
  0
VISUALSTYLE
  5
37
102
{ACAD_REACTORS
330
2A
102
}
102
{ACAD_XDICTIONARY
360
4FA
102
}
330
2A
100
AcDbVisualStyle
  2
Thicken
 70
    13
 71
     2
 72
     2
 73
     0
 90
        0
 40
0.6
 41
30.0
 62
     5
 63
     7
 74
     1
 91
        4
 64
     7
 65
   257
 75
     1
175
     1
 42
1.0
 92
       12
 66
     7
 43
1.0
 76
     1
 77
     6
 78
     2
 67
     7
 79
     5
170
     0
171
     0
290
     0
174
     0
 93
        1
 44
0.0
173
     0
291
     1
 45
0.0
1001
ACAD
1000
AcDbSavedByObjectVersion
1070
     0
  0
VISUALSTYLE
  5
30
102
{ACAD_REACTORS
330
2A
102
}
102
{ACAD_XDICTIONARY
360
4EC
102
}
330
2A
100
AcDbVisualStyle
  2
Wireframe
 70
     5
 71
     0
 72
     2
 73
     0
 90
        0
 40
0.6
 41
30.0
 62
     5
 63
     7
 74
     1
 91
        4
 64
     7
 65
   257
 75
     1
175
     1
 42
1.0
 92
        0
 66
   257
 43
1.0
 76
     1
 77
     6
 78
     2
 67
     7
 79
     3
170
     0
171
     0
290
     0
174
     0
 93
        1
 44
0.0
173
     0
291
     0
 45
0.0
1001
ACAD
1000
AcDbSavedByObjectVersion
1070
     0
  0
VISUALSTYLE
  5
40
102
{ACAD_REACTORS
330
2A
102
}
102
{ACAD_XDICTIONARY
360
50C
102
}
330
2A
100
AcDbVisualStyle
  2
X-Ray
 70
    25
 71
     2
 72
     2
 73
     1
 90
        1
 40
0.5
 41
30.0
 62
     5
 63
     7
 74
     1
 91
        0
 64
     7
 65
   257
 75
     1
175
     1
 42
1.0
 92
        8
 66
     7
 43
1.0
 76
     1
 77
     6
 78
     2
 67
     7
 79
     3
170
     0
171
     0
290
     0
174
     0
 93
       13
 44
0.0
173
     0
291
     0
 45
0.0
1001
ACAD
1000
AcDbSavedByObjectVersion
1070
     0
  0
DICTIONARYVAR
  5
4E0
102
{ACAD_REACTORS
330
4D9
102
}
330
4D9
100
DictionaryVariables
280
     0
  1
1:1
  0
DICTIONARYVAR
  5
4DE
102
{ACAD_REACTORS
330
4D9
102
}
330
4D9
100
DictionaryVariables
280
     0
  1
2
  0
DICTIONARYVAR
  5
4DF
102
{ACAD_REACTORS
330
4D9
102
}
330
4D9
100
DictionaryVariables
280
     0
  1
1
  0
DICTIONARYVAR
  5
4E1
102
{ACAD_REACTORS
330
4D9
102
}
330
4D9
100
DictionaryVariables
280
     0
  1
1
  0
DICTIONARY
  5
514
330
45
100
AcDbDictionary
280
     1
281
     1
  3
ACAD_XREC_ROUNDTRIP
360
515
  0
DICTIONARY
  5
512
330
44
100
AcDbDictionary
280
     1
281
     1
  3
ACAD_XREC_ROUNDTRIP
360
513
  0
DICTIONARY
  5
516
330
46
100
AcDbDictionary
280
     1
281
     1
  3
ACAD_XREC_ROUNDTRIP
360
517
  0
DICTIONARY
  5
4EA
330
2F
100
AcDbDictionary
280
     1
281
     1
  3
ACAD_XREC_ROUNDTRIP
360
4EB
  0
DICTIONARY
  5
4F0
330
32
100
AcDbDictionary
280
     1
281
     1
  3
ACAD_XREC_ROUNDTRIP
360
4F1
  0
DICTIONARY
  5
4F8
330
36
100
AcDbDictionary
280
     1
281
     1
  3
ACAD_XREC_ROUNDTRIP
360
4F9
  0
DICTIONARY
  5
500
330
3A
100
AcDbDictionary
280
     1
281
     1
  3
ACAD_XREC_ROUNDTRIP
360
501
  0
DICTIONARY
  5
4F4
330
34
100
AcDbDictionary
280
     1
281
     1
  3
ACAD_XREC_ROUNDTRIP
360
4F5
  0
DICTIONARY
  5
4F6
330
35
100
AcDbDictionary
280
     1
281
     1
  3
ACAD_XREC_ROUNDTRIP
360
4F7
  0
DICTIONARY
  5
506
330
3D
100
AcDbDictionary
280
     1
281
     1
  3
ACAD_XREC_ROUNDTRIP
360
507
  0
DICTIONARY
  5
4FE
330
39
100
AcDbDictionary
280
     1
281
     1
  3
ACAD_XREC_ROUNDTRIP
360
4FF
  0
DICTIONARY
  5
4E2
330
2B
100
AcDbDictionary
280
     1
281
     1
  3
ACAD_XREC_ROUNDTRIP
360
4E3
  0
DICTIONARY
  5
4E4
330
2C
100
AcDbDictionary
280
     1
281
     1
  3
ACAD_XREC_ROUNDTRIP
360
4E5
  0
DICTIONARY
  5
4E6
330
2D
100
AcDbDictionary
280
     1
281
     1
  3
ACAD_XREC_ROUNDTRIP
360
4E7
  0
DICTIONARY
  5
4E8
330
2E
100
AcDbDictionary
280
     1
281
     1
  3
ACAD_XREC_ROUNDTRIP
360
4E9
  0
DICTIONARY
  5
4EE
330
31
100
AcDbDictionary
280
     1
281
     1
  3
ACAD_XREC_ROUNDTRIP
360
4EF
  0
DICTIONARY
  5
502
330
3B
100
AcDbDictionary
280
     1
281
     1
  3
ACAD_XREC_ROUNDTRIP
360
503
  0
DICTIONARY
  5
4FC
330
38
100
AcDbDictionary
280
     1
281
     1
  3
ACAD_XREC_ROUNDTRIP
360
4FD
  0
DICTIONARY
  5
504
330
3C
100
AcDbDictionary
280
     1
281
     1
  3
ACAD_XREC_ROUNDTRIP
360
505
  0
DICTIONARY
  5
4F2
330
33
100
AcDbDictionary
280
     1
281
     1
  3
ACAD_XREC_ROUNDTRIP
360
4F3
  0
DICTIONARY
  5
510
330
42
100
AcDbDictionary
280
     1
281
     1
  3
ACAD_XREC_ROUNDTRIP
360
511
  0
DICTIONARY
  5
50E
330
41
100
AcDbDictionary
280
     1
281
     1
  3
ACAD_XREC_ROUNDTRIP
360
50F
  0
DICTIONARY
  5
508
330
3E
100
AcDbDictionary
280
     1
281
     1
  3
ACAD_XREC_ROUNDTRIP
360
509
  0
DICTIONARY
  5
50A
330
3F
100
AcDbDictionary
280
     1
281
     1
  3
ACAD_XREC_ROUNDTRIP
360
50B
  0
DICTIONARY
  5
4FA
330
37
100
AcDbDictionary
280
     1
281
     1
  3
ACAD_XREC_ROUNDTRIP
360
4FB
  0
DICTIONARY
  5
4EC
330
30
100
AcDbDictionary
280
     1
281
     1
  3
ACAD_XREC_ROUNDTRIP
360
4ED
  0
DICTIONARY
  5
50C
330
40
100
AcDbDictionary
280
     1
281
     1
  3
ACAD_XREC_ROUNDTRIP
360
50D
  0
XRECORD
  5
515
102
{ACAD_REACTORS
330
514
102
}
330
514
100
AcDbXrecord
280
     1
102
MATERIAL
148
0.0
149
0.0
149
0.0
 93
        0
 94
      127
282
     0
 72
     1
 77
     1
171
     1
175
     1
179
     1
273
     0
  0
XRECORD
  5
513
102
{ACAD_REACTORS
330
512
102
}
330
512
100
AcDbXrecord
280
     1
102
MATERIAL
148
0.0
149
0.0
149
0.0
 93
        0
 94
      127
282
     0
 72
     1
 77
     1
171
     1
175
     1
179
     1
273
     0
  0
XRECORD
  5
517
102
{ACAD_REACTORS
330
516
102
}
330
516
100
AcDbXrecord
280
     1
102
MATERIAL
148
0.0
149
0.0
149
0.0
 93
        0
 94
      127
282
     0
 72
     1
 77
     1
171
     1
175
     1
179
     1
273
     0
  0
XRECORD
  5
4EB
102
{ACAD_REACTORS
330
4EA
102
}
330
4EA
100
AcDbXrecord
280
     1
102
RTVSPropertyOp0
 70
     1
102
RTVSPropertyOp1
 70
     1
102
RTVSPropertyOp2
 70
     1
102
RTVSPropertyOp3
 70
     1
102
RTVSPropertyOp4
 70
     1
102
RTVSPropertyOp5
 70
     1
102
RTVSPropertyOp6
 70
     1
102
RTVSPropertyOp7
 70
     1
102
RTVSPropertyOp8
 70
     1
102
RTVSPropertyOp9
 70
     1
102
RTVSPropertyOp10
 70
     1
102
RTVSPropertyOp11
 70
     1
102
RTVSPropertyOp12
 70
     1
102
RTVSPropertyOp13
 70
     1
102
RTVSPropertyOp14
 70
     1
102
RTVSPropertyOp15
 70
     1
102
RTVSPropertyOp16
 70
     1
102
RTVSPropertyOp17
 70
     1
102
RTVSPropertyOp18
 70
     1
102
RTVSPropertyOp19
 70
     1
102
RTVSPropertyOp20
 70
     1
102
RTVSPropertyOp21
 70
     1
102
RTVSPropertyOp22
 70
     1
102
RTVSPropertyOp23
 70
     1
102
RTVSPropertyOp24
 70
     1
102
RTVSPropertyOp25
 70
     1
102
RTVSPropertyOp26
 70
     1
102
RTVSPropertyOp27
 70
     1
102
RTVSPropertyOp28
 70
     1
102
RTVSPropertyOp29
 70
     1
102
RTVSPropertyOp30
 70
     1
102
RTVSPropertyOp31
 70
     1
102
RTVSPropertyOp32
 70
     1
102
RTVSPropertyOp33
 70
     1
102
RTVSPropertyOp34
 70
     1
102
RTVSPropertyOp35
 70
     1
102
RTVSPropertyOp36
 70
     1
102
RTVSPropertyOp37
 70
     1
102
RTVSPropertyOp38
 70
     1
102
RTVSPropertyOp39
 70
     1
102
RTVSPropertyOp40
 70
     1
102
RTVSPropertyOp41
 70
     1
102
RTVSPropertyOp42
 70
     1
102
RTVSPropertyOp43
 70
     1
102
RTVSPropertyOp44
 70
     1
102
RTVSPropertyOp45
 70
     1
102
RTVSPropertyOp46
 70
     1
102
RTVSPropertyOp47
 70
     1
102
RTVSPropertyOp48
 70
     1
102
RTVSPropertyOp49
 70
     1
102
RTVSPropertyOp50
 70
     1
102
RTVSPropertyOp51
 70
     0
102
RTVSPropertyOp52
 70
     0
102
RTVSPropertyOp53
 70
     1
102
RTVSPropertyOp54
 70
     1
102
RTVSPropertyOp55
 70
     1
102
RTVSPropertyOp56
 70
     1
102
RTVSPropertyOp57
 70
     1
102
RTVSPost2010Prop28
280
     1
102
RTVSPost2010PropOp28
 70
     1
102
RTVSPost2010Prop29
280
     1
102
RTVSPost2010PropOp29
 70
     1
102
RTVSPost2010Prop30
280
     0
102
RTVSPost2010PropOp30
 70
     1
102
RTVSPost2010Prop31
280
     0
102
RTVSPost2010PropOp31
 70
     1
102
RTVSPost2010Prop32
280
     0
102
RTVSPost2010PropOp32
 70
     1
102
RTVSPost2010Prop33
280
     0
102
RTVSPost2010PropOp33
 70
     1
102
RTVSPost2010Prop34
280
     0
102
RTVSPost2010PropOp34
 70
     1
102
RTVSPost2010Prop35
280
     0
102
RTVSPost2010PropOp35
 70
     1
102
RTVSPost2010Prop36
280
     0
102
RTVSPost2010PropOp36
 70
     1
102
RTVSPost2010Prop37
 90
       50
102
RTVSPost2010PropOp37
 70
     1
102
RTVSPost2010Prop38
140
0.0
102
RTVSPost2010PropOp38
 70
     1
102
RTVSPost2010Prop39
140
1.0
102
RTVSPost2010PropOp39
 70
     1
102
RTVSPost2010Prop40
 90
        0
102
RTVSPost2010PropOp40
 70
     1
102
RTVSPost2010Prop41ColorIndex
 90
       18
102
RTVSPost2010Prop41ColorRGB
 90
        0
102
RTVSPost2010PropOp41
 70
     1
102
RTVSPost2010Prop42
 90
       50
102
RTVSPost2010PropOp42
 70
     1
102
RTVSPost2010Prop43
 90
        3
102
RTVSPost2010PropOp43
 70
     1
102
RTVSPost2010Prop44ColorIndex
 90
        5
102
RTVSPost2010Prop44ColorRGB
 90
      255
102
RTVSPost2010PropOp44
 70
     1
102
RTVSPost2010Prop45
280
     0
102
RTVSPost2010PropOp45
 70
     1
102
RTVSPost2010Prop46
 90
       50
102
RTVSPost2010PropOp46
 70
     1
102
RTVSPost2010Prop47
 90
       50
102
RTVSPost2010PropOp47
 70
     1
102
RTVSPost2010Prop48
 90
       50
102
RTVSPost2010PropOp48
 70
     1
102
RTVSPost2010Prop49
280
     0
102
RTVSPost2010PropOp49
 70
     1
102
RTVSPost2010Prop50
 90
       50
102
RTVSPost2010PropOp50
 70
     1
102
RTVSPost2010Prop51ColorIndex
 90
      256
102
RTVSPost2010Prop51ColorRGB
 90
-16777216
102
RTVSPost2010PropOp51
 70
     0
102
RTVSPost2010Prop52
140
1.0
102
RTVSPost2010PropOp52
 70
     0
102
RTVSPost2010Prop53
 90
        2
102
RTVSPost2010PropOp53
 70
     1
102
RTVSPost2010Prop54
  1
strokes_ogs.tif
102
RTVSPost2010PropOp54
 70
     1
102
RTVSPost2010Prop55
280
     0
102
RTVSPost2010PropOp55
 70
     1
102
RTVSPost2010Prop56
140
1.0
102
RTVSPost2010PropOp56
 70
     1
102
RTVSPost2010Prop57
140
1.0
102
RTVSPost2010PropOp57
 70
     1
  0
XRECORD
  5
4F1
102
{ACAD_REACTORS
330
4F0
102
}
330
4F0
100
AcDbXrecord
280
     1
102
RTVSPropertyOp0
 70
     1
102
RTVSPropertyOp1
 70
     1
102
RTVSPropertyOp2
 70
     1
102
RTVSPropertyOp3
 70
     1
102
RTVSPropertyOp4
 70
     1
102
RTVSPropertyOp5
 70
     1
102
RTVSPropertyOp6
 70
     1
102
RTVSPropertyOp7
 70
     1
102
RTVSPropertyOp8
 70
     1
102
RTVSPropertyOp9
 70
     1
102
RTVSPropertyOp10
 70
     1
102
RTVSPropertyOp11
 70
     1
102
RTVSPropertyOp12
 70
     1
102
RTVSPropertyOp13
 70
     1
102
RTVSPropertyOp14
 70
     1
102
RTVSPropertyOp15
 70
     1
102
RTVSPropertyOp16
 70
     1
102
RTVSPropertyOp17
 70
     1
102
RTVSPropertyOp18
 70
     1
102
RTVSPropertyOp19
 70
     1
102
RTVSPropertyOp20
 70
     1
102
RTVSPropertyOp21
 70
     1
102
RTVSPropertyOp22
 70
     1
102
RTVSPropertyOp23
 70
     1
102
RTVSPropertyOp24
 70
     1
102
RTVSPropertyOp25
 70
     1
102
RTVSPropertyOp26
 70
     1
102
RTVSPropertyOp27
 70
     1
102
RTVSPropertyOp28
 70
     1
102
RTVSPropertyOp29
 70
     1
102
RTVSPropertyOp30
 70
     1
102
RTVSPropertyOp31
 70
     1
102
RTVSPropertyOp32
 70
     1
102
RTVSPropertyOp33
 70
     1
102
RTVSPropertyOp34
 70
     1
102
RTVSPropertyOp35
 70
     1
102
RTVSPropertyOp36
 70
     1
102
RTVSPropertyOp37
 70
     1
102
RTVSPropertyOp38
 70
     1
102
RTVSPropertyOp39
 70
     1
102
RTVSPropertyOp40
 70
     1
102
RTVSPropertyOp41
 70
     1
102
RTVSPropertyOp42
 70
     1
102
RTVSPropertyOp43
 70
     1
102
RTVSPropertyOp44
 70
     1
102
RTVSPropertyOp45
 70
     1
102
RTVSPropertyOp46
 70
     1
102
RTVSPropertyOp47
 70
     1
102
RTVSPropertyOp48
 70
     1
102
RTVSPropertyOp49
 70
     1
102
RTVSPropertyOp50
 70
     1
102
RTVSPropertyOp51
 70
     0
102
RTVSPropertyOp52
 70
     0
102
RTVSPropertyOp53
 70
     1
102
RTVSPropertyOp54
 70
     1
102
RTVSPropertyOp55
 70
     1
102
RTVSPropertyOp56
 70
     1
102
RTVSPropertyOp57
 70
     1
102
RTVSPost2010Prop28
280
     0
102
RTVSPost2010PropOp28
 70
     1
102
RTVSPost2010Prop29
280
     1
102
RTVSPost2010PropOp29
 70
     1
102
RTVSPost2010Prop30
280
     1
102
RTVSPost2010PropOp30
 70
     1
102
RTVSPost2010Prop31
280
     0
102
RTVSPost2010PropOp31
 70
     1
102
RTVSPost2010Prop32
280
     0
102
RTVSPost2010PropOp32
 70
     1
102
RTVSPost2010Prop33
280
     0
102
RTVSPost2010PropOp33
 70
     1
102
RTVSPost2010Prop34
280
     0
102
RTVSPost2010PropOp34
 70
     1
102
RTVSPost2010Prop35
280
     0
102
RTVSPost2010PropOp35
 70
     1
102
RTVSPost2010Prop36
280
     0
102
RTVSPost2010PropOp36
 70
     1
102
RTVSPost2010Prop37
 90
       50
102
RTVSPost2010PropOp37
 70
     1
102
RTVSPost2010Prop38
140
0.0
102
RTVSPost2010PropOp38
 70
     1
102
RTVSPost2010Prop39
140
1.0
102
RTVSPost2010PropOp39
 70
     1
102
RTVSPost2010Prop40
 90
        0
102
RTVSPost2010PropOp40
 70
     1
102
RTVSPost2010Prop41ColorIndex
 90
       18
102
RTVSPost2010Prop41ColorRGB
 90
        0
102
RTVSPost2010PropOp41
 70
     1
102
RTVSPost2010Prop42
 90
       50
102
RTVSPost2010PropOp42
 70
     1
102
RTVSPost2010Prop43
 90
        3
102
RTVSPost2010PropOp43
 70
     1
102
RTVSPost2010Prop44ColorIndex
 90
        5
102
RTVSPost2010Prop44ColorRGB
 90
      255
102
RTVSPost2010PropOp44
 70
     1
102
RTVSPost2010Prop45
280
     0
102
RTVSPost2010PropOp45
 70
     1
102
RTVSPost2010Prop46
 90
       50
102
RTVSPost2010PropOp46
 70
     1
102
RTVSPost2010Prop47
 90
       50
102
RTVSPost2010PropOp47
 70
     1
102
RTVSPost2010Prop48
 90
       50
102
RTVSPost2010PropOp48
 70
     1
102
RTVSPost2010Prop49
280
     0
102
RTVSPost2010PropOp49
 70
     1
102
RTVSPost2010Prop50
 90
       50
102
RTVSPost2010PropOp50
 70
     1
102
RTVSPost2010Prop51ColorIndex
 90
      256
102
RTVSPost2010Prop51ColorRGB
 90
-16777216
102
RTVSPost2010PropOp51
 70
     0
102
RTVSPost2010Prop52
140
1.0
102
RTVSPost2010PropOp52
 70
     0
102
RTVSPost2010Prop53
 90
        2
102
RTVSPost2010PropOp53
 70
     1
102
RTVSPost2010Prop54
  1
strokes_ogs.tif
102
RTVSPost2010PropOp54
 70
     1
102
RTVSPost2010Prop55
280
     0
102
RTVSPost2010PropOp55
 70
     1
102
RTVSPost2010Prop56
140
1.0
102
RTVSPost2010PropOp56
 70
     1
102
RTVSPost2010Prop57
140
1.0
102
RTVSPost2010PropOp57
 70
     1
  0
XRECORD
  5
4F9
102
{ACAD_REACTORS
330
4F8
102
}
330
4F8
100
AcDbXrecord
280
     1
102
RTVSPropertyOp0
 70
     1
102
RTVSPropertyOp1
 70
     1
102
RTVSPropertyOp2
 70
     1
102
RTVSPropertyOp3
 70
     1
102
RTVSPropertyOp4
 70
     1
102
RTVSPropertyOp5
 70
     1
102
RTVSPropertyOp6
 70
     1
102
RTVSPropertyOp7
 70
     1
102
RTVSPropertyOp8
 70
     1
102
RTVSPropertyOp9
 70
     1
102
RTVSPropertyOp10
 70
     1
102
RTVSPropertyOp11
 70
     1
102
RTVSPropertyOp12
 70
     1
102
RTVSPropertyOp13
 70
     1
102
RTVSPropertyOp14
 70
     1
102
RTVSPropertyOp15
 70
     1
102
RTVSPropertyOp16
 70
     1
102
RTVSPropertyOp17
 70
     1
102
RTVSPropertyOp18
 70
     1
102
RTVSPropertyOp19
 70
     1
102
RTVSPropertyOp20
 70
     1
102
RTVSPropertyOp21
 70
     1
102
RTVSPropertyOp22
 70
     1
102
RTVSPropertyOp23
 70
     1
102
RTVSPropertyOp24
 70
     1
102
RTVSPropertyOp25
 70
     1
102
RTVSPropertyOp26
 70
     1
102
RTVSPropertyOp27
 70
     1
102
RTVSPropertyOp28
 70
     1
102
RTVSPropertyOp29
 70
     1
102
RTVSPropertyOp30
 70
     1
102
RTVSPropertyOp31
 70
     1
102
RTVSPropertyOp32
 70
     1
102
RTVSPropertyOp33
 70
     1
102
RTVSPropertyOp34
 70
     1
102
RTVSPropertyOp35
 70
     1
102
RTVSPropertyOp36
 70
     1
102
RTVSPropertyOp37
 70
     1
102
RTVSPropertyOp38
 70
     1
102
RTVSPropertyOp39
 70
     1
102
RTVSPropertyOp40
 70
     1
102
RTVSPropertyOp41
 70
     1
102
RTVSPropertyOp42
 70
     1
102
RTVSPropertyOp43
 70
     1
102
RTVSPropertyOp44
 70
     1
102
RTVSPropertyOp45
 70
     1
102
RTVSPropertyOp46
 70
     1
102
RTVSPropertyOp47
 70
     1
102
RTVSPropertyOp48
 70
     1
102
RTVSPropertyOp49
 70
     1
102
RTVSPropertyOp50
 70
     1
102
RTVSPropertyOp51
 70
     0
102
RTVSPropertyOp52
 70
     0
102
RTVSPropertyOp53
 70
     1
102
RTVSPropertyOp54
 70
     1
102
RTVSPropertyOp55
 70
     1
102
RTVSPropertyOp56
 70
     1
102
RTVSPropertyOp57
 70
     1
102
RTVSPost2010Prop28
280
     0
102
RTVSPost2010PropOp28
 70
     1
102
RTVSPost2010Prop29
280
     1
102
RTVSPost2010PropOp29
 70
     1
102
RTVSPost2010Prop30
280
     1
102
RTVSPost2010PropOp30
 70
     1
102
RTVSPost2010Prop31
280
     0
102
RTVSPost2010PropOp31
 70
     1
102
RTVSPost2010Prop32
280
     0
102
RTVSPost2010PropOp32
 70
     1
102
RTVSPost2010Prop33
280
     0
102
RTVSPost2010PropOp33
 70
     1
102
RTVSPost2010Prop34
280
     0
102
RTVSPost2010PropOp34
 70
     1
102
RTVSPost2010Prop35
280
     0
102
RTVSPost2010PropOp35
 70
     1
102
RTVSPost2010Prop36
280
     0
102
RTVSPost2010PropOp36
 70
     1
102
RTVSPost2010Prop37
 90
       50
102
RTVSPost2010PropOp37
 70
     1
102
RTVSPost2010Prop38
140
0.0
102
RTVSPost2010PropOp38
 70
     1
102
RTVSPost2010Prop39
140
1.0
102
RTVSPost2010PropOp39
 70
     1
102
RTVSPost2010Prop40
 90
        0
102
RTVSPost2010PropOp40
 70
     1
102
RTVSPost2010Prop41ColorIndex
 90
       18
102
RTVSPost2010Prop41ColorRGB
 90
        0
102
RTVSPost2010PropOp41
 70
     1
102
RTVSPost2010Prop42
 90
       50
102
RTVSPost2010PropOp42
 70
     1
102
RTVSPost2010Prop43
 90
        3
102
RTVSPost2010PropOp43
 70
     1
102
RTVSPost2010Prop44ColorIndex
 90
        5
102
RTVSPost2010Prop44ColorRGB
 90
      255
102
RTVSPost2010PropOp44
 70
     1
102
RTVSPost2010Prop45
280
     0
102
RTVSPost2010PropOp45
 70
     1
102
RTVSPost2010Prop46
 90
       50
102
RTVSPost2010PropOp46
 70
     1
102
RTVSPost2010Prop47
 90
       50
102
RTVSPost2010PropOp47
 70
     1
102
RTVSPost2010Prop48
 90
       50
102
RTVSPost2010PropOp48
 70
     1
102
RTVSPost2010Prop49
280
     0
102
RTVSPost2010PropOp49
 70
     1
102
RTVSPost2010Prop50
 90
       50
102
RTVSPost2010PropOp50
 70
     1
102
RTVSPost2010Prop51ColorIndex
 90
      256
102
RTVSPost2010Prop51ColorRGB
 90
-16777216
102
RTVSPost2010PropOp51
 70
     0
102
RTVSPost2010Prop52
140
1.0
102
RTVSPost2010PropOp52
 70
     0
102
RTVSPost2010Prop53
 90
        2
102
RTVSPost2010PropOp53
 70
     1
102
RTVSPost2010Prop54
  1
strokes_ogs.tif
102
RTVSPost2010PropOp54
 70
     1
102
RTVSPost2010Prop55
280
     0
102
RTVSPost2010PropOp55
 70
     1
102
RTVSPost2010Prop56
140
1.0
102
RTVSPost2010PropOp56
 70
     1
102
RTVSPost2010Prop57
140
1.0
102
RTVSPost2010PropOp57
 70
     1
  0
XRECORD
  5
501
102
{ACAD_REACTORS
330
500
102
}
330
500
100
AcDbXrecord
280
     1
102
RTVSPropertyOp0
 70
     1
102
RTVSPropertyOp1
 70
     1
102
RTVSPropertyOp2
 70
     1
102
RTVSPropertyOp3
 70
     1
102
RTVSPropertyOp4
 70
     1
102
RTVSPropertyOp5
 70
     1
102
RTVSPropertyOp6
 70
     1
102
RTVSPropertyOp7
 70
     1
102
RTVSPropertyOp8
 70
     1
102
RTVSPropertyOp9
 70
     1
102
RTVSPropertyOp10
 70
     1
102
RTVSPropertyOp11
 70
     1
102
RTVSPropertyOp12
 70
     1
102
RTVSPropertyOp13
 70
     1
102
RTVSPropertyOp14
 70
     1
102
RTVSPropertyOp15
 70
     1
102
RTVSPropertyOp16
 70
     1
102
RTVSPropertyOp17
 70
     1
102
RTVSPropertyOp18
 70
     1
102
RTVSPropertyOp19
 70
     1
102
RTVSPropertyOp20
 70
     1
102
RTVSPropertyOp21
 70
     1
102
RTVSPropertyOp22
 70
     1
102
RTVSPropertyOp23
 70
     1
102
RTVSPropertyOp24
 70
     1
102
RTVSPropertyOp25
 70
     1
102
RTVSPropertyOp26
 70
     1
102
RTVSPropertyOp27
 70
     1
102
RTVSPropertyOp28
 70
     1
102
RTVSPropertyOp29
 70
     1
102
RTVSPropertyOp30
 70
     1
102
RTVSPropertyOp31
 70
     1
102
RTVSPropertyOp32
 70
     1
102
RTVSPropertyOp33
 70
     1
102
RTVSPropertyOp34
 70
     1
102
RTVSPropertyOp35
 70
     1
102
RTVSPropertyOp36
 70
     1
102
RTVSPropertyOp37
 70
     1
102
RTVSPropertyOp38
 70
     1
102
RTVSPropertyOp39
 70
     1
102
RTVSPropertyOp40
 70
     1
102
RTVSPropertyOp41
 70
     1
102
RTVSPropertyOp42
 70
     1
102
RTVSPropertyOp43
 70
     1
102
RTVSPropertyOp44
 70
     1
102
RTVSPropertyOp45
 70
     1
102
RTVSPropertyOp46
 70
     1
102
RTVSPropertyOp47
 70
     1
102
RTVSPropertyOp48
 70
     1
102
RTVSPropertyOp49
 70
     1
102
RTVSPropertyOp50
 70
     1
102
RTVSPropertyOp51
 70
     0
102
RTVSPropertyOp52
 70
     0
102
RTVSPropertyOp53
 70
     1
102
RTVSPropertyOp54
 70
     1
102
RTVSPropertyOp55
 70
     1
102
RTVSPropertyOp56
 70
     1
102
RTVSPropertyOp57
 70
     1
102
RTVSPost2010Prop28
280
     0
102
RTVSPost2010PropOp28
 70
     1
102
RTVSPost2010Prop29
280
     1
102
RTVSPost2010PropOp29
 70
     1
102
RTVSPost2010Prop30
280
     1
102
RTVSPost2010PropOp30
 70
     1
102
RTVSPost2010Prop31
280
     0
102
RTVSPost2010PropOp31
 70
     1
102
RTVSPost2010Prop32
280
     0
102
RTVSPost2010PropOp32
 70
     1
102
RTVSPost2010Prop33
280
     0
102
RTVSPost2010PropOp33
 70
     1
102
RTVSPost2010Prop34
280
     0
102
RTVSPost2010PropOp34
 70
     1
102
RTVSPost2010Prop35
280
     0
102
RTVSPost2010PropOp35
 70
     1
102
RTVSPost2010Prop36
280
     0
102
RTVSPost2010PropOp36
 70
     1
102
RTVSPost2010Prop37
 90
       50
102
RTVSPost2010PropOp37
 70
     1
102
RTVSPost2010Prop38
140
0.0
102
RTVSPost2010PropOp38
 70
     1
102
RTVSPost2010Prop39
140
1.0
102
RTVSPost2010PropOp39
 70
     1
102
RTVSPost2010Prop40
 90
        0
102
RTVSPost2010PropOp40
 70
     1
102
RTVSPost2010Prop41ColorIndex
 90
       18
102
RTVSPost2010Prop41ColorRGB
 90
        0
102
RTVSPost2010PropOp41
 70
     1
102
RTVSPost2010Prop42
 90
       50
102
RTVSPost2010PropOp42
 70
     1
102
RTVSPost2010Prop43
 90
        3
102
RTVSPost2010PropOp43
 70
     1
102
RTVSPost2010Prop44ColorIndex
 90
        5
102
RTVSPost2010Prop44ColorRGB
 90
      255
102
RTVSPost2010PropOp44
 70
     1
102
RTVSPost2010Prop45
280
     0
102
RTVSPost2010PropOp45
 70
     1
102
RTVSPost2010Prop46
 90
       50
102
RTVSPost2010PropOp46
 70
     1
102
RTVSPost2010Prop47
 90
       50
102
RTVSPost2010PropOp47
 70
     1
102
RTVSPost2010Prop48
 90
       50
102
RTVSPost2010PropOp48
 70
     1
102
RTVSPost2010Prop49
280
     0
102
RTVSPost2010PropOp49
 70
     1
102
RTVSPost2010Prop50
 90
       50
102
RTVSPost2010PropOp50
 70
     1
102
RTVSPost2010Prop51ColorIndex
 90
      256
102
RTVSPost2010Prop51ColorRGB
 90
-16777216
102
RTVSPost2010PropOp51
 70
     0
102
RTVSPost2010Prop52
140
1.0
102
RTVSPost2010PropOp52
 70
     0
102
RTVSPost2010Prop53
 90
        2
102
RTVSPost2010PropOp53
 70
     1
102
RTVSPost2010Prop54
  1
strokes_ogs.tif
102
RTVSPost2010PropOp54
 70
     1
102
RTVSPost2010Prop55
280
     0
102
RTVSPost2010PropOp55
 70
     1
102
RTVSPost2010Prop56
140
1.0
102
RTVSPost2010PropOp56
 70
     1
102
RTVSPost2010Prop57
140
1.0
102
RTVSPost2010PropOp57
 70
     1
  0
XRECORD
  5
4F5
102
{ACAD_REACTORS
330
4F4
102
}
330
4F4
100
AcDbXrecord
280
     1
102
RTVSPropertyOp0
 70
     1
102
RTVSPropertyOp1
 70
     1
102
RTVSPropertyOp2
 70
     1
102
RTVSPropertyOp3
 70
     1
102
RTVSPropertyOp4
 70
     1
102
RTVSPropertyOp5
 70
     1
102
RTVSPropertyOp6
 70
     1
102
RTVSPropertyOp7
 70
     1
102
RTVSPropertyOp8
 70
     1
102
RTVSPropertyOp9
 70
     1
102
RTVSPropertyOp10
 70
     1
102
RTVSPropertyOp11
 70
     1
102
RTVSPropertyOp12
 70
     1
102
RTVSPropertyOp13
 70
     1
102
RTVSPropertyOp14
 70
     1
102
RTVSPropertyOp15
 70
     1
102
RTVSPropertyOp16
 70
     1
102
RTVSPropertyOp17
 70
     1
102
RTVSPropertyOp18
 70
     1
102
RTVSPropertyOp19
 70
     1
102
RTVSPropertyOp20
 70
     1
102
RTVSPropertyOp21
 70
     1
102
RTVSPropertyOp22
 70
     1
102
RTVSPropertyOp23
 70
     1
102
RTVSPropertyOp24
 70
     1
102
RTVSPropertyOp25
 70
     1
102
RTVSPropertyOp26
 70
     1
102
RTVSPropertyOp27
 70
     1
102
RTVSPropertyOp28
 70
     1
102
RTVSPropertyOp29
 70
     1
102
RTVSPropertyOp30
 70
     1
102
RTVSPropertyOp31
 70
     1
102
RTVSPropertyOp32
 70
     1
102
RTVSPropertyOp33
 70
     1
102
RTVSPropertyOp34
 70
     1
102
RTVSPropertyOp35
 70
     1
102
RTVSPropertyOp36
 70
     1
102
RTVSPropertyOp37
 70
     1
102
RTVSPropertyOp38
 70
     1
102
RTVSPropertyOp39
 70
     1
102
RTVSPropertyOp40
 70
     1
102
RTVSPropertyOp41
 70
     1
102
RTVSPropertyOp42
 70
     1
102
RTVSPropertyOp43
 70
     1
102
RTVSPropertyOp44
 70
     1
102
RTVSPropertyOp45
 70
     1
102
RTVSPropertyOp46
 70
     1
102
RTVSPropertyOp47
 70
     1
102
RTVSPropertyOp48
 70
     1
102
RTVSPropertyOp49
 70
     1
102
RTVSPropertyOp50
 70
     1
102
RTVSPropertyOp51
 70
     0
102
RTVSPropertyOp52
 70
     0
102
RTVSPropertyOp53
 70
     1
102
RTVSPropertyOp54
 70
     1
102
RTVSPropertyOp55
 70
     1
102
RTVSPropertyOp56
 70
     1
102
RTVSPropertyOp57
 70
     1
102
RTVSPost2010Prop28
280
     0
102
RTVSPost2010PropOp28
 70
     1
102
RTVSPost2010Prop29
280
     1
102
RTVSPost2010PropOp29
 70
     1
102
RTVSPost2010Prop30
280
     1
102
RTVSPost2010PropOp30
 70
     1
102
RTVSPost2010Prop31
280
     0
102
RTVSPost2010PropOp31
 70
     1
102
RTVSPost2010Prop32
280
     0
102
RTVSPost2010PropOp32
 70
     1
102
RTVSPost2010Prop33
280
     0
102
RTVSPost2010PropOp33
 70
     1
102
RTVSPost2010Prop34
280
     0
102
RTVSPost2010PropOp34
 70
     1
102
RTVSPost2010Prop35
280
     0
102
RTVSPost2010PropOp35
 70
     1
102
RTVSPost2010Prop36
280
     0
102
RTVSPost2010PropOp36
 70
     1
102
RTVSPost2010Prop37
 90
       50
102
RTVSPost2010PropOp37
 70
     1
102
RTVSPost2010Prop38
140
0.0
102
RTVSPost2010PropOp38
 70
     1
102
RTVSPost2010Prop39
140
1.0
102
RTVSPost2010PropOp39
 70
     1
102
RTVSPost2010Prop40
 90
        0
102
RTVSPost2010PropOp40
 70
     1
102
RTVSPost2010Prop41ColorIndex
 90
       18
102
RTVSPost2010Prop41ColorRGB
 90
        0
102
RTVSPost2010PropOp41
 70
     1
102
RTVSPost2010Prop42
 90
       50
102
RTVSPost2010PropOp42
 70
     1
102
RTVSPost2010Prop43
 90
        3
102
RTVSPost2010PropOp43
 70
     1
102
RTVSPost2010Prop44ColorIndex
 90
        5
102
RTVSPost2010Prop44ColorRGB
 90
      255
102
RTVSPost2010PropOp44
 70
     1
102
RTVSPost2010Prop45
280
     0
102
RTVSPost2010PropOp45
 70
     1
102
RTVSPost2010Prop46
 90
       50
102
RTVSPost2010PropOp46
 70
     1
102
RTVSPost2010Prop47
 90
       50
102
RTVSPost2010PropOp47
 70
     1
102
RTVSPost2010Prop48
 90
       50
102
RTVSPost2010PropOp48
 70
     1
102
RTVSPost2010Prop49
280
     0
102
RTVSPost2010PropOp49
 70
     1
102
RTVSPost2010Prop50
 90
       50
102
RTVSPost2010PropOp50
 70
     1
102
RTVSPost2010Prop51ColorIndex
 90
      256
102
RTVSPost2010Prop51ColorRGB
 90
-16777216
102
RTVSPost2010PropOp51
 70
     0
102
RTVSPost2010Prop52
140
1.0
102
RTVSPost2010PropOp52
 70
     0
102
RTVSPost2010Prop53
 90
        2
102
RTVSPost2010PropOp53
 70
     1
102
RTVSPost2010Prop54
  1
strokes_ogs.tif
102
RTVSPost2010PropOp54
 70
     1
102
RTVSPost2010Prop55
280
     0
102
RTVSPost2010PropOp55
 70
     1
102
RTVSPost2010Prop56
140
1.0
102
RTVSPost2010PropOp56
 70
     1
102
RTVSPost2010Prop57
140
1.0
102
RTVSPost2010PropOp57
 70
     1
  0
XRECORD
  5
4F7
102
{ACAD_REACTORS
330
4F6
102
}
330
4F6
100
AcDbXrecord
280
     1
102
RTVSPropertyOp0
 70
     1
102
RTVSPropertyOp1
 70
     1
102
RTVSPropertyOp2
 70
     1
102
RTVSPropertyOp3
 70
     1
102
RTVSPropertyOp4
 70
     1
102
RTVSPropertyOp5
 70
     1
102
RTVSPropertyOp6
 70
     1
102
RTVSPropertyOp7
 70
     1
102
RTVSPropertyOp8
 70
     1
102
RTVSPropertyOp9
 70
     1
102
RTVSPropertyOp10
 70
     1
102
RTVSPropertyOp11
 70
     1
102
RTVSPropertyOp12
 70
     1
102
RTVSPropertyOp13
 70
     1
102
RTVSPropertyOp14
 70
     1
102
RTVSPropertyOp15
 70
     1
102
RTVSPropertyOp16
 70
     1
102
RTVSPropertyOp17
 70
     1
102
RTVSPropertyOp18
 70
     1
102
RTVSPropertyOp19
 70
     1
102
RTVSPropertyOp20
 70
     1
102
RTVSPropertyOp21
 70
     1
102
RTVSPropertyOp22
 70
     1
102
RTVSPropertyOp23
 70
     1
102
RTVSPropertyOp24
 70
     1
102
RTVSPropertyOp25
 70
     1
102
RTVSPropertyOp26
 70
     1
102
RTVSPropertyOp27
 70
     1
102
RTVSPropertyOp28
 70
     1
102
RTVSPropertyOp29
 70
     1
102
RTVSPropertyOp30
 70
     1
102
RTVSPropertyOp31
 70
     1
102
RTVSPropertyOp32
 70
     1
102
RTVSPropertyOp33
 70
     1
102
RTVSPropertyOp34
 70
     1
102
RTVSPropertyOp35
 70
     1
102
RTVSPropertyOp36
 70
     1
102
RTVSPropertyOp37
 70
     1
102
RTVSPropertyOp38
 70
     1
102
RTVSPropertyOp39
 70
     1
102
RTVSPropertyOp40
 70
     1
102
RTVSPropertyOp41
 70
     1
102
RTVSPropertyOp42
 70
     1
102
RTVSPropertyOp43
 70
     1
102
RTVSPropertyOp44
 70
     1
102
RTVSPropertyOp45
 70
     1
102
RTVSPropertyOp46
 70
     1
102
RTVSPropertyOp47
 70
     1
102
RTVSPropertyOp48
 70
     1
102
RTVSPropertyOp49
 70
     1
102
RTVSPropertyOp50
 70
     1
102
RTVSPropertyOp51
 70
     0
102
RTVSPropertyOp52
 70
     0
102
RTVSPropertyOp53
 70
     1
102
RTVSPropertyOp54
 70
     1
102
RTVSPropertyOp55
 70
     1
102
RTVSPropertyOp56
 70
     1
102
RTVSPropertyOp57
 70
     1
102
RTVSPost2010Prop28
280
     0
102
RTVSPost2010PropOp28
 70
     1
102
RTVSPost2010Prop29
280
     1
102
RTVSPost2010PropOp29
 70
     1
102
RTVSPost2010Prop30
280
     1
102
RTVSPost2010PropOp30
 70
     1
102
RTVSPost2010Prop31
280
     0
102
RTVSPost2010PropOp31
 70
     1
102
RTVSPost2010Prop32
280
     0
102
RTVSPost2010PropOp32
 70
     1
102
RTVSPost2010Prop33
280
     0
102
RTVSPost2010PropOp33
 70
     1
102
RTVSPost2010Prop34
280
     0
102
RTVSPost2010PropOp34
 70
     1
102
RTVSPost2010Prop35
280
     0
102
RTVSPost2010PropOp35
 70
     1
102
RTVSPost2010Prop36
280
     0
102
RTVSPost2010PropOp36
 70
     1
102
RTVSPost2010Prop37
 90
       50
102
RTVSPost2010PropOp37
 70
     1
102
RTVSPost2010Prop38
140
0.0
102
RTVSPost2010PropOp38
 70
     1
102
RTVSPost2010Prop39
140
1.0
102
RTVSPost2010PropOp39
 70
     1
102
RTVSPost2010Prop40
 90
        0
102
RTVSPost2010PropOp40
 70
     1
102
RTVSPost2010Prop41ColorIndex
 90
       18
102
RTVSPost2010Prop41ColorRGB
 90
        0
102
RTVSPost2010PropOp41
 70
     1
102
RTVSPost2010Prop42
 90
       50
102
RTVSPost2010PropOp42
 70
     1
102
RTVSPost2010Prop43
 90
        3
102
RTVSPost2010PropOp43
 70
     1
102
RTVSPost2010Prop44ColorIndex
 90
        5
102
RTVSPost2010Prop44ColorRGB
 90
      255
102
RTVSPost2010PropOp44
 70
     1
102
RTVSPost2010Prop45
280
     0
102
RTVSPost2010PropOp45
 70
     1
102
RTVSPost2010Prop46
 90
       50
102
RTVSPost2010PropOp46
 70
     1
102
RTVSPost2010Prop47
 90
       50
102
RTVSPost2010PropOp47
 70
     1
102
RTVSPost2010Prop48
 90
       50
102
RTVSPost2010PropOp48
 70
     1
102
RTVSPost2010Prop49
280
     0
102
RTVSPost2010PropOp49
 70
     1
102
RTVSPost2010Prop50
 90
       50
102
RTVSPost2010PropOp50
 70
     1
102
RTVSPost2010Prop51ColorIndex
 90
      256
102
RTVSPost2010Prop51ColorRGB
 90
-16777216
102
RTVSPost2010PropOp51
 70
     0
102
RTVSPost2010Prop52
140
1.0
102
RTVSPost2010PropOp52
 70
     0
102
RTVSPost2010Prop53
 90
        2
102
RTVSPost2010PropOp53
 70
     1
102
RTVSPost2010Prop54
  1
strokes_ogs.tif
102
RTVSPost2010PropOp54
 70
     1
102
RTVSPost2010Prop55
280
     0
102
RTVSPost2010PropOp55
 70
     1
102
RTVSPost2010Prop56
140
1.0
102
RTVSPost2010PropOp56
 70
     1
102
RTVSPost2010Prop57
140
1.0
102
RTVSPost2010PropOp57
 70
     1
  0
XRECORD
  5
507
102
{ACAD_REACTORS
330
506
102
}
330
506
100
AcDbXrecord
280
     1
102
RTVSPropertyOp0
 70
     0
102
RTVSPropertyOp1
 70
     0
102
RTVSPropertyOp2
 70
     0
102
RTVSPropertyOp3
 70
     0
102
RTVSPropertyOp4
 70
     0
102
RTVSPropertyOp5
 70
     0
102
RTVSPropertyOp6
 70
     0
102
RTVSPropertyOp7
 70
     0
102
RTVSPropertyOp8
 70
     0
102
RTVSPropertyOp9
 70
     0
102
RTVSPropertyOp10
 70
     0
102
RTVSPropertyOp11
 70
     0
102
RTVSPropertyOp12
 70
     0
102
RTVSPropertyOp13
 70
     0
102
RTVSPropertyOp14
 70
     2
102
RTVSPropertyOp15
 70
     0
102
RTVSPropertyOp16
 70
     0
102
RTVSPropertyOp17
 70
     0
102
RTVSPropertyOp18
 70
     0
102
RTVSPropertyOp19
 70
     0
102
RTVSPropertyOp20
 70
     0
102
RTVSPropertyOp21
 70
     0
102
RTVSPropertyOp22
 70
     0
102
RTVSPropertyOp23
 70
     0
102
RTVSPropertyOp24
 70
     0
102
RTVSPropertyOp25
 70
     0
102
RTVSPropertyOp26
 70
     0
102
RTVSPropertyOp27
 70
     0
102
RTVSPropertyOp28
 70
     0
102
RTVSPropertyOp29
 70
     0
102
RTVSPropertyOp30
 70
     0
102
RTVSPropertyOp31
 70
     0
102
RTVSPropertyOp32
 70
     0
102
RTVSPropertyOp33
 70
     0
102
RTVSPropertyOp34
 70
     0
102
RTVSPropertyOp35
 70
     0
102
RTVSPropertyOp36
 70
     0
102
RTVSPropertyOp37
 70
     0
102
RTVSPropertyOp38
 70
     0
102
RTVSPropertyOp39
 70
     0
102
RTVSPropertyOp40
 70
     0
102
RTVSPropertyOp41
 70
     0
102
RTVSPropertyOp42
 70
     0
102
RTVSPropertyOp43
 70
     0
102
RTVSPropertyOp44
 70
     0
102
RTVSPropertyOp45
 70
     0
102
RTVSPropertyOp46
 70
     0
102
RTVSPropertyOp47
 70
     0
102
RTVSPropertyOp48
 70
     0
102
RTVSPropertyOp49
 70
     0
102
RTVSPropertyOp50
 70
     0
102
RTVSPropertyOp51
 70
     0
102
RTVSPropertyOp52
 70
     0
102
RTVSPropertyOp53
 70
     0
102
RTVSPropertyOp54
 70
     0
102
RTVSPropertyOp55
 70
     0
102
RTVSPropertyOp56
 70
     0
102
RTVSPropertyOp57
 70
     0
102
RTVSPost2010Prop28
280
     0
102
RTVSPost2010PropOp28
 70
     0
102
RTVSPost2010Prop29
280
     1
102
RTVSPost2010PropOp29
 70
     0
102
RTVSPost2010Prop30
280
     1
102
RTVSPost2010PropOp30
 70
     0
102
RTVSPost2010Prop31
280
     0
102
RTVSPost2010PropOp31
 70
     0
102
RTVSPost2010Prop32
280
     0
102
RTVSPost2010PropOp32
 70
     0
102
RTVSPost2010Prop33
280
     0
102
RTVSPost2010PropOp33
 70
     0
102
RTVSPost2010Prop34
280
     0
102
RTVSPost2010PropOp34
 70
     0
102
RTVSPost2010Prop35
280
     0
102
RTVSPost2010PropOp35
 70
     0
102
RTVSPost2010Prop36
280
     0
102
RTVSPost2010PropOp36
 70
     0
102
RTVSPost2010Prop37
 90
       50
102
RTVSPost2010PropOp37
 70
     0
102
RTVSPost2010Prop38
140
0.0
102
RTVSPost2010PropOp38
 70
     0
102
RTVSPost2010Prop39
140
1.0
102
RTVSPost2010PropOp39
 70
     0
102
RTVSPost2010Prop40
 90
        0
102
RTVSPost2010PropOp40
 70
     0
102
RTVSPost2010Prop41ColorIndex
 90
       18
102
RTVSPost2010Prop41ColorRGB
 90
        0
102
RTVSPost2010PropOp41
 70
     0
102
RTVSPost2010Prop42
 90
       50
102
RTVSPost2010PropOp42
 70
     0
102
RTVSPost2010Prop43
 90
        3
102
RTVSPost2010PropOp43
 70
     0
102
RTVSPost2010Prop44ColorIndex
 90
        5
102
RTVSPost2010Prop44ColorRGB
 90
      255
102
RTVSPost2010PropOp44
 70
     0
102
RTVSPost2010Prop45
280
     0
102
RTVSPost2010PropOp45
 70
     0
102
RTVSPost2010Prop46
 90
       50
102
RTVSPost2010PropOp46
 70
     0
102
RTVSPost2010Prop47
 90
       50
102
RTVSPost2010PropOp47
 70
     0
102
RTVSPost2010Prop48
 90
       50
102
RTVSPost2010PropOp48
 70
     0
102
RTVSPost2010Prop49
280
     0
102
RTVSPost2010PropOp49
 70
     0
102
RTVSPost2010Prop50
 90
       50
102
RTVSPost2010PropOp50
 70
     0
102
RTVSPost2010Prop51ColorIndex
 90
      256
102
RTVSPost2010Prop51ColorRGB
 90
-16777216
102
RTVSPost2010PropOp51
 70
     0
102
RTVSPost2010Prop52
140
1.0
102
RTVSPost2010PropOp52
 70
     0
102
RTVSPost2010Prop53
 90
        2
102
RTVSPost2010PropOp53
 70
     0
102
RTVSPost2010Prop54
  1
strokes_ogs.tif
102
RTVSPost2010PropOp54
 70
     0
102
RTVSPost2010Prop55
280
     0
102
RTVSPost2010PropOp55
 70
     0
102
RTVSPost2010Prop56
140
1.0
102
RTVSPost2010PropOp56
 70
     0
102
RTVSPost2010Prop57
140
1.0
102
RTVSPost2010PropOp57
 70
     0
  0
XRECORD
  5
4FF
102
{ACAD_REACTORS
330
4FE
102
}
330
4FE
100
AcDbXrecord
280
     1
102
RTVSPropertyOp0
 70
     1
102
RTVSPropertyOp1
 70
     1
102
RTVSPropertyOp2
 70
     1
102
RTVSPropertyOp3
 70
     1
102
RTVSPropertyOp4
 70
     1
102
RTVSPropertyOp5
 70
     1
102
RTVSPropertyOp6
 70
     1
102
RTVSPropertyOp7
 70
     1
102
RTVSPropertyOp8
 70
     1
102
RTVSPropertyOp9
 70
     1
102
RTVSPropertyOp10
 70
     1
102
RTVSPropertyOp11
 70
     1
102
RTVSPropertyOp12
 70
     1
102
RTVSPropertyOp13
 70
     1
102
RTVSPropertyOp14
 70
     1
102
RTVSPropertyOp15
 70
     1
102
RTVSPropertyOp16
 70
     1
102
RTVSPropertyOp17
 70
     1
102
RTVSPropertyOp18
 70
     1
102
RTVSPropertyOp19
 70
     1
102
RTVSPropertyOp20
 70
     1
102
RTVSPropertyOp21
 70
     1
102
RTVSPropertyOp22
 70
     1
102
RTVSPropertyOp23
 70
     1
102
RTVSPropertyOp24
 70
     1
102
RTVSPropertyOp25
 70
     1
102
RTVSPropertyOp26
 70
     1
102
RTVSPropertyOp27
 70
     1
102
RTVSPropertyOp28
 70
     1
102
RTVSPropertyOp29
 70
     1
102
RTVSPropertyOp30
 70
     1
102
RTVSPropertyOp31
 70
     1
102
RTVSPropertyOp32
 70
     1
102
RTVSPropertyOp33
 70
     1
102
RTVSPropertyOp34
 70
     1
102
RTVSPropertyOp35
 70
     1
102
RTVSPropertyOp36
 70
     1
102
RTVSPropertyOp37
 70
     1
102
RTVSPropertyOp38
 70
     1
102
RTVSPropertyOp39
 70
     1
102
RTVSPropertyOp40
 70
     1
102
RTVSPropertyOp41
 70
     1
102
RTVSPropertyOp42
 70
     1
102
RTVSPropertyOp43
 70
     1
102
RTVSPropertyOp44
 70
     1
102
RTVSPropertyOp45
 70
     1
102
RTVSPropertyOp46
 70
     1
102
RTVSPropertyOp47
 70
     1
102
RTVSPropertyOp48
 70
     1
102
RTVSPropertyOp49
 70
     1
102
RTVSPropertyOp50
 70
     1
102
RTVSPropertyOp51
 70
     0
102
RTVSPropertyOp52
 70
     0
102
RTVSPropertyOp53
 70
     1
102
RTVSPropertyOp54
 70
     1
102
RTVSPropertyOp55
 70
     1
102
RTVSPropertyOp56
 70
     1
102
RTVSPropertyOp57
 70
     1
102
RTVSPost2010Prop28
280
     0
102
RTVSPost2010PropOp28
 70
     1
102
RTVSPost2010Prop29
280
     1
102
RTVSPost2010PropOp29
 70
     1
102
RTVSPost2010Prop30
280
     1
102
RTVSPost2010PropOp30
 70
     1
102
RTVSPost2010Prop31
280
     0
102
RTVSPost2010PropOp31
 70
     1
102
RTVSPost2010Prop32
280
     0
102
RTVSPost2010PropOp32
 70
     1
102
RTVSPost2010Prop33
280
     0
102
RTVSPost2010PropOp33
 70
     1
102
RTVSPost2010Prop34
280
     0
102
RTVSPost2010PropOp34
 70
     1
102
RTVSPost2010Prop35
280
     0
102
RTVSPost2010PropOp35
 70
     1
102
RTVSPost2010Prop36
280
     0
102
RTVSPost2010PropOp36
 70
     1
102
RTVSPost2010Prop37
 90
       50
102
RTVSPost2010PropOp37
 70
     1
102
RTVSPost2010Prop38
140
0.0
102
RTVSPost2010PropOp38
 70
     1
102
RTVSPost2010Prop39
140
1.0
102
RTVSPost2010PropOp39
 70
     1
102
RTVSPost2010Prop40
 90
        0
102
RTVSPost2010PropOp40
 70
     1
102
RTVSPost2010Prop41ColorIndex
 90
       18
102
RTVSPost2010Prop41ColorRGB
 90
        0
102
RTVSPost2010PropOp41
 70
     1
102
RTVSPost2010Prop42
 90
       50
102
RTVSPost2010PropOp42
 70
     1
102
RTVSPost2010Prop43
 90
        3
102
RTVSPost2010PropOp43
 70
     1
102
RTVSPost2010Prop44ColorIndex
 90
        5
102
RTVSPost2010Prop44ColorRGB
 90
      255
102
RTVSPost2010PropOp44
 70
     1
102
RTVSPost2010Prop45
280
     0
102
RTVSPost2010PropOp45
 70
     1
102
RTVSPost2010Prop46
 90
       50
102
RTVSPost2010PropOp46
 70
     1
102
RTVSPost2010Prop47
 90
       50
102
RTVSPost2010PropOp47
 70
     1
102
RTVSPost2010Prop48
 90
       50
102
RTVSPost2010PropOp48
 70
     1
102
RTVSPost2010Prop49
280
     0
102
RTVSPost2010PropOp49
 70
     1
102
RTVSPost2010Prop50
 90
       50
102
RTVSPost2010PropOp50
 70
     1
102
RTVSPost2010Prop51ColorIndex
 90
      256
102
RTVSPost2010Prop51ColorRGB
 90
-16777216
102
RTVSPost2010PropOp51
 70
     0
102
RTVSPost2010Prop52
140
1.0
102
RTVSPost2010PropOp52
 70
     0
102
RTVSPost2010Prop53
 90
        2
102
RTVSPost2010PropOp53
 70
     1
102
RTVSPost2010Prop54
  1
strokes_ogs.tif
102
RTVSPost2010PropOp54
 70
     1
102
RTVSPost2010Prop55
280
     0
102
RTVSPost2010PropOp55
 70
     1
102
RTVSPost2010Prop56
140
1.0
102
RTVSPost2010PropOp56
 70
     1
102
RTVSPost2010Prop57
140
1.0
102
RTVSPost2010PropOp57
 70
     1
  0
XRECORD
  5
4E3
102
{ACAD_REACTORS
330
4E2
102
}
330
4E2
100
AcDbXrecord
280
     1
102
RTVSPropertyOp0
 70
     1
102
RTVSPropertyOp1
 70
     1
102
RTVSPropertyOp2
 70
     1
102
RTVSPropertyOp3
 70
     1
102
RTVSPropertyOp4
 70
     1
102
RTVSPropertyOp5
 70
     1
102
RTVSPropertyOp6
 70
     1
102
RTVSPropertyOp7
 70
     1
102
RTVSPropertyOp8
 70
     1
102
RTVSPropertyOp9
 70
     1
102
RTVSPropertyOp10
 70
     1
102
RTVSPropertyOp11
 70
     1
102
RTVSPropertyOp12
 70
     1
102
RTVSPropertyOp13
 70
     1
102
RTVSPropertyOp14
 70
     1
102
RTVSPropertyOp15
 70
     1
102
RTVSPropertyOp16
 70
     1
102
RTVSPropertyOp17
 70
     1
102
RTVSPropertyOp18
 70
     1
102
RTVSPropertyOp19
 70
     1
102
RTVSPropertyOp20
 70
     1
102
RTVSPropertyOp21
 70
     1
102
RTVSPropertyOp22
 70
     1
102
RTVSPropertyOp23
 70
     1
102
RTVSPropertyOp24
 70
     1
102
RTVSPropertyOp25
 70
     1
102
RTVSPropertyOp26
 70
     1
102
RTVSPropertyOp27
 70
     1
102
RTVSPropertyOp28
 70
     1
102
RTVSPropertyOp29
 70
     1
102
RTVSPropertyOp30
 70
     1
102
RTVSPropertyOp31
 70
     1
102
RTVSPropertyOp32
 70
     1
102
RTVSPropertyOp33
 70
     1
102
RTVSPropertyOp34
 70
     1
102
RTVSPropertyOp35
 70
     1
102
RTVSPropertyOp36
 70
     1
102
RTVSPropertyOp37
 70
     1
102
RTVSPropertyOp38
 70
     1
102
RTVSPropertyOp39
 70
     1
102
RTVSPropertyOp40
 70
     1
102
RTVSPropertyOp41
 70
     1
102
RTVSPropertyOp42
 70
     1
102
RTVSPropertyOp43
 70
     1
102
RTVSPropertyOp44
 70
     1
102
RTVSPropertyOp45
 70
     1
102
RTVSPropertyOp46
 70
     1
102
RTVSPropertyOp47
 70
     1
102
RTVSPropertyOp48
 70
     1
102
RTVSPropertyOp49
 70
     1
102
RTVSPropertyOp50
 70
     1
102
RTVSPropertyOp51
 70
     0
102
RTVSPropertyOp52
 70
     0
102
RTVSPropertyOp53
 70
     1
102
RTVSPropertyOp54
 70
     1
102
RTVSPropertyOp55
 70
     1
102
RTVSPropertyOp56
 70
     1
102
RTVSPropertyOp57
 70
     1
102
RTVSPost2010Prop28
280
     0
102
RTVSPost2010PropOp28
 70
     1
102
RTVSPost2010Prop29
280
     1
102
RTVSPost2010PropOp29
 70
     1
102
RTVSPost2010Prop30
280
     1
102
RTVSPost2010PropOp30
 70
     1
102
RTVSPost2010Prop31
280
     0
102
RTVSPost2010PropOp31
 70
     1
102
RTVSPost2010Prop32
280
     0
102
RTVSPost2010PropOp32
 70
     1
102
RTVSPost2010Prop33
280
     0
102
RTVSPost2010PropOp33
 70
     1
102
RTVSPost2010Prop34
280
     0
102
RTVSPost2010PropOp34
 70
     1
102
RTVSPost2010Prop35
280
     0
102
RTVSPost2010PropOp35
 70
     1
102
RTVSPost2010Prop36
280
     0
102
RTVSPost2010PropOp36
 70
     1
102
RTVSPost2010Prop37
 90
       50
102
RTVSPost2010PropOp37
 70
     1
102
RTVSPost2010Prop38
140
0.0
102
RTVSPost2010PropOp38
 70
     1
102
RTVSPost2010Prop39
140
1.0
102
RTVSPost2010PropOp39
 70
     1
102
RTVSPost2010Prop40
 90
        0
102
RTVSPost2010PropOp40
 70
     1
102
RTVSPost2010Prop41ColorIndex
 90
       18
102
RTVSPost2010Prop41ColorRGB
 90
        0
102
RTVSPost2010PropOp41
 70
     1
102
RTVSPost2010Prop42
 90
       50
102
RTVSPost2010PropOp42
 70
     1
102
RTVSPost2010Prop43
 90
        3
102
RTVSPost2010PropOp43
 70
     1
102
RTVSPost2010Prop44ColorIndex
 90
        5
102
RTVSPost2010Prop44ColorRGB
 90
      255
102
RTVSPost2010PropOp44
 70
     1
102
RTVSPost2010Prop45
280
     0
102
RTVSPost2010PropOp45
 70
     1
102
RTVSPost2010Prop46
 90
       50
102
RTVSPost2010PropOp46
 70
     1
102
RTVSPost2010Prop47
 90
       50
102
RTVSPost2010PropOp47
 70
     1
102
RTVSPost2010Prop48
 90
       50
102
RTVSPost2010PropOp48
 70
     1
102
RTVSPost2010Prop49
280
     0
102
RTVSPost2010PropOp49
 70
     1
102
RTVSPost2010Prop50
 90
       50
102
RTVSPost2010PropOp50
 70
     1
102
RTVSPost2010Prop51ColorIndex
 90
      256
102
RTVSPost2010Prop51ColorRGB
 90
-16777216
102
RTVSPost2010PropOp51
 70
     0
102
RTVSPost2010Prop52
140
1.0
102
RTVSPost2010PropOp52
 70
     0
102
RTVSPost2010Prop53
 90
        2
102
RTVSPost2010PropOp53
 70
     1
102
RTVSPost2010Prop54
  1
strokes_ogs.tif
102
RTVSPost2010PropOp54
 70
     1
102
RTVSPost2010Prop55
280
     0
102
RTVSPost2010PropOp55
 70
     1
102
RTVSPost2010Prop56
140
1.0
102
RTVSPost2010PropOp56
 70
     1
102
RTVSPost2010Prop57
140
1.0
102
RTVSPost2010PropOp57
 70
     1
  0
XRECORD
  5
4E5
102
{ACAD_REACTORS
330
4E4
102
}
330
4E4
100
AcDbXrecord
280
     1
102
RTVSPropertyOp0
 70
     1
102
RTVSPropertyOp1
 70
     1
102
RTVSPropertyOp2
 70
     1
102
RTVSPropertyOp3
 70
     1
102
RTVSPropertyOp4
 70
     1
102
RTVSPropertyOp5
 70
     1
102
RTVSPropertyOp6
 70
     1
102
RTVSPropertyOp7
 70
     1
102
RTVSPropertyOp8
 70
     1
102
RTVSPropertyOp9
 70
     1
102
RTVSPropertyOp10
 70
     1
102
RTVSPropertyOp11
 70
     1
102
RTVSPropertyOp12
 70
     1
102
RTVSPropertyOp13
 70
     1
102
RTVSPropertyOp14
 70
     1
102
RTVSPropertyOp15
 70
     1
102
RTVSPropertyOp16
 70
     1
102
RTVSPropertyOp17
 70
     1
102
RTVSPropertyOp18
 70
     1
102
RTVSPropertyOp19
 70
     1
102
RTVSPropertyOp20
 70
     1
102
RTVSPropertyOp21
 70
     1
102
RTVSPropertyOp22
 70
     1
102
RTVSPropertyOp23
 70
     1
102
RTVSPropertyOp24
 70
     1
102
RTVSPropertyOp25
 70
     1
102
RTVSPropertyOp26
 70
     1
102
RTVSPropertyOp27
 70
     1
102
RTVSPropertyOp28
 70
     1
102
RTVSPropertyOp29
 70
     1
102
RTVSPropertyOp30
 70
     1
102
RTVSPropertyOp31
 70
     1
102
RTVSPropertyOp32
 70
     1
102
RTVSPropertyOp33
 70
     1
102
RTVSPropertyOp34
 70
     1
102
RTVSPropertyOp35
 70
     1
102
RTVSPropertyOp36
 70
     1
102
RTVSPropertyOp37
 70
     1
102
RTVSPropertyOp38
 70
     1
102
RTVSPropertyOp39
 70
     1
102
RTVSPropertyOp40
 70
     1
102
RTVSPropertyOp41
 70
     1
102
RTVSPropertyOp42
 70
     1
102
RTVSPropertyOp43
 70
     1
102
RTVSPropertyOp44
 70
     1
102
RTVSPropertyOp45
 70
     1
102
RTVSPropertyOp46
 70
     1
102
RTVSPropertyOp47
 70
     1
102
RTVSPropertyOp48
 70
     1
102
RTVSPropertyOp49
 70
     1
102
RTVSPropertyOp50
 70
     1
102
RTVSPropertyOp51
 70
     0
102
RTVSPropertyOp52
 70
     0
102
RTVSPropertyOp53
 70
     1
102
RTVSPropertyOp54
 70
     1
102
RTVSPropertyOp55
 70
     1
102
RTVSPropertyOp56
 70
     1
102
RTVSPropertyOp57
 70
     1
102
RTVSPost2010Prop28
280
     0
102
RTVSPost2010PropOp28
 70
     1
102
RTVSPost2010Prop29
280
     1
102
RTVSPost2010PropOp29
 70
     1
102
RTVSPost2010Prop30
280
     1
102
RTVSPost2010PropOp30
 70
     1
102
RTVSPost2010Prop31
280
     0
102
RTVSPost2010PropOp31
 70
     1
102
RTVSPost2010Prop32
280
     0
102
RTVSPost2010PropOp32
 70
     1
102
RTVSPost2010Prop33
280
     0
102
RTVSPost2010PropOp33
 70
     1
102
RTVSPost2010Prop34
280
     0
102
RTVSPost2010PropOp34
 70
     1
102
RTVSPost2010Prop35
280
     0
102
RTVSPost2010PropOp35
 70
     1
102
RTVSPost2010Prop36
280
     0
102
RTVSPost2010PropOp36
 70
     1
102
RTVSPost2010Prop37
 90
       50
102
RTVSPost2010PropOp37
 70
     1
102
RTVSPost2010Prop38
140
0.0
102
RTVSPost2010PropOp38
 70
     1
102
RTVSPost2010Prop39
140
1.0
102
RTVSPost2010PropOp39
 70
     1
102
RTVSPost2010Prop40
 90
        0
102
RTVSPost2010PropOp40
 70
     1
102
RTVSPost2010Prop41ColorIndex
 90
       18
102
RTVSPost2010Prop41ColorRGB
 90
        0
102
RTVSPost2010PropOp41
 70
     1
102
RTVSPost2010Prop42
 90
       50
102
RTVSPost2010PropOp42
 70
     1
102
RTVSPost2010Prop43
 90
        3
102
RTVSPost2010PropOp43
 70
     1
102
RTVSPost2010Prop44ColorIndex
 90
        5
102
RTVSPost2010Prop44ColorRGB
 90
      255
102
RTVSPost2010PropOp44
 70
     1
102
RTVSPost2010Prop45
280
     0
102
RTVSPost2010PropOp45
 70
     1
102
RTVSPost2010Prop46
 90
       50
102
RTVSPost2010PropOp46
 70
     1
102
RTVSPost2010Prop47
 90
       50
102
RTVSPost2010PropOp47
 70
     1
102
RTVSPost2010Prop48
 90
       50
102
RTVSPost2010PropOp48
 70
     1
102
RTVSPost2010Prop49
280
     0
102
RTVSPost2010PropOp49
 70
     1
102
RTVSPost2010Prop50
 90
       50
102
RTVSPost2010PropOp50
 70
     1
102
RTVSPost2010Prop51ColorIndex
 90
      256
102
RTVSPost2010Prop51ColorRGB
 90
-16777216
102
RTVSPost2010PropOp51
 70
     0
102
RTVSPost2010Prop52
140
1.0
102
RTVSPost2010PropOp52
 70
     0
102
RTVSPost2010Prop53
 90
        2
102
RTVSPost2010PropOp53
 70
     1
102
RTVSPost2010Prop54
  1
strokes_ogs.tif
102
RTVSPost2010PropOp54
 70
     1
102
RTVSPost2010Prop55
280
     0
102
RTVSPost2010PropOp55
 70
     1
102
RTVSPost2010Prop56
140
1.0
102
RTVSPost2010PropOp56
 70
     1
102
RTVSPost2010Prop57
140
1.0
102
RTVSPost2010PropOp57
 70
     1
  0
XRECORD
  5
4E7
102
{ACAD_REACTORS
330
4E6
102
}
330
4E6
100
AcDbXrecord
280
     1
102
RTVSPropertyOp0
 70
     1
102
RTVSPropertyOp1
 70
     1
102
RTVSPropertyOp2
 70
     1
102
RTVSPropertyOp3
 70
     1
102
RTVSPropertyOp4
 70
     1
102
RTVSPropertyOp5
 70
     1
102
RTVSPropertyOp6
 70
     1
102
RTVSPropertyOp7
 70
     1
102
RTVSPropertyOp8
 70
     1
102
RTVSPropertyOp9
 70
     1
102
RTVSPropertyOp10
 70
     1
102
RTVSPropertyOp11
 70
     1
102
RTVSPropertyOp12
 70
     1
102
RTVSPropertyOp13
 70
     1
102
RTVSPropertyOp14
 70
     1
102
RTVSPropertyOp15
 70
     1
102
RTVSPropertyOp16
 70
     1
102
RTVSPropertyOp17
 70
     1
102
RTVSPropertyOp18
 70
     1
102
RTVSPropertyOp19
 70
     1
102
RTVSPropertyOp20
 70
     1
102
RTVSPropertyOp21
 70
     1
102
RTVSPropertyOp22
 70
     1
102
RTVSPropertyOp23
 70
     1
102
RTVSPropertyOp24
 70
     1
102
RTVSPropertyOp25
 70
     1
102
RTVSPropertyOp26
 70
     1
102
RTVSPropertyOp27
 70
     1
102
RTVSPropertyOp28
 70
     1
102
RTVSPropertyOp29
 70
     1
102
RTVSPropertyOp30
 70
     1
102
RTVSPropertyOp31
 70
     1
102
RTVSPropertyOp32
 70
     1
102
RTVSPropertyOp33
 70
     1
102
RTVSPropertyOp34
 70
     1
102
RTVSPropertyOp35
 70
     1
102
RTVSPropertyOp36
 70
     1
102
RTVSPropertyOp37
 70
     1
102
RTVSPropertyOp38
 70
     1
102
RTVSPropertyOp39
 70
     1
102
RTVSPropertyOp40
 70
     1
102
RTVSPropertyOp41
 70
     1
102
RTVSPropertyOp42
 70
     1
102
RTVSPropertyOp43
 70
     1
102
RTVSPropertyOp44
 70
     1
102
RTVSPropertyOp45
 70
     1
102
RTVSPropertyOp46
 70
     1
102
RTVSPropertyOp47
 70
     1
102
RTVSPropertyOp48
 70
     1
102
RTVSPropertyOp49
 70
     1
102
RTVSPropertyOp50
 70
     1
102
RTVSPropertyOp51
 70
     0
102
RTVSPropertyOp52
 70
     0
102
RTVSPropertyOp53
 70
     1
102
RTVSPropertyOp54
 70
     1
102
RTVSPropertyOp55
 70
     1
102
RTVSPropertyOp56
 70
     1
102
RTVSPropertyOp57
 70
     1
102
RTVSPost2010Prop28
280
     0
102
RTVSPost2010PropOp28
 70
     1
102
RTVSPost2010Prop29
280
     1
102
RTVSPost2010PropOp29
 70
     1
102
RTVSPost2010Prop30
280
     1
102
RTVSPost2010PropOp30
 70
     1
102
RTVSPost2010Prop31
280
     0
102
RTVSPost2010PropOp31
 70
     1
102
RTVSPost2010Prop32
280
     0
102
RTVSPost2010PropOp32
 70
     1
102
RTVSPost2010Prop33
280
     0
102
RTVSPost2010PropOp33
 70
     1
102
RTVSPost2010Prop34
280
     0
102
RTVSPost2010PropOp34
 70
     1
102
RTVSPost2010Prop35
280
     0
102
RTVSPost2010PropOp35
 70
     1
102
RTVSPost2010Prop36
280
     0
102
RTVSPost2010PropOp36
 70
     1
102
RTVSPost2010Prop37
 90
       50
102
RTVSPost2010PropOp37
 70
     1
102
RTVSPost2010Prop38
140
0.0
102
RTVSPost2010PropOp38
 70
     1
102
RTVSPost2010Prop39
140
1.0
102
RTVSPost2010PropOp39
 70
     1
102
RTVSPost2010Prop40
 90
        0
102
RTVSPost2010PropOp40
 70
     1
102
RTVSPost2010Prop41ColorIndex
 90
       18
102
RTVSPost2010Prop41ColorRGB
 90
        0
102
RTVSPost2010PropOp41
 70
     1
102
RTVSPost2010Prop42
 90
       50
102
RTVSPost2010PropOp42
 70
     1
102
RTVSPost2010Prop43
 90
        3
102
RTVSPost2010PropOp43
 70
     1
102
RTVSPost2010Prop44ColorIndex
 90
        5
102
RTVSPost2010Prop44ColorRGB
 90
      255
102
RTVSPost2010PropOp44
 70
     1
102
RTVSPost2010Prop45
280
     0
102
RTVSPost2010PropOp45
 70
     1
102
RTVSPost2010Prop46
 90
       50
102
RTVSPost2010PropOp46
 70
     1
102
RTVSPost2010Prop47
 90
       50
102
RTVSPost2010PropOp47
 70
     1
102
RTVSPost2010Prop48
 90
       50
102
RTVSPost2010PropOp48
 70
     1
102
RTVSPost2010Prop49
280
     0
102
RTVSPost2010PropOp49
 70
     1
102
RTVSPost2010Prop50
 90
       50
102
RTVSPost2010PropOp50
 70
     1
102
RTVSPost2010Prop51ColorIndex
 90
      256
102
RTVSPost2010Prop51ColorRGB
 90
-16777216
102
RTVSPost2010PropOp51
 70
     0
102
RTVSPost2010Prop52
140
1.0
102
RTVSPost2010PropOp52
 70
     0
102
RTVSPost2010Prop53
 90
        2
102
RTVSPost2010PropOp53
 70
     1
102
RTVSPost2010Prop54
  1
strokes_ogs.tif
102
RTVSPost2010PropOp54
 70
     1
102
RTVSPost2010Prop55
280
     0
102
RTVSPost2010PropOp55
 70
     1
102
RTVSPost2010Prop56
140
1.0
102
RTVSPost2010PropOp56
 70
     1
102
RTVSPost2010Prop57
140
1.0
102
RTVSPost2010PropOp57
 70
     1
  0
XRECORD
  5
4E9
102
{ACAD_REACTORS
330
4E8
102
}
330
4E8
100
AcDbXrecord
280
     1
102
RTVSPropertyOp0
 70
     1
102
RTVSPropertyOp1
 70
     1
102
RTVSPropertyOp2
 70
     1
102
RTVSPropertyOp3
 70
     1
102
RTVSPropertyOp4
 70
     1
102
RTVSPropertyOp5
 70
     1
102
RTVSPropertyOp6
 70
     1
102
RTVSPropertyOp7
 70
     1
102
RTVSPropertyOp8
 70
     1
102
RTVSPropertyOp9
 70
     1
102
RTVSPropertyOp10
 70
     1
102
RTVSPropertyOp11
 70
     1
102
RTVSPropertyOp12
 70
     1
102
RTVSPropertyOp13
 70
     1
102
RTVSPropertyOp14
 70
     1
102
RTVSPropertyOp15
 70
     1
102
RTVSPropertyOp16
 70
     1
102
RTVSPropertyOp17
 70
     1
102
RTVSPropertyOp18
 70
     1
102
RTVSPropertyOp19
 70
     1
102
RTVSPropertyOp20
 70
     1
102
RTVSPropertyOp21
 70
     1
102
RTVSPropertyOp22
 70
     1
102
RTVSPropertyOp23
 70
     1
102
RTVSPropertyOp24
 70
     1
102
RTVSPropertyOp25
 70
     1
102
RTVSPropertyOp26
 70
     1
102
RTVSPropertyOp27
 70
     1
102
RTVSPropertyOp28
 70
     1
102
RTVSPropertyOp29
 70
     1
102
RTVSPropertyOp30
 70
     1
102
RTVSPropertyOp31
 70
     1
102
RTVSPropertyOp32
 70
     1
102
RTVSPropertyOp33
 70
     1
102
RTVSPropertyOp34
 70
     1
102
RTVSPropertyOp35
 70
     1
102
RTVSPropertyOp36
 70
     1
102
RTVSPropertyOp37
 70
     1
102
RTVSPropertyOp38
 70
     1
102
RTVSPropertyOp39
 70
     1
102
RTVSPropertyOp40
 70
     1
102
RTVSPropertyOp41
 70
     1
102
RTVSPropertyOp42
 70
     1
102
RTVSPropertyOp43
 70
     1
102
RTVSPropertyOp44
 70
     1
102
RTVSPropertyOp45
 70
     1
102
RTVSPropertyOp46
 70
     1
102
RTVSPropertyOp47
 70
     1
102
RTVSPropertyOp48
 70
     1
102
RTVSPropertyOp49
 70
     1
102
RTVSPropertyOp50
 70
     1
102
RTVSPropertyOp51
 70
     0
102
RTVSPropertyOp52
 70
     0
102
RTVSPropertyOp53
 70
     1
102
RTVSPropertyOp54
 70
     1
102
RTVSPropertyOp55
 70
     1
102
RTVSPropertyOp56
 70
     1
102
RTVSPropertyOp57
 70
     1
102
RTVSPost2010Prop28
280
     0
102
RTVSPost2010PropOp28
 70
     1
102
RTVSPost2010Prop29
280
     1
102
RTVSPost2010PropOp29
 70
     1
102
RTVSPost2010Prop30
280
     1
102
RTVSPost2010PropOp30
 70
     1
102
RTVSPost2010Prop31
280
     0
102
RTVSPost2010PropOp31
 70
     1
102
RTVSPost2010Prop32
280
     0
102
RTVSPost2010PropOp32
 70
     1
102
RTVSPost2010Prop33
280
     0
102
RTVSPost2010PropOp33
 70
     1
102
RTVSPost2010Prop34
280
     0
102
RTVSPost2010PropOp34
 70
     1
102
RTVSPost2010Prop35
280
     0
102
RTVSPost2010PropOp35
 70
     1
102
RTVSPost2010Prop36
280
     0
102
RTVSPost2010PropOp36
 70
     1
102
RTVSPost2010Prop37
 90
       50
102
RTVSPost2010PropOp37
 70
     1
102
RTVSPost2010Prop38
140
0.0
102
RTVSPost2010PropOp38
 70
     1
102
RTVSPost2010Prop39
140
1.0
102
RTVSPost2010PropOp39
 70
     1
102
RTVSPost2010Prop40
 90
        0
102
RTVSPost2010PropOp40
 70
     1
102
RTVSPost2010Prop41ColorIndex
 90
       18
102
RTVSPost2010Prop41ColorRGB
 90
        0
102
RTVSPost2010PropOp41
 70
     1
102
RTVSPost2010Prop42
 90
       50
102
RTVSPost2010PropOp42
 70
     1
102
RTVSPost2010Prop43
 90
        3
102
RTVSPost2010PropOp43
 70
     1
102
RTVSPost2010Prop44ColorIndex
 90
        5
102
RTVSPost2010Prop44ColorRGB
 90
      255
102
RTVSPost2010PropOp44
 70
     1
102
RTVSPost2010Prop45
280
     0
102
RTVSPost2010PropOp45
 70
     1
102
RTVSPost2010Prop46
 90
       50
102
RTVSPost2010PropOp46
 70
     1
102
RTVSPost2010Prop47
 90
       50
102
RTVSPost2010PropOp47
 70
     1
102
RTVSPost2010Prop48
 90
       50
102
RTVSPost2010PropOp48
 70
     1
102
RTVSPost2010Prop49
280
     0
102
RTVSPost2010PropOp49
 70
     1
102
RTVSPost2010Prop50
 90
       50
102
RTVSPost2010PropOp50
 70
     1
102
RTVSPost2010Prop51ColorIndex
 90
      256
102
RTVSPost2010Prop51ColorRGB
 90
-16777216
102
RTVSPost2010PropOp51
 70
     0
102
RTVSPost2010Prop52
140
1.0
102
RTVSPost2010PropOp52
 70
     0
102
RTVSPost2010Prop53
 90
        2
102
RTVSPost2010PropOp53
 70
     1
102
RTVSPost2010Prop54
  1
strokes_ogs.tif
102
RTVSPost2010PropOp54
 70
     1
102
RTVSPost2010Prop55
280
     0
102
RTVSPost2010PropOp55
 70
     1
102
RTVSPost2010Prop56
140
1.0
102
RTVSPost2010PropOp56
 70
     1
102
RTVSPost2010Prop57
140
1.0
102
RTVSPost2010PropOp57
 70
     1
  0
XRECORD
  5
4EF
102
{ACAD_REACTORS
330
4EE
102
}
330
4EE
100
AcDbXrecord
280
     1
102
RTVSPropertyOp0
 70
     1
102
RTVSPropertyOp1
 70
     1
102
RTVSPropertyOp2
 70
     1
102
RTVSPropertyOp3
 70
     1
102
RTVSPropertyOp4
 70
     1
102
RTVSPropertyOp5
 70
     1
102
RTVSPropertyOp6
 70
     1
102
RTVSPropertyOp7
 70
     1
102
RTVSPropertyOp8
 70
     1
102
RTVSPropertyOp9
 70
     1
102
RTVSPropertyOp10
 70
     1
102
RTVSPropertyOp11
 70
     1
102
RTVSPropertyOp12
 70
     1
102
RTVSPropertyOp13
 70
     1
102
RTVSPropertyOp14
 70
     1
102
RTVSPropertyOp15
 70
     1
102
RTVSPropertyOp16
 70
     1
102
RTVSPropertyOp17
 70
     1
102
RTVSPropertyOp18
 70
     1
102
RTVSPropertyOp19
 70
     1
102
RTVSPropertyOp20
 70
     1
102
RTVSPropertyOp21
 70
     1
102
RTVSPropertyOp22
 70
     1
102
RTVSPropertyOp23
 70
     1
102
RTVSPropertyOp24
 70
     1
102
RTVSPropertyOp25
 70
     1
102
RTVSPropertyOp26
 70
     1
102
RTVSPropertyOp27
 70
     1
102
RTVSPropertyOp28
 70
     1
102
RTVSPropertyOp29
 70
     1
102
RTVSPropertyOp30
 70
     1
102
RTVSPropertyOp31
 70
     1
102
RTVSPropertyOp32
 70
     1
102
RTVSPropertyOp33
 70
     1
102
RTVSPropertyOp34
 70
     1
102
RTVSPropertyOp35
 70
     1
102
RTVSPropertyOp36
 70
     1
102
RTVSPropertyOp37
 70
     1
102
RTVSPropertyOp38
 70
     1
102
RTVSPropertyOp39
 70
     1
102
RTVSPropertyOp40
 70
     1
102
RTVSPropertyOp41
 70
     1
102
RTVSPropertyOp42
 70
     1
102
RTVSPropertyOp43
 70
     1
102
RTVSPropertyOp44
 70
     1
102
RTVSPropertyOp45
 70
     1
102
RTVSPropertyOp46
 70
     1
102
RTVSPropertyOp47
 70
     1
102
RTVSPropertyOp48
 70
     1
102
RTVSPropertyOp49
 70
     1
102
RTVSPropertyOp50
 70
     1
102
RTVSPropertyOp51
 70
     0
102
RTVSPropertyOp52
 70
     0
102
RTVSPropertyOp53
 70
     1
102
RTVSPropertyOp54
 70
     1
102
RTVSPropertyOp55
 70
     1
102
RTVSPropertyOp56
 70
     1
102
RTVSPropertyOp57
 70
     1
102
RTVSPost2010Prop28
280
     0
102
RTVSPost2010PropOp28
 70
     1
102
RTVSPost2010Prop29
280
     1
102
RTVSPost2010PropOp29
 70
     1
102
RTVSPost2010Prop30
280
     1
102
RTVSPost2010PropOp30
 70
     1
102
RTVSPost2010Prop31
280
     0
102
RTVSPost2010PropOp31
 70
     1
102
RTVSPost2010Prop32
280
     0
102
RTVSPost2010PropOp32
 70
     1
102
RTVSPost2010Prop33
280
     0
102
RTVSPost2010PropOp33
 70
     1
102
RTVSPost2010Prop34
280
     0
102
RTVSPost2010PropOp34
 70
     1
102
RTVSPost2010Prop35
280
     0
102
RTVSPost2010PropOp35
 70
     1
102
RTVSPost2010Prop36
280
     0
102
RTVSPost2010PropOp36
 70
     1
102
RTVSPost2010Prop37
 90
       50
102
RTVSPost2010PropOp37
 70
     1
102
RTVSPost2010Prop38
140
0.0
102
RTVSPost2010PropOp38
 70
     1
102
RTVSPost2010Prop39
140
1.0
102
RTVSPost2010PropOp39
 70
     1
102
RTVSPost2010Prop40
 90
        0
102
RTVSPost2010PropOp40
 70
     1
102
RTVSPost2010Prop41ColorIndex
 90
       18
102
RTVSPost2010Prop41ColorRGB
 90
        0
102
RTVSPost2010PropOp41
 70
     1
102
RTVSPost2010Prop42
 90
       50
102
RTVSPost2010PropOp42
 70
     1
102
RTVSPost2010Prop43
 90
        3
102
RTVSPost2010PropOp43
 70
     1
102
RTVSPost2010Prop44ColorIndex
 90
        5
102
RTVSPost2010Prop44ColorRGB
 90
      255
102
RTVSPost2010PropOp44
 70
     1
102
RTVSPost2010Prop45
280
     0
102
RTVSPost2010PropOp45
 70
     1
102
RTVSPost2010Prop46
 90
       50
102
RTVSPost2010PropOp46
 70
     1
102
RTVSPost2010Prop47
 90
       50
102
RTVSPost2010PropOp47
 70
     1
102
RTVSPost2010Prop48
 90
       50
102
RTVSPost2010PropOp48
 70
     1
102
RTVSPost2010Prop49
280
     0
102
RTVSPost2010PropOp49
 70
     1
102
RTVSPost2010Prop50
 90
       50
102
RTVSPost2010PropOp50
 70
     1
102
RTVSPost2010Prop51ColorIndex
 90
      256
102
RTVSPost2010Prop51ColorRGB
 90
-16777216
102
RTVSPost2010PropOp51
 70
     0
102
RTVSPost2010Prop52
140
1.0
102
RTVSPost2010PropOp52
 70
     0
102
RTVSPost2010Prop53
 90
        2
102
RTVSPost2010PropOp53
 70
     1
102
RTVSPost2010Prop54
  1
strokes_ogs.tif
102
RTVSPost2010PropOp54
 70
     1
102
RTVSPost2010Prop55
280
     0
102
RTVSPost2010PropOp55
 70
     1
102
RTVSPost2010Prop56
140
1.0
102
RTVSPost2010PropOp56
 70
     1
102
RTVSPost2010Prop57
140
1.0
102
RTVSPost2010PropOp57
 70
     1
  0
XRECORD
  5
503
102
{ACAD_REACTORS
330
502
102
}
330
502
100
AcDbXrecord
280
     1
102
RTVSPropertyOp0
 70
     0
102
RTVSPropertyOp1
 70
     0
102
RTVSPropertyOp2
 70
     0
102
RTVSPropertyOp3
 70
     0
102
RTVSPropertyOp4
 70
     0
102
RTVSPropertyOp5
 70
     0
102
RTVSPropertyOp6
 70
     0
102
RTVSPropertyOp7
 70
     0
102
RTVSPropertyOp8
 70
     0
102
RTVSPropertyOp9
 70
     0
102
RTVSPropertyOp10
 70
     0
102
RTVSPropertyOp11
 70
     0
102
RTVSPropertyOp12
 70
     0
102
RTVSPropertyOp13
 70
     0
102
RTVSPropertyOp14
 70
     2
102
RTVSPropertyOp15
 70
     0
102
RTVSPropertyOp16
 70
     0
102
RTVSPropertyOp17
 70
     0
102
RTVSPropertyOp18
 70
     0
102
RTVSPropertyOp19
 70
     0
102
RTVSPropertyOp20
 70
     0
102
RTVSPropertyOp21
 70
     0
102
RTVSPropertyOp22
 70
     0
102
RTVSPropertyOp23
 70
     0
102
RTVSPropertyOp24
 70
     0
102
RTVSPropertyOp25
 70
     0
102
RTVSPropertyOp26
 70
     0
102
RTVSPropertyOp27
 70
     0
102
RTVSPropertyOp28
 70
     0
102
RTVSPropertyOp29
 70
     0
102
RTVSPropertyOp30
 70
     0
102
RTVSPropertyOp31
 70
     0
102
RTVSPropertyOp32
 70
     0
102
RTVSPropertyOp33
 70
     0
102
RTVSPropertyOp34
 70
     0
102
RTVSPropertyOp35
 70
     0
102
RTVSPropertyOp36
 70
     0
102
RTVSPropertyOp37
 70
     0
102
RTVSPropertyOp38
 70
     0
102
RTVSPropertyOp39
 70
     0
102
RTVSPropertyOp40
 70
     0
102
RTVSPropertyOp41
 70
     0
102
RTVSPropertyOp42
 70
     0
102
RTVSPropertyOp43
 70
     0
102
RTVSPropertyOp44
 70
     0
102
RTVSPropertyOp45
 70
     0
102
RTVSPropertyOp46
 70
     0
102
RTVSPropertyOp47
 70
     0
102
RTVSPropertyOp48
 70
     0
102
RTVSPropertyOp49
 70
     0
102
RTVSPropertyOp50
 70
     0
102
RTVSPropertyOp51
 70
     0
102
RTVSPropertyOp52
 70
     0
102
RTVSPropertyOp53
 70
     0
102
RTVSPropertyOp54
 70
     0
102
RTVSPropertyOp55
 70
     0
102
RTVSPropertyOp56
 70
     0
102
RTVSPropertyOp57
 70
     0
102
RTVSPost2010Prop28
280
     0
102
RTVSPost2010PropOp28
 70
     0
102
RTVSPost2010Prop29
280
     1
102
RTVSPost2010PropOp29
 70
     0
102
RTVSPost2010Prop30
280
     1
102
RTVSPost2010PropOp30
 70
     0
102
RTVSPost2010Prop31
280
     0
102
RTVSPost2010PropOp31
 70
     0
102
RTVSPost2010Prop32
280
     0
102
RTVSPost2010PropOp32
 70
     0
102
RTVSPost2010Prop33
280
     0
102
RTVSPost2010PropOp33
 70
     0
102
RTVSPost2010Prop34
280
     0
102
RTVSPost2010PropOp34
 70
     0
102
RTVSPost2010Prop35
280
     0
102
RTVSPost2010PropOp35
 70
     0
102
RTVSPost2010Prop36
280
     0
102
RTVSPost2010PropOp36
 70
     0
102
RTVSPost2010Prop37
 90
       50
102
RTVSPost2010PropOp37
 70
     0
102
RTVSPost2010Prop38
140
0.0
102
RTVSPost2010PropOp38
 70
     0
102
RTVSPost2010Prop39
140
1.0
102
RTVSPost2010PropOp39
 70
     0
102
RTVSPost2010Prop40
 90
        0
102
RTVSPost2010PropOp40
 70
     0
102
RTVSPost2010Prop41ColorIndex
 90
       18
102
RTVSPost2010Prop41ColorRGB
 90
        0
102
RTVSPost2010PropOp41
 70
     0
102
RTVSPost2010Prop42
 90
       50
102
RTVSPost2010PropOp42
 70
     0
102
RTVSPost2010Prop43
 90
        3
102
RTVSPost2010PropOp43
 70
     0
102
RTVSPost2010Prop44ColorIndex
 90
        5
102
RTVSPost2010Prop44ColorRGB
 90
      255
102
RTVSPost2010PropOp44
 70
     0
102
RTVSPost2010Prop45
280
     0
102
RTVSPost2010PropOp45
 70
     0
102
RTVSPost2010Prop46
 90
       50
102
RTVSPost2010PropOp46
 70
     0
102
RTVSPost2010Prop47
 90
       50
102
RTVSPost2010PropOp47
 70
     0
102
RTVSPost2010Prop48
 90
       50
102
RTVSPost2010PropOp48
 70
     0
102
RTVSPost2010Prop49
280
     0
102
RTVSPost2010PropOp49
 70
     0
102
RTVSPost2010Prop50
 90
       50
102
RTVSPost2010PropOp50
 70
     0
102
RTVSPost2010Prop51ColorIndex
 90
      256
102
RTVSPost2010Prop51ColorRGB
 90
-16777216
102
RTVSPost2010PropOp51
 70
     0
102
RTVSPost2010Prop52
140
1.0
102
RTVSPost2010PropOp52
 70
     0
102
RTVSPost2010Prop53
 90
        2
102
RTVSPost2010PropOp53
 70
     0
102
RTVSPost2010Prop54
  1
strokes_ogs.tif
102
RTVSPost2010PropOp54
 70
     0
102
RTVSPost2010Prop55
280
     0
102
RTVSPost2010PropOp55
 70
     0
102
RTVSPost2010Prop56
140
1.0
102
RTVSPost2010PropOp56
 70
     0
102
RTVSPost2010Prop57
140
1.0
102
RTVSPost2010PropOp57
 70
     0
  0
XRECORD
  5
4FD
102
{ACAD_REACTORS
330
4FC
102
}
330
4FC
100
AcDbXrecord
280
     1
102
RTVSPropertyOp0
 70
     1
102
RTVSPropertyOp1
 70
     1
102
RTVSPropertyOp2
 70
     1
102
RTVSPropertyOp3
 70
     1
102
RTVSPropertyOp4
 70
     1
102
RTVSPropertyOp5
 70
     1
102
RTVSPropertyOp6
 70
     1
102
RTVSPropertyOp7
 70
     1
102
RTVSPropertyOp8
 70
     1
102
RTVSPropertyOp9
 70
     1
102
RTVSPropertyOp10
 70
     1
102
RTVSPropertyOp11
 70
     1
102
RTVSPropertyOp12
 70
     1
102
RTVSPropertyOp13
 70
     1
102
RTVSPropertyOp14
 70
     1
102
RTVSPropertyOp15
 70
     1
102
RTVSPropertyOp16
 70
     1
102
RTVSPropertyOp17
 70
     1
102
RTVSPropertyOp18
 70
     1
102
RTVSPropertyOp19
 70
     1
102
RTVSPropertyOp20
 70
     1
102
RTVSPropertyOp21
 70
     1
102
RTVSPropertyOp22
 70
     1
102
RTVSPropertyOp23
 70
     1
102
RTVSPropertyOp24
 70
     1
102
RTVSPropertyOp25
 70
     1
102
RTVSPropertyOp26
 70
     1
102
RTVSPropertyOp27
 70
     1
102
RTVSPropertyOp28
 70
     1
102
RTVSPropertyOp29
 70
     1
102
RTVSPropertyOp30
 70
     1
102
RTVSPropertyOp31
 70
     1
102
RTVSPropertyOp32
 70
     1
102
RTVSPropertyOp33
 70
     1
102
RTVSPropertyOp34
 70
     1
102
RTVSPropertyOp35
 70
     1
102
RTVSPropertyOp36
 70
     1
102
RTVSPropertyOp37
 70
     1
102
RTVSPropertyOp38
 70
     1
102
RTVSPropertyOp39
 70
     1
102
RTVSPropertyOp40
 70
     1
102
RTVSPropertyOp41
 70
     1
102
RTVSPropertyOp42
 70
     1
102
RTVSPropertyOp43
 70
     1
102
RTVSPropertyOp44
 70
     1
102
RTVSPropertyOp45
 70
     1
102
RTVSPropertyOp46
 70
     1
102
RTVSPropertyOp47
 70
     1
102
RTVSPropertyOp48
 70
     1
102
RTVSPropertyOp49
 70
     1
102
RTVSPropertyOp50
 70
     1
102
RTVSPropertyOp51
 70
     0
102
RTVSPropertyOp52
 70
     0
102
RTVSPropertyOp53
 70
     1
102
RTVSPropertyOp54
 70
     1
102
RTVSPropertyOp55
 70
     1
102
RTVSPropertyOp56
 70
     1
102
RTVSPropertyOp57
 70
     1
102
RTVSPost2010Prop28
280
     0
102
RTVSPost2010PropOp28
 70
     1
102
RTVSPost2010Prop29
280
     1
102
RTVSPost2010PropOp29
 70
     1
102
RTVSPost2010Prop30
280
     1
102
RTVSPost2010PropOp30
 70
     1
102
RTVSPost2010Prop31
280
     0
102
RTVSPost2010PropOp31
 70
     1
102
RTVSPost2010Prop32
280
     0
102
RTVSPost2010PropOp32
 70
     1
102
RTVSPost2010Prop33
280
     0
102
RTVSPost2010PropOp33
 70
     1
102
RTVSPost2010Prop34
280
     0
102
RTVSPost2010PropOp34
 70
     1
102
RTVSPost2010Prop35
280
     0
102
RTVSPost2010PropOp35
 70
     1
102
RTVSPost2010Prop36
280
     0
102
RTVSPost2010PropOp36
 70
     1
102
RTVSPost2010Prop37
 90
       50
102
RTVSPost2010PropOp37
 70
     1
102
RTVSPost2010Prop38
140
0.0
102
RTVSPost2010PropOp38
 70
     1
102
RTVSPost2010Prop39
140
1.0
102
RTVSPost2010PropOp39
 70
     1
102
RTVSPost2010Prop40
 90
        0
102
RTVSPost2010PropOp40
 70
     1
102
RTVSPost2010Prop41ColorIndex
 90
       18
102
RTVSPost2010Prop41ColorRGB
 90
        0
102
RTVSPost2010PropOp41
 70
     1
102
RTVSPost2010Prop42
 90
       50
102
RTVSPost2010PropOp42
 70
     1
102
RTVSPost2010Prop43
 90
        3
102
RTVSPost2010PropOp43
 70
     1
102
RTVSPost2010Prop44ColorIndex
 90
        5
102
RTVSPost2010Prop44ColorRGB
 90
      255
102
RTVSPost2010PropOp44
 70
     1
102
RTVSPost2010Prop45
280
     0
102
RTVSPost2010PropOp45
 70
     1
102
RTVSPost2010Prop46
 90
       50
102
RTVSPost2010PropOp46
 70
     1
102
RTVSPost2010Prop47
 90
       50
102
RTVSPost2010PropOp47
 70
     1
102
RTVSPost2010Prop48
 90
       50
102
RTVSPost2010PropOp48
 70
     1
102
RTVSPost2010Prop49
280
     0
102
RTVSPost2010PropOp49
 70
     1
102
RTVSPost2010Prop50
 90
       50
102
RTVSPost2010PropOp50
 70
     1
102
RTVSPost2010Prop51ColorIndex
 90
      256
102
RTVSPost2010Prop51ColorRGB
 90
-16777216
102
RTVSPost2010PropOp51
 70
     0
102
RTVSPost2010Prop52
140
1.0
102
RTVSPost2010PropOp52
 70
     0
102
RTVSPost2010Prop53
 90
        2
102
RTVSPost2010PropOp53
 70
     1
102
RTVSPost2010Prop54
  1
strokes_ogs.tif
102
RTVSPost2010PropOp54
 70
     1
102
RTVSPost2010Prop55
280
     0
102
RTVSPost2010PropOp55
 70
     1
102
RTVSPost2010Prop56
140
1.0
102
RTVSPost2010PropOp56
 70
     1
102
RTVSPost2010Prop57
140
1.0
102
RTVSPost2010PropOp57
 70
     1
  0
XRECORD
  5
505
102
{ACAD_REACTORS
330
504
102
}
330
504
100
AcDbXrecord
280
     1
102
RTVSPropertyOp0
 70
     0
102
RTVSPropertyOp1
 70
     0
102
RTVSPropertyOp2
 70
     0
102
RTVSPropertyOp3
 70
     0
102
RTVSPropertyOp4
 70
     0
102
RTVSPropertyOp5
 70
     0
102
RTVSPropertyOp6
 70
     0
102
RTVSPropertyOp7
 70
     0
102
RTVSPropertyOp8
 70
     0
102
RTVSPropertyOp9
 70
     0
102
RTVSPropertyOp10
 70
     0
102
RTVSPropertyOp11
 70
     0
102
RTVSPropertyOp12
 70
     0
102
RTVSPropertyOp13
 70
     0
102
RTVSPropertyOp14
 70
     2
102
RTVSPropertyOp15
 70
     0
102
RTVSPropertyOp16
 70
     0
102
RTVSPropertyOp17
 70
     0
102
RTVSPropertyOp18
 70
     0
102
RTVSPropertyOp19
 70
     0
102
RTVSPropertyOp20
 70
     0
102
RTVSPropertyOp21
 70
     0
102
RTVSPropertyOp22
 70
     0
102
RTVSPropertyOp23
 70
     0
102
RTVSPropertyOp24
 70
     0
102
RTVSPropertyOp25
 70
     0
102
RTVSPropertyOp26
 70
     0
102
RTVSPropertyOp27
 70
     0
102
RTVSPropertyOp28
 70
     0
102
RTVSPropertyOp29
 70
     0
102
RTVSPropertyOp30
 70
     0
102
RTVSPropertyOp31
 70
     0
102
RTVSPropertyOp32
 70
     0
102
RTVSPropertyOp33
 70
     0
102
RTVSPropertyOp34
 70
     0
102
RTVSPropertyOp35
 70
     0
102
RTVSPropertyOp36
 70
     0
102
RTVSPropertyOp37
 70
     0
102
RTVSPropertyOp38
 70
     0
102
RTVSPropertyOp39
 70
     0
102
RTVSPropertyOp40
 70
     0
102
RTVSPropertyOp41
 70
     0
102
RTVSPropertyOp42
 70
     0
102
RTVSPropertyOp43
 70
     0
102
RTVSPropertyOp44
 70
     0
102
RTVSPropertyOp45
 70
     0
102
RTVSPropertyOp46
 70
     0
102
RTVSPropertyOp47
 70
     0
102
RTVSPropertyOp48
 70
     0
102
RTVSPropertyOp49
 70
     0
102
RTVSPropertyOp50
 70
     0
102
RTVSPropertyOp51
 70
     0
102
RTVSPropertyOp52
 70
     0
102
RTVSPropertyOp53
 70
     0
102
RTVSPropertyOp54
 70
     0
102
RTVSPropertyOp55
 70
     0
102
RTVSPropertyOp56
 70
     0
102
RTVSPropertyOp57
 70
     0
102
RTVSPost2010Prop28
280
     0
102
RTVSPost2010PropOp28
 70
     0
102
RTVSPost2010Prop29
280
     1
102
RTVSPost2010PropOp29
 70
     0
102
RTVSPost2010Prop30
280
     1
102
RTVSPost2010PropOp30
 70
     0
102
RTVSPost2010Prop31
280
     0
102
RTVSPost2010PropOp31
 70
     0
102
RTVSPost2010Prop32
280
     0
102
RTVSPost2010PropOp32
 70
     0
102
RTVSPost2010Prop33
280
     0
102
RTVSPost2010PropOp33
 70
     0
102
RTVSPost2010Prop34
280
     0
102
RTVSPost2010PropOp34
 70
     0
102
RTVSPost2010Prop35
280
     0
102
RTVSPost2010PropOp35
 70
     0
102
RTVSPost2010Prop36
280
     0
102
RTVSPost2010PropOp36
 70
     0
102
RTVSPost2010Prop37
 90
       50
102
RTVSPost2010PropOp37
 70
     0
102
RTVSPost2010Prop38
140
0.0
102
RTVSPost2010PropOp38
 70
     0
102
RTVSPost2010Prop39
140
1.0
102
RTVSPost2010PropOp39
 70
     0
102
RTVSPost2010Prop40
 90
        0
102
RTVSPost2010PropOp40
 70
     0
102
RTVSPost2010Prop41ColorIndex
 90
       18
102
RTVSPost2010Prop41ColorRGB
 90
        0
102
RTVSPost2010PropOp41
 70
     0
102
RTVSPost2010Prop42
 90
       50
102
RTVSPost2010PropOp42
 70
     0
102
RTVSPost2010Prop43
 90
        3
102
RTVSPost2010PropOp43
 70
     0
102
RTVSPost2010Prop44ColorIndex
 90
        5
102
RTVSPost2010Prop44ColorRGB
 90
      255
102
RTVSPost2010PropOp44
 70
     0
102
RTVSPost2010Prop45
280
     0
102
RTVSPost2010PropOp45
 70
     0
102
RTVSPost2010Prop46
 90
       50
102
RTVSPost2010PropOp46
 70
     0
102
RTVSPost2010Prop47
 90
       50
102
RTVSPost2010PropOp47
 70
     0
102
RTVSPost2010Prop48
 90
       50
102
RTVSPost2010PropOp48
 70
     0
102
RTVSPost2010Prop49
280
     0
102
RTVSPost2010PropOp49
 70
     0
102
RTVSPost2010Prop50
 90
       50
102
RTVSPost2010PropOp50
 70
     0
102
RTVSPost2010Prop51ColorIndex
 90
      256
102
RTVSPost2010Prop51ColorRGB
 90
-16777216
102
RTVSPost2010PropOp51
 70
     0
102
RTVSPost2010Prop52
140
1.0
102
RTVSPost2010PropOp52
 70
     0
102
RTVSPost2010Prop53
 90
        2
102
RTVSPost2010PropOp53
 70
     0
102
RTVSPost2010Prop54
  1
strokes_ogs.tif
102
RTVSPost2010PropOp54
 70
     0
102
RTVSPost2010Prop55
280
     0
102
RTVSPost2010PropOp55
 70
     0
102
RTVSPost2010Prop56
140
1.0
102
RTVSPost2010PropOp56
 70
     0
102
RTVSPost2010Prop57
140
1.0
102
RTVSPost2010PropOp57
 70
     0
  0
XRECORD
  5
4F3
102
{ACAD_REACTORS
330
4F2
102
}
330
4F2
100
AcDbXrecord
280
     1
102
RTVSPropertyOp0
 70
     1
102
RTVSPropertyOp1
 70
     1
102
RTVSPropertyOp2
 70
     1
102
RTVSPropertyOp3
 70
     1
102
RTVSPropertyOp4
 70
     1
102
RTVSPropertyOp5
 70
     1
102
RTVSPropertyOp6
 70
     1
102
RTVSPropertyOp7
 70
     1
102
RTVSPropertyOp8
 70
     1
102
RTVSPropertyOp9
 70
     1
102
RTVSPropertyOp10
 70
     1
102
RTVSPropertyOp11
 70
     1
102
RTVSPropertyOp12
 70
     1
102
RTVSPropertyOp13
 70
     1
102
RTVSPropertyOp14
 70
     1
102
RTVSPropertyOp15
 70
     1
102
RTVSPropertyOp16
 70
     1
102
RTVSPropertyOp17
 70
     1
102
RTVSPropertyOp18
 70
     1
102
RTVSPropertyOp19
 70
     1
102
RTVSPropertyOp20
 70
     1
102
RTVSPropertyOp21
 70
     1
102
RTVSPropertyOp22
 70
     1
102
RTVSPropertyOp23
 70
     1
102
RTVSPropertyOp24
 70
     1
102
RTVSPropertyOp25
 70
     1
102
RTVSPropertyOp26
 70
     1
102
RTVSPropertyOp27
 70
     1
102
RTVSPropertyOp28
 70
     1
102
RTVSPropertyOp29
 70
     1
102
RTVSPropertyOp30
 70
     1
102
RTVSPropertyOp31
 70
     1
102
RTVSPropertyOp32
 70
     1
102
RTVSPropertyOp33
 70
     1
102
RTVSPropertyOp34
 70
     1
102
RTVSPropertyOp35
 70
     1
102
RTVSPropertyOp36
 70
     1
102
RTVSPropertyOp37
 70
     1
102
RTVSPropertyOp38
 70
     1
102
RTVSPropertyOp39
 70
     1
102
RTVSPropertyOp40
 70
     1
102
RTVSPropertyOp41
 70
     1
102
RTVSPropertyOp42
 70
     1
102
RTVSPropertyOp43
 70
     1
102
RTVSPropertyOp44
 70
     1
102
RTVSPropertyOp45
 70
     1
102
RTVSPropertyOp46
 70
     1
102
RTVSPropertyOp47
 70
     1
102
RTVSPropertyOp48
 70
     1
102
RTVSPropertyOp49
 70
     1
102
RTVSPropertyOp50
 70
     1
102
RTVSPropertyOp51
 70
     0
102
RTVSPropertyOp52
 70
     0
102
RTVSPropertyOp53
 70
     1
102
RTVSPropertyOp54
 70
     1
102
RTVSPropertyOp55
 70
     1
102
RTVSPropertyOp56
 70
     1
102
RTVSPropertyOp57
 70
     1
102
RTVSPost2010Prop28
280
     0
102
RTVSPost2010PropOp28
 70
     1
102
RTVSPost2010Prop29
280
     1
102
RTVSPost2010PropOp29
 70
     1
102
RTVSPost2010Prop30
280
     1
102
RTVSPost2010PropOp30
 70
     1
102
RTVSPost2010Prop31
280
     0
102
RTVSPost2010PropOp31
 70
     1
102
RTVSPost2010Prop32
280
     0
102
RTVSPost2010PropOp32
 70
     1
102
RTVSPost2010Prop33
280
     0
102
RTVSPost2010PropOp33
 70
     1
102
RTVSPost2010Prop34
280
     0
102
RTVSPost2010PropOp34
 70
     1
102
RTVSPost2010Prop35
280
     0
102
RTVSPost2010PropOp35
 70
     1
102
RTVSPost2010Prop36
280
     0
102
RTVSPost2010PropOp36
 70
     1
102
RTVSPost2010Prop37
 90
       50
102
RTVSPost2010PropOp37
 70
     1
102
RTVSPost2010Prop38
140
0.0
102
RTVSPost2010PropOp38
 70
     1
102
RTVSPost2010Prop39
140
1.0
102
RTVSPost2010PropOp39
 70
     1
102
RTVSPost2010Prop40
 90
        0
102
RTVSPost2010PropOp40
 70
     1
102
RTVSPost2010Prop41ColorIndex
 90
       18
102
RTVSPost2010Prop41ColorRGB
 90
        0
102
RTVSPost2010PropOp41
 70
     1
102
RTVSPost2010Prop42
 90
       50
102
RTVSPost2010PropOp42
 70
     1
102
RTVSPost2010Prop43
 90
        3
102
RTVSPost2010PropOp43
 70
     1
102
RTVSPost2010Prop44ColorIndex
 90
        5
102
RTVSPost2010Prop44ColorRGB
 90
      255
102
RTVSPost2010PropOp44
 70
     1
102
RTVSPost2010Prop45
280
     0
102
RTVSPost2010PropOp45
 70
     1
102
RTVSPost2010Prop46
 90
       50
102
RTVSPost2010PropOp46
 70
     1
102
RTVSPost2010Prop47
 90
       50
102
RTVSPost2010PropOp47
 70
     1
102
RTVSPost2010Prop48
 90
       50
102
RTVSPost2010PropOp48
 70
     1
102
RTVSPost2010Prop49
280
     0
102
RTVSPost2010PropOp49
 70
     1
102
RTVSPost2010Prop50
 90
       50
102
RTVSPost2010PropOp50
 70
     1
102
RTVSPost2010Prop51ColorIndex
 90
      256
102
RTVSPost2010Prop51ColorRGB
 90
-16777216
102
RTVSPost2010PropOp51
 70
     0
102
RTVSPost2010Prop52
140
1.0
102
RTVSPost2010PropOp52
 70
     0
102
RTVSPost2010Prop53
 90
        2
102
RTVSPost2010PropOp53
 70
     1
102
RTVSPost2010Prop54
  1
strokes_ogs.tif
102
RTVSPost2010PropOp54
 70
     1
102
RTVSPost2010Prop55
280
     0
102
RTVSPost2010PropOp55
 70
     1
102
RTVSPost2010Prop56
140
1.0
102
RTVSPost2010PropOp56
 70
     1
102
RTVSPost2010Prop57
140
1.0
102
RTVSPost2010PropOp57
 70
     1
  0
XRECORD
  5
511
102
{ACAD_REACTORS
330
510
102
}
330
510
100
AcDbXrecord
280
     1
102
RTVSPropertyOp0
 70
     1
102
RTVSPropertyOp1
 70
     1
102
RTVSPropertyOp2
 70
     1
102
RTVSPropertyOp3
 70
     1
102
RTVSPropertyOp4
 70
     1
102
RTVSPropertyOp5
 70
     1
102
RTVSPropertyOp6
 70
     1
102
RTVSPropertyOp7
 70
     1
102
RTVSPropertyOp8
 70
     1
102
RTVSPropertyOp9
 70
     1
102
RTVSPropertyOp10
 70
     1
102
RTVSPropertyOp11
 70
     1
102
RTVSPropertyOp12
 70
     1
102
RTVSPropertyOp13
 70
     1
102
RTVSPropertyOp14
 70
     1
102
RTVSPropertyOp15
 70
     1
102
RTVSPropertyOp16
 70
     1
102
RTVSPropertyOp17
 70
     1
102
RTVSPropertyOp18
 70
     1
102
RTVSPropertyOp19
 70
     1
102
RTVSPropertyOp20
 70
     1
102
RTVSPropertyOp21
 70
     1
102
RTVSPropertyOp22
 70
     1
102
RTVSPropertyOp23
 70
     1
102
RTVSPropertyOp24
 70
     1
102
RTVSPropertyOp25
 70
     1
102
RTVSPropertyOp26
 70
     1
102
RTVSPropertyOp27
 70
     1
102
RTVSPropertyOp28
 70
     1
102
RTVSPropertyOp29
 70
     1
102
RTVSPropertyOp30
 70
     1
102
RTVSPropertyOp31
 70
     1
102
RTVSPropertyOp32
 70
     1
102
RTVSPropertyOp33
 70
     1
102
RTVSPropertyOp34
 70
     1
102
RTVSPropertyOp35
 70
     1
102
RTVSPropertyOp36
 70
     1
102
RTVSPropertyOp37
 70
     1
102
RTVSPropertyOp38
 70
     1
102
RTVSPropertyOp39
 70
     1
102
RTVSPropertyOp40
 70
     1
102
RTVSPropertyOp41
 70
     1
102
RTVSPropertyOp42
 70
     1
102
RTVSPropertyOp43
 70
     1
102
RTVSPropertyOp44
 70
     1
102
RTVSPropertyOp45
 70
     1
102
RTVSPropertyOp46
 70
     1
102
RTVSPropertyOp47
 70
     1
102
RTVSPropertyOp48
 70
     1
102
RTVSPropertyOp49
 70
     1
102
RTVSPropertyOp50
 70
     1
102
RTVSPropertyOp51
 70
     0
102
RTVSPropertyOp52
 70
     0
102
RTVSPropertyOp53
 70
     1
102
RTVSPropertyOp54
 70
     1
102
RTVSPropertyOp55
 70
     1
102
RTVSPropertyOp56
 70
     1
102
RTVSPropertyOp57
 70
     1
102
RTVSPost2010Prop28
280
     0
102
RTVSPost2010PropOp28
 70
     1
102
RTVSPost2010Prop29
280
     1
102
RTVSPost2010PropOp29
 70
     1
102
RTVSPost2010Prop30
280
     1
102
RTVSPost2010PropOp30
 70
     1
102
RTVSPost2010Prop31
280
     0
102
RTVSPost2010PropOp31
 70
     1
102
RTVSPost2010Prop32
280
     0
102
RTVSPost2010PropOp32
 70
     1
102
RTVSPost2010Prop33
280
     0
102
RTVSPost2010PropOp33
 70
     1
102
RTVSPost2010Prop34
280
     0
102
RTVSPost2010PropOp34
 70
     1
102
RTVSPost2010Prop35
280
     0
102
RTVSPost2010PropOp35
 70
     1
102
RTVSPost2010Prop36
280
     0
102
RTVSPost2010PropOp36
 70
     1
102
RTVSPost2010Prop37
 90
       50
102
RTVSPost2010PropOp37
 70
     1
102
RTVSPost2010Prop38
140
0.0
102
RTVSPost2010PropOp38
 70
     1
102
RTVSPost2010Prop39
140
1.0
102
RTVSPost2010PropOp39
 70
     1
102
RTVSPost2010Prop40
 90
        0
102
RTVSPost2010PropOp40
 70
     1
102
RTVSPost2010Prop41ColorIndex
 90
       18
102
RTVSPost2010Prop41ColorRGB
 90
        0
102
RTVSPost2010PropOp41
 70
     1
102
RTVSPost2010Prop42
 90
       50
102
RTVSPost2010PropOp42
 70
     1
102
RTVSPost2010Prop43
 90
        3
102
RTVSPost2010PropOp43
 70
     1
102
RTVSPost2010Prop44ColorIndex
 90
        5
102
RTVSPost2010Prop44ColorRGB
 90
      255
102
RTVSPost2010PropOp44
 70
     1
102
RTVSPost2010Prop45
280
     0
102
RTVSPost2010PropOp45
 70
     1
102
RTVSPost2010Prop46
 90
       50
102
RTVSPost2010PropOp46
 70
     1
102
RTVSPost2010Prop47
 90
       50
102
RTVSPost2010PropOp47
 70
     1
102
RTVSPost2010Prop48
 90
       50
102
RTVSPost2010PropOp48
 70
     1
102
RTVSPost2010Prop49
280
     0
102
RTVSPost2010PropOp49
 70
     1
102
RTVSPost2010Prop50
 90
       50
102
RTVSPost2010PropOp50
 70
     1
102
RTVSPost2010Prop51ColorIndex
 90
      256
102
RTVSPost2010Prop51ColorRGB
 90
-16777216
102
RTVSPost2010PropOp51
 70
     0
102
RTVSPost2010Prop52
140
1.0
102
RTVSPost2010PropOp52
 70
     0
102
RTVSPost2010Prop53
 90
        2
102
RTVSPost2010PropOp53
 70
     1
102
RTVSPost2010Prop54
  1
strokes_ogs.tif
102
RTVSPost2010PropOp54
 70
     1
102
RTVSPost2010Prop55
280
     0
102
RTVSPost2010PropOp55
 70
     1
102
RTVSPost2010Prop56
140
1.0
102
RTVSPost2010PropOp56
 70
     1
102
RTVSPost2010Prop57
140
1.0
102
RTVSPost2010PropOp57
 70
     1
  0
XRECORD
  5
50F
102
{ACAD_REACTORS
330
50E
102
}
330
50E
100
AcDbXrecord
280
     1
102
RTVSPropertyOp0
 70
     1
102
RTVSPropertyOp1
 70
     1
102
RTVSPropertyOp2
 70
     1
102
RTVSPropertyOp3
 70
     1
102
RTVSPropertyOp4
 70
     1
102
RTVSPropertyOp5
 70
     1
102
RTVSPropertyOp6
 70
     1
102
RTVSPropertyOp7
 70
     1
102
RTVSPropertyOp8
 70
     1
102
RTVSPropertyOp9
 70
     1
102
RTVSPropertyOp10
 70
     1
102
RTVSPropertyOp11
 70
     1
102
RTVSPropertyOp12
 70
     1
102
RTVSPropertyOp13
 70
     1
102
RTVSPropertyOp14
 70
     1
102
RTVSPropertyOp15
 70
     1
102
RTVSPropertyOp16
 70
     1
102
RTVSPropertyOp17
 70
     1
102
RTVSPropertyOp18
 70
     1
102
RTVSPropertyOp19
 70
     1
102
RTVSPropertyOp20
 70
     1
102
RTVSPropertyOp21
 70
     1
102
RTVSPropertyOp22
 70
     1
102
RTVSPropertyOp23
 70
     1
102
RTVSPropertyOp24
 70
     1
102
RTVSPropertyOp25
 70
     1
102
RTVSPropertyOp26
 70
     1
102
RTVSPropertyOp27
 70
     1
102
RTVSPropertyOp28
 70
     1
102
RTVSPropertyOp29
 70
     1
102
RTVSPropertyOp30
 70
     1
102
RTVSPropertyOp31
 70
     1
102
RTVSPropertyOp32
 70
     1
102
RTVSPropertyOp33
 70
     1
102
RTVSPropertyOp34
 70
     1
102
RTVSPropertyOp35
 70
     1
102
RTVSPropertyOp36
 70
     1
102
RTVSPropertyOp37
 70
     1
102
RTVSPropertyOp38
 70
     1
102
RTVSPropertyOp39
 70
     1
102
RTVSPropertyOp40
 70
     1
102
RTVSPropertyOp41
 70
     1
102
RTVSPropertyOp42
 70
     1
102
RTVSPropertyOp43
 70
     1
102
RTVSPropertyOp44
 70
     1
102
RTVSPropertyOp45
 70
     1
102
RTVSPropertyOp46
 70
     1
102
RTVSPropertyOp47
 70
     1
102
RTVSPropertyOp48
 70
     1
102
RTVSPropertyOp49
 70
     1
102
RTVSPropertyOp50
 70
     1
102
RTVSPropertyOp51
 70
     0
102
RTVSPropertyOp52
 70
     0
102
RTVSPropertyOp53
 70
     1
102
RTVSPropertyOp54
 70
     1
102
RTVSPropertyOp55
 70
     1
102
RTVSPropertyOp56
 70
     1
102
RTVSPropertyOp57
 70
     1
102
RTVSPost2010Prop28
280
     0
102
RTVSPost2010PropOp28
 70
     1
102
RTVSPost2010Prop29
280
     1
102
RTVSPost2010PropOp29
 70
     1
102
RTVSPost2010Prop30
280
     1
102
RTVSPost2010PropOp30
 70
     1
102
RTVSPost2010Prop31
280
     0
102
RTVSPost2010PropOp31
 70
     1
102
RTVSPost2010Prop32
280
     0
102
RTVSPost2010PropOp32
 70
     1
102
RTVSPost2010Prop33
280
     0
102
RTVSPost2010PropOp33
 70
     1
102
RTVSPost2010Prop34
280
     0
102
RTVSPost2010PropOp34
 70
     1
102
RTVSPost2010Prop35
280
     0
102
RTVSPost2010PropOp35
 70
     1
102
RTVSPost2010Prop36
280
     0
102
RTVSPost2010PropOp36
 70
     1
102
RTVSPost2010Prop37
 90
       50
102
RTVSPost2010PropOp37
 70
     1
102
RTVSPost2010Prop38
140
0.0
102
RTVSPost2010PropOp38
 70
     1
102
RTVSPost2010Prop39
140
1.0
102
RTVSPost2010PropOp39
 70
     1
102
RTVSPost2010Prop40
 90
        0
102
RTVSPost2010PropOp40
 70
     1
102
RTVSPost2010Prop41ColorIndex
 90
       18
102
RTVSPost2010Prop41ColorRGB
 90
        0
102
RTVSPost2010PropOp41
 70
     1
102
RTVSPost2010Prop42
 90
       50
102
RTVSPost2010PropOp42
 70
     1
102
RTVSPost2010Prop43
 90
        3
102
RTVSPost2010PropOp43
 70
     1
102
RTVSPost2010Prop44ColorIndex
 90
        5
102
RTVSPost2010Prop44ColorRGB
 90
      255
102
RTVSPost2010PropOp44
 70
     1
102
RTVSPost2010Prop45
280
     0
102
RTVSPost2010PropOp45
 70
     1
102
RTVSPost2010Prop46
 90
       50
102
RTVSPost2010PropOp46
 70
     1
102
RTVSPost2010Prop47
 90
       50
102
RTVSPost2010PropOp47
 70
     1
102
RTVSPost2010Prop48
 90
       50
102
RTVSPost2010PropOp48
 70
     1
102
RTVSPost2010Prop49
280
     0
102
RTVSPost2010PropOp49
 70
     1
102
RTVSPost2010Prop50
 90
       50
102
RTVSPost2010PropOp50
 70
     1
102
RTVSPost2010Prop51ColorIndex
 90
      256
102
RTVSPost2010Prop51ColorRGB
 90
-16777216
102
RTVSPost2010PropOp51
 70
     0
102
RTVSPost2010Prop52
140
1.0
102
RTVSPost2010PropOp52
 70
     0
102
RTVSPost2010Prop53
 90
        2
102
RTVSPost2010PropOp53
 70
     1
102
RTVSPost2010Prop54
  1
strokes_ogs.tif
102
RTVSPost2010PropOp54
 70
     1
102
RTVSPost2010Prop55
280
     0
102
RTVSPost2010PropOp55
 70
     1
102
RTVSPost2010Prop56
140
1.0
102
RTVSPost2010PropOp56
 70
     1
102
RTVSPost2010Prop57
140
1.0
102
RTVSPost2010PropOp57
 70
     1
  0
XRECORD
  5
509
102
{ACAD_REACTORS
330
508
102
}
330
508
100
AcDbXrecord
280
     1
102
RTVSPropertyOp0
 70
     1
102
RTVSPropertyOp1
 70
     1
102
RTVSPropertyOp2
 70
     1
102
RTVSPropertyOp3
 70
     1
102
RTVSPropertyOp4
 70
     1
102
RTVSPropertyOp5
 70
     1
102
RTVSPropertyOp6
 70
     1
102
RTVSPropertyOp7
 70
     1
102
RTVSPropertyOp8
 70
     1
102
RTVSPropertyOp9
 70
     1
102
RTVSPropertyOp10
 70
     1
102
RTVSPropertyOp11
 70
     1
102
RTVSPropertyOp12
 70
     1
102
RTVSPropertyOp13
 70
     1
102
RTVSPropertyOp14
 70
     1
102
RTVSPropertyOp15
 70
     1
102
RTVSPropertyOp16
 70
     1
102
RTVSPropertyOp17
 70
     1
102
RTVSPropertyOp18
 70
     1
102
RTVSPropertyOp19
 70
     1
102
RTVSPropertyOp20
 70
     1
102
RTVSPropertyOp21
 70
     1
102
RTVSPropertyOp22
 70
     1
102
RTVSPropertyOp23
 70
     1
102
RTVSPropertyOp24
 70
     1
102
RTVSPropertyOp25
 70
     1
102
RTVSPropertyOp26
 70
     1
102
RTVSPropertyOp27
 70
     1
102
RTVSPropertyOp28
 70
     1
102
RTVSPropertyOp29
 70
     1
102
RTVSPropertyOp30
 70
     1
102
RTVSPropertyOp31
 70
     1
102
RTVSPropertyOp32
 70
     1
102
RTVSPropertyOp33
 70
     1
102
RTVSPropertyOp34
 70
     1
102
RTVSPropertyOp35
 70
     1
102
RTVSPropertyOp36
 70
     1
102
RTVSPropertyOp37
 70
     1
102
RTVSPropertyOp38
 70
     1
102
RTVSPropertyOp39
 70
     1
102
RTVSPropertyOp40
 70
     1
102
RTVSPropertyOp41
 70
     1
102
RTVSPropertyOp42
 70
     1
102
RTVSPropertyOp43
 70
     1
102
RTVSPropertyOp44
 70
     1
102
RTVSPropertyOp45
 70
     1
102
RTVSPropertyOp46
 70
     1
102
RTVSPropertyOp47
 70
     1
102
RTVSPropertyOp48
 70
     1
102
RTVSPropertyOp49
 70
     1
102
RTVSPropertyOp50
 70
     1
102
RTVSPropertyOp51
 70
     0
102
RTVSPropertyOp52
 70
     0
102
RTVSPropertyOp53
 70
     1
102
RTVSPropertyOp54
 70
     1
102
RTVSPropertyOp55
 70
     1
102
RTVSPropertyOp56
 70
     1
102
RTVSPropertyOp57
 70
     1
102
RTVSPost2010Prop28
280
     0
102
RTVSPost2010PropOp28
 70
     1
102
RTVSPost2010Prop29
280
     1
102
RTVSPost2010PropOp29
 70
     1
102
RTVSPost2010Prop30
280
     1
102
RTVSPost2010PropOp30
 70
     1
102
RTVSPost2010Prop31
280
     0
102
RTVSPost2010PropOp31
 70
     1
102
RTVSPost2010Prop32
280
     0
102
RTVSPost2010PropOp32
 70
     1
102
RTVSPost2010Prop33
280
     0
102
RTVSPost2010PropOp33
 70
     1
102
RTVSPost2010Prop34
280
     0
102
RTVSPost2010PropOp34
 70
     1
102
RTVSPost2010Prop35
280
     0
102
RTVSPost2010PropOp35
 70
     1
102
RTVSPost2010Prop36
280
     0
102
RTVSPost2010PropOp36
 70
     1
102
RTVSPost2010Prop37
 90
       50
102
RTVSPost2010PropOp37
 70
     1
102
RTVSPost2010Prop38
140
0.0
102
RTVSPost2010PropOp38
 70
     1
102
RTVSPost2010Prop39
140
1.0
102
RTVSPost2010PropOp39
 70
     1
102
RTVSPost2010Prop40
 90
        0
102
RTVSPost2010PropOp40
 70
     1
102
RTVSPost2010Prop41ColorIndex
 90
       18
102
RTVSPost2010Prop41ColorRGB
 90
        0
102
RTVSPost2010PropOp41
 70
     1
102
RTVSPost2010Prop42
 90
       50
102
RTVSPost2010PropOp42
 70
     1
102
RTVSPost2010Prop43
 90
        3
102
RTVSPost2010PropOp43
 70
     1
102
RTVSPost2010Prop44ColorIndex
 90
        5
102
RTVSPost2010Prop44ColorRGB
 90
      255
102
RTVSPost2010PropOp44
 70
     1
102
RTVSPost2010Prop45
280
     0
102
RTVSPost2010PropOp45
 70
     1
102
RTVSPost2010Prop46
 90
       50
102
RTVSPost2010PropOp46
 70
     1
102
RTVSPost2010Prop47
 90
       50
102
RTVSPost2010PropOp47
 70
     1
102
RTVSPost2010Prop48
 90
       50
102
RTVSPost2010PropOp48
 70
     1
102
RTVSPost2010Prop49
280
     0
102
RTVSPost2010PropOp49
 70
     1
102
RTVSPost2010Prop50
 90
       50
102
RTVSPost2010PropOp50
 70
     1
102
RTVSPost2010Prop51ColorIndex
 90
      256
102
RTVSPost2010Prop51ColorRGB
 90
-16777216
102
RTVSPost2010PropOp51
 70
     0
102
RTVSPost2010Prop52
140
1.0
102
RTVSPost2010PropOp52
 70
     0
102
RTVSPost2010Prop53
 90
        2
102
RTVSPost2010PropOp53
 70
     1
102
RTVSPost2010Prop54
  1
strokes_ogs.tif
102
RTVSPost2010PropOp54
 70
     1
102
RTVSPost2010Prop55
280
     0
102
RTVSPost2010PropOp55
 70
     1
102
RTVSPost2010Prop56
140
1.0
102
RTVSPost2010PropOp56
 70
     1
102
RTVSPost2010Prop57
140
1.0
102
RTVSPost2010PropOp57
 70
     1
  0
XRECORD
  5
50B
102
{ACAD_REACTORS
330
50A
102
}
330
50A
100
AcDbXrecord
280
     1
102
RTVSPropertyOp0
 70
     1
102
RTVSPropertyOp1
 70
     1
102
RTVSPropertyOp2
 70
     1
102
RTVSPropertyOp3
 70
     1
102
RTVSPropertyOp4
 70
     1
102
RTVSPropertyOp5
 70
     1
102
RTVSPropertyOp6
 70
     1
102
RTVSPropertyOp7
 70
     1
102
RTVSPropertyOp8
 70
     1
102
RTVSPropertyOp9
 70
     1
102
RTVSPropertyOp10
 70
     1
102
RTVSPropertyOp11
 70
     1
102
RTVSPropertyOp12
 70
     1
102
RTVSPropertyOp13
 70
     1
102
RTVSPropertyOp14
 70
     1
102
RTVSPropertyOp15
 70
     1
102
RTVSPropertyOp16
 70
     1
102
RTVSPropertyOp17
 70
     1
102
RTVSPropertyOp18
 70
     1
102
RTVSPropertyOp19
 70
     1
102
RTVSPropertyOp20
 70
     1
102
RTVSPropertyOp21
 70
     1
102
RTVSPropertyOp22
 70
     1
102
RTVSPropertyOp23
 70
     1
102
RTVSPropertyOp24
 70
     1
102
RTVSPropertyOp25
 70
     1
102
RTVSPropertyOp26
 70
     1
102
RTVSPropertyOp27
 70
     1
102
RTVSPropertyOp28
 70
     1
102
RTVSPropertyOp29
 70
     1
102
RTVSPropertyOp30
 70
     1
102
RTVSPropertyOp31
 70
     1
102
RTVSPropertyOp32
 70
     1
102
RTVSPropertyOp33
 70
     1
102
RTVSPropertyOp34
 70
     1
102
RTVSPropertyOp35
 70
     1
102
RTVSPropertyOp36
 70
     1
102
RTVSPropertyOp37
 70
     1
102
RTVSPropertyOp38
 70
     1
102
RTVSPropertyOp39
 70
     1
102
RTVSPropertyOp40
 70
     1
102
RTVSPropertyOp41
 70
     1
102
RTVSPropertyOp42
 70
     1
102
RTVSPropertyOp43
 70
     1
102
RTVSPropertyOp44
 70
     1
102
RTVSPropertyOp45
 70
     1
102
RTVSPropertyOp46
 70
     1
102
RTVSPropertyOp47
 70
     1
102
RTVSPropertyOp48
 70
     1
102
RTVSPropertyOp49
 70
     1
102
RTVSPropertyOp50
 70
     1
102
RTVSPropertyOp51
 70
     0
102
RTVSPropertyOp52
 70
     0
102
RTVSPropertyOp53
 70
     1
102
RTVSPropertyOp54
 70
     1
102
RTVSPropertyOp55
 70
     1
102
RTVSPropertyOp56
 70
     1
102
RTVSPropertyOp57
 70
     1
102
RTVSPost2010Prop28
280
     0
102
RTVSPost2010PropOp28
 70
     1
102
RTVSPost2010Prop29
280
     1
102
RTVSPost2010PropOp29
 70
     1
102
RTVSPost2010Prop30
280
     1
102
RTVSPost2010PropOp30
 70
     1
102
RTVSPost2010Prop31
280
     0
102
RTVSPost2010PropOp31
 70
     1
102
RTVSPost2010Prop32
280
     0
102
RTVSPost2010PropOp32
 70
     1
102
RTVSPost2010Prop33
280
     0
102
RTVSPost2010PropOp33
 70
     1
102
RTVSPost2010Prop34
280
     0
102
RTVSPost2010PropOp34
 70
     1
102
RTVSPost2010Prop35
280
     0
102
RTVSPost2010PropOp35
 70
     1
102
RTVSPost2010Prop36
280
     0
102
RTVSPost2010PropOp36
 70
     1
102
RTVSPost2010Prop37
 90
       50
102
RTVSPost2010PropOp37
 70
     1
102
RTVSPost2010Prop38
140
0.0
102
RTVSPost2010PropOp38
 70
     1
102
RTVSPost2010Prop39
140
1.0
102
RTVSPost2010PropOp39
 70
     1
102
RTVSPost2010Prop40
 90
        0
102
RTVSPost2010PropOp40
 70
     1
102
RTVSPost2010Prop41ColorIndex
 90
       18
102
RTVSPost2010Prop41ColorRGB
 90
        0
102
RTVSPost2010PropOp41
 70
     1
102
RTVSPost2010Prop42
 90
       50
102
RTVSPost2010PropOp42
 70
     1
102
RTVSPost2010Prop43
 90
        3
102
RTVSPost2010PropOp43
 70
     1
102
RTVSPost2010Prop44ColorIndex
 90
        5
102
RTVSPost2010Prop44ColorRGB
 90
      255
102
RTVSPost2010PropOp44
 70
     1
102
RTVSPost2010Prop45
280
     0
102
RTVSPost2010PropOp45
 70
     1
102
RTVSPost2010Prop46
 90
       50
102
RTVSPost2010PropOp46
 70
     1
102
RTVSPost2010Prop47
 90
       50
102
RTVSPost2010PropOp47
 70
     1
102
RTVSPost2010Prop48
 90
       50
102
RTVSPost2010PropOp48
 70
     1
102
RTVSPost2010Prop49
280
     0
102
RTVSPost2010PropOp49
 70
     1
102
RTVSPost2010Prop50
 90
       50
102
RTVSPost2010PropOp50
 70
     1
102
RTVSPost2010Prop51ColorIndex
 90
      256
102
RTVSPost2010Prop51ColorRGB
 90
-16777216
102
RTVSPost2010PropOp51
 70
     0
102
RTVSPost2010Prop52
140
1.0
102
RTVSPost2010PropOp52
 70
     0
102
RTVSPost2010Prop53
 90
        2
102
RTVSPost2010PropOp53
 70
     1
102
RTVSPost2010Prop54
  1
strokes_ogs.tif
102
RTVSPost2010PropOp54
 70
     1
102
RTVSPost2010Prop55
280
     0
102
RTVSPost2010PropOp55
 70
     1
102
RTVSPost2010Prop56
140
1.0
102
RTVSPost2010PropOp56
 70
     1
102
RTVSPost2010Prop57
140
1.0
102
RTVSPost2010PropOp57
 70
     1
  0
XRECORD
  5
4FB
102
{ACAD_REACTORS
330
4FA
102
}
330
4FA
100
AcDbXrecord
280
     1
102
RTVSPropertyOp0
 70
     1
102
RTVSPropertyOp1
 70
     1
102
RTVSPropertyOp2
 70
     1
102
RTVSPropertyOp3
 70
     1
102
RTVSPropertyOp4
 70
     1
102
RTVSPropertyOp5
 70
     1
102
RTVSPropertyOp6
 70
     1
102
RTVSPropertyOp7
 70
     1
102
RTVSPropertyOp8
 70
     1
102
RTVSPropertyOp9
 70
     1
102
RTVSPropertyOp10
 70
     1
102
RTVSPropertyOp11
 70
     1
102
RTVSPropertyOp12
 70
     1
102
RTVSPropertyOp13
 70
     1
102
RTVSPropertyOp14
 70
     1
102
RTVSPropertyOp15
 70
     1
102
RTVSPropertyOp16
 70
     1
102
RTVSPropertyOp17
 70
     1
102
RTVSPropertyOp18
 70
     1
102
RTVSPropertyOp19
 70
     1
102
RTVSPropertyOp20
 70
     1
102
RTVSPropertyOp21
 70
     1
102
RTVSPropertyOp22
 70
     1
102
RTVSPropertyOp23
 70
     1
102
RTVSPropertyOp24
 70
     1
102
RTVSPropertyOp25
 70
     1
102
RTVSPropertyOp26
 70
     1
102
RTVSPropertyOp27
 70
     1
102
RTVSPropertyOp28
 70
     1
102
RTVSPropertyOp29
 70
     1
102
RTVSPropertyOp30
 70
     1
102
RTVSPropertyOp31
 70
     1
102
RTVSPropertyOp32
 70
     1
102
RTVSPropertyOp33
 70
     1
102
RTVSPropertyOp34
 70
     1
102
RTVSPropertyOp35
 70
     1
102
RTVSPropertyOp36
 70
     1
102
RTVSPropertyOp37
 70
     1
102
RTVSPropertyOp38
 70
     1
102
RTVSPropertyOp39
 70
     1
102
RTVSPropertyOp40
 70
     1
102
RTVSPropertyOp41
 70
     1
102
RTVSPropertyOp42
 70
     1
102
RTVSPropertyOp43
 70
     1
102
RTVSPropertyOp44
 70
     1
102
RTVSPropertyOp45
 70
     1
102
RTVSPropertyOp46
 70
     1
102
RTVSPropertyOp47
 70
     1
102
RTVSPropertyOp48
 70
     1
102
RTVSPropertyOp49
 70
     1
102
RTVSPropertyOp50
 70
     1
102
RTVSPropertyOp51
 70
     0
102
RTVSPropertyOp52
 70
     0
102
RTVSPropertyOp53
 70
     1
102
RTVSPropertyOp54
 70
     1
102
RTVSPropertyOp55
 70
     1
102
RTVSPropertyOp56
 70
     1
102
RTVSPropertyOp57
 70
     1
102
RTVSPost2010Prop28
280
     0
102
RTVSPost2010PropOp28
 70
     1
102
RTVSPost2010Prop29
280
     1
102
RTVSPost2010PropOp29
 70
     1
102
RTVSPost2010Prop30
280
     1
102
RTVSPost2010PropOp30
 70
     1
102
RTVSPost2010Prop31
280
     0
102
RTVSPost2010PropOp31
 70
     1
102
RTVSPost2010Prop32
280
     0
102
RTVSPost2010PropOp32
 70
     1
102
RTVSPost2010Prop33
280
     0
102
RTVSPost2010PropOp33
 70
     1
102
RTVSPost2010Prop34
280
     0
102
RTVSPost2010PropOp34
 70
     1
102
RTVSPost2010Prop35
280
     0
102
RTVSPost2010PropOp35
 70
     1
102
RTVSPost2010Prop36
280
     0
102
RTVSPost2010PropOp36
 70
     1
102
RTVSPost2010Prop37
 90
       50
102
RTVSPost2010PropOp37
 70
     1
102
RTVSPost2010Prop38
140
0.0
102
RTVSPost2010PropOp38
 70
     1
102
RTVSPost2010Prop39
140
1.0
102
RTVSPost2010PropOp39
 70
     1
102
RTVSPost2010Prop40
 90
        0
102
RTVSPost2010PropOp40
 70
     1
102
RTVSPost2010Prop41ColorIndex
 90
       18
102
RTVSPost2010Prop41ColorRGB
 90
        0
102
RTVSPost2010PropOp41
 70
     1
102
RTVSPost2010Prop42
 90
       50
102
RTVSPost2010PropOp42
 70
     1
102
RTVSPost2010Prop43
 90
        3
102
RTVSPost2010PropOp43
 70
     1
102
RTVSPost2010Prop44ColorIndex
 90
        5
102
RTVSPost2010Prop44ColorRGB
 90
      255
102
RTVSPost2010PropOp44
 70
     1
102
RTVSPost2010Prop45
280
     0
102
RTVSPost2010PropOp45
 70
     1
102
RTVSPost2010Prop46
 90
       50
102
RTVSPost2010PropOp46
 70
     1
102
RTVSPost2010Prop47
 90
       50
102
RTVSPost2010PropOp47
 70
     1
102
RTVSPost2010Prop48
 90
       50
102
RTVSPost2010PropOp48
 70
     1
102
RTVSPost2010Prop49
280
     0
102
RTVSPost2010PropOp49
 70
     1
102
RTVSPost2010Prop50
 90
       50
102
RTVSPost2010PropOp50
 70
     1
102
RTVSPost2010Prop51ColorIndex
 90
      256
102
RTVSPost2010Prop51ColorRGB
 90
-16777216
102
RTVSPost2010PropOp51
 70
     0
102
RTVSPost2010Prop52
140
1.0
102
RTVSPost2010PropOp52
 70
     0
102
RTVSPost2010Prop53
 90
        2
102
RTVSPost2010PropOp53
 70
     1
102
RTVSPost2010Prop54
  1
strokes_ogs.tif
102
RTVSPost2010PropOp54
 70
     1
102
RTVSPost2010Prop55
280
     0
102
RTVSPost2010PropOp55
 70
     1
102
RTVSPost2010Prop56
140
1.0
102
RTVSPost2010PropOp56
 70
     1
102
RTVSPost2010Prop57
140
1.0
102
RTVSPost2010PropOp57
 70
     1
  0
XRECORD
  5
4ED
102
{ACAD_REACTORS
330
4EC
102
}
330
4EC
100
AcDbXrecord
280
     1
102
RTVSPropertyOp0
 70
     1
102
RTVSPropertyOp1
 70
     1
102
RTVSPropertyOp2
 70
     1
102
RTVSPropertyOp3
 70
     1
102
RTVSPropertyOp4
 70
     1
102
RTVSPropertyOp5
 70
     1
102
RTVSPropertyOp6
 70
     1
102
RTVSPropertyOp7
 70
     1
102
RTVSPropertyOp8
 70
     1
102
RTVSPropertyOp9
 70
     1
102
RTVSPropertyOp10
 70
     1
102
RTVSPropertyOp11
 70
     1
102
RTVSPropertyOp12
 70
     1
102
RTVSPropertyOp13
 70
     1
102
RTVSPropertyOp14
 70
     1
102
RTVSPropertyOp15
 70
     1
102
RTVSPropertyOp16
 70
     1
102
RTVSPropertyOp17
 70
     1
102
RTVSPropertyOp18
 70
     1
102
RTVSPropertyOp19
 70
     1
102
RTVSPropertyOp20
 70
     1
102
RTVSPropertyOp21
 70
     1
102
RTVSPropertyOp22
 70
     1
102
RTVSPropertyOp23
 70
     1
102
RTVSPropertyOp24
 70
     1
102
RTVSPropertyOp25
 70
     1
102
RTVSPropertyOp26
 70
     1
102
RTVSPropertyOp27
 70
     1
102
RTVSPropertyOp28
 70
     1
102
RTVSPropertyOp29
 70
     1
102
RTVSPropertyOp30
 70
     1
102
RTVSPropertyOp31
 70
     1
102
RTVSPropertyOp32
 70
     1
102
RTVSPropertyOp33
 70
     1
102
RTVSPropertyOp34
 70
     1
102
RTVSPropertyOp35
 70
     1
102
RTVSPropertyOp36
 70
     1
102
RTVSPropertyOp37
 70
     1
102
RTVSPropertyOp38
 70
     1
102
RTVSPropertyOp39
 70
     1
102
RTVSPropertyOp40
 70
     1
102
RTVSPropertyOp41
 70
     1
102
RTVSPropertyOp42
 70
     1
102
RTVSPropertyOp43
 70
     1
102
RTVSPropertyOp44
 70
     1
102
RTVSPropertyOp45
 70
     1
102
RTVSPropertyOp46
 70
     1
102
RTVSPropertyOp47
 70
     1
102
RTVSPropertyOp48
 70
     1
102
RTVSPropertyOp49
 70
     1
102
RTVSPropertyOp50
 70
     1
102
RTVSPropertyOp51
 70
     0
102
RTVSPropertyOp52
 70
     0
102
RTVSPropertyOp53
 70
     1
102
RTVSPropertyOp54
 70
     1
102
RTVSPropertyOp55
 70
     1
102
RTVSPropertyOp56
 70
     1
102
RTVSPropertyOp57
 70
     1
102
RTVSPost2010Prop28
280
     0
102
RTVSPost2010PropOp28
 70
     1
102
RTVSPost2010Prop29
280
     1
102
RTVSPost2010PropOp29
 70
     1
102
RTVSPost2010Prop30
280
     1
102
RTVSPost2010PropOp30
 70
     1
102
RTVSPost2010Prop31
280
     0
102
RTVSPost2010PropOp31
 70
     1
102
RTVSPost2010Prop32
280
     0
102
RTVSPost2010PropOp32
 70
     1
102
RTVSPost2010Prop33
280
     0
102
RTVSPost2010PropOp33
 70
     1
102
RTVSPost2010Prop34
280
     0
102
RTVSPost2010PropOp34
 70
     1
102
RTVSPost2010Prop35
280
     0
102
RTVSPost2010PropOp35
 70
     1
102
RTVSPost2010Prop36
280
     0
102
RTVSPost2010PropOp36
 70
     1
102
RTVSPost2010Prop37
 90
       50
102
RTVSPost2010PropOp37
 70
     1
102
RTVSPost2010Prop38
140
0.0
102
RTVSPost2010PropOp38
 70
     1
102
RTVSPost2010Prop39
140
1.0
102
RTVSPost2010PropOp39
 70
     1
102
RTVSPost2010Prop40
 90
        0
102
RTVSPost2010PropOp40
 70
     1
102
RTVSPost2010Prop41ColorIndex
 90
       18
102
RTVSPost2010Prop41ColorRGB
 90
        0
102
RTVSPost2010PropOp41
 70
     1
102
RTVSPost2010Prop42
 90
       50
102
RTVSPost2010PropOp42
 70
     1
102
RTVSPost2010Prop43
 90
        3
102
RTVSPost2010PropOp43
 70
     1
102
RTVSPost2010Prop44ColorIndex
 90
        5
102
RTVSPost2010Prop44ColorRGB
 90
      255
102
RTVSPost2010PropOp44
 70
     1
102
RTVSPost2010Prop45
280
     0
102
RTVSPost2010PropOp45
 70
     1
102
RTVSPost2010Prop46
 90
       50
102
RTVSPost2010PropOp46
 70
     1
102
RTVSPost2010Prop47
 90
       50
102
RTVSPost2010PropOp47
 70
     1
102
RTVSPost2010Prop48
 90
       50
102
RTVSPost2010PropOp48
 70
     1
102
RTVSPost2010Prop49
280
     0
102
RTVSPost2010PropOp49
 70
     1
102
RTVSPost2010Prop50
 90
       50
102
RTVSPost2010PropOp50
 70
     1
102
RTVSPost2010Prop51ColorIndex
 90
      256
102
RTVSPost2010Prop51ColorRGB
 90
-16777216
102
RTVSPost2010PropOp51
 70
     0
102
RTVSPost2010Prop52
140
1.0
102
RTVSPost2010PropOp52
 70
     0
102
RTVSPost2010Prop53
 90
        2
102
RTVSPost2010PropOp53
 70
     1
102
RTVSPost2010Prop54
  1
strokes_ogs.tif
102
RTVSPost2010PropOp54
 70
     1
102
RTVSPost2010Prop55
280
     0
102
RTVSPost2010PropOp55
 70
     1
102
RTVSPost2010Prop56
140
1.0
102
RTVSPost2010PropOp56
 70
     1
102
RTVSPost2010Prop57
140
1.0
102
RTVSPost2010PropOp57
 70
     1
  0
XRECORD
  5
50D
102
{ACAD_REACTORS
330
50C
102
}
330
50C
100
AcDbXrecord
280
     1
102
RTVSPropertyOp0
 70
     1
102
RTVSPropertyOp1
 70
     1
102
RTVSPropertyOp2
 70
     1
102
RTVSPropertyOp3
 70
     1
102
RTVSPropertyOp4
 70
     1
102
RTVSPropertyOp5
 70
     1
102
RTVSPropertyOp6
 70
     1
102
RTVSPropertyOp7
 70
     1
102
RTVSPropertyOp8
 70
     1
102
RTVSPropertyOp9
 70
     1
102
RTVSPropertyOp10
 70
     1
102
RTVSPropertyOp11
 70
     1
102
RTVSPropertyOp12
 70
     1
102
RTVSPropertyOp13
 70
     1
102
RTVSPropertyOp14
 70
     1
102
RTVSPropertyOp15
 70
     1
102
RTVSPropertyOp16
 70
     1
102
RTVSPropertyOp17
 70
     1
102
RTVSPropertyOp18
 70
     1
102
RTVSPropertyOp19
 70
     1
102
RTVSPropertyOp20
 70
     1
102
RTVSPropertyOp21
 70
     1
102
RTVSPropertyOp22
 70
     1
102
RTVSPropertyOp23
 70
     1
102
RTVSPropertyOp24
 70
     1
102
RTVSPropertyOp25
 70
     1
102
RTVSPropertyOp26
 70
     1
102
RTVSPropertyOp27
 70
     1
102
RTVSPropertyOp28
 70
     1
102
RTVSPropertyOp29
 70
     1
102
RTVSPropertyOp30
 70
     1
102
RTVSPropertyOp31
 70
     1
102
RTVSPropertyOp32
 70
     1
102
RTVSPropertyOp33
 70
     1
102
RTVSPropertyOp34
 70
     1
102
RTVSPropertyOp35
 70
     1
102
RTVSPropertyOp36
 70
     1
102
RTVSPropertyOp37
 70
     1
102
RTVSPropertyOp38
 70
     1
102
RTVSPropertyOp39
 70
     1
102
RTVSPropertyOp40
 70
     1
102
RTVSPropertyOp41
 70
     1
102
RTVSPropertyOp42
 70
     1
102
RTVSPropertyOp43
 70
     1
102
RTVSPropertyOp44
 70
     1
102
RTVSPropertyOp45
 70
     1
102
RTVSPropertyOp46
 70
     1
102
RTVSPropertyOp47
 70
     1
102
RTVSPropertyOp48
 70
     1
102
RTVSPropertyOp49
 70
     1
102
RTVSPropertyOp50
 70
     1
102
RTVSPropertyOp51
 70
     0
102
RTVSPropertyOp52
 70
     0
102
RTVSPropertyOp53
 70
     1
102
RTVSPropertyOp54
 70
     1
102
RTVSPropertyOp55
 70
     1
102
RTVSPropertyOp56
 70
     1
102
RTVSPropertyOp57
 70
     1
102
RTVSPost2010Prop28
280
     0
102
RTVSPost2010PropOp28
 70
     1
102
RTVSPost2010Prop29
280
     1
102
RTVSPost2010PropOp29
 70
     1
102
RTVSPost2010Prop30
280
     1
102
RTVSPost2010PropOp30
 70
     1
102
RTVSPost2010Prop31
280
     0
102
RTVSPost2010PropOp31
 70
     1
102
RTVSPost2010Prop32
280
     0
102
RTVSPost2010PropOp32
 70
     1
102
RTVSPost2010Prop33
280
     0
102
RTVSPost2010PropOp33
 70
     1
102
RTVSPost2010Prop34
280
     0
102
RTVSPost2010PropOp34
 70
     1
102
RTVSPost2010Prop35
280
     0
102
RTVSPost2010PropOp35
 70
     1
102
RTVSPost2010Prop36
280
     0
102
RTVSPost2010PropOp36
 70
     1
102
RTVSPost2010Prop37
 90
       50
102
RTVSPost2010PropOp37
 70
     1
102
RTVSPost2010Prop38
140
0.0
102
RTVSPost2010PropOp38
 70
     1
102
RTVSPost2010Prop39
140
1.0
102
RTVSPost2010PropOp39
 70
     1
102
RTVSPost2010Prop40
 90
        0
102
RTVSPost2010PropOp40
 70
     1
102
RTVSPost2010Prop41ColorIndex
 90
       18
102
RTVSPost2010Prop41ColorRGB
 90
        0
102
RTVSPost2010PropOp41
 70
     1
102
RTVSPost2010Prop42
 90
       50
102
RTVSPost2010PropOp42
 70
     1
102
RTVSPost2010Prop43
 90
        3
102
RTVSPost2010PropOp43
 70
     1
102
RTVSPost2010Prop44ColorIndex
 90
        5
102
RTVSPost2010Prop44ColorRGB
 90
      255
102
RTVSPost2010PropOp44
 70
     1
102
RTVSPost2010Prop45
280
     0
102
RTVSPost2010PropOp45
 70
     1
102
RTVSPost2010Prop46
 90
       50
102
RTVSPost2010PropOp46
 70
     1
102
RTVSPost2010Prop47
 90
       50
102
RTVSPost2010PropOp47
 70
     1
102
RTVSPost2010Prop48
 90
       50
102
RTVSPost2010PropOp48
 70
     1
102
RTVSPost2010Prop49
280
     0
102
RTVSPost2010PropOp49
 70
     1
102
RTVSPost2010Prop50
 90
       50
102
RTVSPost2010PropOp50
 70
     1
102
RTVSPost2010Prop51ColorIndex
 90
      256
102
RTVSPost2010Prop51ColorRGB
 90
-16777216
102
RTVSPost2010PropOp51
 70
     0
102
RTVSPost2010Prop52
140
1.0
102
RTVSPost2010PropOp52
 70
     0
102
RTVSPost2010Prop53
 90
        2
102
RTVSPost2010PropOp53
 70
     1
102
RTVSPost2010Prop54
  1
strokes_ogs.tif
102
RTVSPost2010PropOp54
 70
     1
102
RTVSPost2010Prop55
280
     0
102
RTVSPost2010PropOp55
 70
     1
102
RTVSPost2010Prop56
140
1.0
102
RTVSPost2010PropOp56
 70
     1
102
RTVSPost2010Prop57
140
1.0
102
RTVSPost2010PropOp57
 70
     1
  0
ENDSEC
  0
EOF
