  0
SECTION
  2
HEADER
  9
$ACADVER
  1
AC1015
  9
$ACADMAINTVER
 70
     6
  9
$DWGCODEPAGE
  3
ANSI_1252
  9
$INSBASE
 10
0.0
 20
0.0
 30
0.0
  9
$EXTMIN
 10
-0.5
 20
-0.5
 30
-0.5
  9
$EXTMAX
 10
5.0
 20
5.0
 30
5.0
  9
$LIMMIN
 10
-0.5
 20
-0.5
  9
$LIMMAX
 10
5.0
 20
5.0
  9
$ORTHOMODE
 70
     0
  9
$REGENMODE
 70
     1
  9
$FILLMODE
 70
     1
  9
$QTEXTMODE
 70
     0
  9
$MIRRTEXT
 70
     1
  9
$LTSCALE
 40
1.0
  9
$ATTMODE
 70
     1
  9
$TEXTSIZE
 40
0.2
  9
$TRACEWID
 40
0.05
  9
$TEXTSTYLE
  7
Standard
  9
$CLAYER
  8
0
  9
$CELTYPE
  6
ByLayer
  9
$CECOLOR
 62
   256
  9
$CELTSCALE
 40
1.0
  9
$DISPSILH
 70
     0
  9
$DIMSCALE
 40
1.0
  9
$DIMASZ
 40
0.18
  9
$DIMEXO
 40
0.0625
  9
$DIMDLI
 40
0.38
  9
$DIMRND
 40
0.0
  9
$DIMDLE
 40
0.0
  9
$DIMEXE
 40
0.18
  9
$DIMTP
 40
0.0
  9
$DIMTM
 40
0.0
  9
$DIMTXT
 40
0.18
  9
$DIMCEN
 40
0.09
  9
$DIMTSZ
 40
0.0
  9
$DIMTOL
 70
     0
  9
$DIMLIM
 70
     0
  9
$DIMTIH
 70
     1
  9
$DIMTOH
 70
     1
  9
$DIMSE1
 70
     0
  9
$DIMSE2
 70
     0
  9
$DIMTAD
 70
     0
  9
$DIMZIN
 70
     0
  9
$DIMBLK
  1

  9
$DIMASO
 70
     1
  9
$DIMSHO
 70
     1
  9
$DIMPOST
  1

  9
$DIMAPOST
  1

  9
$DIMALT
 70
     0
  9
$DIMALTD
 70
     2
  9
$DIMALTF
 40
25.4
  9
$DIMLFAC
 40
1.0
  9
$DIMTOFL
 70
     0
  9
$DIMTVP
 40
0.0
  9
$DIMTIX
 70
     0
  9
$DIMSOXD
 70
     0
  9
$DIMSAH
 70
     0
  9
$DIMBLK1
  1

  9
$DIMBLK2
  1

  9
$DIMSTYLE
  2
Standard
  9
$DIMCLRD
 70
     0
  9
$DIMCLRE
 70
     0
  9
$DIMCLRT
 70
     0
  9
$DIMTFAC
 40
1.0
  9
$DIMGAP
 40
0.09
  9
$DIMJUST
 70
     0
  9
$DIMSD1
 70
     0
  9
$DIMSD2
 70
     0
  9
$DIMTOLJ
 70
     1
  9
$DIMTZIN
 70
     0
  9
$DIMALTZ
 70
     0
  9
$DIMALTTZ
 70
     0
  9
$DIMUPT
 70
     0
  9
$DIMDEC
 70
     4
  9
$DIMTDEC
 70
     4
  9
$DIMALTU
 70
     2
  9
$DIMALTTD
 70
     2
  9
$DIMTXSTY
  7
Standard
  9
$DIMAUNIT
 70
     0
  9
$DIMADEC
 70
     0
  9
$DIMALTRND
 40
0.0
  9
$DIMAZIN
 70
     0
  9
$DIMDSEP
 70
    46
  9
$DIMATFIT
 70
     3
  9
$DIMFRAC
 70
     0
  9
$DIMLDRBLK
  1

  9
$DIMLUNIT
 70
     2
  9
$DIMLWD
 70
    -2
  9
$DIMLWE
 70
    -2
  9
$DIMTMOVE
 70
     0
  9
$LUNITS
 70
     2
  9
$LUPREC
 70
     4
  9
$SKETCHINC
 40
0.1
  9
$FILLETRAD
 40
0.5
  9
$AUNITS
 70
     0
  9
$AUPREC
 70
     0
  9
$MENU
  1
.
  9
$ELEVATION
 40
0.0
  9
$PELEVATION
 40
0.0
  9
$THICKNESS
 40
0.0
  9
$LIMCHECK
 70
     0
  9
$CHAMFERA
 40
0.0
  9
$CHAMFERB
 40
0.0
  9
$CHAMFERC
 40
0.0
  9
$CHAMFERD
 40
0.0
  9
$SKPOLY
 70
     0
  9
$TDCREATE
 40
2458621.467760671
  9
$TDUCREATE
 40
2458621.384427338
  9
$TDUPDATE
 40
2458621.46810912
  9
$TDUUPDATE
 40
2458621.384775787
  9
$TDINDWG
 40
0.0000000116
  9
$TDUSRTIMER
 40
0.0000000116
  9
$USRTIMER
 70
     1
  9
$ANGBASE
 50
0.0
  9
$ANGDIR
 70
     0
  9
$PDMODE
 70
     0
  9
$PDSIZE
 40
0.0
  9
$PLINEWID
 40
0.0
  9
$SPLFRAME
 70
     0
  9
$SPLINETYPE
 70
     6
  9
$SPLINESEGS
 70
     8
  9
$HANDSEED
  5
4A4
  9
$SURFTAB1
 70
     6
  9
$SURFTAB2
 70
     6
  9
$SURFTYPE
 70
     6
  9
$SURFU
 70
     6
  9
$SURFV
 70
     6
  9
$UCSBASE
  2

  9
$UCSNAME
  2

  9
$UCSORG
 10
0.0
 20
0.0
 30
0.0
  9
$UCSXDIR
 10
1.0
 20
0.0
 30
0.0
  9
$UCSYDIR
 10
0.0
 20
1.0
 30
0.0
  9
$UCSORTHOREF
  2

  9
$UCSORTHOVIEW
 70
     0
  9
$UCSORGTOP
 10
0.0
 20
0.0
 30
0.0
  9
$UCSORGBOTTOM
 10
0.0
 20
0.0
 30
0.0
  9
$UCSORGLEFT
 10
0.0
 20
0.0
 30
0.0
  9
$UCSORGRIGHT
 10
0.0
 20
0.0
 30
0.0
  9
$UCSORGFRONT
 10
0.0
 20
0.0
 30
0.0
  9
$UCSORGBACK
 10
0.0
 20
0.0
 30
0.0
  9
$PUCSBASE
  2

  9
$PUCSNAME
  2

  9
$PUCSORG
 10
0.0
 20
0.0
 30
0.0
  9
$PUCSXDIR
 10
1.0
 20
0.0
 30
0.0
  9
$PUCSYDIR
 10
0.0
 20
1.0
 30
0.0
  9
$PUCSORTHOREF
  2

  9
$PUCSORTHOVIEW
 70
     0
  9
$PUCSORGTOP
 10
0.0
 20
0.0
 30
0.0
  9
$PUCSORGBOTTOM
 10
0.0
 20
0.0
 30
0.0
  9
$PUCSORGLEFT
 10
0.0
 20
0.0
 30
0.0
  9
$PUCSORGRIGHT
 10
0.0
 20
0.0
 30
0.0
  9
$PUCSORGFRONT
 10
0.0
 20
0.0
 30
0.0
  9
$PUCSORGBACK
 10
0.0
 20
0.0
 30
0.0
  9
$USERI1
 70
     0
  9
$USERI2
 70
     0
  9
$USERI3
 70
     0
  9
$USERI4
 70
     0
  9
$USERI5
 70
     0
  9
$USERR1
 40
0.0
  9
$USERR2
 40
0.0
  9
$USERR3
 40
0.0
  9
$USERR4
 40
0.0
  9
$USERR5
 40
0.0
  9
$WORLDVIEW
 70
     1
  9
$SHADEDGE
 70
     3
  9
$SHADEDIF
 70
    70
  9
$TILEMODE
 70
     1
  9
$MAXACTVP
 70
    64
  9
$PINSBASE
 10
0.0
 20
0.0
 30
0.0
  9
$PLIMCHECK
 70
     0
  9
$PEXTMIN
 10
-0.5
 20
-0.5
 30
-0.5
  9
$PEXTMAX
 10
5.0
 20
5.0
 30
5.0
  9
$PLIMMIN
 10
-0.5
 20
-0.5
  9
$PLIMMAX
 10
5.0
 20
5.0
  9
$UNITMODE
 70
     0
  9
$VISRETAIN
 70
     1
  9
$PLINEGEN
 70
     0
  9
$PSLTSCALE
 70
     1
  9
$TREEDEPTH
 70
  3020
  9
$CMLSTYLE
  2
Standard
  9
$CMLJUST
 70
     0
  9
$CMLSCALE
 40
1.0
  9
$PROXYGRAPHICS
 70
     1
  9
$MEASUREMENT
 70
     1
  9
$CELWEIGHT
370
    13
  9
$ENDCAPS
280
     0
  9
$JOINSTYLE
280
     0
  9
$LWDISPLAY
290
     0
  9
$INSUNITS
 70
     4
  9
$HYPERLINKBASE
  1

  9
$STYLESHEET
  1

  9
$XEDIT
290
     1
  9
$CEPSNTYPE
380
     0
  9
$PSTYLEMODE
290
     1
  9
$FINGERPRINTGUID
  2
{6EC9ADBB-24FA-4796-BA8A-9DB1EB619CDB}
  9
$VERSIONGUID
  2
{FAEB1C32-E019-11D5-929B-00C0DF256EC4}
  9
$EXTNAMES
290
     1
  9
$PSVPSCALE
 40
0.0
  9
$OLESTARTUP
290
     0
  0
ENDSEC
  0
SECTION
  2
CLASSES
  0
CLASS
  1
ACDBDICTIONARYWDFLT
  2
AcDbDictionaryWithDefault
  3
ObjectDBX Classes
 90
        0
280
     0
281
     0
  0
CLASS
  1
VISUALSTYLE
  2
AcDbVisualStyle
  3
ObjectDBX Classes
 90
     4095
280
     0
281
     0
  0
CLASS
  1
MATERIAL
  2
AcDbMaterial
  3
ObjectDBX Classes
 90
     1153
280
     0
281
     0
  0
CLASS
  1
SCALE
  2
AcDbScale
  3
ObjectDBX Classes
 90
     1153
280
     0
281
     0
  0
CLASS
  1
SUN
  2
AcDbSun
  3
SCENEOE
 90
     1153
280
     0
281
     0
  0
CLASS
  1
DICTIONARYVAR
  2
AcDbDictionaryVar
  3
ObjectDBX Classes
 90
        0
280
     0
281
     0
  0
CLASS
  1
ACDBPLACEHOLDER
  2
AcDbPlaceHolder
  3
ObjectDBX Classes
 90
        0
280
     0
281
     0
  0
CLASS
  1
LAYOUT
  2
AcDbLayout
  3
ObjectDBX Classes
 90
        0
280
     0
281
     0
  0
ENDSEC
  0
SECTION
  2
TABLES
  0
TABLE
  2
VPORT
  5
8
330
0
100
AcDbSymbolTable
 70
    17
  0
VPORT
  5
29
330
8
100
AcDbSymbolTableRecord
100
AcDbViewportTableRecord
  2
DUMMY
 70
     0
 10
0.0
 20
0.0
 11
1.0
 21
1.0
 12
10.429907
 22
4.5
 13
0.0
 23
0.0
 14
0.5
 24
0.5
 15
0.5
 25
0.5
 16
0.0
 26
0.0
 36
1.0
 17
0.0
 27
0.0
 37
0.0
 40
9.0
 41
1.972973
 42
50.0
 43
0.0
 44
0.0
 50
0.0
 51
0.0
 71
     0
 72
   100
 73
     1
 74
     3
 75
     0
 76
     0
 77
     0
 78
     0
281
     0
 65
     1
110
0.0
120
0.0
130
0.0
111
1.0
121
0.0
131
0.0
112
0.0
122
1.0
132
0.0
 79
     0
146
0.0
  0
VPORT
  5
454
330
8
100
AcDbSymbolTableRecord
100
AcDbViewportTableRecord
  2
*ACTIVE
 70
     0
 10
0.0
 20
0.0
 11
1.0
 21
1.0
 12
8.921429
 22
17.200001
 13
0.0
 23
0.0
 14
0.5
 24
0.5
 15
0.5
 25
0.5
 16
0.0
 26
0.0
 36
1.0
 17
0.0
 27
0.0
 37
0.0
 40
229.922917
 41
0.077229
 42
50.0
 43
199.832439
 44
-199.832439
 50
0.0
 51
0.0
 71
     0
 72
   100
 73
     1
 74
     3
 75
     0
 76
     0
 77
     0
 78
     0
281
     0
 65
     1
110
0.0
120
0.0
130
0.0
111
1.0
121
0.0
131
0.0
112
0.0
122
1.0
132
0.0
 79
     0
146
0.0
  0
VPORT
  5
456
330
8
100
AcDbSymbolTableRecord
100
AcDbViewportTableRecord
  2
L1
 70
     0
 10
0.0
 20
0.0
 11
1.0
 21
1.0
 12
8.921429
 22
17.200001
 13
0.0
 23
0.0
 14
0.5
 24
0.5
 15
0.5
 25
0.5
 16
0.0
 26
0.0
 36
1.0
 17
0.0
 27
0.0
 37
0.0
 40
229.922917
 41
0.077229
 42
50.0
 43
199.832439
 44
-199.832439
 50
0.0
 51
0.0
 71
     0
 72
   100
 73
     1
 74
     3
 75
     0
 76
     0
 77
     0
 78
     0
281
     0
 65
     1
110
0.0
120
0.0
130
0.0
111
1.0
121
0.0
131
0.0
112
0.0
122
1.0
132
0.0
 79
     0
146
0.0
  0
VPORT
  5
457
330
8
100
AcDbSymbolTableRecord
100
AcDbViewportTableRecord
  2
L2
 70
     0
 10
0.0
 20
0.0
 11
0.5
 21
1.0
 12
0.0
 22
0.0
 13
0.0
 23
0.0
 14
0.5
 24
0.5
 15
0.5
 25
0.5
 16
0.0
 26
-1.0
 36
0.0
 17
0.0
 27
0.0
 37
0.0
 40
1482.243488
 41
0.01198
 42
50.0
 43
764.106154
 44
-764.106154
 50
0.0
 51
0.0
 71
     0
 72
   100
 73
     1
 74
     3
 75
     0
 76
     0
 77
     0
 78
     0
281
     0
 65
     1
110
0.0
120
0.0
130
0.0
111
1.0
121
0.0
131
0.0
112
0.0
122
1.0
132
0.0
 79
     0
146
0.0
  0
VPORT
  5
458
330
8
100
AcDbSymbolTableRecord
100
AcDbViewportTableRecord
  2
L2
 70
     0
 10
0.5
 20
0.0
 11
1.0
 21
1.0
 12
0.0
 22
0.0
 13
0.0
 23
0.0
 14
0.5
 24
0.5
 15
0.5
 25
0.5
 16
1.0
 26
0.0
 36
0.0
 17
0.0
 27
0.0
 37
0.0
 40
1482.243488
 41
0.01198
 42
50.0
 43
749.985051
 44
-749.985051
 50
0.0
 51
0.0
 71
     0
 72
   100
 73
     1
 74
     3
 75
     0
 76
     0
 77
     0
 78
     0
281
     0
 65
     1
110
0.0
120
0.0
130
0.0
111
1.0
121
0.0
131
0.0
112
0.0
122
1.0
132
0.0
 79
     0
146
0.0
  0
VPORT
  5
459
330
8
100
AcDbSymbolTableRecord
100
AcDbViewportTableRecord
  2
L3
 70
     0
 10
0.0
 20
0.5
 11
1.0
 21
1.0
 12
8.921429
 22
17.200001
 13
0.0
 23
0.0
 14
0.5
 24
0.5
 15
0.5
 25
0.5
 16
0.0
 26
0.0
 36
1.0
 17
0.0
 27
0.0
 37
0.0
 40
229.922917
 41
0.077229
 42
50.0
 43
199.832439
 44
-199.832439
 50
0.0
 51
0.0
 71
     0
 72
   100
 73
     1
 74
     3
 75
     0
 76
     0
 77
     0
 78
     0
281
     0
 65
     1
110
0.0
120
0.0
130
0.0
111
1.0
121
0.0
131
0.0
112
0.0
122
1.0
132
0.0
 79
     0
146
0.0
  0
VPORT
  5
45A
330
8
100
AcDbSymbolTableRecord
100
AcDbViewportTableRecord
  2
L3
 70
     0
 10
0.0
 20
0.0
 11
1.0
 21
0.5
 12
0.0
 22
0.0
 13
0.0
 23
0.0
 14
0.5
 24
0.5
 15
0.5
 25
0.5
 16
0.0
 26
-1.0
 36
0.0
 17
0.0
 27
0.0
 37
0.0
 40
1482.243488
 41
0.01198
 42
50.0
 43
764.106154
 44
-764.106154
 50
0.0
 51
0.0
 71
     0
 72
   100
 73
     1
 74
     3
 75
     0
 76
     0
 77
     0
 78
     0
281
     0
 65
     1
110
0.0
120
0.0
130
0.0
111
1.0
121
0.0
131
0.0
112
0.0
122
1.0
132
0.0
 79
     0
146
0.0
  0
VPORT
  5
45B
330
8
100
AcDbSymbolTableRecord
100
AcDbViewportTableRecord
  2
L4
 70
     0
 10
0.0
 20
0.5
 11
0.5
 21
1.0
 12
8.921429
 22
17.200001
 13
0.0
 23
0.0
 14
0.5
 24
0.5
 15
0.5
 25
0.5
 16
0.0
 26
0.0
 36
1.0
 17
0.0
 27
0.0
 37
0.0
 40
229.922917
 41
0.077229
 42
50.0
 43
199.832439
 44
-199.832439
 50
0.0
 51
0.0
 71
     0
 72
   100
 73
     1
 74
     3
 75
     0
 76
     0
 77
     0
 78
     0
281
     0
 65
     1
110
0.0
120
0.0
130
0.0
111
1.0
121
0.0
131
0.0
112
0.0
122
1.0
132
0.0
 79
     0
146
0.0
  0
VPORT
  5
45C
330
8
100
AcDbSymbolTableRecord
100
AcDbViewportTableRecord
  2
L4
 70
     0
 10
0.0
 20
0.0
 11
0.5
 21
0.5
 12
0.0
 22
0.0
 13
0.0
 23
0.0
 14
0.5
 24
0.5
 15
0.5
 25
0.5
 16
0.0
 26
-1.0
 36
0.0
 17
0.0
 27
0.0
 37
0.0
 40
1482.243488
 41
0.01198
 42
50.0
 43
764.106154
 44
-764.106154
 50
0.0
 51
0.0
 71
     0
 72
   100
 73
     1
 74
     3
 75
     0
 76
     0
 77
     0
 78
     0
281
     0
 65
     1
110
0.0
120
0.0
130
0.0
111
1.0
121
0.0
131
0.0
112
0.0
122
1.0
132
0.0
 79
     0
146
0.0
  0
VPORT
  5
45D
330
8
100
AcDbSymbolTableRecord
100
AcDbViewportTableRecord
  2
L4
 70
     0
 10
0.5
 20
0.0
 11
1.0
 21
0.5
 12
0.0
 22
0.0
 13
0.0
 23
0.0
 14
0.5
 24
0.5
 15
0.5
 25
0.5
 16
1.0
 26
0.0
 36
0.0
 17
0.0
 27
0.0
 37
0.0
 40
1482.243488
 41
0.01198
 42
50.0
 43
749.985051
 44
-749.985051
 50
0.0
 51
0.0
 71
     0
 72
   100
 73
     1
 74
     3
 75
     0
 76
     0
 77
     0
 78
     0
281
     0
 65
     1
110
0.0
120
0.0
130
0.0
111
1.0
121
0.0
131
0.0
112
0.0
122
1.0
132
0.0
 79
     0
146
0.0
  0
VPORT
  5
45E
330
8
100
AcDbSymbolTableRecord
100
AcDbViewportTableRecord
  2
L4
 70
     0
 10
0.5
 20
0.5
 11
1.0
 21
1.0
 12
0.0
 22
0.0
 13
0.0
 23
0.0
 14
0.5
 24
0.5
 15
0.5
 25
0.5
 16
0.5773502691896258
 26
-0.5773502691896258
 36
0.5773502691896258
 17
0.0
 27
0.0
 37
0.0
 40
1455.982443
 41
0.012196
 42
50.0
 43
758.459455
 44
-758.459455
 50
0.0
 51
0.0
 71
     0
 72
   100
 73
     1
 74
     3
 75
     0
 76
     0
 77
     0
 78
     0
281
     0
 65
     1
110
0.0
120
0.0
130
0.0
111
1.0
121
0.0
131
0.0
112
0.0
122
1.0
132
0.0
 79
     0
146
0.0
  0
VPORT
  5
45F
330
8
100
AcDbSymbolTableRecord
100
AcDbViewportTableRecord
  2
L6
 70
     0
 10
0.0
 20
0.5
 11
0.333333
 21
1.0
 12
0.0
 22
0.0
 13
0.0
 23
0.0
 14
0.5
 24
0.5
 15
0.5
 25
0.5
 16
0.7188730927569433
 26
-0.5850486126764433
 36
0.3754192287502549
 17
0.0
 27
0.0
 37
0.0
 40
1536.629211
 41
0.011556
 42
50.0
 43
795.600158
 44
-795.600158
 50
0.0
 51
0.0
 71
     0
 72
   100
 73
     1
 74
     3
 75
     0
 76
     0
 77
     0
 78
     0
281
     0
 65
     1
110
0.0
120
0.0
130
0.0
111
1.0
121
0.0
131
0.0
112
0.0
122
1.0
132
0.0
 79
     0
146
0.0
  0
VPORT
  5
460
330
8
100
AcDbSymbolTableRecord
100
AcDbViewportTableRecord
  2
L6
 70
     0
 10
0.0
 20
0.0
 11
0.333333
 21
0.5
 12
0.0
 22
0.0
 13
0.0
 23
0.0
 14
0.5
 24
0.5
 15
0.5
 25
0.5
 16
-1.0
 26
0.0
 36
0.0
 17
0.0
 27
0.0
 37
0.0
 40
1482.243488
 41
0.01198
 42
50.0
 43
749.985051
 44
-749.985051
 50
0.0
 51
0.0
 71
     0
 72
   100
 73
     1
 74
     3
 75
     0
 76
     0
 77
     0
 78
     0
281
     0
 65
     1
110
0.0
120
0.0
130
0.0
111
1.0
121
0.0
131
0.0
112
0.0
122
1.0
132
0.0
 79
     0
146
0.0
  0
VPORT
  5
461
330
8
100
AcDbSymbolTableRecord
100
AcDbViewportTableRecord
  2
L6
 70
     0
 10
0.333333
 20
0.5
 11
0.666667
 21
1.0
 12
8.921429
 22
17.200001
 13
0.0
 23
0.0
 14
0.5
 24
0.5
 15
0.5
 25
0.5
 16
0.0
 26
0.0
 36
1.0
 17
0.0
 27
0.0
 37
0.0
 40
229.922917
 41
0.077229
 42
50.0
 43
199.832439
 44
-199.832439
 50
0.0
 51
0.0
 71
     0
 72
   100
 73
     1
 74
     3
 75
     0
 76
     0
 77
     0
 78
     0
281
     0
 65
     1
110
0.0
120
0.0
130
0.0
111
1.0
121
0.0
131
0.0
112
0.0
122
1.0
132
0.0
 79
     0
146
0.0
  0
VPORT
  5
462
330
8
100
AcDbSymbolTableRecord
100
AcDbViewportTableRecord
  2
L6
 70
     0
 10
0.333333
 20
0.0
 11
0.666667
 21
0.5
 12
0.0
 22
0.0
 13
0.0
 23
0.0
 14
0.5
 24
0.5
 15
0.5
 25
0.5
 16
0.0
 26
-1.0
 36
0.0
 17
0.0
 27
0.0
 37
0.0
 40
1482.243488
 41
0.01198
 42
50.0
 43
764.106154
 44
-764.106154
 50
0.0
 51
0.0
 71
     0
 72
   100
 73
     1
 74
     3
 75
     0
 76
     0
 77
     0
 78
     0
281
     0
 65
     1
110
0.0
120
0.0
130
0.0
111
1.0
121
0.0
131
0.0
112
0.0
122
1.0
132
0.0
 79
     0
146
0.0
  0
VPORT
  5
463
330
8
100
AcDbSymbolTableRecord
100
AcDbViewportTableRecord
  2
L6
 70
     0
 10
0.666667
 20
0.5
 11
1.0
 21
1.0
 12
0.0
 22
0.0
 13
0.0
 23
0.0
 14
0.5
 24
0.5
 15
0.5
 25
0.5
 16
0.5773502691896258
 26
-0.5773502691896258
 36
0.5773502691896258
 17
0.0
 27
0.0
 37
0.0
 40
1455.982443
 41
0.012196
 42
50.0
 43
758.459455
 44
-758.459455
 50
0.0
 51
0.0
 71
     0
 72
   100
 73
     1
 74
     3
 75
     0
 76
     0
 77
     0
 78
     0
281
     0
 65
     1
110
0.0
120
0.0
130
0.0
111
1.0
121
0.0
131
0.0
112
0.0
122
1.0
132
0.0
 79
     0
146
0.0
  0
VPORT
  5
464
330
8
100
AcDbSymbolTableRecord
100
AcDbViewportTableRecord
  2
L6
 70
     0
 10
0.666667
 20
0.0
 11
1.0
 21
0.5
 12
0.0
 22
0.0
 13
0.0
 23
0.0
 14
0.5
 24
0.5
 15
0.5
 25
0.5
 16
1.0
 26
0.0
 36
0.0
 17
0.0
 27
0.0
 37
0.0
 40
1482.243488
 41
0.01198
 42
50.0
 43
749.985051
 44
-749.985051
 50
0.0
 51
0.0
 71
     0
 72
   100
 73
     1
 74
     3
 75
     0
 76
     0
 77
     0
 78
     0
281
     0
 65
     1
110
0.0
120
0.0
130
0.0
111
1.0
121
0.0
131
0.0
112
0.0
122
1.0
132
0.0
 79
     0
146
0.0
  0
ENDTAB
  0
TABLE
  2
LTYPE
  5
5
330
0
100
AcDbSymbolTable
 70
     6
  0
LTYPE
  5
14
330
5
100
AcDbSymbolTableRecord
100
AcDbLinetypeTableRecord
  2
BYBLOCK
 70
     0
  3

 72
    65
 73
     0
 40
0.0
  0
LTYPE
  5
15
330
5
100
AcDbSymbolTableRecord
100
AcDbLinetypeTableRecord
  2
BYLAYER
 70
     0
  3

 72
    65
 73
     0
 40
0.0
  0
LTYPE
  5
16
330
5
100
AcDbSymbolTableRecord
100
AcDbLinetypeTableRecord
  2
CONTINUOUS
 70
     0
  3
Solid line
 72
    65
 73
     0
 40
0.0
  0
LTYPE
  5
6A
330
5
100
AcDbSymbolTableRecord
100
AcDbLinetypeTableRecord
  2
CENTER
 70
     0
  3
____ _ ____ _ ____ _ ____
 72
    65
 73
     4
 40
47.4
 49
22.0
 74
     4
 75
     0
340
0
 46
0.0
 50
0.0
 44
0.0
 45
0.0
 49
-8.5
 74
     4
 75
     0
340
0
 46
0.0
 50
0.0
 44
0.0
 45
0.0
 49
8.5
 74
     4
 75
     0
340
0
 46
0.0
 50
0.0
 44
0.0
 45
0.0
 49
-8.5
 74
     4
 75
     0
340
0
 46
0.0
 50
0.0
 44
0.0
 45
0.0
  0
LTYPE
  5
6B
330
5
100
AcDbSymbolTableRecord
100
AcDbLinetypeTableRecord
  2
DASHDOT
 70
     0
  3
_._._._._._._._._._._._._._._._.
 72
    65
 73
     4
 40
70.0
 49
31.0
 74
     4
 75
     0
340
0
 46
0.0
 50
0.0
 44
0.0
 45
0.0
 49
-13.0
 74
     4
 75
     0
340
0
 46
0.0
 50
0.0
 44
0.0
 45
0.0
 49
13.0
 74
     4
 75
     0
340
0
 46
0.0
 50
0.0
 44
0.0
 45
0.0
 49
-13.0
 74
     4
 75
     0
340
0
 46
0.0
 50
0.0
 44
0.0
 45
0.0
  0
LTYPE
  5
6C
330
5
100
AcDbSymbolTableRecord
100
AcDbLinetypeTableRecord
  2
DASHED
 70
     0
  3
__ __ __ __ __ __ __ __ __
 72
    65
 73
     2
 40
25.72
 49
12.86
 74
     4
 75
     0
340
0
 46
0.0
 50
0.0
 44
0.0
 45
0.0
 49
-12.86
 74
     4
 75
     0
340
0
 46
0.0
 50
0.0
 44
0.0
 45
0.0
  0
LTYPE
  5
6D
330
5
100
AcDbSymbolTableRecord
100
AcDbLinetypeTableRecord
  2
DOT
 70
     0
  3
.........................
 72
    65
 73
     2
 40
10.0
 49
0.0
 74
     4
 75
     0
340
0
 46
0.0
 50
0.0
 44
0.0
 45
0.0
 49
-10.0
 74
     4
 75
     0
340
0
 46
0.0
 50
0.0
 44
0.0
 45
0.0
  0
LTYPE
  5
6E
330
5
100
AcDbSymbolTableRecord
100
AcDbLinetypeTableRecord
  2
PHANTOM
 70
     0
  3
____ _ _ ____ _ _ _____ _ _ ____
 72
    65
 73
     6
 40
50.5
 49
18.0
 74
     4
 75
     0
340
0
 46
0.0
 50
0.0
 44
0.0
 45
0.0
 49
-6.5
 74
     4
 75
     0
340
0
 46
0.0
 50
0.0
 44
0.0
 45
0.0
 49
6.5
 74
     4
 75
     0
340
0
 46
0.0
 50
0.0
 44
0.0
 45
0.0
 49
-6.5
 74
     4
 75
     0
340
0
 46
0.0
 50
0.0
 44
0.0
 45
0.0
 49
6.5
 74
     4
 75
     0
340
0
 46
0.0
 50
0.0
 44
0.0
 45
0.0
 49
-6.5
 74
     4
 75
     0
340
0
 46
0.0
 50
0.0
 44
0.0
 45
0.0
  0
ENDTAB
  0
TABLE
  2
LAYER
  5
2
330
0
100
AcDbSymbolTable
 70
    19
  0
LAYER
  5
10
102
{ACAD_XDICTIONARY
360
60E
102
}
330
2
100
AcDbSymbolTableRecord
100
AcDbLayerTableRecord
  2
0
 70
     0
 62
     7
  6
CONTINUOUS
370
    -3
390
F
  0
LAYER
  5
601
102
{ACAD_XDICTIONARY
360
610
102
}
330
2
100
AcDbSymbolTableRecord
100
AcDbLayerTableRecord
  2
1
 70
     0
 62
     4
  6
CONTINUOUS
370
    -3
390
F
  0
LAYER
  5
602
102
{ACAD_XDICTIONARY
360
612
102
}
330
2
100
AcDbSymbolTableRecord
100
AcDbLayerTableRecord
  2
2
 70
     0
 62
     7
  6
CONTINUOUS
370
    -3
390
F
  0
LAYER
  5
603
102
{ACAD_XDICTIONARY
360
614
102
}
330
2
100
AcDbSymbolTableRecord
100
AcDbLayerTableRecord
  2
4
 70
     0
 62
     2
  6
CENTER
370
    -3
390
F
  0
LAYER
  5
605
102
{ACAD_XDICTIONARY
360
616
102
}
330
2
100
AcDbSymbolTableRecord
100
AcDbLayerTableRecord
  2
SK2
 70
     0
 62
     7
  6
CONTINUOUS
370
    -3
390
F
  0
LAYER
  5
606
102
{ACAD_XDICTIONARY
360
618
102
}
330
2
100
AcDbSymbolTableRecord
100
AcDbLayerTableRecord
  2
SK3
 70
     0
 62
     1
  6
DASHED
370
    -3
390
F
  0
LAYER
  5
607
102
{ACAD_XDICTIONARY
360
61A
102
}
330
2
100
AcDbSymbolTableRecord
100
AcDbLayerTableRecord
  2
SK4
 70
     0
 62
     2
  6
CENTER
370
    -3
390
F
  0
LAYER
  5
608
102
{ACAD_XDICTIONARY
360
61C
102
}
330
2
100
AcDbSymbolTableRecord
100
AcDbLayerTableRecord
  2
SK6
 70
     0
 62
     5
  6
CONTINUOUS
370
    -3
390
F
  0
LAYER
  5
609
102
{ACAD_XDICTIONARY
360
61E
102
}
330
2
100
AcDbSymbolTableRecord
100
AcDbLayerTableRecord
  2
CUT
 70
     0
 62
     1
  6
CONTINUOUS
370
    -3
390
F
  0
LAYER
  5
60A
102
{ACAD_XDICTIONARY
360
620
102
}
330
2
100
AcDbSymbolTableRecord
100
AcDbLayerTableRecord
  2
NOCUT
 70
     0
 62
     7
  6
CONTINUOUS
370
    -3
390
F
  0
LAYER
  5
60B
102
{ACAD_XDICTIONARY
360
622
102
}
330
2
100
AcDbSymbolTableRecord
100
AcDbLayerTableRecord
  2
80
 70
     0
 62
     6
  6
CONTINUOUS
370
    -3
390
F
  0
LAYER
  5
60C
102
{ACAD_XDICTIONARY
360
624
102
}
330
2
100
AcDbSymbolTableRecord
100
AcDbLayerTableRecord
  2
81
 70
     0
 62
     3
  6
CONTINUOUS
370
    -3
390
F
  0
LAYER
  5
60D
102
{ACAD_XDICTIONARY
360
626
102
}
330
2
100
AcDbSymbolTableRecord
100
AcDbLayerTableRecord
  2
SK1
 70
     0
 62
     4
  6
CONTINUOUS
370
    -3
390
F
  0
ENDTAB
  0
TABLE
  2
STYLE
  5
3
330
0
100
AcDbSymbolTable
 70
     3
  0
STYLE
  5
11
330
3
100
AcDbSymbolTableRecord
100
AcDbTextStyleTableRecord
  2
Standard
 70
     0
 40
0.0
 41
1.0
 50
0.0
 71
     0
 42
0.2
  3
txt
  4

  0
STYLE
  5
40A
330
3
100
AcDbSymbolTableRecord
100
AcDbTextStyleTableRecord
  2
cesky
 70
     0
 40
0.0
 41
1.0
 50
0.0
 71
     0
 42
0.2
  3
simplex.shx
  4

  0
STYLE
  5
40B
330
3
100
AcDbSymbolTableRecord
100
AcDbTextStyleTableRecord
  2
DWGDirectTextStyle
 70
     0
 40
0.0
 41
1.0
 50
0.0
 71
     0
 42
0.2
  3
simplex
  4

  0
ENDTAB
  0
TABLE
  2
VIEW
  5
6
330
0
100
AcDbSymbolTable
 70
     1
  0
VIEW
  5
453
330
6
100
AcDbSymbolTableRecord
100
AcDbViewTableRecord
  2
Top
 70
     0
 40
229.922917
 10
8.921429
 20
17.200001
 41
372.004167
 11
0.0
 21
0.0
 31
1.0
 12
0.0
 22
0.0
 32
0.0
 42
50.0
 43
199.832439
 44
-199.832439
 50
0.0
 71
     0
281
     0
 72
     0
  0
ENDTAB
  0
TABLE
  2
UCS
  5
7
330
0
100
AcDbSymbolTable
 70
     0
  0
ENDTAB
  0
TABLE
  2
APPID
  5
9
330
0
100
AcDbSymbolTable
 70
     1
  0
APPID
  5
12
330
9
100
AcDbSymbolTableRecord
100
AcDbRegAppTableRecord
  2
ACAD
 70
     0
  0
ENDTAB
  0
TABLE
  2
DIMSTYLE
  5
A
330
0
100
AcDbSymbolTable
 70
     1
100
AcDbDimStyleTable
  0
DIMSTYLE
105
27
102
{ACAD_REACTORS
330
414
330
41E
330
428
330
432
330
43D
330
448
330
452
102
}
330
A
100
AcDbSymbolTableRecord
100
AcDbDimStyleTableRecord
  2
Standard
 70
     0
178
     0
340
11
  0
ENDTAB
  0
TABLE
  2
BLOCK_RECORD
  5
1
330
0
100
AcDbSymbolTable
 70
     8
  0
BLOCK_RECORD
  5
1F
330
1
100
AcDbSymbolTableRecord
100
AcDbBlockTableRecord
  2
*Model_Space
340
22
  0
BLOCK_RECORD
  5
1B
330
1
100
AcDbSymbolTableRecord
100
AcDbBlockTableRecord
  2
*Paper_Space
340
1E
  0
BLOCK_RECORD
  5
23
330
1
100
AcDbSymbolTableRecord
100
AcDbBlockTableRecord
  2
*Paper_Space0
340
26
  0
BLOCK_RECORD
  5
40C
330
1
100
AcDbSymbolTableRecord
100
AcDbBlockTableRecord
  2
DimnDraft3D1
340
0
  0
BLOCK_RECORD
  5
415
330
1
100
AcDbSymbolTableRecord
100
AcDbBlockTableRecord
  2
DimnDraft3D2
340
0
  0
BLOCK_RECORD
  5
41F
330
1
100
AcDbSymbolTableRecord
100
AcDbBlockTableRecord
  2
DimnDraft3D3
340
0
  0
BLOCK_RECORD
  5
429
330
1
100
AcDbSymbolTableRecord
100
AcDbBlockTableRecord
  2
DimnDraft3D4
340
0
  0
BLOCK_RECORD
  5
433
330
1
100
AcDbSymbolTableRecord
100
AcDbBlockTableRecord
  2
DimnDraft3D5
340
0
  0
BLOCK_RECORD
  5
43E
330
1
100
AcDbSymbolTableRecord
100
AcDbBlockTableRecord
  2
DimnDraft3D6
340
0
  0
BLOCK_RECORD
  5
449
330
1
100
AcDbSymbolTableRecord
100
AcDbBlockTableRecord
  2
DimnDraft3D7
340
0
  0
ENDTAB
  0
ENDSEC
  0
SECTION
  2
BLOCKS
  0
BLOCK
  5
20
330
1F
100
AcDbEntity
  8
0
100
AcDbBlockBegin
  2
*Model_Space
 70
     0
 10
0.0
 20
0.0
 30
0.0
  3
*Model_Space
  1
*Model_Space
  0
ENDBLK
  5
21
330
1F
100
AcDbEntity
  8
0
100
AcDbBlockEnd
  0
BLOCK
  5
1C
330
1B
100
AcDbEntity
 67
     1
  8
0
100
AcDbBlockBegin
  2
*Paper_Space
 70
     0
 10
0.0
 20
0.0
 30
0.0
  3
*Paper_Space
  1
*Paper_Space
  0
ENDBLK
  5
1D
330
1B
100
AcDbEntity
 67
     1
  8
0
100
AcDbBlockEnd
  0
BLOCK
  5
24
330
23
100
AcDbEntity
  8
0
100
AcDbBlockBegin
  2
*Paper_Space0
 70
     0
 10
0.0
 20
0.0
 30
0.0
  3
*Paper_Space0
  1
*Paper_Space0
  0
ENDBLK
  5
25
330
23
100
AcDbEntity
  8
0
100
AcDbBlockEnd
  0
BLOCK
  5
412
330
40C
100
AcDbEntity
  8
0
100
AcDbBlockBegin
  2
DimnDraft3D1
 70
     0
 10
0.0
 20
0.0
 30
0.0
  3
DimnDraft3D1
  1
DimnDraft3D1
  0
MTEXT
  5
40D
330
40C
100
AcDbEntity
  8
2
370
    13
100
AcDbMText
 10
50.642857
 20
0.433929
 30
0.0
 40
3.0
 41
0.0
 71
     7
 72
     5
  1
\W0.7867;50,8
  7
cesky
 11
6.123233995736766E-17
 21
1.0
 31
0.0
 73
     2
 44
1.084337
  0
MTEXT
  5
40E
330
40C
100
AcDbEntity
  8
2
370
    13
100
AcDbMText
 10
50.642857
 20
-5.542634
 30
0.0
 40
3.0
 41
0.0
 71
     7
 72
     5
  1
%%c
  7
cesky
 11
6.123233995736766E-17
 21
1.0
 31
0.0
 73
     2
 44
1.084337
  0
LINE
  5
40F
330
40C
100
AcDbEntity
  8
2
370
    13
100
AcDbLine
 10
41.0
 20
25.4
 30
0.0
 11
53.75
 21
25.4
 31
0.0
  0
LINE
  5
410
330
40C
100
AcDbEntity
  8
2
370
    13
100
AcDbLine
 10
51.75
 20
25.4
 30
0.0
 11
51.75
 21
-8.628571
 31
0.0
  0
SOLID
  5
411
330
40C
100
AcDbEntity
  8
2
370
    13
100
AcDbTrace
 10
51.75
 20
25.4
 30
0.0
 11
52.367144
 21
21.900002
 31
0.0
 12
51.132856
 22
21.899998
 32
0.0
 13
51.75
 23
25.4
 33
0.0
  0
ENDBLK
  5
413
330
40C
100
AcDbEntity
  8
0
100
AcDbBlockEnd
  0
BLOCK
  5
41C
330
415
100
AcDbEntity
  8
0
100
AcDbBlockBegin
  2
DimnDraft3D2
 70
     0
 10
0.0
 20
0.0
 30
0.0
  3
DimnDraft3D2
  1
DimnDraft3D2
  0
MTEXT
  5
416
330
415
100
AcDbEntity
  8
2
370
    13
100
AcDbMText
 10
50.0625
 20
30.757143
 30
0.0
 40
3.0
 41
0.0
 71
     7
 72
     5
  1
\W0.8640;1,7
  7
cesky
 73
     2
 44
1.084337
  0
LINE
  5
417
330
415
100
AcDbEntity
  8
2
370
    13
100
AcDbLine
 10
38.319175
 20
23.559198
 30
0.0
 11
38.319175
 21
32.4
 31
0.0
  0
LINE
  5
418
330
415
100
AcDbEntity
  8
2
370
    13
100
AcDbLine
 10
40.0
 20
26.4
 30
0.0
 11
40.0
 21
32.4
 31
0.0
  0
LINE
  5
419
330
415
100
AcDbEntity
  8
2
370
    13
100
AcDbLine
 10
55.092857
 20
30.4
 30
0.0
 11
30.819175
 21
30.4
 31
0.0
  0
SOLID
  5
41A
330
415
100
AcDbEntity
  8
2
370
    13
100
AcDbTrace
 10
38.319175
 20
30.4
 30
0.0
 11
34.819177
 21
29.782856
 31
0.0
 12
34.819173
 22
31.017144
 32
0.0
 13
38.319175
 23
30.4
 33
0.0
  0
SOLID
  5
41B
330
415
100
AcDbEntity
  8
2
370
    13
100
AcDbTrace
 10
40.0
 20
30.4
 30
0.0
 11
43.499998
 21
31.017144
 31
0.0
 12
43.500002
 22
29.782856
 32
0.0
 13
40.0
 23
30.4
 33
0.0
  0
ENDBLK
  5
41D
330
415
100
AcDbEntity
  8
0
100
AcDbBlockEnd
  0
BLOCK
  5
426
330
41F
100
AcDbEntity
  8
0
100
AcDbBlockBegin
  2
DimnDraft3D3
 70
     0
 10
0.0
 20
0.0
 30
0.0
  3
DimnDraft3D3
  1
DimnDraft3D3
  0
MTEXT
  5
420
330
41F
100
AcDbEntity
  8
SK2
370
    13
100
AcDbMText
 10
-14.530357
 20
-41.642857
 30
0.0
 40
3.0
 41
0.0
 71
     7
 72
     5
  1
\W0.7946;4.9
  7
cesky
 73
     2
 44
1.084337
  0
LINE
  5
421
330
41F
100
AcDbEntity
  8
SK2
370
    13
100
AcDbLine
 10
0.0
 20
-23.0
 30
0.0
 11
0.0
 21
-44.0
 31
0.0
  0
LINE
  5
422
330
41F
100
AcDbEntity
  8
SK2
370
    13
100
AcDbLine
 10
4.9
 20
-3.802212
 30
0.0
 11
4.9
 21
-44.0
 31
0.0
  0
LINE
  5
423
330
41F
100
AcDbEntity
  8
SK2
370
    13
100
AcDbLine
 10
12.4
 20
-42.0
 30
0.0
 11
-15.092857
 21
-42.0
 31
0.0
  0
SOLID
  5
424
330
41F
100
AcDbEntity
  8
SK2
370
    13
100
AcDbTrace
 10
0.0
 20
-42.0
 30
0.0
 11
-3.499998
 21
-42.617144
 31
0.0
 12
-3.500002
 22
-41.382856
 32
0.0
 13
0.0
 23
-42.0
 33
0.0
  0
SOLID
  5
425
330
41F
100
AcDbEntity
  8
SK2
370
    13
100
AcDbTrace
 10
4.9
 20
-42.0
 30
0.0
 11
8.399998
 21
-41.382856
 31
0.0
 12
8.400002
 22
-42.617144
 32
0.0
 13
4.9
 23
-42.0
 33
0.0
  0
ENDBLK
  5
427
330
41F
100
AcDbEntity
  8
0
100
AcDbBlockEnd
  0
BLOCK
  5
430
330
429
100
AcDbEntity
  8
0
100
AcDbBlockBegin
  2
DimnDraft3D4
 70
     0
 10
0.0
 20
0.0
 30
0.0
  3
DimnDraft3D4
  1
DimnDraft3D4
  0
MTEXT
  5
42A
330
429
100
AcDbEntity
  8
SK2
370
    13
100
AcDbMText
 10
-12.357143
 20
14.16
 30
0.0
 40
3.0
 41
0.0
 71
     7
 72
     5
  1
\W0.8346;8.15
  7
cesky
 11
6.123233995736766E-17
 21
1.0
 31
0.0
 73
     2
 44
1.084337
  0
LINE
  5
42B
330
429
100
AcDbEntity
  8
SK2
370
    13
100
AcDbLine
 10
1.0
 20
4.0975
 30
0.0
 11
-14.0
 21
4.0975
 31
0.0
  0
LINE
  5
42C
330
429
100
AcDbEntity
  8
SK2
370
    13
100
AcDbLine
 10
1.0
 20
-4.0975
 30
0.0
 11
-14.0
 21
-4.0975
 31
0.0
  0
LINE
  5
42D
330
429
100
AcDbEntity
  8
SK2
370
    13
100
AcDbLine
 10
-12.0
 20
-4.0975
 30
0.0
 11
-12.0
 21
21.354643
 31
0.0
  0
SOLID
  5
42E
330
429
100
AcDbEntity
  8
SK2
370
    13
100
AcDbTrace
 10
-12.0
 20
4.0975
 30
0.0
 11
-11.382856
 21
0.597502
 31
0.0
 12
-12.617144
 22
0.597498
 32
0.0
 13
-12.0
 23
4.0975
 33
0.0
  0
SOLID
  5
42F
330
429
100
AcDbEntity
  8
SK2
370
    13
100
AcDbTrace
 10
-12.0
 20
-4.0975
 30
0.0
 11
-12.617144
 21
-0.597502
 31
0.0
 12
-11.382856
 22
-0.597498
 32
0.0
 13
-12.0
 23
-4.0975
 33
0.0
  0
ENDBLK
  5
431
330
429
100
AcDbEntity
  8
0
100
AcDbBlockEnd
  0
BLOCK
  5
43B
330
433
100
AcDbEntity
  8
0
100
AcDbBlockBegin
  2
DimnDraft3D5
 70
     0
 10
0.0
 20
0.0
 30
0.0
  3
DimnDraft3D5
  1
DimnDraft3D5
  0
MTEXT
  5
434
330
433
100
AcDbEntity
  8
SK2
370
    13
100
AcDbMText
 10
-22.357143
 20
2.598214
 30
0.0
 40
3.0
 41
0.0
 71
     7
 72
     5
  1
\W0.6765;19
  7
cesky
 11
6.123233995736766E-17
 21
1.0
 31
0.0
 73
     2
 44
1.084337
  0
MTEXT
  5
435
330
433
100
AcDbEntity
  8
SK2
370
    13
100
AcDbMText
 10
-22.357143
 20
-3.378348
 30
0.0
 40
3.0
 41
0.0
 71
     7
 72
     5
  1
%%c
  7
cesky
 11
6.123233995736766E-17
 21
1.0
 31
0.0
 73
     2
 44
1.084337
  0
LINE
  5
436
330
433
100
AcDbEntity
  8
SK2
370
    13
100
AcDbLine
 10
0.0
 20
-9.525
 30
0.0
 11
-23.25
 21
-9.525
 31
0.0
  0
LINE
  5
437
330
433
100
AcDbEntity
  8
SK2
370
    13
100
AcDbLine
 10
0.0
 20
9.525
 30
0.0
 11
-23.25
 21
9.525
 31
0.0
  0
LINE
  5
438
330
433
100
AcDbEntity
  8
SK2
370
    13
100
AcDbLine
 10
-21.25
 20
-17.025
 30
0.0
 11
-21.25
 21
17.025
 31
0.0
  0
SOLID
  5
439
330
433
100
AcDbEntity
  8
SK2
370
    13
100
AcDbTrace
 10
-21.25
 20
-9.525
 30
0.0
 11
-20.632856
 21
-13.024998
 31
0.0
 12
-21.867144
 22
-13.025002
 32
0.0
 13
-21.25
 23
-9.525
 33
0.0
  0
SOLID
  5
43A
330
433
100
AcDbEntity
  8
SK2
370
    13
100
AcDbTrace
 10
-21.25
 20
9.525
 30
0.0
 11
-21.867144
 21
13.024998
 31
0.0
 12
-20.632856
 22
13.025002
 32
0.0
 13
-21.25
 23
9.525
 33
0.0
  0
ENDBLK
  5
43C
330
433
100
AcDbEntity
  8
0
100
AcDbBlockEnd
  0
BLOCK
  5
446
330
43E
100
AcDbEntity
  8
0
100
AcDbBlockBegin
  2
DimnDraft3D6
 70
     0
 10
0.0
 20
0.0
 30
0.0
  3
DimnDraft3D6
  1
DimnDraft3D6
  0
MTEXT
  5
43F
330
43E
100
AcDbEntity
  8
SK2
370
    13
100
AcDbMText
 10
-32.357143
 20
2.598214
 30
0.0
 40
3.0
 41
0.0
 71
     7
 72
     5
  1
\W0.6087;47
  7
cesky
 11
6.123233995736766E-17
 21
1.0
 31
0.0
 73
     2
 44
1.084337
  0
MTEXT
  5
440
330
43E
100
AcDbEntity
  8
SK2
370
    13
100
AcDbMText
 10
-32.357143
 20
-3.378348
 30
0.0
 40
3.0
 41
0.0
 71
     7
 72
     5
  1
%%c
  7
cesky
 11
6.123233995736766E-17
 21
1.0
 31
0.0
 73
     2
 44
1.084337
  0
LINE
  5
441
330
43E
100
AcDbEntity
  8
SK2
370
    13
100
AcDbLine
 10
0.5
 20
-23.5
 30
0.0
 11
-33.25
 21
-23.5
 31
0.0
  0
LINE
  5
442
330
43E
100
AcDbEntity
  8
SK2
370
    13
100
AcDbLine
 10
0.5
 20
23.5
 30
0.0
 11
-33.25
 21
23.5
 31
0.0
  0
LINE
  5
443
330
43E
100
AcDbEntity
  8
SK2
370
    13
100
AcDbLine
 10
-31.25
 20
-23.5
 30
0.0
 11
-31.25
 21
23.5
 31
0.0
  0
SOLID
  5
444
330
43E
100
AcDbEntity
  8
SK2
370
    13
100
AcDbTrace
 10
-31.25
 20
-23.5
 30
0.0
 11
-31.867144
 21
-20.000002
 31
0.0
 12
-30.632856
 22
-19.999998
 32
0.0
 13
-31.25
 23
-23.5
 33
0.0
  0
SOLID
  5
445
330
43E
100
AcDbEntity
  8
SK2
370
    13
100
AcDbTrace
 10
-31.25
 20
23.5
 30
0.0
 11
-30.632856
 21
20.000002
 31
0.0
 12
-31.867144
 22
19.999998
 32
0.0
 13
-31.25
 23
23.5
 33
0.0
  0
ENDBLK
  5
447
330
43E
100
AcDbEntity
  8
0
100
AcDbBlockEnd
  0
BLOCK
  5
450
330
449
100
AcDbEntity
  8
0
100
AcDbBlockBegin
  2
DimnDraft3D7
 70
     0
 10
0.0
 20
0.0
 30
0.0
  3
DimnDraft3D7
  1
DimnDraft3D7
  0
MTEXT
  5
44A
330
449
100
AcDbEntity
  8
2
370
    13
100
AcDbMText
 10
18.848214
 20
38.757143
 30
0.0
 40
3.0
 41
0.0
 71
     7
 72
     5
  1
\W0.6087;40
  7
cesky
 73
     2
 44
1.084337
  0
LINE
  5
44B
330
449
100
AcDbEntity
  8
2
370
    13
100
AcDbLine
 10
0.0
 20
23.0
 30
0.0
 11
0.0
 21
40.4
 31
0.0
  0
LINE
  5
44C
330
449
100
AcDbEntity
  8
2
370
    13
100
AcDbLine
 10
40.0
 20
26.4
 30
0.0
 11
40.0
 21
40.4
 31
0.0
  0
LINE
  5
44D
330
449
100
AcDbEntity
  8
2
370
    13
100
AcDbLine
 10
0.0
 20
38.4
 30
0.0
 11
40.0
 21
38.4
 31
0.0
  0
SOLID
  5
44E
330
449
100
AcDbEntity
  8
2
370
    13
100
AcDbTrace
 10
0.0
 20
38.4
 30
0.0
 11
3.499998
 21
39.017144
 31
0.0
 12
3.500002
 22
37.782856
 32
0.0
 13
0.0
 23
38.4
 33
0.0
  0
SOLID
  5
44F
330
449
100
AcDbEntity
  8
2
370
    13
100
AcDbTrace
 10
40.0
 20
38.4
 30
0.0
 11
36.500002
 21
37.782856
 31
0.0
 12
36.499998
 22
39.017144
 32
0.0
 13
40.0
 23
38.4
 33
0.0
  0
ENDBLK
  5
451
330
449
100
AcDbEntity
  8
0
100
AcDbBlockEnd
  0
ENDSEC
  0
SECTION
  2
ENTITIES
  0
LINE
  5
72
330
1F
100
AcDbEntity
  8
CUT
370
    13
100
AcDbLine
 10
30.391447
 20
15.068611
 30
0.0
 11
29.995419
 21
15.735502
 31
0.0
  0
LINE
  5
74
330
1F
100
AcDbEntity
  8
CUT
370
    13
100
AcDbLine
 10
35.815709
 20
14.594906
 30
0.0
 11
33.428969
 21
13.883282
 31
0.0
  0
LINE
  5
75
330
1F
100
AcDbEntity
  8
CUT
370
    13
100
AcDbLine
 10
38.384763
 20
23.455718
 30
0.0
 11
39.168346
 21
21.070742
 31
0.0
  0
LINE
  5
76
330
1F
100
AcDbEntity
  8
CUT
370
    13
100
AcDbLine
 10
37.972414
 20
24.106287
 30
0.0
 11
38.384763
 21
23.455718
 31
0.0
  0
LINE
  5
77
330
1F
100
AcDbEntity
  8
CUT
370
    13
100
AcDbLine
 10
37.351123
 20
24.703912
 30
0.0
 11
37.972414
 21
24.106287
 31
0.0
  0
LINE
  5
78
330
1F
100
AcDbEntity
  8
80
370
    13
100
AcDbLine
 10
-2.0
 20
0.0
 30
0.0
 11
2.0
 21
0.0
 31
0.0
  0
LINE
  5
7A
330
1F
100
AcDbEntity
  8
SK3
370
    13
100
AcDbLine
 10
19.0
 20
-9.525
 30
0.0
 11
19.0
 21
9.525
 31
0.0
  0
LINE
  5
7B
330
1F
100
AcDbEntity
  8
NOCUT
370
    13
100
AcDbLine
 10
9.672607
 20
-23.5
 30
0.0
 11
0.5
 21
-23.5
 31
0.0
  0
LINE
  5
7C
330
1F
100
AcDbEntity
  8
NOCUT
370
    13
100
AcDbLine
 10
38.377234
 20
-8.912844
 30
0.0
 11
39.097112
 21
-17.141088
 31
0.0
  0
LINE
  5
7D
330
1F
100
AcDbEntity
  8
NOCUT
370
    13
100
AcDbLine
 10
0.0
 20
10.624
 30
0.0
 11
0.0
 21
23.0
 31
0.0
  0
LINE
  5
7E
330
1F
100
AcDbEntity
  8
NOCUT
370
    13
100
AcDbLine
 10
1.0
 20
9.625
 30
0.0
 11
0.001
 21
10.624
 31
0.0
  0
LINE
  5
7F
330
1F
100
AcDbEntity
  8
NOCUT
370
    13
100
AcDbLine
 10
14.675402
 20
-22.885085
 30
0.0
 11
10.324598
 21
-23.457308
 31
0.0
  0
LINE
  5
80
330
1F
100
AcDbEntity
  8
NOCUT
370
    13
100
AcDbLine
 10
26.0
 20
-6.0
 30
0.0
 11
25.5
 21
-5.5
 31
0.0
  0
LINE
  5
81
330
1F
100
AcDbEntity
  8
NOCUT
370
    13
100
AcDbLine
 10
5.4
 20
-9.625
 30
0.0
 11
6.505858
 21
-9.52825
 31
0.0
  0
LINE
  5
82
330
1F
100
AcDbEntity
  8
NOCUT
370
    13
100
AcDbLine
 10
20.5
 20
6.0
 30
0.0
 11
20.5
 21
8.170382
 31
0.0
  0
LINE
  5
83
330
1F
100
AcDbEntity
  8
NOCUT
370
    13
100
AcDbLine
 10
0.5
 20
23.5
 30
0.0
 11
0.0
 21
23.0
 31
0.0
  0
LINE
  5
84
330
1F
100
AcDbEntity
  8
NOCUT
370
    13
100
AcDbLine
 10
1.0
 20
-9.625
 30
0.0
 11
5.4
 21
-9.625
 31
0.0
  0
LINE
  5
85
330
1F
100
AcDbEntity
  8
NOCUT
370
    13
100
AcDbLine
 10
16.1
 20
-9.52825
 30
0.0
 11
18.088128
 21
-10.676096
 31
0.0
  0
LINE
  5
86
330
1F
100
AcDbEntity
  8
NOCUT
370
    13
100
AcDbLine
 10
25.5
 20
5.5
 30
0.0
 11
21.0
 21
5.5
 31
0.0
  0
LINE
  5
87
330
1F
100
AcDbEntity
  8
NOCUT
370
    13
100
AcDbLine
 10
20.406418
 20
8.427497
 30
0.0
 11
18.594546
 21
10.586801
 31
0.0
  0
LINE
  5
88
330
1F
100
AcDbEntity
  8
NOCUT
370
    13
100
AcDbLine
 10
0.5
 20
23.5
 30
0.0
 11
9.672607
 21
23.5
 31
0.0
  0
LINE
  5
89
330
1F
100
AcDbEntity
  8
NOCUT
370
    13
100
AcDbLine
 10
6.505858
 20
9.52825
 30
0.0
 11
5.4
 21
9.625
 31
0.0
  0
LINE
  5
8A
330
1F
100
AcDbEntity
  8
NOCUT
370
    13
100
AcDbLine
 10
39.097112
 20
17.141088
 30
0.0
 11
38.377234
 21
8.912844
 31
0.0
  0
LINE
  5
8B
330
1F
100
AcDbEntity
  8
NOCUT
370
    13
100
AcDbLine
 10
26.0
 20
7.6
 30
0.0
 11
26.0
 21
6.0
 31
0.0
  0
LINE
  5
8C
330
1F
100
AcDbEntity
  8
NOCUT
370
    13
100
AcDbLine
 10
10.324598
 20
23.457308
 30
0.0
 11
14.675402
 21
22.885085
 31
0.0
  0
LINE
  5
8D
330
1F
100
AcDbEntity
  8
NOCUT
370
    13
100
AcDbLine
 10
26.4
 20
-8.0
 30
0.0
 11
37.381039
 21
-8.0
 31
0.0
  0
LINE
  5
8E
330
1F
100
AcDbEntity
  8
NOCUT
370
    13
100
AcDbLine
 10
21.0
 20
-5.5
 30
0.0
 11
25.5
 21
-5.5
 31
0.0
  0
LINE
  5
8F
330
1F
100
AcDbEntity
  8
NOCUT
370
    13
100
AcDbLine
 10
37.648927
 20
22.232106
 30
0.0
 11
39.011824
 21
17.917865
 31
0.0
  0
LINE
  5
90
330
1F
100
AcDbEntity
  8
NOCUT
370
    13
100
AcDbLine
 10
16.1
 20
9.52825
 30
0.0
 11
6.505858
 21
9.52825
 31
0.0
  0
LINE
  5
91
330
1F
100
AcDbEntity
  8
NOCUT
370
    13
100
AcDbLine
 10
39.011824
 20
-17.917865
 30
0.0
 11
37.648927
 21
-22.232106
 31
0.0
  0
LINE
  5
92
330
1F
100
AcDbEntity
  8
NOCUT
370
    13
100
AcDbLine
 10
18.594546
 20
-10.586801
 30
0.0
 11
20.406418
 21
-8.427497
 31
0.0
  0
LINE
  5
93
330
1F
100
AcDbEntity
  8
NOCUT
370
    13
100
AcDbLine
 10
26.0
 20
-6.0
 30
0.0
 11
26.0
 21
-7.6
 31
0.0
  0
LINE
  5
94
330
1F
100
AcDbEntity
  8
NOCUT
370
    13
100
AcDbLine
 10
5.4
 20
9.625
 30
0.0
 11
1.0
 21
9.625
 31
0.0
  0
LINE
  5
95
330
1F
100
AcDbEntity
  8
NOCUT
370
    13
100
AcDbLine
 10
20.5
 20
6.0
 30
0.0
 11
21.0
 21
5.5
 31
0.0
  0
LINE
  5
96
330
1F
100
AcDbEntity
  8
NOCUT
370
    13
100
AcDbLine
 10
33.861574
 20
-24.18169
 30
0.0
 11
31.24371
 21
-23.33145
 31
0.0
  0
LINE
  5
97
330
1F
100
AcDbEntity
  8
NOCUT
370
    13
100
AcDbLine
 10
37.381039
 20
8.0
 30
0.0
 11
26.4
 21
8.0
 31
0.0
  0
LINE
  5
98
330
1F
100
AcDbEntity
  8
NOCUT
370
    13
100
AcDbLine
 10
28.154707
 20
-22.842394
 30
0.0
 11
15.327393
 21
-22.842394
 31
0.0
  0
LINE
  5
99
330
1F
100
AcDbEntity
  8
NOCUT
370
    13
100
AcDbLine
 10
0.0
 20
-23.0
 30
0.0
 11
0.5
 21
-23.5
 31
0.0
  0
LINE
  5
9A
330
1F
100
AcDbEntity
  8
NOCUT
370
    13
100
AcDbLine
 10
0.0
 20
-23.0
 30
0.0
 11
0.0
 21
-10.624
 31
0.0
  0
LINE
  5
9B
330
1F
100
AcDbEntity
  8
NOCUT
370
    13
100
AcDbLine
 10
20.5
 20
-8.170382
 30
0.0
 11
20.5
 21
-6.0
 31
0.0
  0
LINE
  5
9C
330
1F
100
AcDbEntity
  8
NOCUT
370
    13
100
AcDbLine
 10
25.5
 20
5.5
 30
0.0
 11
26.0
 21
6.0
 31
0.0
  0
LINE
  5
9D
330
1F
100
AcDbEntity
  8
NOCUT
370
    13
100
AcDbLine
 10
6.505858
 20
-9.52825
 30
0.0
 11
16.1
 21
-9.52825
 31
0.0
  0
LINE
  5
9E
330
1F
100
AcDbEntity
  8
NOCUT
370
    13
100
AcDbLine
 10
18.088128
 20
10.676096
 30
0.0
 11
16.1
 21
9.52825
 31
0.0
  0
LINE
  5
9F
330
1F
100
AcDbEntity
  8
NOCUT
370
    13
100
AcDbLine
 10
15.327393
 20
22.842394
 30
0.0
 11
28.154707
 21
22.842394
 31
0.0
  0
LINE
  5
A0
330
1F
100
AcDbEntity
  8
NOCUT
370
    13
100
AcDbLine
 10
31.24371
 20
23.33145
 30
0.0
 11
33.861574
 21
24.18169
 31
0.0
  0
LINE
  5
A1
330
1F
100
AcDbEntity
  8
NOCUT
370
    13
100
AcDbLine
 10
21.0
 20
-5.5
 30
0.0
 11
20.5
 21
-6.0
 31
0.0
  0
LINE
  5
A2
330
1F
100
AcDbEntity
  8
81
370
    13
100
AcDbLine
 10
39.0
 20
25.4
 30
0.0
 11
41.0
 21
25.4
 31
0.0
  0
LINE
  5
A3
330
1F
100
AcDbEntity
  8
NOCUT
370
    13
100
AcDbLine
 10
0.001
 20
-10.624
 30
0.0
 11
1.0
 21
-9.625
 31
0.0
  0
LINE
  5
A4
330
1F
100
AcDbEntity
  8
80
370
    13
100
AcDbLine
 10
0.0
 20
2.0
 30
0.0
 11
0.0
 21
-2.0
 31
0.0
  0
LINE
  5
A5
330
1F
100
AcDbEntity
  8
SK3
370
    13
100
AcDbLine
 10
19.0
 20
9.525
 30
0.0
 11
0.0
 21
9.525
 31
0.0
  0
LINE
  5
A6
330
1F
100
AcDbEntity
  8
SK3
370
    13
100
AcDbLine
 10
0.0
 20
-9.525
 30
0.0
 11
19.0
 21
-9.525
 31
0.0
  0
LINE
  5
A7
330
1F
100
AcDbEntity
  8
81
370
    13
100
AcDbLine
 10
40.0
 20
24.4
 30
0.0
 11
40.0
 21
26.4
 31
0.0
  0
LINE
  5
A8
330
1F
100
AcDbEntity
  8
1
370
    13
100
AcDbLine
 10
27.598721
 20
-8.606437
 30
0.0
 11
28.371787
 21
-12.797779
 31
0.0
  0
LINE
  5
AA
330
1F
100
AcDbEntity
  8
1
370
    13
100
AcDbLine
 10
0.943763
 20
4.153763
 30
0.0
 11
0.6
 21
3.81
 31
0.0
  0
LINE
  5
AC
330
1F
100
AcDbEntity
  8
1
370
    13
100
AcDbLine
 10
0.6
 20
-3.81
 30
0.0
 11
0.943763
 21
-4.153763
 31
0.0
  0
LINE
  5
AD
330
1F
100
AcDbEntity
  8
1
370
    13
100
AcDbLine
 10
39.67547
 20
9.218594
 30
0.0
 11
39.994434
 21
10.90525
 31
0.0
  0
LINE
  5
AE
330
1F
100
AcDbEntity
  8
1
370
    13
100
AcDbLine
 10
39.115908
 20
-12.045951
 30
0.0
 11
39.354502
 21
-10.993397
 31
0.0
  0
LINE
  5
AF
330
1F
100
AcDbEntity
  8
1
370
    13
100
AcDbLine
 10
39.811521
 20
-8.977272
 30
0.0
 11
39.986393
 21
-8.205827
 31
0.0
  0
LINE
  5
B0
330
1F
100
AcDbEntity
  8
1
370
    13
100
AcDbLine
 10
36.087416
 20
-7.864458
 30
0.0
 11
36.129351
 21
-7.813446
 31
0.0
  0
LINE
  5
B2
330
1F
100
AcDbEntity
  8
1
370
    13
100
AcDbLine
 10
28.210471
 20
-11.923244
 30
0.0
 11
26.517242
 21
-11.53266
 31
0.0
  0
LINE
  5
B3
330
1F
100
AcDbEntity
  8
1
370
    13
100
AcDbLine
 10
28.358348
 20
7.681739
 30
0.0
 11
26.517242
 21
10.695398
 31
0.0
  0
LINE
  5
B4
330
1F
100
AcDbEntity
  8
1
370
    13
100
AcDbLine
 10
26.617643
 20
-11.435216
 30
0.0
 11
28.187232
 21
-11.79728
 31
0.0
  0
LINE
  5
B5
330
1F
100
AcDbEntity
  8
1
370
    13
100
AcDbLine
 10
26.617643
 20
10.783768
 30
0.0
 11
28.269981
 21
8.079099
 31
0.0
  0
LINE
  5
B6
330
1F
100
AcDbEntity
  8
1
370
    13
100
AcDbLine
 10
28.343299
 20
19.409256
 30
0.0
 11
29.058597
 21
18.521592
 31
0.0
  0
LINE
  5
B7
330
1F
100
AcDbEntity
  8
1
370
    13
100
AcDbLine
 10
36.303397
 20
9.374667
 30
0.0
 11
36.210003
 21
9.487608
 31
0.0
  0
LINE
  5
B8
330
1F
100
AcDbEntity
  8
1
370
    13
100
AcDbLine
 10
28.896402
 20
18.722831
 30
0.0
 11
28.469006
 21
20.060335
 31
0.0
  0
LINE
  5
B9
330
1F
100
AcDbEntity
  8
1
370
    13
100
AcDbLine
 10
31.590873
 20
8.460268
 30
0.0
 11
31.554154
 21
8.318389
 31
0.0
  0
LINE
  5
BA
330
1F
100
AcDbEntity
  8
1
370
    13
100
AcDbLine
 10
33.320453
 20
8.661448
 30
0.0
 11
33.302125
 21
8.743853
 31
0.0
  0
LINE
  5
BB
330
1F
100
AcDbEntity
  8
1
370
    13
100
AcDbLine
 10
35.199213
 20
8.939821
 30
0.0
 11
35.302074
 21
8.477339
 31
0.0
  0
LINE
  5
BC
330
1F
100
AcDbEntity
  8
1
370
    13
100
AcDbLine
 10
32.930971
 20
7.527417
 30
0.0
 11
32.769582
 21
8.253054
 31
0.0
  0
LINE
  5
BD
330
1F
100
AcDbEntity
  8
1
370
    13
100
AcDbLine
 10
34.193652
 20
7.075506
 30
0.0
 11
33.943291
 21
8.201179
 31
0.0
  0
LINE
  5
BE
330
1F
100
AcDbEntity
  8
1
370
    13
100
AcDbLine
 10
30.556837
 20
0.021113
 30
0.0
 11
30.248615
 21
-0.371828
 31
0.0
  0
LINE
  5
BF
330
1F
100
AcDbEntity
  8
1
370
    13
100
AcDbLine
 10
32.27138
 20
21.283144
 30
0.0
 11
32.227856
 21
21.23962
 31
0.0
  0
LINE
  5
C0
330
1F
100
AcDbEntity
  8
1
370
    13
100
AcDbLine
 10
36.563681
 20
8.744925
 30
0.0
 11
36.520157
 21
8.940619
 31
0.0
  0
LINE
  5
C1
330
1F
100
AcDbEntity
  8
1
370
    13
100
AcDbLine
 10
34.66023
 20
8.477982
 30
0.0
 11
34.912592
 21
7.343308
 31
0.0
  0
LINE
  5
C2
330
1F
100
AcDbEntity
  8
1
370
    13
100
AcDbLine
 10
31.5418
 20
7.833383
 30
0.0
 11
31.585325
 21
7.637689
 31
0.0
  0
LINE
  5
C3
330
1F
100
AcDbEntity
  8
1
370
    13
100
AcDbLine
 10
28.458601
 20
20.014859
 30
0.0
 11
26.517242
 21
22.795268
 31
0.0
  0
LINE
  5
C4
330
1F
100
AcDbEntity
  8
1
370
    13
100
AcDbLine
 10
26.617643
 20
22.785007
 30
0.0
 11
28.321605
 21
20.344597
 31
0.0
  0
LINE
  5
C5
330
1F
100
AcDbEntity
  8
1
370
    13
100
AcDbLine
 10
28.321605
 20
20.344597
 30
0.0
 11
28.469006
 21
20.060335
 31
0.0
  0
LINE
  5
C6
330
1F
100
AcDbEntity
  8
1
370
    13
100
AcDbLine
 10
27.714401
 20
22.542778
 30
0.0
 11
27.759809
 21
22.400678
 31
0.0
  0
LINE
  5
C7
330
1F
100
AcDbEntity
  8
1
370
    13
100
AcDbLine
 10
26.481205
 20
22.842394
 30
0.0
 11
25.324762
 21
22.842394
 31
0.0
  0
LINE
  5
C8
330
1F
100
AcDbEntity
  8
1
370
    13
100
AcDbLine
 10
29.672451
 20
-16.680892
 30
0.0
 11
28.335971
 21
-19.98271
 31
0.0
  0
LINE
  5
C9
330
1F
100
AcDbEntity
  8
1
370
    13
100
AcDbLine
 10
30.114201
 20
-17.001934
 30
0.0
 11
28.384919
 21
-21.141669
 31
0.0
  0
LINE
  5
CA
330
1F
100
AcDbEntity
  8
1
370
    13
100
AcDbLine
 10
18.383289
 20
-22.842394
 30
0.0
 11
26.010594
 21
-22.842394
 31
0.0
  0
LINE
  5
CB
330
1F
100
AcDbEntity
  8
1
370
    13
100
AcDbLine
 10
32.520742
 20
-20.562288
 30
0.0
 11
33.470049
 21
-18.216996
 31
0.0
  0
LINE
  5
CC
330
1F
100
AcDbEntity
  8
1
370
    13
100
AcDbLine
 10
27.759809
 20
13.285299
 30
0.0
 11
27.714401
 21
13.368433
 31
0.0
  0
LINE
  5
CD
330
1F
100
AcDbEntity
  8
1
370
    13
100
AcDbLine
 10
30.835011
 20
-8.529321
 30
0.0
 11
28.891189
 21
-8.495347
 31
0.0
  0
LINE
  5
CE
330
1F
100
AcDbEntity
  8
1
370
    13
100
AcDbLine
 10
0.0
 20
-23.0
 30
0.0
 11
0.5
 21
-23.5
 31
0.0
  0
LINE
  5
CF
330
1F
100
AcDbEntity
  8
1
370
    13
100
AcDbLine
 10
29.908454
 20
0.926347
 30
0.0
 11
28.377821
 21
-1.150855
 31
0.0
  0
LINE
  5
D0
330
1F
100
AcDbEntity
  8
1
370
    13
100
AcDbLine
 10
0.5
 20
23.5
 30
0.0
 11
0.0
 21
23.0
 31
0.0
  0
LINE
  5
D1
330
1F
100
AcDbEntity
  8
1
370
    13
100
AcDbLine
 10
35.456845
 20
-8.185922
 30
0.0
 11
35.608121
 21
-8.134819
 31
0.0
  0
LINE
  5
D2
330
1F
100
AcDbEntity
  8
1
370
    13
100
AcDbLine
 10
0.0
 20
-5.0975
 30
0.0
 11
1.0
 21
-4.0975
 31
0.0
  0
LINE
  5
D3
330
1F
100
AcDbEntity
  8
1
370
    13
100
AcDbLine
 10
4.1
 20
-4.0975
 30
0.0
 11
1.0
 21
-4.0975
 31
0.0
  0
LINE
  5
D4
330
1F
100
AcDbEntity
  8
1
370
    13
100
AcDbLine
 10
30.835011
 20
-8.529321
 30
0.0
 11
34.721115
 21
-8.326013
 31
0.0
  0
LINE
  5
D5
330
1F
100
AcDbEntity
  8
1
370
    13
100
AcDbLine
 10
0.0
 20
-5.0975
 30
0.0
 11
0.0
 21
-6.900396
 31
0.0
  0
LINE
  5
D6
330
1F
100
AcDbEntity
  8
1
370
    13
100
AcDbLine
 10
0.0
 20
6.900396
 30
0.0
 11
0.0
 21
5.0975
 31
0.0
  0
LINE
  5
D7
330
1F
100
AcDbEntity
  8
1
370
    13
100
AcDbLine
 10
0.0
 20
5.0975
 30
0.0
 11
1.0
 21
4.0975
 31
0.0
  0
LINE
  5
D8
330
1F
100
AcDbEntity
  8
1
370
    13
100
AcDbLine
 10
32.541601
 20
-0.668934
 30
0.0
 11
33.727739
 21
0.940757
 31
0.0
  0
LINE
  5
D9
330
1F
100
AcDbEntity
  8
1
370
    13
100
AcDbLine
 10
30.114201
 20
-0.189153
 30
0.0
 11
28.384919
 21
-1.865718
 31
0.0
  0
LINE
  5
DA
330
1F
100
AcDbEntity
  8
1
370
    13
100
AcDbLine
 10
9.672607
 20
23.5
 30
0.0
 11
0.5
 21
23.5
 31
0.0
  0
LINE
  5
DB
330
1F
100
AcDbEntity
  8
1
370
    13
100
AcDbLine
 10
4.1
 20
-5.0975
 30
0.0
 11
1.0
 21
-5.0975
 31
0.0
  0
LINE
  5
DC
330
1F
100
AcDbEntity
  8
1
370
    13
100
AcDbLine
 10
0.5
 20
-23.5
 30
0.0
 11
9.672607
 21
-23.5
 31
0.0
  0
LINE
  5
DD
330
1F
100
AcDbEntity
  8
1
370
    13
100
AcDbLine
 10
4.1
 20
5.0975
 30
0.0
 11
1.0
 21
5.0975
 31
0.0
  0
LINE
  5
DE
330
1F
100
AcDbEntity
  8
1
370
    13
100
AcDbLine
 10
4.1
 20
4.0975
 30
0.0
 11
1.0
 21
4.0975
 31
0.0
  0
LINE
  5
DF
330
1F
100
AcDbEntity
  8
1
370
    13
100
AcDbLine
 10
34.524104
 20
20.552892
 30
0.0
 11
34.775725
 21
20.804512
 31
0.0
  0
LINE
  5
E0
330
1F
100
AcDbEntity
  8
1
370
    13
100
AcDbLine
 10
35.348105
 20
20.28153
 30
0.0
 11
35.096922
 21
20.030348
 31
0.0
  0
LINE
  5
E1
330
1F
100
AcDbEntity
  8
1
370
    13
100
AcDbLine
 10
39.987708
 20
7.81483
 30
0.0
 11
39.117443
 21
11.727718
 31
0.0
  0
LINE
  5
E2
330
1F
100
AcDbEntity
  8
1
370
    13
100
AcDbLine
 10
27.516503
 20
11.466912
 30
0.0
 11
28.386767
 21
7.554024
 31
0.0
  0
LINE
  5
E3
330
1F
100
AcDbEntity
  8
1
370
    13
100
AcDbLine
 10
39.995973
 20
-9.977289
 30
0.0
 11
39.132423
 21
-5.295369
 31
0.0
  0
LINE
  5
E4
330
1F
100
AcDbEntity
  8
1
370
    13
100
AcDbLine
 10
28.107564
 20
22.073961
 30
0.0
 11
28.946356
 21
22.912754
 31
0.0
  0
LINE
  5
E5
330
1F
100
AcDbEntity
  8
1
370
    13
100
AcDbLine
 10
29.546687
 20
23.515979
 30
0.0
 11
28.687037
 21
22.656329
 31
0.0
  0
LINE
  5
E6
330
1F
100
AcDbEntity
  8
1
370
    13
100
AcDbLine
 10
28.877567
 20
-22.930644
 30
0.0
 11
29.74284
 21
-23.559482
 31
0.0
  0
LINE
  5
E7
330
1F
100
AcDbEntity
  8
1
370
    13
100
AcDbLine
 10
0.6
 20
3.81
 30
0.0
 11
0.6
 21
-3.81
 31
0.0
  0
LINE
  5
E8
330
1F
100
AcDbEntity
  8
1
370
    13
100
AcDbLine
 10
0.5
 20
-23.5
 30
0.0
 11
0.5
 21
-6.976746
 31
0.0
  0
LINE
  5
E9
330
1F
100
AcDbEntity
  8
1
370
    13
100
AcDbLine
 10
0.5
 20
23.5
 30
0.0
 11
0.5
 21
6.976746
 31
0.0
  0
LINE
  5
EA
330
1F
100
AcDbEntity
  8
1
370
    13
100
AcDbLine
 10
0.0
 20
6.900396
 30
0.0
 11
0.0
 21
23.0
 31
0.0
  0
LINE
  5
EB
330
1F
100
AcDbEntity
  8
1
370
    13
100
AcDbLine
 10
0.0
 20
-23.0
 30
0.0
 11
0.0
 21
-6.900396
 31
0.0
  0
LINE
  5
EC
330
1F
100
AcDbEntity
  8
1
370
    13
100
AcDbLine
 10
39.104723
 20
3.960436
 30
0.0
 11
39.104723
 21
5.407157
 31
0.0
  0
LINE
  5
ED
330
1F
100
AcDbEntity
  8
1
370
    13
100
AcDbLine
 10
1.0
 20
-4.0975
 30
0.0
 11
1.0
 21
-5.0975
 31
0.0
  0
LINE
  5
EE
330
1F
100
AcDbEntity
  8
1
370
    13
100
AcDbLine
 10
4.9
 20
3.802212
 30
0.0
 11
4.9
 21
-3.802212
 31
0.0
  0
LINE
  5
EF
330
1F
100
AcDbEntity
  8
1
370
    13
100
AcDbLine
 10
1.0
 20
4.0975
 30
0.0
 11
1.0
 21
5.0975
 31
0.0
  0
LINE
  5
F0
330
1F
100
AcDbEntity
  8
1
370
    13
100
AcDbLine
 10
1.5525
 20
4.097617
 30
0.0
 11
1.5525
 21
-4.097379
 31
0.0
  0
LINE
  5
F1
330
1F
100
AcDbEntity
  8
1
370
    13
100
AcDbLine
 10
39.104723
 20
-16.91234
 30
0.0
 11
39.104723
 21
-12.301009
 31
0.0
  0
LINE
  5
F2
330
1F
100
AcDbEntity
  8
1
370
    13
100
AcDbLine
 10
39.104723
 20
11.986183
 30
0.0
 11
39.104723
 21
16.675504
 31
0.0
  0
LINE
  5
F3
330
1F
100
AcDbEntity
  8
1
370
    13
100
AcDbLine
 10
39.104723
 20
-4.352998
 30
0.0
 11
39.104723
 21
3.929479
 31
0.0
  0
LINE
  5
F4
330
1F
100
AcDbEntity
  8
1
370
    13
100
AcDbLine
 10
34.038653
 20
21.009545
 30
0.0
 11
34.062399
 21
20.951207
 31
0.0
  0
LINE
  5
F5
330
1F
100
AcDbEntity
  8
1
370
    13
100
AcDbLine
 10
33.308737
 20
20.899665
 30
0.0
 11
33.30617
 21
20.793742
 31
0.0
  0
LINE
  5
F6
330
1F
100
AcDbEntity
  8
1
370
    13
100
AcDbLine
 10
33.320844
 20
20.732732
 30
0.0
 11
33.30617
 21
20.793742
 31
0.0
  0
LINE
  5
F7
330
1F
100
AcDbEntity
  8
1
370
    13
100
AcDbLine
 10
34.038653
 20
21.009545
 30
0.0
 11
33.974243
 21
21.095735
 31
0.0
  0
LINE
  5
F8
330
1F
100
AcDbEntity
  8
1
370
    13
100
AcDbLine
 10
34.746861
 20
20.785147
 30
0.0
 11
34.792002
 21
20.826773
 31
0.0
  0
LINE
  5
F9
330
1F
100
AcDbEntity
  8
1
370
    13
100
AcDbLine
 10
36.520157
 20
8.940619
 30
0.0
 11
36.178676
 21
9.504948
 31
0.0
  0
LINE
  5
FA
330
1F
100
AcDbEntity
  8
1
370
    13
100
AcDbLine
 10
35.364356
 20
20.294399
 30
0.0
 11
35.326304
 21
20.24618
 31
0.0
  0
LINE
  5
FB
330
1F
100
AcDbEntity
  8
1
370
    13
100
AcDbLine
 10
35.364356
 20
20.294399
 30
0.0
 11
35.405144
 21
20.391048
 31
0.0
  0
LINE
  5
FC
330
1F
100
AcDbEntity
  8
1
370
    13
100
AcDbLine
 10
34.885126
 20
20.874742
 30
0.0
 11
34.792002
 21
20.826773
 31
0.0
  0
LINE
  5
FD
330
1F
100
AcDbEntity
  8
1
370
    13
100
AcDbLine
 10
34.288948
 20
22.333656
 30
0.0
 11
33.244054
 21
22.232308
 31
0.0
  0
LINE
  5
FE
330
1F
100
AcDbEntity
  8
1
370
    13
100
AcDbLine
 10
35.326304
 20
20.24618
 30
0.0
 11
35.3401
 21
19.838038
 31
0.0
  0
LINE
  5
FF
330
1F
100
AcDbEntity
  8
1
370
    13
100
AcDbLine
 10
31.611969
 20
8.489423
 30
0.0
 11
31.541799
 21
7.833389
 31
0.0
  0
LINE
  5
100
330
1F
100
AcDbEntity
  8
1
370
    13
100
AcDbLine
 10
32.534477
 20
20.019804
 30
0.0
 11
32.540134
 21
19.546964
 31
0.0
  0
LINE
  5
101
330
1F
100
AcDbEntity
  8
1
370
    13
100
AcDbLine
 10
32.540134
 20
7.774309
 30
0.0
 11
32.630691
 21
7.75155
 31
0.0
  0
LINE
  5
102
330
1F
100
AcDbEntity
  8
1
370
    13
100
AcDbLine
 10
32.79082
 20
8.251021
 30
0.0
 11
32.852618
 21
8.254161
 31
0.0
  0
LINE
  5
103
330
1F
100
AcDbEntity
  8
1
370
    13
100
AcDbLine
 10
32.79082
 20
8.251021
 30
0.0
 11
32.685621
 21
8.228109
 31
0.0
  0
LINE
  5
104
330
1F
100
AcDbEntity
  8
1
370
    13
100
AcDbLine
 10
33.347919
 20
7.025216
 30
0.0
 11
33.441043
 21
7.070058
 31
0.0
  0
LINE
  5
105
330
1F
100
AcDbEntity
  8
1
370
    13
100
AcDbLine
 10
33.486184
 20
7.103452
 30
0.0
 11
33.441043
 21
7.070058
 31
0.0
  0
LINE
  5
106
330
1F
100
AcDbEntity
  8
1
370
    13
100
AcDbLine
 10
34.194392
 20
7.070644
 30
0.0
 11
34.258802
 21
7.025924
 31
0.0
  0
LINE
  5
107
330
1F
100
AcDbEntity
  8
1
370
    13
100
AcDbLine
 10
35.442225
 20
7.753734
 30
0.0
 11
35.380427
 21
7.750594
 31
0.0
  0
LINE
  5
108
330
1F
100
AcDbEntity
  8
1
370
    13
100
AcDbLine
 10
34.924307
 20
7.253284
 30
0.0
 11
34.926875
 21
7.320886
 31
0.0
  0
LINE
  5
109
330
1F
100
AcDbEntity
  8
1
370
    13
100
AcDbLine
 10
30.24042
 20
6.578025
 30
0.0
 11
30.31885
 21
6.65043
 31
0.0
  0
LINE
  5
10A
330
1F
100
AcDbEntity
  8
1
370
    13
100
AcDbLine
 10
35.365394
 20
5.70392
 30
0.0
 11
35.403368
 21
5.609684
 31
0.0
  0
LINE
  5
10B
330
1F
100
AcDbEntity
  8
1
370
    13
100
AcDbLine
 10
34.721115
 20
-8.326013
 30
0.0
 11
35.456845
 21
-8.185922
 31
0.0
  0
LINE
  5
10C
330
1F
100
AcDbEntity
  8
1
370
    13
100
AcDbLine
 10
35.608121
 20
-8.134819
 30
0.0
 11
36.087416
 21
-7.864458
 31
0.0
  0
LINE
  5
10D
330
1F
100
AcDbEntity
  8
1
370
    13
100
AcDbLine
 10
32.690505
 20
7.748504
 30
0.0
 11
32.630691
 21
7.75155
 31
0.0
  0
LINE
  5
10E
330
1F
100
AcDbEntity
  8
1
370
    13
100
AcDbLine
 10
32.868689
 20
7.319287
 30
0.0
 11
32.906741
 21
7.355768
 31
0.0
  0
LINE
  5
10F
330
1F
100
AcDbEntity
  8
1
370
    13
100
AcDbLine
 10
32.868689
 20
7.319287
 30
0.0
 11
32.827901
 21
7.251655
 31
0.0
  0
LINE
  5
110
330
1F
100
AcDbEntity
  8
1
370
    13
100
AcDbLine
 10
35.442225
 20
7.753734
 30
0.0
 11
35.547424
 21
7.776646
 31
0.0
  0
LINE
  5
111
330
1F
100
AcDbEntity
  8
1
370
    13
100
AcDbLine
 10
35.692911
 20
8.230446
 30
0.0
 11
35.602354
 21
8.253206
 31
0.0
  0
LINE
  5
112
330
1F
100
AcDbEntity
  8
1
370
    13
100
AcDbLine
 10
35.542539
 20
8.256252
 30
0.0
 11
35.602354
 21
8.253206
 31
0.0
  0
LINE
  5
113
330
1F
100
AcDbEntity
  8
1
370
    13
100
AcDbLine
 10
35.364356
 20
8.685469
 30
0.0
 11
35.326304
 21
8.648988
 31
0.0
  0
LINE
  5
114
330
1F
100
AcDbEntity
  8
1
370
    13
100
AcDbLine
 10
35.364356
 20
8.685469
 30
0.0
 11
35.405144
 21
8.7531
 31
0.0
  0
LINE
  5
115
330
1F
100
AcDbEntity
  8
1
370
    13
100
AcDbLine
 10
34.885126
 20
8.97954
 30
0.0
 11
34.792002
 21
8.934697
 31
0.0
  0
LINE
  5
116
330
1F
100
AcDbEntity
  8
1
370
    13
100
AcDbLine
 10
34.746861
 20
8.901304
 30
0.0
 11
34.792002
 21
8.934697
 31
0.0
  0
LINE
  5
117
330
1F
100
AcDbEntity
  8
1
370
    13
100
AcDbLine
 10
34.038653
 20
8.934112
 30
0.0
 11
33.974243
 21
8.978832
 31
0.0
  0
LINE
  5
118
330
1F
100
AcDbEntity
  8
1
370
    13
100
AcDbLine
 10
33.308737
 20
8.751471
 30
0.0
 11
33.30617
 21
8.683869
 31
0.0
  0
LINE
  5
119
330
1F
100
AcDbEntity
  8
1
370
    13
100
AcDbLine
 10
33.803718
 20
1.559061
 30
0.0
 11
34.537089
 21
1.704331
 31
0.0
  0
LINE
  5
11A
330
1F
100
AcDbEntity
  8
1
370
    13
100
AcDbLine
 10
0.5
 20
-6.976746
 30
0.0
 11
1.0
 21
-5.0975
 31
0.0
  0
LINE
  5
11B
330
1F
100
AcDbEntity
  8
1
370
    13
100
AcDbLine
 10
30.391958
 20
1.353069
 30
0.0
 11
29.908454
 21
0.926347
 31
0.0
  0
LINE
  5
11C
330
1F
100
AcDbEntity
  8
4
370
    13
100
AcDbLine
 10
-2.0
 20
0.0
 30
0.0
 11
42.0
 21
0.0
 31
0.0
  0
LINE
  5
11D
330
1F
100
AcDbEntity
  8
1
370
    13
100
AcDbLine
 10
37.70125
 20
1.607317
 30
0.0
 11
36.737367
 21
2.144142
 31
0.0
  0
LINE
  5
11E
330
1F
100
AcDbEntity
  8
1
370
    13
100
AcDbLine
 10
32.541601
 20
-0.668934
 30
0.0
 11
32.567414
 21
-1.434188
 31
0.0
  0
LINE
  5
11F
330
1F
100
AcDbEntity
  8
1
370
    13
100
AcDbLine
 10
33.70641
 20
-0.031899
 30
0.0
 11
33.716758
 21
-0.58634
 31
0.0
  0
LINE
  5
120
330
1F
100
AcDbEntity
  8
1
370
    13
100
AcDbLine
 10
1.0
 20
5.0975
 30
0.0
 11
0.5
 21
6.976746
 31
0.0
  0
LINE
  5
121
330
1F
100
AcDbEntity
  8
1
370
    13
100
AcDbLine
 10
36.737367
 20
2.144142
 30
0.0
 11
38.112707
 21
2.423889
 31
0.0
  0
LINE
  5
122
330
1F
100
AcDbEntity
  8
1
370
    13
100
AcDbLine
 10
38.663871
 20
4.436576
 30
0.0
 11
38.820405
 21
4.52097
 31
0.0
  0
LINE
  5
123
330
1F
100
AcDbEntity
  8
1
370
    13
100
AcDbLine
 10
32.521417
 20
20.474264
 30
0.0
 11
32.567414
 21
19.442655
 31
0.0
  0
LINE
  5
124
330
1F
100
AcDbEntity
  8
1
370
    13
100
AcDbLine
 10
28.154707
 20
13.500656
 30
0.0
 11
27.879662
 21
13.462063
 31
0.0
  0
LINE
  5
125
330
1F
100
AcDbEntity
  8
1
370
    13
100
AcDbLine
 10
33.811222
 20
2.871431
 30
0.0
 11
34.003327
 21
3.050642
 31
0.0
  0
LINE
  5
126
330
1F
100
AcDbEntity
  8
1
370
    13
100
AcDbLine
 10
33.394986
 20
-16.446893
 30
0.0
 11
33.233392
 21
-16.184288
 31
0.0
  0
LINE
  5
127
330
1F
100
AcDbEntity
  8
1
370
    13
100
AcDbLine
 10
33.233392
 20
-16.184288
 30
0.0
 11
34.537089
 21
-16.132874
 31
0.0
  0
LINE
  5
128
330
1F
100
AcDbEntity
  8
1
370
    13
100
AcDbLine
 10
28.949017
 20
5.747221
 30
0.0
 11
29.357479
 21
4.260773
 31
0.0
  0
LINE
  5
129
330
1F
100
AcDbEntity
  8
1
370
    13
100
AcDbLine
 10
30.747499
 20
2.512438
 30
0.0
 11
31.153571
 21
2.565692
 31
0.0
  0
LINE
  5
12A
330
1F
100
AcDbEntity
  8
1
370
    13
100
AcDbLine
 10
26.380981
 20
11.621437
 30
0.0
 11
27.901769
 21
9.777917
 31
0.0
  0
LINE
  5
12B
330
1F
100
AcDbEntity
  8
1
370
    13
100
AcDbLine
 10
36.737367
 20
-16.03609
 30
0.0
 11
38.112707
 21
-15.964957
 31
0.0
  0
LINE
  5
12C
330
1F
100
AcDbEntity
  8
1
370
    13
100
AcDbLine
 10
27.879662
 20
-22.765891
 30
0.0
 11
28.154707
 21
-22.761932
 31
0.0
  0
LINE
  5
12D
330
1F
100
AcDbEntity
  8
1
370
    13
100
AcDbLine
 10
32.520742
 20
-20.562288
 30
0.0
 11
32.567414
 21
-21.792315
 31
0.0
  0
LINE
  5
12E
330
1F
100
AcDbEntity
  8
1
370
    13
100
AcDbLine
 10
31.389934
 20
-15.390058
 30
0.0
 11
31.129651
 21
-15.43964
 31
0.0
  0
LINE
  5
12F
330
1F
100
AcDbEntity
  8
1
370
    13
100
AcDbLine
 10
35.097765
 20
-15.782247
 30
0.0
 11
34.928545
 21
-15.894162
 31
0.0
  0
LINE
  5
130
330
1F
100
AcDbEntity
  8
1
370
    13
100
AcDbLine
 10
31.329486
 20
7.910829
 30
0.0
 11
31.319256
 21
7.380238
 31
0.0
  0
LINE
  5
131
330
1F
100
AcDbEntity
  8
1
370
    13
100
AcDbLine
 10
38.853341
 20
5.757706
 30
0.0
 11
38.682668
 21
5.828892
 31
0.0
  0
LINE
  5
132
330
1F
100
AcDbEntity
  8
1
370
    13
100
AcDbLine
 10
32.890193
 20
23.377841
 30
0.0
 11
32.871074
 21
23.475947
 31
0.0
  0
LINE
  5
133
330
1F
100
AcDbEntity
  8
1
370
    13
100
AcDbLine
 10
28.502911
 20
7.25846
 30
0.0
 11
28.949017
 21
5.747221
 31
0.0
  0
LINE
  5
134
330
1F
100
AcDbEntity
  8
SK4
370
    13
100
AcDbLine
 10
-2.0
 20
0.0
 30
0.0
 11
42.0
 21
0.0
 31
0.0
  0
LINE
  5
135
330
1F
100
AcDbEntity
  8
1
370
    13
100
AcDbLine
 10
28.458601
 20
20.014859
 30
0.0
 11
28.737677
 21
18.919852
 31
0.0
  0
LINE
  5
136
330
1F
100
AcDbEntity
  8
1
370
    13
100
AcDbLine
 10
37.625757
 20
19.667456
 30
0.0
 11
37.70125
 21
19.775733
 31
0.0
  0
LINE
  5
137
330
1F
100
AcDbEntity
  8
1
370
    13
100
AcDbLine
 10
28.154707
 20
22.643814
 30
0.0
 11
27.879662
 21
22.650054
 31
0.0
  0
LINE
  5
138
330
1F
100
AcDbEntity
  8
1
370
    13
100
AcDbLine
 10
26.380981
 20
-10.563148
 30
0.0
 11
27.818289
 21
-9.797023
 31
0.0
  0
LINE
  5
139
330
1F
100
AcDbEntity
  8
1
370
    13
100
AcDbLine
 10
39.010075
 20
5.073585
 30
0.0
 11
38.950785
 21
5.148544
 31
0.0
  0
LINE
  5
13A
330
1F
100
AcDbEntity
  8
1
370
    13
100
AcDbLine
 10
38.879312
 20
-5.06493
 30
0.0
 11
38.82148
 21
-5.007399
 31
0.0
  0
LINE
  5
13B
330
1F
100
AcDbEntity
  8
1
370
    13
100
AcDbLine
 10
39.927979
 20
-10.222741
 30
0.0
 11
39.995938
 21
-9.977452
 31
0.0
  0
LINE
  5
13C
330
1F
100
AcDbEntity
  8
1
370
    13
100
AcDbLine
 10
28.371861
 20
-12.797823
 30
0.0
 11
28.390837
 21
-12.844453
 31
0.0
  0
LINE
  5
13D
330
1F
100
AcDbEntity
  8
1
370
    13
100
AcDbLine
 10
27.992093
 20
-8.640691
 30
0.0
 11
28.178437
 21
-8.679831
 31
0.0
  0
LINE
  5
13E
330
1F
100
AcDbEntity
  8
1
370
    13
100
AcDbLine
 10
30.3739
 20
-8.62437
 30
0.0
 11
29.656901
 21
-8.697404
 31
0.0
  0
LINE
  5
13F
330
1F
100
AcDbEntity
  8
1
370
    13
100
AcDbLine
 10
27.858515
 20
-8.652245
 30
0.0
 11
28.107564
 21
-8.714834
 31
0.0
  0
LINE
  5
140
330
1F
100
AcDbEntity
  8
1
370
    13
100
AcDbLine
 10
38.976341
 20
-5.043213
 30
0.0
 11
38.845598
 21
-4.93758
 31
0.0
  0
LINE
  5
141
330
1F
100
AcDbEntity
  8
1
370
    13
100
AcDbLine
 10
39.396647
 20
16.241287
 30
0.0
 11
39.10477
 21
15.947951
 31
0.0
  0
LINE
  5
142
330
1F
100
AcDbEntity
  8
1
370
    13
100
AcDbLine
 10
39.325774
 20
16.311834
 30
0.0
 11
39.105044
 21
16.090001
 31
0.0
  0
LINE
  5
143
330
1F
100
AcDbEntity
  8
1
370
    13
100
AcDbLine
 10
28.840889
 20
-22.773754
 30
0.0
 11
29.356159
 21
-23.057644
 31
0.0
  0
LINE
  5
144
330
1F
100
AcDbEntity
  8
1
370
    13
100
AcDbLine
 10
39.396647
 20
-16.149043
 30
0.0
 11
39.10477
 21
-15.849496
 31
0.0
  0
LINE
  5
145
330
1F
100
AcDbEntity
  8
1
370
    13
100
AcDbLine
 10
39.085406
 20
-17.019742
 30
0.0
 11
39.113373
 21
-17.188445
 31
0.0
  0
LINE
  5
146
330
1F
100
AcDbEntity
  8
1
370
    13
100
AcDbLine
 10
28.452204
 20
20.529404
 30
0.0
 11
29.111019
 21
18.530731
 31
0.0
  0
LINE
  5
147
330
1F
100
AcDbEntity
  8
1
370
    13
100
AcDbLine
 10
38.958303
 20
-17.921169
 30
0.0
 11
39.032524
 21
-17.546441
 31
0.0
  0
LINE
  5
148
330
1F
100
AcDbEntity
  8
1
370
    13
100
AcDbLine
 10
29.742856
 20
-23.559493
 30
0.0
 11
30.201685
 21
-23.78927
 31
0.0
  0
LINE
  5
149
330
1F
100
AcDbEntity
  8
1
370
    13
100
AcDbLine
 10
28.545907
 20
20.557011
 30
0.0
 11
29.208007
 21
18.548201
 31
0.0
  0
LINE
  5
14A
330
1F
100
AcDbEntity
  8
CUT
370
    13
100
AcDbLine
 10
39.168346
 20
21.070742
 30
0.0
 11
39.927979
 21
18.661816
 31
0.0
  0
LINE
  5
14B
330
1F
100
AcDbEntity
  8
CUT
370
    13
100
AcDbLine
 10
28.946356
 20
22.912754
 30
0.0
 11
29.546687
 21
23.515979
 31
0.0
  0
LINE
  5
14C
330
1F
100
AcDbEntity
  8
CUT
370
    13
100
AcDbLine
 10
38.817173
 20
15.658919
 30
0.0
 11
38.178497
 21
15.28258
 31
0.0
  0
LINE
  5
14D
330
1F
100
AcDbEntity
  8
1
370
    13
100
AcDbLine
 10
33.655268
 20
-8.443244
 30
0.0
 11
33.35278
 21
-8.450392
 31
0.0
  0
LINE
  5
14E
330
1F
100
AcDbEntity
  8
CUT
370
    13
100
AcDbLine
 10
39.396647
 20
16.241287
 30
0.0
 11
38.817173
 21
15.658919
 31
0.0
  0
LINE
  5
14F
330
1F
100
AcDbEntity
  8
CUT
370
    13
100
AcDbLine
 10
39.927979
 20
18.661816
 30
0.0
 11
39.973024
 21
17.891519
 31
0.0
  0
LINE
  5
150
330
1F
100
AcDbEntity
  8
CUT
370
    13
100
AcDbLine
 10
29.235787
 20
18.144428
 30
0.0
 11
28.452204
 21
20.529404
 31
0.0
  0
LINE
  5
151
330
1F
100
AcDbEntity
  8
CUT
370
    13
100
AcDbLine
 10
32.588424
 20
24.620264
 30
0.0
 11
34.951213
 21
25.307938
 31
0.0
  0
LINE
  5
152
330
1F
100
AcDbEntity
  8
CUT
370
    13
100
AcDbLine
 10
29.995419
 20
15.735502
 30
0.0
 11
29.235787
 21
18.144428
 31
0.0
  0
LINE
  5
153
330
1F
100
AcDbEntity
  8
1
370
    13
100
AcDbLine
 10
33.943623
 20
-8.437104
 30
0.0
 11
33.886242
 21
-8.438488
 31
0.0
  0
LINE
  5
154
330
1F
100
AcDbEntity
  8
CUT
370
    13
100
AcDbLine
 10
29.546687
 20
23.515979
 30
0.0
 11
30.201685
 21
23.90864
 31
0.0
  0
LINE
  5
155
330
1F
100
AcDbEntity
  8
1
370
    13
100
AcDbLine
 10
27.879662
 20
-8.652717
 30
0.0
 11
28.154707
 21
-8.608454
 31
0.0
  0
LINE
  5
156
330
1F
100
AcDbEntity
  8
CUT
370
    13
100
AcDbLine
 10
28.390837
 20
21.28338
 30
0.0
 11
28.52787
 21
22.104421
 31
0.0
  0
LINE
  5
157
330
1F
100
AcDbEntity
  8
CUT
370
    13
100
AcDbLine
 10
38.178497
 20
15.28258
 30
0.0
 11
35.815709
 21
14.594906
 31
0.0
  0
LINE
  5
158
330
1F
100
AcDbEntity
  8
CUT
370
    13
100
AcDbLine
 10
39.973024
 20
17.891519
 30
0.0
 11
39.815133
 21
17.04962
 31
0.0
  0
LINE
  5
159
330
1F
100
AcDbEntity
  8
CUT
370
    13
100
AcDbLine
 10
33.428969
 20
13.883282
 30
0.0
 11
32.659931
 21
13.844883
 31
0.0
  0
LINE
  5
15A
330
1F
100
AcDbEntity
  8
CUT
370
    13
100
AcDbLine
 10
30.99188
 20
14.450128
 30
0.0
 11
30.391447
 21
15.068611
 31
0.0
  0
LINE
  5
15B
330
1F
100
AcDbEntity
  8
CUT
370
    13
100
AcDbLine
 10
35.70393
 20
25.330015
 30
0.0
 11
36.529798
 21
25.146974
 31
0.0
  0
LINE
  5
15C
330
1F
100
AcDbEntity
  8
CUT
370
    13
100
AcDbLine
 10
34.951213
 20
25.307938
 30
0.0
 11
35.70393
 21
25.330015
 31
0.0
  0
LINE
  5
15D
330
1F
100
AcDbEntity
  8
CUT
370
    13
100
AcDbLine
 10
32.659931
 20
13.844883
 30
0.0
 11
31.813205
 21
14.007066
 31
0.0
  0
LINE
  5
15E
330
1F
100
AcDbEntity
  8
CUT
370
    13
100
AcDbLine
 10
28.452204
 20
20.529404
 30
0.0
 11
28.390837
 21
21.28338
 31
0.0
  0
LINE
  5
15F
330
1F
100
AcDbEntity
  8
CUT
370
    13
100
AcDbLine
 10
30.201685
 20
23.90864
 30
0.0
 11
32.588424
 21
24.620264
 31
0.0
  0
LINE
  5
160
330
1F
100
AcDbEntity
  8
1
370
    13
100
AcDbLine
 10
28.354568
 20
-1.252752
 30
0.0
 11
28.154707
 21
-1.298312
 31
0.0
  0
LINE
  5
161
330
1F
100
AcDbEntity
  8
1
370
    13
100
AcDbLine
 10
34.299172
 20
-8.083012
 30
0.0
 11
33.861574
 21
-8.105497
 31
0.0
  0
LINE
  5
162
330
1F
100
AcDbEntity
  8
1
370
    13
100
AcDbLine
 10
31.24371
 20
-8.242427
 30
0.0
 11
33.861574
 21
-8.105497
 31
0.0
  0
LINE
  5
163
330
1F
100
AcDbEntity
  8
1
370
    13
100
AcDbLine
 10
33.716758
 20
-0.58634
 30
0.0
 11
32.541601
 21
-0.668934
 31
0.0
  0
LINE
  5
164
330
1F
100
AcDbEntity
  8
1
370
    13
100
AcDbLine
 10
29.202559
 20
-8.357694
 30
0.0
 11
31.24371
 21
-8.242427
 31
0.0
  0
LINE
  5
165
330
1F
100
AcDbEntity
  8
1
370
    13
100
AcDbLine
 10
28.225007
 20
-8.597218
 30
0.0
 11
29.202559
 21
-8.357694
 31
0.0
  0
LINE
  5
166
330
1F
100
AcDbEntity
  8
1
370
    13
100
AcDbLine
 10
28.384919
 20
-1.865718
 30
0.0
 11
28.354568
 21
-1.252752
 31
0.0
  0
LINE
  5
167
330
1F
100
AcDbEntity
  8
1
370
    13
100
AcDbLine
 10
32.567414
 20
-1.434188
 30
0.0
 11
31.24371
 21
-1.522118
 31
0.0
  0
LINE
  5
168
330
1F
100
AcDbEntity
  8
1
370
    13
100
AcDbLine
 10
4.263063
 20
-5.031301
 30
0.0
 11
4.1
 21
-5.0975
 31
0.0
  0
LINE
  5
169
330
1F
100
AcDbEntity
  8
1
370
    13
100
AcDbLine
 10
28.154707
 20
-8.608454
 30
0.0
 11
28.225007
 21
-8.597218
 31
0.0
  0
LINE
  5
16A
330
1F
100
AcDbEntity
  8
1
370
    13
100
AcDbLine
 10
31.24371
 20
-1.522118
 30
0.0
 11
28.384919
 21
-1.865718
 31
0.0
  0
LINE
  5
16B
330
1F
100
AcDbEntity
  8
1
370
    13
100
AcDbLine
 10
9.902474
 20
-12.878093
 30
0.0
 11
9.757583
 21
-11.301811
 31
0.0
  0
LINE
  5
16C
330
1F
100
AcDbEntity
  8
1
370
    13
100
AcDbLine
 10
4.835683
 20
4.196979
 30
0.0
 11
4.9
 21
3.802212
 31
0.0
  0
LINE
  5
16D
330
1F
100
AcDbEntity
  8
1
370
    13
100
AcDbLine
 10
30.835011
 20
-8.529321
 30
0.0
 11
29.479094
 21
-8.389196
 31
0.0
  0
LINE
  5
16E
330
1F
100
AcDbEntity
  8
1
370
    13
100
AcDbLine
 10
35.947493
 20
-7.74671
 30
0.0
 11
35.789183
 21
-7.800504
 31
0.0
  0
LINE
  5
16F
330
1F
100
AcDbEntity
  8
1
370
    13
100
AcDbLine
 10
26.398656
 20
-1.602
 30
0.0
 11
28.1341
 21
-1.205376
 31
0.0
  0
LINE
  5
170
330
1F
100
AcDbEntity
  8
1
370
    13
100
AcDbLine
 10
15.379814
 20
0.57619
 30
0.0
 11
15.327393
 21
0.507216
 31
0.0
  0
LINE
  5
171
330
1F
100
AcDbEntity
  8
1
370
    13
100
AcDbLine
 10
37.648927
 20
-6.692234
 30
0.0
 11
37.240992
 21
-7.069694
 31
0.0
  0
LINE
  5
172
330
1F
100
AcDbEntity
  8
1
370
    13
100
AcDbLine
 10
36.435646
 20
2.120791
 30
0.0
 11
36.737367
 21
2.144142
 31
0.0
  0
LINE
  5
173
330
1F
100
AcDbEntity
  8
1
370
    13
100
AcDbLine
 10
14.719299
 20
1.076974
 30
0.0
 11
14.675402
 21
1.013107
 31
0.0
  0
LINE
  5
174
330
1F
100
AcDbEntity
  8
1
370
    13
100
AcDbLine
 10
33.716758
 20
-0.58634
 30
0.0
 11
33.861574
 21
-0.948274
 31
0.0
  0
LINE
  5
175
330
1F
100
AcDbEntity
  8
1
370
    13
100
AcDbLine
 10
39.875995
 20
10.858158
 30
0.0
 11
39.834275
 21
11.195987
 31
0.0
  0
LINE
  5
176
330
1F
100
AcDbEntity
  8
1
370
    13
100
AcDbLine
 10
10.877613
 20
6.142636
 30
0.0
 11
10.324598
 21
7.826443
 31
0.0
  0
LINE
  5
177
330
1F
100
AcDbEntity
  8
1
370
    13
100
AcDbLine
 10
13.377369
 20
2.292428
 30
0.0
 11
14.719299
 21
1.076974
 31
0.0
  0
LINE
  5
178
330
1F
100
AcDbEntity
  8
1
370
    13
100
AcDbLine
 10
39.875995
 20
10.858158
 30
0.0
 11
39.718104
 21
10.490372
 31
0.0
  0
LINE
  5
179
330
1F
100
AcDbEntity
  8
1
370
    13
100
AcDbLine
 10
39.973024
 20
-7.903932
 30
0.0
 11
39.815133
 21
-7.384717
 31
0.0
  0
LINE
  5
17A
330
1F
100
AcDbEntity
  8
1
370
    13
100
AcDbLine
 10
39.927979
 20
11.193284
 30
0.0
 11
39.168346
 21
12.334184
 31
0.0
  0
LINE
  5
17B
330
1F
100
AcDbEntity
  8
1
370
    13
100
AcDbLine
 10
37.757642
 20
1.408084
 30
0.0
 11
37.70125
 21
1.607316
 31
0.0
  0
LINE
  5
17C
330
1F
100
AcDbEntity
  8
1
370
    13
100
AcDbLine
 10
39.396647
 20
-6.793211
 30
0.0
 11
39.815133
 21
-7.384717
 31
0.0
  0
LINE
  5
17D
330
1F
100
AcDbEntity
  8
1
370
    13
100
AcDbLine
 10
34.537089
 20
1.704331
 30
0.0
 11
34.928545
 21
1.816895
 31
0.0
  0
LINE
  5
17E
330
1F
100
AcDbEntity
  8
1
370
    13
100
AcDbLine
 10
39.927979
 20
11.193284
 30
0.0
 11
39.973024
 21
10.835809
 31
0.0
  0
LINE
  5
17F
330
1F
100
AcDbEntity
  8
1
370
    13
100
AcDbLine
 10
39.834275
 20
11.195987
 30
0.0
 11
39.074643
 21
12.336887
 31
0.0
  0
LINE
  5
180
330
1F
100
AcDbEntity
  8
1
370
    13
100
AcDbLine
 10
37.648927
 20
0.287368
 30
0.0
 11
37.757642
 21
1.408084
 31
0.0
  0
LINE
  5
181
330
1F
100
AcDbEntity
  8
1
370
    13
100
AcDbLine
 10
39.973024
 20
10.835809
 30
0.0
 11
39.815133
 21
10.468023
 31
0.0
  0
LINE
  5
182
330
1F
100
AcDbEntity
  8
1
370
    13
100
AcDbLine
 10
32.076956
 20
21.439833
 30
0.0
 11
32.008308
 21
21.373624
 31
0.0
  0
LINE
  5
183
330
1F
100
AcDbEntity
  8
1
370
    13
100
AcDbLine
 10
37.508792
 20
-22.765652
 30
0.0
 11
38.268424
 21
-20.349008
 31
0.0
  0
LINE
  5
184
330
1F
100
AcDbEntity
  8
1
370
    13
100
AcDbLine
 10
31.307622
 20
7.802457
 30
0.0
 11
31.779992
 21
7.231259
 31
0.0
  0
LINE
  5
185
330
1F
100
AcDbEntity
  8
1
370
    13
100
AcDbLine
 10
31.519247
 20
19.454233
 30
0.0
 11
31.548399
 21
19.125572
 31
0.0
  0
LINE
  5
186
330
1F
100
AcDbEntity
  8
1
370
    13
100
AcDbLine
 10
30.962572
 20
-19.093105
 30
0.0
 11
31.576331
 21
-19.453135
 31
0.0
  0
LINE
  5
187
330
1F
100
AcDbEntity
  8
1
370
    13
100
AcDbLine
 10
39.168346
 20
-21.003028
 30
0.0
 11
38.384763
 21
-23.402265
 31
0.0
  0
LINE
  5
188
330
1F
100
AcDbEntity
  8
1
370
    13
100
AcDbLine
 10
36.120629
 20
-7.823098
 30
0.0
 11
36.087417
 21
-7.864458
 31
0.0
  0
LINE
  5
189
330
1F
100
AcDbEntity
  8
1
370
    13
100
AcDbLine
 10
30.77142
 20
0.20649
 30
0.0
 11
30.114201
 21
-0.189153
 31
0.0
  0
LINE
  5
18A
330
1F
100
AcDbEntity
  8
1
370
    13
100
AcDbLine
 10
33.568493
 20
21.22446
 30
0.0
 11
32.84373
 21
20.794833
 31
0.0
  0
LINE
  5
18B
330
1F
100
AcDbEntity
  8
1
370
    13
100
AcDbLine
 10
32.008308
 20
21.373624
 30
0.0
 11
31.495748
 21
20.650785
 31
0.0
  0
LINE
  5
18C
330
1F
100
AcDbEntity
  8
1
370
    13
100
AcDbLine
 10
39.927979
 20
-18.586384
 30
0.0
 11
39.168346
 21
-21.003028
 31
0.0
  0
LINE
  5
18D
330
1F
100
AcDbEntity
  8
1
370
    13
100
AcDbLine
 10
31.576331
 20
-0.483861
 30
0.0
 11
32.870584
 21
-0.222613
 31
0.0
  0
LINE
  5
18E
330
1F
100
AcDbEntity
  8
1
370
    13
100
AcDbLine
 10
32.52383
 20
20.34977
 30
0.0
 11
32.353506
 21
19.383103
 31
0.0
  0
LINE
  5
18F
330
1F
100
AcDbEntity
  8
1
370
    13
100
AcDbLine
 10
31.562771
 20
19.497757
 30
0.0
 11
31.59648
 21
19.140725
 31
0.0
  0
LINE
  5
190
330
1F
100
AcDbEntity
  8
1
370
    13
100
AcDbLine
 10
36.559722
 20
8.294458
 30
0.0
 11
36.745359
 21
9.012021
 31
0.0
  0
LINE
  5
191
330
1F
100
AcDbEntity
  8
1
370
    13
100
AcDbLine
 10
32.84373
 20
20.794833
 30
0.0
 11
32.627122
 21
20.529244
 31
0.0
  0
LINE
  5
192
330
1F
100
AcDbEntity
  8
1
370
    13
100
AcDbLine
 10
33.065042
 20
-19.136665
 30
0.0
 11
33.116144
 21
-19.091336
 31
0.0
  0
LINE
  5
193
330
1F
100
AcDbEntity
  8
1
370
    13
100
AcDbLine
 10
33.298127
 20
21.891782
 30
0.0
 11
32.27138
 21
21.283144
 31
0.0
  0
LINE
  5
194
330
1F
100
AcDbEntity
  8
1
370
    13
100
AcDbLine
 10
38.268424
 20
-20.349008
 30
0.0
 11
39.052007
 21
-17.94977
 31
0.0
  0
LINE
  5
195
330
1F
100
AcDbEntity
  8
1
370
    13
100
AcDbLine
 10
33.932904
 20
21.991559
 30
0.0
 11
33.298127
 21
21.891782
 31
0.0
  0
LINE
  5
196
330
1F
100
AcDbEntity
  8
1
370
    13
100
AcDbLine
 10
37.415088
 20
-22.737051
 30
0.0
 11
38.174721
 21
-20.320407
 31
0.0
  0
LINE
  5
197
330
1F
100
AcDbEntity
  8
1
370
    13
100
AcDbLine
 10
29.546687
 20
9.483723
 30
0.0
 11
30.201685
 21
9.791057
 31
0.0
  0
LINE
  5
198
330
1F
100
AcDbEntity
  8
1
370
    13
100
AcDbLine
 10
38.817173
 20
5.932857
 30
0.0
 11
38.178497
 21
5.552139
 31
0.0
  0
LINE
  5
199
330
1F
100
AcDbEntity
  8
1
370
    13
100
AcDbLine
 10
32.61887
 20
10.493222
 30
0.0
 11
30.232131
 21
9.73576
 31
0.0
  0
LINE
  5
19A
330
1F
100
AcDbEntity
  8
1
370
    13
100
AcDbLine
 10
28.487866
 20
7.890684
 30
0.0
 11
28.545907
 21
7.408376
 31
0.0
  0
LINE
  5
19B
330
1F
100
AcDbEntity
  8
1
370
    13
100
AcDbLine
 10
30.089122
 20
4.605523
 30
0.0
 11
30.459888
 21
4.309014
 31
0.0
  0
LINE
  5
19C
330
1F
100
AcDbEntity
  8
1
370
    13
100
AcDbLine
 10
28.487866
 20
7.890684
 30
0.0
 11
28.624899
 21
8.487933
 31
0.0
  0
LINE
  5
19D
330
1F
100
AcDbEntity
  8
1
370
    13
100
AcDbLine
 10
35.815709
 20
4.68699
 30
0.0
 11
38.178497
 21
5.552139
 31
0.0
  0
LINE
  5
19E
330
1F
100
AcDbEntity
  8
1
370
    13
100
AcDbLine
 10
29.325713
 20
13.729605
 30
0.0
 11
28.687037
 21
13.348886
 31
0.0
  0
LINE
  5
19F
330
1F
100
AcDbEntity
  8
1
370
    13
100
AcDbLine
 10
39.875995
 20
7.525897
 30
0.0
 11
39.718104
 21
7.022428
 31
0.0
  0
LINE
  5
1A0
330
1F
100
AcDbEntity
  8
1
370
    13
100
AcDbLine
 10
39.927979
 20
7.966833
 30
0.0
 11
39.973024
 21
7.528202
 31
0.0
  0
LINE
  5
1A1
330
1F
100
AcDbEntity
  8
1
370
    13
100
AcDbLine
 10
37.972414
 20
11.161793
 30
0.0
 11
38.384763
 21
10.769685
 31
0.0
  0
LINE
  5
1A2
330
1F
100
AcDbEntity
  8
1
370
    13
100
AcDbLine
 10
37.112764
 20
15.026955
 30
0.0
 11
36.512331
 21
15.271353
 31
0.0
  0
LINE
  5
1A3
330
1F
100
AcDbEntity
  8
1
370
    13
100
AcDbLine
 10
35.785262
 20
4.742288
 30
0.0
 11
38.148051
 21
5.607436
 31
0.0
  0
LINE
  5
1A4
330
1F
100
AcDbEntity
  8
1
370
    13
100
AcDbLine
 10
39.325774
 20
6.48092
 30
0.0
 11
39.718104
 21
7.022428
 31
0.0
  0
LINE
  5
1A5
330
1F
100
AcDbEntity
  8
1
370
    13
100
AcDbLine
 10
32.677039
 20
3.893174
 30
0.0
 11
33.398523
 21
3.984825
 31
0.0
  0
LINE
  5
1A6
330
1F
100
AcDbEntity
  8
1
370
    13
100
AcDbLine
 10
38.148051
 20
5.607436
 30
0.0
 11
38.7463
 21
5.966653
 31
0.0
  0
LINE
  5
1A7
330
1F
100
AcDbEntity
  8
1
370
    13
100
AcDbLine
 10
37.508792
 20
14.708233
 30
0.0
 11
37.112764
 21
15.026955
 31
0.0
  0
LINE
  5
1A8
330
1F
100
AcDbEntity
  8
1
370
    13
100
AcDbLine
 10
30.232131
 20
9.73576
 30
0.0
 11
29.617561
 21
9.449928
 31
0.0
  0
LINE
  5
1A9
330
1F
100
AcDbEntity
  8
1
370
    13
100
AcDbLine
 10
37.508792
 20
14.708233
 30
0.0
 11
38.268424
 21
13.36065
 31
0.0
  0
LINE
  5
1AA
330
1F
100
AcDbEntity
  8
1
370
    13
100
AcDbLine
 10
29.01723
 20
9.029441
 30
0.0
 11
29.617561
 21
9.449928
 31
0.0
  0
LINE
  5
1AB
330
1F
100
AcDbEntity
  8
1
370
    13
100
AcDbLine
 10
28.545907
 20
7.408376
 30
0.0
 11
29.32949
 21
5.953106
 31
0.0
  0
LINE
  5
1AC
330
1F
100
AcDbEntity
  8
1
370
    13
100
AcDbLine
 10
39.074643
 20
9.282403
 30
0.0
 11
38.29106
 21
10.737673
 31
0.0
  0
LINE
  5
1AD
330
1F
100
AcDbEntity
  8
1
370
    13
100
AcDbLine
 10
33.428969
 20
3.929528
 30
0.0
 11
32.659931
 21
3.829321
 31
0.0
  0
LINE
  5
1AE
330
1F
100
AcDbEntity
  8
1
370
    13
100
AcDbLine
 10
29.235787
 20
5.921094
 30
0.0
 11
29.995419
 21
4.573511
 31
0.0
  0
LINE
  5
1AF
330
1F
100
AcDbEntity
  8
1
370
    13
100
AcDbLine
 10
30.391447
 20
4.254788
 30
0.0
 11
29.995419
 21
4.573511
 31
0.0
  0
LINE
  5
1B0
330
1F
100
AcDbEntity
  8
1
370
    13
100
AcDbLine
 10
37.282682
 20
11.445745
 30
0.0
 11
37.903973
 21
11.107567
 31
0.0
  0
LINE
  5
1B1
330
1F
100
AcDbEntity
  8
1
370
    13
100
AcDbLine
 10
29.32949
 20
5.953106
 30
0.0
 11
30.089122
 21
4.605523
 31
0.0
  0
LINE
  5
1B2
330
1F
100
AcDbEntity
  8
1
370
    13
100
AcDbLine
 10
39.834275
 20
7.93482
 30
0.0
 11
39.074643
 21
9.282403
 31
0.0
  0
LINE
  5
1B3
330
1F
100
AcDbEntity
  8
1
370
    13
100
AcDbLine
 10
28.687037
 20
13.348886
 30
0.0
 11
28.107564
 21
12.83462
 31
0.0
  0
LINE
  5
1B4
330
1F
100
AcDbEntity
  8
1
370
    13
100
AcDbLine
 10
31.060321
 20
4.064616
 30
0.0
 11
30.459888
 21
4.309014
 31
0.0
  0
LINE
  5
1B5
330
1F
100
AcDbEntity
  8
1
370
    13
100
AcDbLine
 10
35.691006
 20
15.425398
 30
0.0
 11
34.84428
 21
15.452423
 31
0.0
  0
LINE
  5
1B6
330
1F
100
AcDbEntity
  8
1
370
    13
100
AcDbLine
 10
35.691006
 20
15.425398
 30
0.0
 11
36.512331
 21
15.271353
 31
0.0
  0
LINE
  5
1B7
330
1F
100
AcDbEntity
  8
1
370
    13
100
AcDbLine
 10
28.452204
 20
7.376363
 30
0.0
 11
29.235787
 21
5.921094
 31
0.0
  0
LINE
  5
1B8
330
1F
100
AcDbEntity
  8
1
370
    13
100
AcDbLine
 10
37.351123
 20
11.499971
 30
0.0
 11
37.972414
 21
11.161793
 31
0.0
  0
LINE
  5
1B9
330
1F
100
AcDbEntity
  8
1
370
    13
100
AcDbLine
 10
35.686821
 20
11.523407
 30
0.0
 11
36.512689
 21
11.590162
 31
0.0
  0
LINE
  5
1BA
330
1F
100
AcDbEntity
  8
1
370
    13
100
AcDbLine
 10
28.946356
 20
9.063237
 30
0.0
 11
29.546687
 21
9.483723
 31
0.0
  0
LINE
  5
1BB
330
1F
100
AcDbEntity
  8
1
370
    13
100
AcDbLine
 10
39.168346
 20
9.314416
 30
0.0
 11
38.384763
 21
10.769685
 31
0.0
  0
LINE
  5
1BC
330
1F
100
AcDbEntity
  8
1
370
    13
100
AcDbLine
 10
39.927979
 20
7.966833
 30
0.0
 11
39.168346
 21
9.314416
 31
0.0
  0
LINE
  5
1BD
330
1F
100
AcDbEntity
  8
1
370
    13
100
AcDbLine
 10
39.875995
 20
7.525897
 30
0.0
 11
39.834275
 21
7.93482
 31
0.0
  0
LINE
  5
1BE
330
1F
100
AcDbEntity
  8
1
370
    13
100
AcDbLine
 10
30.99188
 20
4.01039
 30
0.0
 11
30.391447
 21
4.254788
 31
0.0
  0
LINE
  5
1BF
330
1F
100
AcDbEntity
  8
1
370
    13
100
AcDbLine
 10
31.060321
 20
4.064616
 30
0.0
 11
31.830314
 21
3.9202
 31
0.0
  0
LINE
  5
1C0
330
1F
100
AcDbEntity
  8
1
370
    13
100
AcDbLine
 10
39.396647
 20
6.447124
 30
0.0
 11
39.815133
 21
7.024733
 31
0.0
  0
LINE
  5
1C1
330
1F
100
AcDbEntity
  8
1
370
    13
100
AcDbLine
 10
38.268424
 20
13.36065
 30
0.0
 11
39.052007
 21
11.90538
 31
0.0
  0
LINE
  5
1C2
330
1F
100
AcDbEntity
  8
1
370
    13
100
AcDbLine
 10
39.973024
 20
7.528202
 30
0.0
 11
39.815133
 21
7.024733
 31
0.0
  0
LINE
  5
1C3
330
1F
100
AcDbEntity
  8
1
370
    13
100
AcDbLine
 10
28.390837
 20
7.888379
 30
0.0
 11
28.52787
 21
8.485628
 31
0.0
  0
LINE
  5
1C4
330
1F
100
AcDbEntity
  8
1
370
    13
100
AcDbLine
 10
33.428969
 20
3.929528
 30
0.0
 11
35.815709
 21
4.68699
 31
0.0
  0
LINE
  5
1C5
330
1F
100
AcDbEntity
  8
1
370
    13
100
AcDbLine
 10
33.398523
 20
3.984825
 30
0.0
 11
35.785262
 21
4.742288
 31
0.0
  0
LINE
  5
1C6
330
1F
100
AcDbEntity
  8
1
370
    13
100
AcDbLine
 10
28.452204
 20
7.376363
 30
0.0
 11
28.390837
 21
7.888379
 31
0.0
  0
LINE
  5
1C7
330
1F
100
AcDbEntity
  8
1
370
    13
100
AcDbLine
 10
39.325774
 20
6.48092
 30
0.0
 11
38.7463
 21
5.966653
 31
0.0
  0
LINE
  5
1C8
330
1F
100
AcDbEntity
  8
1
370
    13
100
AcDbLine
 10
39.396647
 20
6.447124
 30
0.0
 11
38.817173
 21
5.932857
 31
0.0
  0
LINE
  5
1C9
330
1F
100
AcDbEntity
  8
1
370
    13
100
AcDbLine
 10
38.29106
 20
10.737673
 30
0.0
 11
37.903973
 21
11.107567
 31
0.0
  0
LINE
  5
1CA
330
1F
100
AcDbEntity
  8
1
370
    13
100
AcDbLine
 10
32.677039
 20
3.893174
 30
0.0
 11
31.830314
 21
3.9202
 31
0.0
  0
LINE
  5
1CB
330
1F
100
AcDbEntity
  8
1
370
    13
100
AcDbLine
 10
27.689078
 20
12.257011
 30
0.0
 11
28.107564
 21
12.83462
 31
0.0
  0
LINE
  5
1CC
330
1F
100
AcDbEntity
  8
1
370
    13
100
AcDbLine
 10
27.689078
 20
12.257011
 30
0.0
 11
27.531187
 21
11.753542
 31
0.0
  0
LINE
  5
1CD
330
1F
100
AcDbEntity
  8
1
370
    13
100
AcDbLine
 10
30.99188
 20
4.01039
 30
0.0
 11
31.813205
 21
3.856346
 31
0.0
  0
LINE
  5
1CE
330
1F
100
AcDbEntity
  8
1
370
    13
100
AcDbLine
 10
32.659931
 20
3.829321
 30
0.0
 11
31.813205
 21
3.856346
 31
0.0
  0
LINE
  5
1CF
330
1F
100
AcDbEntity
  8
1
370
    13
100
AcDbLine
 10
38.25408
 20
18.833491
 30
0.0
 11
38.234407
 21
18.882155
 31
0.0
  0
LINE
  5
1D0
330
1F
100
AcDbEntity
  8
1
370
    13
100
AcDbLine
 10
37.648927
 20
14.541986
 30
0.0
 11
38.424659
 21
13.10564
 31
0.0
  0
LINE
  5
1D1
330
1F
100
AcDbEntity
  8
1
370
    13
100
AcDbLine
 10
38.997026
 20
-4.914744
 30
0.0
 11
39.003374
 21
-4.842071
 31
0.0
  0
LINE
  5
1D2
330
1F
100
AcDbEntity
  8
1
370
    13
100
AcDbLine
 10
12.007337
 20
-23.204537
 30
0.0
 11
14.675402
 21
-22.877144
 31
0.0
  0
LINE
  5
1D3
330
1F
100
AcDbEntity
  8
1
370
    13
100
AcDbLine
 10
28.384919
 20
18.408051
 30
0.0
 11
28.317612
 21
19.407439
 31
0.0
  0
LINE
  5
1D4
330
1F
100
AcDbEntity
  8
1
370
    13
100
AcDbLine
 10
39.009614
 20
-4.801103
 30
0.0
 11
39.097112
 21
-4.36996
 31
0.0
  0
LINE
  5
1D5
330
1F
100
AcDbEntity
  8
1
370
    13
100
AcDbLine
 10
38.277743
 20
-15.865781
 30
0.0
 11
38.25408
 21
-15.949919
 31
0.0
  0
LINE
  5
1D6
330
1F
100
AcDbEntity
  8
1
370
    13
100
AcDbLine
 10
38.234407
 20
-16.013752
 30
0.0
 11
37.757642
 21
-17.859516
 31
0.0
  0
LINE
  5
1D7
330
1F
100
AcDbEntity
  8
1
370
    13
100
AcDbLine
 10
15.379814
 20
20.266633
 30
0.0
 11
15.327393
 21
20.280262
 31
0.0
  0
LINE
  5
1D8
330
1F
100
AcDbEntity
  8
1
370
    13
100
AcDbLine
 10
14.719299
 20
-18.856337
 30
0.0
 11
14.675402
 21
-18.935154
 31
0.0
  0
LINE
  5
1D9
330
1F
100
AcDbEntity
  8
1
370
    13
100
AcDbLine
 10
39.011824
 20
12.323844
 30
0.0
 11
38.424659
 21
13.10564
 31
0.0
  0
LINE
  5
1DA
330
1F
100
AcDbEntity
  8
1
370
    13
100
AcDbLine
 10
29.666234
 20
4.3244
 30
0.0
 11
30.32521
 21
3.170976
 31
0.0
  0
LINE
  5
1DB
330
1F
100
AcDbEntity
  8
1
370
    13
100
AcDbLine
 10
30.325829
 20
3.169978
 30
0.0
 11
30.289995
 21
3.026968
 31
0.0
  0
LINE
  5
1DC
330
1F
100
AcDbEntity
  8
1
370
    13
100
AcDbLine
 10
38.997027
 20
4.560074
 30
0.0
 11
38.910071
 21
4.608413
 31
0.0
  0
LINE
  5
1DD
330
1F
100
AcDbEntity
  8
1
370
    13
100
AcDbLine
 10
38.25408
 20
-15.949919
 30
0.0
 11
38.234407
 21
-16.013749
 31
0.0
  0
LINE
  5
1DE
330
1F
100
AcDbEntity
  8
1
370
    13
100
AcDbLine
 10
39.011824
 20
12.323844
 30
0.0
 11
39.097112
 21
11.874175
 31
0.0
  0
LINE
  5
1DF
330
1F
100
AcDbEntity
  8
1
370
    13
100
AcDbLine
 10
28.317592
 20
19.407436
 30
0.0
 11
28.154707
 21
19.386576
 31
0.0
  0
LINE
  5
1E0
330
1F
100
AcDbEntity
  8
1
370
    13
100
AcDbLine
 10
10.877613
 20
-15.990203
 30
0.0
 11
10.324598
 21
-14.723874
 31
0.0
  0
LINE
  5
1E1
330
1F
100
AcDbEntity
  8
1
370
    13
100
AcDbLine
 10
38.888067
 20
4.534589
 30
0.0
 11
39.009585
 21
4.442088
 31
0.0
  0
LINE
  5
1E2
330
1F
100
AcDbEntity
  8
1
370
    13
100
AcDbLine
 10
38.853351
 20
5.757702
 30
0.0
 11
38.937627
 21
5.922336
 31
0.0
  0
LINE
  5
1E3
330
1F
100
AcDbEntity
  8
1
370
    13
100
AcDbLine
 10
38.160486
 20
-15.826806
 30
0.0
 11
38.894566
 21
-13.00292
 31
0.0
  0
LINE
  5
1E4
330
1F
100
AcDbEntity
  8
1
370
    13
100
AcDbLine
 10
39.010075
 20
5.073585
 30
0.0
 11
39.097112
 21
5.340475
 31
0.0
  0
LINE
  5
1E5
330
1F
100
AcDbEntity
  8
1
370
    13
100
AcDbLine
 10
39.009614
 20
4.442121
 30
0.0
 11
39.097112
 21
3.984071
 31
0.0
  0
LINE
  5
1E6
330
1F
100
AcDbEntity
  8
1
370
    13
100
AcDbLine
 10
38.820405
 20
4.52097
 30
0.0
 11
38.883694
 21
4.557414
 31
0.0
  0
LINE
  5
1E7
330
1F
100
AcDbEntity
  8
1
370
    13
100
AcDbLine
 10
37.648927
 20
-18.777295
 30
0.0
 11
37.757642
 21
-17.859516
 31
0.0
  0
LINE
  5
1E8
330
1F
100
AcDbEntity
  8
1
370
    13
100
AcDbLine
 10
37.757642
 20
-17.859516
 30
0.0
 11
37.70125
 21
-17.599698
 31
0.0
  0
LINE
  5
1E9
330
1F
100
AcDbEntity
  8
1
370
    13
100
AcDbLine
 10
38.859974
 20
5.124232
 30
0.0
 11
38.853339
 21
5.757711
 31
0.0
  0
LINE
  5
1EA
330
1F
100
AcDbEntity
  8
1
370
    13
100
AcDbLine
 10
38.277743
 20
-15.865781
 30
0.0
 11
38.160486
 21
-15.826806
 31
0.0
  0
LINE
  5
1EB
330
1F
100
AcDbEntity
  8
1
370
    13
100
AcDbLine
 10
28.154707
 20
13.500656
 30
0.0
 11
28.225007
 21
13.510664
 31
0.0
  0
LINE
  5
1EC
330
1F
100
AcDbEntity
  8
1
370
    13
100
AcDbLine
 10
37.648927
 20
-21.931588
 30
0.0
 11
38.424659
 21
-19.47096
 31
0.0
  0
LINE
  5
1ED
330
1F
100
AcDbEntity
  8
1
370
    13
100
AcDbLine
 10
38.234411
 20
-16.013729
 30
0.0
 11
38.115178
 21
-15.994909
 31
0.0
  0
LINE
  5
1EE
330
1F
100
AcDbEntity
  8
1
370
    13
100
AcDbLine
 10
39.097112
 20
3.984071
 30
0.0
 11
38.97559
 21
4.076195
 31
0.0
  0
LINE
  5
1EF
330
1F
100
AcDbEntity
  8
1
370
    13
100
AcDbLine
 10
28.225007
 20
13.510664
 30
0.0
 11
29.202559
 21
13.76792
 31
0.0
  0
LINE
  5
1F0
330
1F
100
AcDbEntity
  8
1
370
    13
100
AcDbLine
 10
38.277743
 20
18.779333
 30
0.0
 11
38.25408
 21
18.833491
 31
0.0
  0
LINE
  5
1F1
330
1F
100
AcDbEntity
  8
1
370
    13
100
AcDbLine
 10
37.70125
 20
-17.599698
 30
0.0
 11
38.115178
 21
-15.994909
 31
0.0
  0
LINE
  5
1F2
330
1F
100
AcDbEntity
  8
1
370
    13
100
AcDbLine
 10
38.997026
 20
4.560072
 30
0.0
 11
39.003374
 21
4.485113
 31
0.0
  0
LINE
  5
1F3
330
1F
100
AcDbEntity
  8
1
370
    13
100
AcDbLine
 10
39.011824
 20
-17.523977
 30
0.0
 11
38.424659
 21
-19.47096
 31
0.0
  0
LINE
  5
1F4
330
1F
100
AcDbEntity
  8
1
370
    13
100
AcDbLine
 10
39.011824
 20
-13.040207
 30
0.0
 11
38.894566
 21
-13.00292
 31
0.0
  0
LINE
  5
1F5
330
1F
100
AcDbEntity
  8
1
370
    13
100
AcDbLine
 10
29.524074
 20
3.295439
 30
0.0
 11
29.357479
 21
4.260773
 31
0.0
  0
LINE
  5
1F6
330
1F
100
AcDbEntity
  8
1
370
    13
100
AcDbLine
 10
37.757642
 20
19.840216
 30
0.0
 11
37.70125
 21
19.775733
 31
0.0
  0
LINE
  5
1F7
330
1F
100
AcDbEntity
  8
1
370
    13
100
AcDbLine
 10
38.234407
 20
18.882151
 30
0.0
 11
37.757642
 21
19.840216
 31
0.0
  0
LINE
  5
1F8
330
1F
100
AcDbEntity
  8
1
370
    13
100
AcDbLine
 10
15.327393
 20
-22.83744
 30
0.0
 11
18.38375
 21
-22.842394
 31
0.0
  0
LINE
  5
1F9
330
1F
100
AcDbEntity
  8
1
370
    13
100
AcDbLine
 10
33.2326
 20
8.243618
 30
0.0
 11
33.191167
 21
8.193553
 31
0.0
  0
LINE
  5
1FA
330
1F
100
AcDbEntity
  8
1
370
    13
100
AcDbLine
 10
15.314086
 20
22.742233
 30
0.0
 11
14.649055
 21
22.776682
 31
0.0
  0
LINE
  5
1FB
330
1F
100
AcDbEntity
  8
1
370
    13
100
AcDbLine
 10
26.375365
 20
-22.784262
 30
0.0
 11
26.285015
 21
-22.839975
 31
0.0
  0
LINE
  5
1FC
330
1F
100
AcDbEntity
  8
1
370
    13
100
AcDbLine
 10
39.011824
 20
5.69849
 30
0.0
 11
39.098998
 21
5.453797
 31
0.0
  0
LINE
  5
1FD
330
1F
100
AcDbEntity
  8
1
370
    13
100
AcDbLine
 10
10.373617
 20
23.335091
 30
0.0
 11
9.960209
 21
23.408894
 31
0.0
  0
LINE
  5
1FE
330
1F
100
AcDbEntity
  8
1
370
    13
100
AcDbLine
 10
33.943306
 20
8.201136
 30
0.0
 11
33.917062
 21
8.24415
 31
0.0
  0
LINE
  5
1FF
330
1F
100
AcDbEntity
  8
1
370
    13
100
AcDbLine
 10
34.190012
 20
20.480919
 30
0.0
 11
34.493277
 21
20.531563
 31
0.0
  0
LINE
  5
200
330
1F
100
AcDbEntity
  8
1
370
    13
100
AcDbLine
 10
38.97559
 20
-12.09654
 30
0.0
 11
38.932948
 21
-11.500483
 31
0.0
  0
LINE
  5
201
330
1F
100
AcDbEntity
  8
1
370
    13
100
AcDbLine
 10
10.373617
 20
23.335091
 30
0.0
 11
10.324598
 21
23.377568
 31
0.0
  0
LINE
  5
202
330
1F
100
AcDbEntity
  8
1
370
    13
100
AcDbLine
 10
28.154707
 20
22.643814
 30
0.0
 11
28.225007
 21
22.642446
 31
0.0
  0
LINE
  5
203
330
1F
100
AcDbEntity
  8
1
370
    13
100
AcDbLine
 10
27.7144
 20
22.542778
 30
0.0
 11
26.772876
 21
22.560816
 31
0.0
  0
LINE
  5
204
330
1F
100
AcDbEntity
  8
1
370
    13
100
AcDbLine
 10
26.617643
 20
22.785007
 30
0.0
 11
26.53055
 21
22.841586
 31
0.0
  0
LINE
  5
205
330
1F
100
AcDbEntity
  8
1
370
    13
100
AcDbLine
 10
31.395992
 20
2.544359
 30
0.0
 11
30.290543
 21
3.147837
 31
0.0
  0
LINE
  5
206
330
1F
100
AcDbEntity
  8
1
370
    13
100
AcDbLine
 10
26.53055
 20
22.841586
 30
0.0
 11
26.479713
 21
22.842393
 31
0.0
  0
LINE
  5
207
330
1F
100
AcDbEntity
  8
1
370
    13
100
AcDbLine
 10
28.225007
 20
22.642446
 30
0.0
 11
28.663072
 21
22.632121
 31
0.0
  0
LINE
  5
208
330
1F
100
AcDbEntity
  8
1
370
    13
100
AcDbLine
 10
29.637275
 20
-13.617737
 30
0.0
 11
29.613351
 21
-13.437741
 31
0.0
  0
LINE
  5
209
330
1F
100
AcDbEntity
  8
1
370
    13
100
AcDbLine
 10
15.379814
 20
20.266633
 30
0.0
 11
18.093575
 21
19.514628
 31
0.0
  0
LINE
  5
20A
330
1F
100
AcDbEntity
  8
1
370
    13
100
AcDbLine
 10
33.945726
 20
8.187142
 30
0.0
 11
34.014531
 21
8.124219
 31
0.0
  0
LINE
  5
20B
330
1F
100
AcDbEntity
  8
1
370
    13
100
AcDbLine
 10
14.649055
 20
22.776682
 30
0.0
 11
11.98099
 21
23.074855
 31
0.0
  0
LINE
  5
20C
330
1F
100
AcDbEntity
  8
1
370
    13
100
AcDbLine
 10
28.23215
 20
22.636149
 30
0.0
 11
28.474091
 21
22.44093
 31
0.0
  0
LINE
  5
20D
330
1F
100
AcDbEntity
  8
1
370
    13
100
AcDbLine
 10
39.104715
 20
16.675084
 30
0.0
 11
39.011824
 21
17.134909
 31
0.0
  0
LINE
  5
20E
330
1F
100
AcDbEntity
  8
1
370
    13
100
AcDbLine
 10
39.011824
 20
-17.523977
 30
0.0
 11
39.104545
 21
-16.883463
 31
0.0
  0
LINE
  5
20F
330
1F
100
AcDbEntity
  8
1
370
    13
100
AcDbLine
 10
35.192349
 20
8.87723
 30
0.0
 11
35.126843
 21
8.89076
 31
0.0
  0
LINE
  5
210
330
1F
100
AcDbEntity
  8
1
370
    13
100
AcDbLine
 10
33.729971
 20
20.851463
 30
0.0
 11
33.304662
 21
20.845784
 31
0.0
  0
LINE
  5
211
330
1F
100
AcDbEntity
  8
1
370
    13
100
AcDbLine
 10
27.879717
 20
22.650098
 30
0.0
 11
27.714278
 21
22.542854
 31
0.0
  0
LINE
  5
212
330
1F
100
AcDbEntity
  8
1
370
    13
100
AcDbLine
 10
11.98099
 20
23.074855
 30
0.0
 11
12.007337
 21
23.119826
 31
0.0
  0
LINE
  5
213
330
1F
100
AcDbEntity
  8
1
370
    13
100
AcDbLine
 10
24.975952
 20
19.033266
 30
0.0
 11
25.212927
 21
19.050377
 31
0.0
  0
LINE
  5
214
330
1F
100
AcDbEntity
  8
1
370
    13
100
AcDbLine
 10
33.103648
 20
8.123511
 30
0.0
 11
33.161849
 21
8.153091
 31
0.0
  0
LINE
  5
215
330
1F
100
AcDbEntity
  8
1
370
    13
100
AcDbLine
 10
26.517242
 20
22.795269
 30
0.0
 11
15.314086
 21
22.742233
 31
0.0
  0
LINE
  5
216
330
1F
100
AcDbEntity
  8
1
370
    13
100
AcDbLine
 10
10.203564
 20
23.247256
 30
0.0
 11
10.400199
 21
23.103057
 31
0.0
  0
LINE
  5
217
330
1F
100
AcDbEntity
  8
1
370
    13
100
AcDbLine
 10
39.011824
 20
5.69849
 30
0.0
 11
38.937836
 21
5.853385
 31
0.0
  0
LINE
  5
218
330
1F
100
AcDbEntity
  8
1
370
    13
100
AcDbLine
 10
26.517242
 20
22.795268
 30
0.0
 11
26.617643
 21
22.785007
 31
0.0
  0
LINE
  5
219
330
1F
100
AcDbEntity
  8
1
370
    13
100
AcDbLine
 10
32.792899
 20
8.14255
 30
0.0
 11
33.103648
 21
8.123511
 31
0.0
  0
LINE
  5
21A
330
1F
100
AcDbEntity
  8
1
370
    13
100
AcDbLine
 10
27.759809
 20
22.400678
 30
0.0
 11
27.990609
 21
21.929651
 31
0.0
  0
LINE
  5
21B
330
1F
100
AcDbEntity
  8
1
370
    13
100
AcDbLine
 10
12.007337
 20
23.119826
 30
0.0
 11
14.675402
 21
22.821875
 31
0.0
  0
LINE
  5
21C
330
1F
100
AcDbEntity
  8
1
370
    13
100
AcDbLine
 10
26.710002
 20
22.640153
 30
0.0
 11
27.879662
 21
22.650054
 31
0.0
  0
LINE
  5
21D
330
1F
100
AcDbEntity
  8
1
370
    13
100
AcDbLine
 10
9.873371
 20
23.4638
 30
0.0
 11
10.324598
 21
23.377568
 31
0.0
  0
LINE
  5
21E
330
1F
100
AcDbEntity
  8
1
370
    13
100
AcDbLine
 10
39.041377
 20
-11.377529
 30
0.0
 11
39.113373
 21
-11.696257
 31
0.0
  0
LINE
  5
21F
330
1F
100
AcDbEntity
  8
1
370
    13
100
AcDbLine
 10
34.003327
 20
3.050642
 30
0.0
 11
32.908705
 21
2.641493
 31
0.0
  0
LINE
  5
220
330
1F
100
AcDbEntity
  8
1
370
    13
100
AcDbLine
 10
39.113373
 20
-11.696257
 30
0.0
 11
39.100906
 21
-12.10189
 31
0.0
  0
LINE
  5
221
330
1F
100
AcDbEntity
  8
1
370
    13
100
AcDbLine
 10
39.089111
 20
11.807817
 30
0.0
 11
39.097112
 21
11.874175
 31
0.0
  0
LINE
  5
222
330
1F
100
AcDbEntity
  8
1
370
    13
100
AcDbLine
 10
38.976341
 20
6.032549
 30
0.0
 11
39.017678
 21
6.109439
 31
0.0
  0
LINE
  5
223
330
1F
100
AcDbEntity
  8
1
370
    13
100
AcDbLine
 10
37.240992
 20
14.977751
 30
0.0
 11
36.516493
 21
15.270233
 31
0.0
  0
LINE
  5
224
330
1F
100
AcDbEntity
  8
1
370
    13
100
AcDbLine
 10
39.986387
 20
-8.205853
 30
0.0
 11
39.973024
 21
-7.903932
 31
0.0
  0
LINE
  5
225
330
1F
100
AcDbEntity
  8
1
370
    13
100
AcDbLine
 10
39.168346
 20
12.334184
 30
0.0
 11
39.104766
 21
12.422434
 31
0.0
  0
LINE
  5
226
330
1F
100
AcDbEntity
  8
1
370
    13
100
AcDbLine
 10
39.450629
 20
10.273521
 30
0.0
 11
39.718104
 21
10.490372
 31
0.0
  0
LINE
  5
227
330
1F
100
AcDbEntity
  8
1
370
    13
100
AcDbLine
 10
38.937634
 20
5.922336
 30
0.0
 11
38.93429
 21
6.0369
 31
0.0
  0
LINE
  5
228
330
1F
100
AcDbEntity
  8
1
370
    13
100
AcDbLine
 10
38.97728
 20
-5.033625
 30
0.0
 11
38.997025
 21
-4.914752
 31
0.0
  0
LINE
  5
229
330
1F
100
AcDbEntity
  8
1
370
    13
100
AcDbLine
 10
39.011824
 20
-4.611522
 30
0.0
 11
39.104444
 21
-4.332558
 31
0.0
  0
LINE
  5
22A
330
1F
100
AcDbEntity
  8
1
370
    13
100
AcDbLine
 10
9.841732
 20
-23.497138
 30
0.0
 11
10.324598
 21
-23.443365
 31
0.0
  0
LINE
  5
22B
330
1F
100
AcDbEntity
  8
1
370
    13
100
AcDbLine
 10
39.010075
 20
5.073585
 30
0.0
 11
38.970932
 21
4.74291
 31
0.0
  0
LINE
  5
22C
330
1F
100
AcDbEntity
  8
1
370
    13
100
AcDbLine
 10
29.833465
 20
4.71848
 30
0.0
 11
29.841747
 21
4.838792
 31
0.0
  0
LINE
  5
22D
330
1F
100
AcDbEntity
  8
1
370
    13
100
AcDbLine
 10
37.700125
 20
19.708087
 30
0.0
 11
37.757642
 21
19.840216
 31
0.0
  0
LINE
  5
22E
330
1F
100
AcDbEntity
  8
1
370
    13
100
AcDbLine
 10
29.202559
 20
13.76792
 30
0.0
 11
29.65478
 21
13.845864
 31
0.0
  0
LINE
  5
22F
330
1F
100
AcDbEntity
  8
1
370
    13
100
AcDbLine
 10
27.759809
 20
13.285299
 30
0.0
 11
28.104842
 21
12.859481
 31
0.0
  0
LINE
  5
230
330
1F
100
AcDbEntity
  8
1
370
    13
100
AcDbLine
 10
36.120617
 20
-7.823112
 30
0.0
 11
36.39552
 21
-7.558259
 31
0.0
  0
LINE
  5
231
330
1F
100
AcDbEntity
  8
1
370
    13
100
AcDbLine
 10
32.305444
 20
2.618672
 30
0.0
 11
32.839459
 21
2.976211
 31
0.0
  0
LINE
  5
232
330
1F
100
AcDbEntity
  8
1
370
    13
100
AcDbLine
 10
39.046675
 20
-11.400906
 30
0.0
 11
39.097112
 21
-12.105748
 31
0.0
  0
LINE
  5
233
330
1F
100
AcDbEntity
  8
1
370
    13
100
AcDbLine
 10
35.14836
 20
20.079766
 30
0.0
 11
35.160872
 21
20.146776
 31
0.0
  0
LINE
  5
234
330
1F
100
AcDbEntity
  8
1
370
    13
100
AcDbLine
 10
28.660943
 20
13.333362
 30
0.0
 11
28.23215
 21
13.507774
 31
0.0
  0
LINE
  5
235
330
1F
100
AcDbEntity
  8
1
370
    13
100
AcDbLine
 10
39.104416
 20
3.923145
 30
0.0
 11
39.011824
 21
3.624224
 31
0.0
  0
LINE
  5
236
330
1F
100
AcDbEntity
  8
1
370
    13
100
AcDbLine
 10
32.567414
 20
19.442655
 30
0.0
 11
31.24371
 21
19.025053
 31
0.0
  0
LINE
  5
237
330
1F
100
AcDbEntity
  8
1
370
    13
100
AcDbLine
 10
15.327393
 20
20.280262
 30
0.0
 11
14.675402
 21
20.545684
 31
0.0
  0
LINE
  5
238
330
1F
100
AcDbEntity
  8
1
370
    13
100
AcDbLine
 10
30.738901
 20
1.335402
 30
0.0
 11
30.391958
 21
1.353069
 31
0.0
  0
LINE
  5
239
330
1F
100
AcDbEntity
  8
1
370
    13
100
AcDbLine
 10
12.007337
 20
13.128115
 30
0.0
 11
14.675402
 21
12.440474
 31
0.0
  0
LINE
  5
23A
330
1F
100
AcDbEntity
  8
1
370
    13
100
AcDbLine
 10
17.524815
 20
19.640126
 30
0.0
 11
15.327393
 21
20.280262
 31
0.0
  0
LINE
  5
23B
330
1F
100
AcDbEntity
  8
1
370
    13
100
AcDbLine
 10
26.617643
 20
-11.435216
 30
0.0
 11
26.53055
 21
-11.483969
 31
0.0
  0
LINE
  5
23C
330
1F
100
AcDbEntity
  8
1
370
    13
100
AcDbLine
 10
26.53055
 20
10.789983
 30
0.0
 11
26.517242
 21
10.695399
 31
0.0
  0
LINE
  5
23D
330
1F
100
AcDbEntity
  8
1
370
    13
100
AcDbLine
 10
11.219511
 20
13.208065
 30
0.0
 11
12.007337
 21
13.128115
 31
0.0
  0
LINE
  5
23E
330
1F
100
AcDbEntity
  8
1
370
    13
100
AcDbLine
 10
31.153571
 20
2.565692
 30
0.0
 11
32.296391
 21
2.636477
 31
0.0
  0
LINE
  5
23F
330
1F
100
AcDbEntity
  8
1
370
    13
100
AcDbLine
 10
15.314086
 20
-9.981696
 30
0.0
 11
14.649055
 21
-9.887216
 31
0.0
  0
LINE
  5
240
330
1F
100
AcDbEntity
  8
1
370
    13
100
AcDbLine
 10
38.894566
 20
3.70823
 30
0.0
 11
38.97559
 21
4.076195
 31
0.0
  0
LINE
  5
241
330
1F
100
AcDbEntity
  8
1
370
    13
100
AcDbLine
 10
26.375365
 20
11.601765
 30
0.0
 11
26.617643
 21
10.783768
 31
0.0
  0
LINE
  5
242
330
1F
100
AcDbEntity
  8
1
370
    13
100
AcDbLine
 10
29.911087
 20
1.619417
 30
0.0
 11
29.637275
 21
2.119423
 31
0.0
  0
LINE
  5
243
330
1F
100
AcDbEntity
  8
1
370
    13
100
AcDbLine
 10
30.409328
 20
2.602264
 30
0.0
 11
30.747499
 21
2.512438
 31
0.0
  0
LINE
  5
244
330
1F
100
AcDbEntity
  8
1
370
    13
100
AcDbLine
 10
26.617643
 20
10.783768
 30
0.0
 11
26.517242
 21
10.695398
 31
0.0
  0
LINE
  5
245
330
1F
100
AcDbEntity
  8
1
370
    13
100
AcDbLine
 10
26.617643
 20
10.783768
 30
0.0
 11
26.53055
 21
10.789982
 31
0.0
  0
LINE
  5
246
330
1F
100
AcDbEntity
  8
1
370
    13
100
AcDbLine
 10
39.011824
 20
3.624224
 30
0.0
 11
38.894566
 21
3.70823
 31
0.0
  0
LINE
  5
247
330
1F
100
AcDbEntity
  8
1
370
    13
100
AcDbLine
 10
10.877492
 20
22.744108
 30
0.0
 11
10.324598
 21
23.156883
 31
0.0
  0
LINE
  5
248
330
1F
100
AcDbEntity
  8
1
370
    13
100
AcDbLine
 10
26.517242
 20
10.695399
 30
0.0
 11
15.314086
 21
12.210028
 31
0.0
  0
LINE
  5
249
330
1F
100
AcDbEntity
  8
1
370
    13
100
AcDbLine
 10
33.77647
 20
1.55057
 30
0.0
 11
33.731871
 21
1.575595
 31
0.0
  0
LINE
  5
24A
330
1F
100
AcDbEntity
  8
1
370
    13
100
AcDbLine
 10
38.160486
 20
2.468592
 30
0.0
 11
38.894566
 21
3.70823
 31
0.0
  0
LINE
  5
24B
330
1F
100
AcDbEntity
  8
1
370
    13
100
AcDbLine
 10
38.97559
 20
4.076195
 30
0.0
 11
38.888093
 21
4.534618
 31
0.0
  0
LINE
  5
24C
330
1F
100
AcDbEntity
  8
1
370
    13
100
AcDbLine
 10
37.648927
 20
14.541986
 30
0.0
 11
37.240992
 21
14.977751
 31
0.0
  0
LINE
  5
24D
330
1F
100
AcDbEntity
  8
1
370
    13
100
AcDbLine
 10
11.98099
 20
13.024751
 30
0.0
 11
12.007337
 21
13.128115
 31
0.0
  0
LINE
  5
24E
330
1F
100
AcDbEntity
  8
1
370
    13
100
AcDbLine
 10
26.517242
 20
-11.53266
 30
0.0
 11
15.314086
 21
-9.981696
 31
0.0
  0
LINE
  5
24F
330
1F
100
AcDbEntity
  8
1
370
    13
100
AcDbLine
 10
28.154707
 20
19.386576
 30
0.0
 11
26.419262
 21
19.172489
 31
0.0
  0
LINE
  5
250
330
1F
100
AcDbEntity
  8
1
370
    13
100
AcDbLine
 10
15.314086
 20
12.210028
 30
0.0
 11
14.649055
 21
12.33923
 31
0.0
  0
LINE
  5
251
330
1F
100
AcDbEntity
  8
1
370
    13
100
AcDbLine
 10
33.738924
 20
20.864702
 30
0.0
 11
32.521417
 21
20.474264
 31
0.0
  0
LINE
  5
252
330
1F
100
AcDbEntity
  8
1
370
    13
100
AcDbLine
 10
14.649055
 20
12.33923
 30
0.0
 11
11.98099
 21
13.024751
 31
0.0
  0
LINE
  5
253
330
1F
100
AcDbEntity
  8
1
370
    13
100
AcDbLine
 10
38.277743
 20
2.382038
 30
0.0
 11
38.160486
 21
2.468592
 31
0.0
  0
LINE
  5
254
330
1F
100
AcDbEntity
  8
1
370
    13
100
AcDbLine
 10
26.375365
 20
11.601765
 30
0.0
 11
26.285015
 21
11.622954
 31
0.0
  0
LINE
  5
255
330
1F
100
AcDbEntity
  8
1
370
    13
100
AcDbLine
 10
26.375365
 20
-10.614255
 30
0.0
 11
26.617643
 21
-11.435216
 31
0.0
  0
LINE
  5
256
330
1F
100
AcDbEntity
  8
1
370
    13
100
AcDbLine
 10
27.879717
 20
13.4621
 30
0.0
 11
27.714278
 21
13.368461
 31
0.0
  0
LINE
  5
257
330
1F
100
AcDbEntity
  8
1
370
    13
100
AcDbLine
 10
26.617643
 20
-11.435216
 30
0.0
 11
26.517242
 21
-11.53266
 31
0.0
  0
LINE
  5
258
330
1F
100
AcDbEntity
  8
1
370
    13
100
AcDbLine
 10
38.112708
 20
2.423889
 30
0.0
 11
38.160486
 21
2.468592
 31
0.0
  0
LINE
  5
259
330
1F
100
AcDbEntity
  8
1
370
    13
100
AcDbLine
 10
26.53055
 20
-11.483969
 30
0.0
 11
26.517242
 21
-11.53266
 31
0.0
  0
LINE
  5
25A
330
1F
100
AcDbEntity
  8
1
370
    13
100
AcDbLine
 10
33.738924
 20
20.864702
 30
0.0
 11
33.861574
 21
20.745687
 31
0.0
  0
LINE
  5
25B
330
1F
100
AcDbEntity
  8
1
370
    13
100
AcDbLine
 10
34.238878
 20
10.659535
 30
0.0
 11
32.890193
 21
10.199484
 31
0.0
  0
LINE
  5
25C
330
1F
100
AcDbEntity
  8
1
370
    13
100
AcDbLine
 10
27.531187
 20
11.753542
 30
0.0
 11
27.516513
 21
11.466867
 31
0.0
  0
LINE
  5
25D
330
1F
100
AcDbEntity
  8
1
370
    13
100
AcDbLine
 10
9.851002
 20
11.584635
 30
0.0
 11
9.757583
 21
11.615477
 31
0.0
  0
LINE
  5
25E
330
1F
100
AcDbEntity
  8
1
370
    13
100
AcDbLine
 10
0.5
 20
-6.976746
 30
0.0
 11
0.0
 21
-6.900396
 31
0.0
  0
LINE
  5
25F
330
1F
100
AcDbEntity
  8
1
370
    13
100
AcDbLine
 10
9.924524
 20
12.198039
 30
0.0
 11
9.851002
 21
11.584635
 31
0.0
  0
LINE
  5
260
330
1F
100
AcDbEntity
  8
1
370
    13
100
AcDbLine
 10
9.851002
 20
-11.264961
 30
0.0
 11
9.757583
 21
-11.301811
 31
0.0
  0
LINE
  5
261
330
1F
100
AcDbEntity
  8
1
370
    13
100
AcDbLine
 10
28.377821
 20
-1.150855
 30
0.0
 11
28.354568
 21
-1.252752
 31
0.0
  0
LINE
  5
262
330
1F
100
AcDbEntity
  8
1
370
    13
100
AcDbLine
 10
28.154707
 20
-1.298312
 30
0.0
 11
26.419262
 21
-1.69668
 31
0.0
  0
LINE
  5
263
330
1F
100
AcDbEntity
  8
1
370
    13
100
AcDbLine
 10
38.234411
 20
2.33337
 30
0.0
 11
38.115178
 21
2.410729
 31
0.0
  0
LINE
  5
264
330
1F
100
AcDbEntity
  8
1
370
    13
100
AcDbLine
 10
0.0
 20
6.900396
 30
0.0
 11
0.5
 21
6.976746
 31
0.0
  0
LINE
  5
265
330
1F
100
AcDbEntity
  8
1
370
    13
100
AcDbLine
 10
10.373617
 20
12.835907
 30
0.0
 11
10.324598
 21
12.911312
 31
0.0
  0
LINE
  5
266
330
1F
100
AcDbEntity
  8
1
370
    13
100
AcDbLine
 10
30.391958
 20
1.353069
 30
0.0
 11
29.911087
 21
1.619417
 31
0.0
  0
LINE
  5
267
330
1F
100
AcDbEntity
  8
1
370
    13
100
AcDbLine
 10
13.377369
 20
-18.294269
 30
0.0
 11
14.719299
 21
-18.856337
 31
0.0
  0
LINE
  5
268
330
1F
100
AcDbEntity
  8
1
370
    13
100
AcDbLine
 10
26.375365
 20
-10.614255
 30
0.0
 11
26.285015
 21
-10.64771
 31
0.0
  0
LINE
  5
269
330
1F
100
AcDbEntity
  8
1
370
    13
100
AcDbLine
 10
23.875804
 20
-20.347225
 30
0.0
 11
26.398656
 21
-20.188433
 31
0.0
  0
LINE
  5
26A
330
1F
100
AcDbEntity
  8
1
370
    13
100
AcDbLine
 10
26.381021
 20
-10.563219
 30
0.0
 11
26.375365
 21
-10.614255
 31
0.0
  0
LINE
  5
26B
330
1F
100
AcDbEntity
  8
1
370
    13
100
AcDbLine
 10
38.234407
 20
2.333358
 30
0.0
 11
37.757642
 21
1.408084
 31
0.0
  0
LINE
  5
26C
330
1F
100
AcDbEntity
  8
1
370
    13
100
AcDbLine
 10
12.007337
 20
-9.439209
 30
0.0
 11
14.675402
 21
-9.83084
 31
0.0
  0
LINE
  5
26D
330
1F
100
AcDbEntity
  8
1
370
    13
100
AcDbLine
 10
15.327393
 20
0.507216
 30
0.0
 11
14.675402
 21
1.013107
 31
0.0
  0
LINE
  5
26E
330
1F
100
AcDbEntity
  8
1
370
    13
100
AcDbLine
 10
37.70125
 20
1.607316
 30
0.0
 11
38.115178
 21
2.410729
 31
0.0
  0
LINE
  5
26F
330
1F
100
AcDbEntity
  8
1
370
    13
100
AcDbLine
 10
10.373617
 20
-9.937397
 30
0.0
 11
10.324598
 21
-9.903966
 31
0.0
  0
LINE
  5
270
330
1F
100
AcDbEntity
  8
1
370
    13
100
AcDbLine
 10
28.1341
 20
-1.205376
 30
0.0
 11
28.377821
 21
-1.150855
 31
0.0
  0
LINE
  5
271
330
1F
100
AcDbEntity
  8
1
370
    13
100
AcDbLine
 10
14.649055
 20
-9.887216
 30
0.0
 11
11.98099
 21
-9.497899
 31
0.0
  0
LINE
  5
272
330
1F
100
AcDbEntity
  8
1
370
    13
100
AcDbLine
 10
37.648927
 20
-6.692234
 30
0.0
 11
38.424659
 21
-5.737493
 31
0.0
  0
LINE
  5
273
330
1F
100
AcDbEntity
  8
1
370
    13
100
AcDbLine
 10
27.879717
 20
-8.652723
 30
0.0
 11
27.714278
 21
-8.641353
 31
0.0
  0
LINE
  5
274
330
1F
100
AcDbEntity
  8
1
370
    13
100
AcDbLine
 10
39.011824
 20
-4.611522
 30
0.0
 11
38.424659
 21
-5.737493
 31
0.0
  0
LINE
  5
275
330
1F
100
AcDbEntity
  8
1
370
    13
100
AcDbLine
 10
11.219511
 20
-9.457578
 30
0.0
 11
12.007337
 21
-9.439209
 31
0.0
  0
LINE
  5
276
330
1F
100
AcDbEntity
  8
1
370
    13
100
AcDbLine
 10
9.924524
 20
-10.64584
 30
0.0
 11
9.851002
 21
-11.264961
 31
0.0
  0
LINE
  5
277
330
1F
100
AcDbEntity
  8
1
370
    13
100
AcDbLine
 10
11.98099
 20
-9.497899
 30
0.0
 11
12.007337
 21
-9.439209
 31
0.0
  0
LINE
  5
278
330
1F
100
AcDbEntity
  8
1
370
    13
100
AcDbLine
 10
31.688502
 20
-8.569982
 30
0.0
 11
34.075241
 21
-8.510668
 31
0.0
  0
LINE
  5
279
330
1F
100
AcDbEntity
  8
1
370
    13
100
AcDbLine
 10
37.044322
 20
-7.669341
 30
0.0
 11
36.443889
 21
-8.027579
 31
0.0
  0
LINE
  5
27A
330
1F
100
AcDbEntity
  8
1
370
    13
100
AcDbLine
 10
34.951213
 20
11.413668
 30
0.0
 11
35.70393
 21
11.58726
 31
0.0
  0
LINE
  5
27B
330
1F
100
AcDbEntity
  8
1
370
    13
100
AcDbLine
 10
35.70393
 20
11.58726
 30
0.0
 11
36.529798
 21
11.654015
 31
0.0
  0
LINE
  5
27C
330
1F
100
AcDbEntity
  8
1
370
    13
100
AcDbLine
 10
37.508792
 20
-7.350768
 30
0.0
 11
37.112764
 21
-7.682401
 31
0.0
  0
LINE
  5
27D
330
1F
100
AcDbEntity
  8
1
370
    13
100
AcDbLine
 10
28.687037
 20
-8.770852
 30
0.0
 11
28.107564
 21
-8.714834
 31
0.0
  0
LINE
  5
27E
330
1F
100
AcDbEntity
  8
1
370
    13
100
AcDbLine
 10
38.976341
 20
-5.043213
 30
0.0
 11
39.113373
 21
-5.248694
 31
0.0
  0
LINE
  5
27F
330
1F
100
AcDbEntity
  8
1
370
    13
100
AcDbLine
 10
38.29106
 20
23.428111
 30
0.0
 11
37.903973
 21
24.03751
 31
0.0
  0
LINE
  5
280
330
1F
100
AcDbEntity
  8
1
370
    13
100
AcDbLine
 10
31.718948
 20
-8.532945
 30
0.0
 11
34.105687
 21
-8.473631
 31
0.0
  0
LINE
  5
281
330
1F
100
AcDbEntity
  8
1
370
    13
100
AcDbLine
 10
37.972414
 20
-12.343177
 30
0.0
 11
38.384763
 21
-12.100035
 31
0.0
  0
LINE
  5
282
330
1F
100
AcDbEntity
  8
1
370
    13
100
AcDbLine
 10
31.688502
 20
14.594754
 30
0.0
 11
34.075241
 21
15.352216
 31
0.0
  0
LINE
  5
283
330
1F
100
AcDbEntity
  8
1
370
    13
100
AcDbLine
 10
39.113373
 20
-5.248694
 30
0.0
 11
39.052007
 21
-5.473473
 31
0.0
  0
LINE
  5
284
330
1F
100
AcDbEntity
  8
1
370
    13
100
AcDbLine
 10
38.879312
 20
-5.06493
 30
0.0
 11
39.016345
 21
-5.27041
 31
0.0
  0
LINE
  5
285
330
1F
100
AcDbEntity
  8
1
370
    13
100
AcDbLine
 10
39.168346
 20
-11.226314
 30
0.0
 11
38.384763
 21
-12.100035
 31
0.0
  0
LINE
  5
286
330
1F
100
AcDbEntity
  8
1
370
    13
100
AcDbLine
 10
35.691006
 20
-8.318094
 30
0.0
 11
34.84428
 21
-8.448726
 31
0.0
  0
LINE
  5
287
330
1F
100
AcDbEntity
  8
1
370
    13
100
AcDbLine
 10
29.325713
 20
-8.759148
 30
0.0
 11
31.688502
 21
-8.569982
 31
0.0
  0
LINE
  5
288
330
1F
100
AcDbEntity
  8
1
370
    13
100
AcDbLine
 10
39.927979
 20
-10.222741
 30
0.0
 11
39.168346
 21
-11.226314
 31
0.0
  0
LINE
  5
289
330
1F
100
AcDbEntity
  8
1
370
    13
100
AcDbLine
 10
28.946356
 20
-13.262526
 30
0.0
 11
28.52787
 21
-13.049934
 31
0.0
  0
LINE
  5
28A
330
1F
100
AcDbEntity
  8
1
370
    13
100
AcDbLine
 10
34.951213
 20
25.307938
 30
0.0
 11
35.70393
 21
25.330015
 31
0.0
  0
LINE
  5
28B
330
1F
100
AcDbEntity
  8
1
370
    13
100
AcDbLine
 10
37.351123
 20
-12.588331
 30
0.0
 11
37.972414
 21
-12.343177
 31
0.0
  0
LINE
  5
28C
330
1F
100
AcDbEntity
  8
1
370
    13
100
AcDbLine
 10
34.84428
 20
15.452423
 30
0.0
 11
34.075241
 21
15.352216
 31
0.0
  0
LINE
  5
28D
330
1F
100
AcDbEntity
  8
1
370
    13
100
AcDbLine
 10
35.691006
 20
-8.318094
 30
0.0
 11
36.512331
 21
-8.040639
 31
0.0
  0
LINE
  5
28E
330
1F
100
AcDbEntity
  8
1
370
    13
100
AcDbLine
 10
29.356159
 20
-8.722111
 30
0.0
 11
31.718948
 21
-8.532945
 31
0.0
  0
LINE
  5
28F
330
1F
100
AcDbEntity
  8
1
370
    13
100
AcDbLine
 10
28.757911
 20
-8.735849
 30
0.0
 11
29.356159
 21
-8.722111
 31
0.0
  0
LINE
  5
290
330
1F
100
AcDbEntity
  8
1
370
    13
100
AcDbLine
 10
35.673897
 20
-8.287693
 30
0.0
 11
34.827171
 21
-8.418325
 31
0.0
  0
LINE
  5
291
330
1F
100
AcDbEntity
  8
1
370
    13
100
AcDbLine
 10
32.588424
 20
-13.449101
 30
0.0
 11
30.201685
 21
-13.508415
 31
0.0
  0
LINE
  5
292
330
1F
100
AcDbEntity
  8
1
370
    13
100
AcDbLine
 10
38.268424
 20
-6.347195
 30
0.0
 11
39.052007
 21
-5.473473
 31
0.0
  0
LINE
  5
293
330
1F
100
AcDbEntity
  8
1
370
    13
100
AcDbLine
 10
38.174721
 20
-6.352097
 30
0.0
 11
38.958303
 21
-5.478376
 31
0.0
  0
LINE
  5
294
330
1F
100
AcDbEntity
  8
1
370
    13
100
AcDbLine
 10
37.282682
 20
24.635135
 30
0.0
 11
37.903973
 21
24.03751
 31
0.0
  0
LINE
  5
295
330
1F
100
AcDbEntity
  8
1
370
    13
100
AcDbLine
 10
35.70393
 20
-13.109502
 30
0.0
 11
36.529798
 21
-12.865786
 31
0.0
  0
LINE
  5
296
330
1F
100
AcDbEntity
  8
1
370
    13
100
AcDbLine
 10
37.112764
 20
-7.682401
 30
0.0
 11
36.512331
 21
-8.040639
 31
0.0
  0
LINE
  5
297
330
1F
100
AcDbEntity
  8
1
370
    13
100
AcDbLine
 10
35.686821
 20
11.523407
 30
0.0
 11
34.981659
 21
11.35837
 31
0.0
  0
LINE
  5
298
330
1F
100
AcDbEntity
  8
1
370
    13
100
AcDbLine
 10
34.105687
 20
-8.473631
 30
0.0
 11
34.827171
 21
-8.418325
 31
0.0
  0
LINE
  5
299
330
1F
100
AcDbEntity
  8
1
370
    13
100
AcDbLine
 10
30.571425
 20
-8.606184
 30
0.0
 11
30.155084
 21
-8.643372
 31
0.0
  0
LINE
  5
29A
330
1F
100
AcDbEntity
  8
1
370
    13
100
AcDbLine
 10
28.757911
 20
-8.735849
 30
0.0
 11
28.178437
 21
-8.679831
 31
0.0
  0
LINE
  5
29B
330
1F
100
AcDbEntity
  8
1
370
    13
100
AcDbLine
 10
32.588424
 20
10.548519
 30
0.0
 11
30.201685
 21
9.791057
 31
0.0
  0
LINE
  5
29C
330
1F
100
AcDbEntity
  8
1
370
    13
100
AcDbLine
 10
34.951213
 20
-13.259935
 30
0.0
 11
32.588424
 21
-13.449101
 31
0.0
  0
LINE
  5
29D
330
1F
100
AcDbEntity
  8
1
370
    13
100
AcDbLine
 10
37.508792
 20
-7.350768
 30
0.0
 11
38.268424
 21
-6.347195
 31
0.0
  0
LINE
  5
29E
330
1F
100
AcDbEntity
  8
1
370
    13
100
AcDbLine
 10
28.390837
 20
-12.844453
 30
0.0
 11
28.52787
 21
-13.049934
 31
0.0
  0
LINE
  5
29F
330
1F
100
AcDbEntity
  8
1
370
    13
100
AcDbLine
 10
35.70393
 20
25.330015
 30
0.0
 11
36.529798
 21
25.146974
 31
0.0
  0
LINE
  5
2A0
330
1F
100
AcDbEntity
  8
1
370
    13
100
AcDbLine
 10
37.351123
 20
24.703912
 30
0.0
 11
37.972414
 21
24.106287
 31
0.0
  0
LINE
  5
2A1
330
1F
100
AcDbEntity
  8
1
370
    13
100
AcDbLine
 10
28.946356
 20
-13.262526
 30
0.0
 11
29.546687
 21
-13.431628
 31
0.0
  0
LINE
  5
2A2
330
1F
100
AcDbEntity
  8
1
370
    13
100
AcDbLine
 10
38.958303
 20
-5.478376
 30
0.0
 11
39.016345
 21
-5.27041
 31
0.0
  0
LINE
  5
2A3
330
1F
100
AcDbEntity
  8
1
370
    13
100
AcDbLine
 10
37.415088
 20
-7.35567
 30
0.0
 11
38.174721
 21
-6.352097
 31
0.0
  0
LINE
  5
2A4
330
1F
100
AcDbEntity
  8
1
370
    13
100
AcDbLine
 10
34.981659
 20
11.35837
 30
0.0
 11
32.61887
 21
10.493222
 31
0.0
  0
LINE
  5
2A5
330
1F
100
AcDbEntity
  8
1
370
    13
100
AcDbLine
 10
29.325713
 20
13.729605
 30
0.0
 11
31.688502
 21
14.594754
 31
0.0
  0
LINE
  5
2A6
330
1F
100
AcDbEntity
  8
1
370
    13
100
AcDbLine
 10
37.044322
 20
-7.669341
 30
0.0
 11
37.415088
 21
-7.35567
 31
0.0
  0
LINE
  5
2A7
330
1F
100
AcDbEntity
  8
1
370
    13
100
AcDbLine
 10
35.673897
 20
-8.287693
 30
0.0
 11
36.443889
 21
-8.027579
 31
0.0
  0
LINE
  5
2A8
330
1F
100
AcDbEntity
  8
1
370
    13
100
AcDbLine
 10
37.972414
 20
24.106287
 30
0.0
 11
38.384763
 21
23.455718
 31
0.0
  0
LINE
  5
2A9
330
1F
100
AcDbEntity
  8
1
370
    13
100
AcDbLine
 10
34.951213
 20
11.413668
 30
0.0
 11
32.588424
 21
10.548519
 31
0.0
  0
LINE
  5
2AA
330
1F
100
AcDbEntity
  8
1
370
    13
100
AcDbLine
 10
37.972414
 20
-24.05646
 30
0.0
 11
38.384763
 21
-23.402265
 31
0.0
  0
LINE
  5
2AB
330
1F
100
AcDbEntity
  8
1
370
    13
100
AcDbLine
 10
37.112764
 20
-23.431708
 30
0.0
 11
36.512331
 21
-24.046617
 31
0.0
  0
LINE
  5
2AC
330
1F
100
AcDbEntity
  8
1
370
    13
100
AcDbLine
 10
28.946356
 20
22.912754
 30
0.0
 11
29.546687
 21
23.515979
 31
0.0
  0
LINE
  5
2AD
330
1F
100
AcDbEntity
  8
1
370
    13
100
AcDbLine
 10
39.074643
 20
21.043135
 30
0.0
 11
38.29106
 21
23.428111
 31
0.0
  0
LINE
  5
2AE
330
1F
100
AcDbEntity
  8
1
370
    13
100
AcDbLine
 10
39.875995
 20
17.911545
 30
0.0
 11
39.834275
 21
18.634209
 31
0.0
  0
LINE
  5
2AF
330
1F
100
AcDbEntity
  8
1
370
    13
100
AcDbLine
 10
39.973024
 20
17.891519
 30
0.0
 11
39.815133
 21
17.04962
 31
0.0
  0
LINE
  5
2B0
330
1F
100
AcDbEntity
  8
1
370
    13
100
AcDbLine
 10
35.673897
 20
-24.38865
 30
0.0
 11
34.827171
 21
-24.54787
 31
0.0
  0
LINE
  5
2B1
330
1F
100
AcDbEntity
  8
1
370
    13
100
AcDbLine
 10
29.356159
 20
-23.057644
 30
0.0
 11
31.718948
 21
-23.773793
 31
0.0
  0
LINE
  5
2B2
330
1F
100
AcDbEntity
  8
1
370
    13
100
AcDbLine
 10
28.687037
 20
22.656329
 30
0.0
 11
28.107564
 21
22.073961
 31
0.0
  0
LINE
  5
2B3
330
1F
100
AcDbEntity
  8
1
370
    13
100
AcDbLine
 10
35.686821
 20
25.233546
 30
0.0
 11
34.981659
 21
25.213359
 31
0.0
  0
LINE
  5
2B4
330
1F
100
AcDbEntity
  8
1
370
    13
100
AcDbLine
 10
38.174721
 20
-20.320407
 30
0.0
 11
38.958303
 21
-17.921169
 31
0.0
  0
LINE
  5
2B5
330
1F
100
AcDbEntity
  8
1
370
    13
100
AcDbLine
 10
32.588424
 20
24.620264
 30
0.0
 11
30.201685
 21
23.90864
 31
0.0
  0
LINE
  5
2B6
330
1F
100
AcDbEntity
  8
1
370
    13
100
AcDbLine
 10
30.232131
 20
23.814061
 30
0.0
 11
29.617561
 21
23.445431
 31
0.0
  0
LINE
  5
2B7
330
1F
100
AcDbEntity
  8
1
370
    13
100
AcDbLine
 10
35.691006
 20
-24.485969
 30
0.0
 11
34.84428
 21
-24.645188
 31
0.0
  0
LINE
  5
2B8
330
1F
100
AcDbEntity
  8
1
370
    13
100
AcDbLine
 10
34.84428
 20
-24.645188
 30
0.0
 11
34.075241
 21
-24.602361
 31
0.0
  0
LINE
  5
2B9
330
1F
100
AcDbEntity
  8
1
370
    13
100
AcDbLine
 10
39.927979
 20
-18.586384
 30
0.0
 11
39.973024
 21
-17.813197
 31
0.0
  0
LINE
  5
2BA
330
1F
100
AcDbEntity
  8
1
370
    13
100
AcDbLine
 10
37.044322
 20
-23.361849
 30
0.0
 11
37.415088
 21
-22.737051
 31
0.0
  0
LINE
  5
2BB
330
1F
100
AcDbEntity
  8
1
370
    13
100
AcDbLine
 10
35.686821
 20
25.233546
 30
0.0
 11
36.512689
 21
25.050505
 31
0.0
  0
LINE
  5
2BC
330
1F
100
AcDbEntity
  8
1
370
    13
100
AcDbLine
 10
39.168346
 20
21.070742
 30
0.0
 11
38.384763
 21
23.455718
 31
0.0
  0
LINE
  5
2BD
330
1F
100
AcDbEntity
  8
1
370
    13
100
AcDbLine
 10
34.951213
 20
-25.238974
 30
0.0
 11
35.70393
 21
-25.26994
 31
0.0
  0
LINE
  5
2BE
330
1F
100
AcDbEntity
  8
1
370
    13
100
AcDbLine
 10
32.588424
 20
-24.522825
 30
0.0
 11
30.201685
 21
-23.78927
 31
0.0
  0
LINE
  5
2BF
330
1F
100
AcDbEntity
  8
1
370
    13
100
AcDbLine
 10
31.688502
 20
-23.868806
 30
0.0
 11
34.075241
 21
-24.602361
 31
0.0
  0
LINE
  5
2C0
330
1F
100
AcDbEntity
  8
1
370
    13
100
AcDbLine
 10
29.325713
 20
-23.152657
 30
0.0
 11
28.687037
 21
-22.765805
 31
0.0
  0
LINE
  5
2C1
330
1F
100
AcDbEntity
  8
1
370
    13
100
AcDbLine
 10
39.875995
 20
17.911545
 30
0.0
 11
39.718104
 21
17.069647
 31
0.0
  0
LINE
  5
2C2
330
1F
100
AcDbEntity
  8
1
370
    13
100
AcDbLine
 10
34.105687
 20
-24.507349
 30
0.0
 11
34.827171
 21
-24.54787
 31
0.0
  0
LINE
  5
2C3
330
1F
100
AcDbEntity
  8
1
370
    13
100
AcDbLine
 10
28.487866
 20
21.263353
 30
0.0
 11
28.624899
 21
22.084394
 31
0.0
  0
LINE
  5
2C4
330
1F
100
AcDbEntity
  8
1
370
    13
100
AcDbLine
 10
34.951213
 20
25.307938
 30
0.0
 11
32.588424
 21
24.620264
 31
0.0
  0
LINE
  5
2C5
330
1F
100
AcDbEntity
  8
1
370
    13
100
AcDbLine
 10
28.487866
 20
21.263353
 30
0.0
 11
28.545907
 21
20.557011
 31
0.0
  0
LINE
  5
2C6
330
1F
100
AcDbEntity
  8
1
370
    13
100
AcDbLine
 10
37.508792
 20
-22.765652
 30
0.0
 11
37.112764
 21
-23.431708
 31
0.0
  0
LINE
  5
2C7
330
1F
100
AcDbEntity
  8
1
370
    13
100
AcDbLine
 10
37.044322
 20
-23.361849
 30
0.0
 11
36.443889
 21
-23.976758
 31
0.0
  0
LINE
  5
2C8
330
1F
100
AcDbEntity
  8
1
370
    13
100
AcDbLine
 10
29.01723
 20
22.842206
 30
0.0
 11
29.617561
 21
23.445431
 31
0.0
  0
LINE
  5
2C9
330
1F
100
AcDbEntity
  8
1
370
    13
100
AcDbLine
 10
31.718948
 20
-23.773793
 30
0.0
 11
34.105687
 21
-24.507349
 31
0.0
  0
LINE
  5
2CA
330
1F
100
AcDbEntity
  8
1
370
    13
100
AcDbLine
 10
39.973024
 20
-17.813197
 30
0.0
 11
39.815133
 21
-16.966824
 31
0.0
  0
LINE
  5
2CB
330
1F
100
AcDbEntity
  8
1
370
    13
100
AcDbLine
 10
29.546687
 20
23.515979
 30
0.0
 11
30.201685
 21
23.90864
 31
0.0
  0
LINE
  5
2CC
330
1F
100
AcDbEntity
  8
1
370
    13
100
AcDbLine
 10
34.951213
 20
-25.238974
 30
0.0
 11
32.588424
 21
-24.522825
 31
0.0
  0
LINE
  5
2CD
330
1F
100
AcDbEntity
  8
1
370
    13
100
AcDbLine
 10
29.325713
 20
-23.152657
 30
0.0
 11
31.688502
 21
-23.868806
 31
0.0
  0
LINE
  5
2CE
330
1F
100
AcDbEntity
  8
1
370
    13
100
AcDbLine
 10
28.390837
 20
21.28338
 30
0.0
 11
28.52787
 21
22.104421
 31
0.0
  0
LINE
  5
2CF
330
1F
100
AcDbEntity
  8
1
370
    13
100
AcDbLine
 10
39.927979
 20
18.661816
 30
0.0
 11
39.168346
 21
21.070742
 31
0.0
  0
LINE
  5
2D0
330
1F
100
AcDbEntity
  8
1
370
    13
100
AcDbLine
 10
34.981659
 20
25.213359
 30
0.0
 11
32.61887
 21
24.525685
 31
0.0
  0
LINE
  5
2D1
330
1F
100
AcDbEntity
  8
1
370
    13
100
AcDbLine
 10
35.70393
 20
-25.26994
 30
0.0
 11
36.529798
 21
-25.095562
 31
0.0
  0
LINE
  5
2D2
330
1F
100
AcDbEntity
  8
1
370
    13
100
AcDbLine
 10
32.61887
 20
24.525685
 30
0.0
 11
30.232131
 21
23.814061
 31
0.0
  0
LINE
  5
2D3
330
1F
100
AcDbEntity
  8
1
370
    13
100
AcDbLine
 10
39.927979
 20
18.661816
 30
0.0
 11
39.973024
 21
17.891519
 31
0.0
  0
LINE
  5
2D4
330
1F
100
AcDbEntity
  8
1
370
    13
100
AcDbLine
 10
37.351123
 20
-24.65621
 30
0.0
 11
37.972414
 21
-24.05646
 31
0.0
  0
LINE
  5
2D5
330
1F
100
AcDbEntity
  8
1
370
    13
100
AcDbLine
 10
39.113373
 20
-17.188445
 30
0.0
 11
39.052007
 21
-17.94977
 31
0.0
  0
LINE
  5
2D6
330
1F
100
AcDbEntity
  8
1
370
    13
100
AcDbLine
 10
39.834275
 20
18.634209
 30
0.0
 11
39.074643
 21
21.043135
 31
0.0
  0
LINE
  5
2D7
330
1F
100
AcDbEntity
  8
1
370
    13
100
AcDbLine
 10
28.452204
 20
20.529404
 30
0.0
 11
28.390837
 21
21.28338
 31
0.0
  0
LINE
  5
2D8
330
1F
100
AcDbEntity
  8
1
370
    13
100
AcDbLine
 10
39.117426
 20
11.727796
 30
0.0
 11
39.052007
 21
11.90538
 31
0.0
  0
LINE
  5
2D9
330
1F
100
AcDbEntity
  8
1
370
    13
100
AcDbLine
 10
27.339658
 20
-22.752583
 30
0.0
 11
27.879662
 21
-22.765891
 31
0.0
  0
LINE
  5
2DA
330
1F
100
AcDbEntity
  8
1
370
    13
100
AcDbLine
 10
34.299172
 20
-24.079842
 30
0.0
 11
33.861574
 21
-23.982139
 31
0.0
  0
LINE
  5
2DB
330
1F
100
AcDbEntity
  8
1
370
    13
100
AcDbLine
 10
15.327393
 20
-19.178417
 30
0.0
 11
14.675402
 21
-18.935154
 31
0.0
  0
LINE
  5
2DC
330
1F
100
AcDbEntity
  8
1
370
    13
100
AcDbLine
 10
34.537089
 20
-16.132874
 30
0.0
 11
34.928545
 21
-15.894162
 31
0.0
  0
LINE
  5
2DD
330
1F
100
AcDbEntity
  8
1
370
    13
100
AcDbLine
 10
15.379814
 20
-19.096906
 30
0.0
 11
15.327393
 21
-19.178417
 31
0.0
  0
LINE
  5
2DE
330
1F
100
AcDbEntity
  8
1
370
    13
100
AcDbLine
 10
39.097112
 20
-12.105748
 30
0.0
 11
39.011824
 21
-13.040207
 31
0.0
  0
LINE
  5
2DF
330
1F
100
AcDbEntity
  8
1
370
    13
100
AcDbLine
 10
38.112708
 20
-15.964957
 30
0.0
 11
38.160486
 21
-15.826806
 31
0.0
  0
LINE
  5
2E0
330
1F
100
AcDbEntity
  8
1
370
    13
100
AcDbLine
 10
38.894566
 20
-13.00292
 30
0.0
 11
38.97559
 21
-12.09654
 31
0.0
  0
LINE
  5
2E1
330
1F
100
AcDbEntity
  8
1
370
    13
100
AcDbLine
 10
39.097112
 20
-12.105748
 30
0.0
 11
38.97559
 21
-12.09654
 31
0.0
  0
LINE
  5
2E2
330
1F
100
AcDbEntity
  8
1
370
    13
100
AcDbLine
 10
36.435646
 20
-15.862753
 30
0.0
 11
36.737367
 21
-16.03609
 31
0.0
  0
LINE
  5
2E3
330
1F
100
AcDbEntity
  8
1
370
    13
100
AcDbLine
 10
29.911087
 20
-14.487573
 30
0.0
 11
29.637275
 21
-13.617737
 31
0.0
  0
LINE
  5
2E4
330
1F
100
AcDbEntity
  8
1
370
    13
100
AcDbLine
 10
33.716758
 20
-20.850943
 30
0.0
 11
33.861574
 21
-21.071028
 31
0.0
  0
LINE
  5
2E5
330
1F
100
AcDbEntity
  8
1
370
    13
100
AcDbLine
 10
26.398656
 20
-20.188433
 30
0.0
 11
28.1341
 21
-20.002619
 31
0.0
  0
LINE
  5
2E6
330
1F
100
AcDbEntity
  8
1
370
    13
100
AcDbLine
 10
37.648927
 20
-21.931588
 30
0.0
 11
37.240992
 21
-22.766109
 31
0.0
  0
LINE
  5
2E7
330
1F
100
AcDbEntity
  8
1
370
    13
100
AcDbLine
 10
35.947493
 20
-23.849274
 30
0.0
 11
35.789183
 21
-23.914884
 31
0.0
  0
LINE
  5
2E8
330
1F
100
AcDbEntity
  8
1
370
    13
100
AcDbLine
 10
28.1341
 20
-20.002619
 30
0.0
 11
28.335971
 21
-19.98271
 31
0.0
  0
LINE
  5
2E9
330
1F
100
AcDbEntity
  8
1
370
    13
100
AcDbLine
 10
28.308812
 20
-20.082835
 30
0.0
 11
28.154707
 21
-20.098648
 31
0.0
  0
LINE
  5
2EA
330
1F
100
AcDbEntity
  8
1
370
    13
100
AcDbLine
 10
32.567414
 20
-21.792315
 30
0.0
 11
31.24371
 21
-21.443247
 31
0.0
  0
LINE
  5
2EB
330
1F
100
AcDbEntity
  8
1
370
    13
100
AcDbLine
 10
33.716758
 20
-20.850943
 30
0.0
 11
32.520742
 21
-20.562288
 31
0.0
  0
LINE
  5
2EC
330
1F
100
AcDbEntity
  8
1
370
    13
100
AcDbLine
 10
31.24371
 20
-23.192234
 30
0.0
 11
33.861574
 21
-23.982139
 31
0.0
  0
LINE
  5
2ED
330
1F
100
AcDbEntity
  8
1
370
    13
100
AcDbLine
 10
28.154707
 20
-22.761932
 30
0.0
 11
28.225007
 21
-22.761149
 31
0.0
  0
LINE
  5
2EE
330
1F
100
AcDbEntity
  8
1
370
    13
100
AcDbLine
 10
33.233392
 20
-16.184288
 30
0.0
 11
33.023449
 21
-15.933865
 31
0.0
  0
LINE
  5
2EF
330
1F
100
AcDbEntity
  8
1
370
    13
100
AcDbLine
 10
28.154707
 20
-20.098648
 30
0.0
 11
26.419262
 21
-20.285279
 31
0.0
  0
LINE
  5
2F0
330
1F
100
AcDbEntity
  8
1
370
    13
100
AcDbLine
 10
28.225007
 20
-22.761149
 30
0.0
 11
29.202559
 21
-22.790412
 31
0.0
  0
LINE
  5
2F1
330
1F
100
AcDbEntity
  8
1
370
    13
100
AcDbLine
 10
10.204141
 20
23.247005
 30
0.0
 11
10.118873
 21
23.307696
 31
0.0
  0
LINE
  5
2F2
330
1F
100
AcDbEntity
  8
1
370
    13
100
AcDbLine
 10
28.384919
 20
-21.141669
 30
0.0
 11
28.308812
 21
-20.082835
 31
0.0
  0
LINE
  5
2F3
330
1F
100
AcDbEntity
  8
1
370
    13
100
AcDbLine
 10
28.335971
 20
-19.98271
 30
0.0
 11
28.308812
 21
-20.082835
 31
0.0
  0
LINE
  5
2F4
330
1F
100
AcDbEntity
  8
1
370
    13
100
AcDbLine
 10
13.377374
 20
21.190401
 30
0.0
 11
14.719299
 21
20.529621
 31
0.0
  0
ARC
  5
2F5
330
1F
100
AcDbEntity
  8
CUT
370
    13
100
AcDbCircle
 10
-32.108682
 20
15.537603
 30
0.0
 40
1.558797103166196
210
0.0
220
0.0
230
-1.0
100
AcDbArc
 50
280.926788
 51
315.762271
  0
ARC
  5
2F6
330
1F
100
AcDbEntity
  8
CUT
370
    13
100
AcDbCircle
 10
-30.005967
 20
21.851683
 30
0.0
 40
1.499548553843031
210
0.0
220
0.0
230
-1.0
100
AcDbArc
 50
9.703105
 51
45.039463
  0
ARC
  5
2F7
330
1F
100
AcDbEntity
  8
NOCUT
370
    13
100
AcDbCircle
 10
34.788275
 20
21.328407
 30
0.0
 40
3.0
100
AcDbArc
 50
17.53167
 51
107.992974
  0
ARC
  5
2F8
330
1F
100
AcDbEntity
  8
NOCUT
370
    13
100
AcDbCircle
 10
37.381039
 20
-9.0
 30
0.0
 40
1.0
100
AcDbArc
 50
5.0
 51
90.0
  0
ARC
  5
2F9
330
1F
100
AcDbEntity
  8
NOCUT
370
    13
100
AcDbCircle
 10
26.4
 20
-7.6
 30
0.0
 40
0.4
100
AcDbArc
 50
180.0
 51
270.0
  0
ARC
  5
2FA
330
1F
100
AcDbEntity
  8
NOCUT
370
    13
100
AcDbCircle
 10
9.672607
 20
18.5
 30
0.0
 40
5.0
100
AcDbArc
 50
82.507394
 51
90.0
  0
ARC
  5
2FB
330
1F
100
AcDbEntity
  8
NOCUT
370
    13
100
AcDbCircle
 10
20.1
 20
-8.170382
 30
0.0
 40
0.4
100
AcDbArc
 50
320.0
 51
0.0
  0
ARC
  5
2FC
330
1F
100
AcDbEntity
  8
NOCUT
370
    13
100
AcDbCircle
 10
28.154707
 20
-32.842394
 30
0.0
 40
10.0
100
AcDbArc
 50
72.007026
 51
90.0
  0
ARC
  5
2FD
330
1F
100
AcDbEntity
  8
NOCUT
370
    13
100
AcDbCircle
 10
28.154707
 20
32.842394
 30
0.0
 40
10.0
100
AcDbArc
 50
270.0
 51
287.992974
  0
ARC
  5
2FE
330
1F
100
AcDbEntity
  8
NOCUT
370
    13
100
AcDbCircle
 10
18.288128
 20
-10.329686
 30
0.0
 40
0.4
100
AcDbArc
 50
240.0
 51
320.0
  0
ARC
  5
2FF
330
1F
100
AcDbEntity
  8
NOCUT
370
    13
100
AcDbCircle
 10
9.672607
 20
-18.5
 30
0.0
 40
5.0
100
AcDbArc
 50
270.0
 51
277.492606
  0
ARC
  5
300
330
1F
100
AcDbEntity
  8
NOCUT
370
    13
100
AcDbCircle
 10
37.104723
 20
17.315399
 30
0.0
 40
2.0
100
AcDbArc
 50
355.0
 51
17.53167
  0
ARC
  5
301
330
1F
100
AcDbEntity
  8
NOCUT
370
    13
100
AcDbCircle
 10
37.381039
 20
9.0
 30
0.0
 40
1.0
100
AcDbArc
 50
270.0
 51
355.0
  0
ARC
  5
302
330
1F
100
AcDbEntity
  8
NOCUT
370
    13
100
AcDbCircle
 10
20.1
 20
8.170382
 30
0.0
 40
0.4
100
AcDbArc
 50
0.0
 51
40.0
  0
ARC
  5
303
330
1F
100
AcDbEntity
  8
NOCUT
370
    13
100
AcDbCircle
 10
18.288128
 20
10.329686
 30
0.0
 40
0.4
100
AcDbArc
 50
40.0
 51
120.0
  0
ARC
  5
304
330
1F
100
AcDbEntity
  8
NOCUT
370
    13
100
AcDbCircle
 10
34.788275
 20
-21.328407
 30
0.0
 40
3.0
100
AcDbArc
 50
252.007026
 51
342.46833
  0
ARC
  5
305
330
1F
100
AcDbEntity
  8
NOCUT
370
    13
100
AcDbCircle
 10
15.327393
 20
27.842394
 30
0.0
 40
5.0
100
AcDbArc
 50
262.507394
 51
270.0
  0
ARC
  5
306
330
1F
100
AcDbEntity
  8
NOCUT
370
    13
100
AcDbCircle
 10
26.4
 20
7.6
 30
0.0
 40
0.4
100
AcDbArc
 50
90.0
 51
180.0
  0
ARC
  5
307
330
1F
100
AcDbEntity
  8
NOCUT
370
    13
100
AcDbCircle
 10
15.327393
 20
-27.842394
 30
0.0
 40
5.0
100
AcDbArc
 50
90.0
 51
97.492606
  0
ARC
  5
308
330
1F
100
AcDbEntity
  8
NOCUT
370
    13
100
AcDbCircle
 10
37.104723
 20
-17.315399
 30
0.0
 40
2.0
100
AcDbArc
 50
342.46833
 51
5.0
  0
ARC
  5
309
330
1F
100
AcDbEntity
  8
1
370
    13
100
AcDbCircle
 10
-4.1
 20
-3.2975
 30
0.0
 40
0.8
210
0.0
220
0.0
230
-1.0
100
AcDbArc
 50
180.0
 51
270.0
  0
ARC
  5
30A
330
1F
100
AcDbEntity
  8
1
370
    13
100
AcDbCircle
 10
4.1
 20
3.2975
 30
0.0
 40
0.8
100
AcDbArc
 50
0.0
 51
90.0
  0
ARC
  5
30B
330
1F
100
AcDbEntity
  8
1
370
    13
100
AcDbCircle
 10
9.672607
 20
-18.5
 30
0.0
 40
5.0
100
AcDbArc
 50
270.0
 51
272.023517
  0
ARC
  5
30C
330
1F
100
AcDbEntity
  8
1
370
    13
100
AcDbCircle
 10
9.672607
 20
18.5
 30
0.0
 40
5.0
100
AcDbArc
 50
88.711235
 51
90.0
  0
ARC
  5
30D
330
1F
100
AcDbEntity
  8
1
370
    13
100
AcDbCircle
 10
33.771824
 20
20.555316
 30
0.0
 40
0.5770839540536028
100
AcDbArc
 50
69.466172
 51
143.3657
  0
ARC
  5
30E
330
1F
100
AcDbEntity
  8
1
370
    13
100
AcDbCircle
 10
32.090417
 20
-17.826593
 30
0.0
 40
2.14137655207873
100
AcDbArc
 50
111.899882
 51
157.349604
  0
ARC
  5
30F
330
1F
100
AcDbEntity
  8
1
370
    13
100
AcDbCircle
 10
34.519107
 20
21.340027
 30
0.0
 40
0.599803224641342
100
AcDbArc
 50
220.409534
 51
292.315983
  0
ARC
  5
310
330
1F
100
AcDbEntity
  8
1
370
    13
100
AcDbCircle
 10
34.80294
 20
20.265003
 30
0.0
 40
0.6152531947883745
100
AcDbArc
 50
11.821732
 51
82.323506
  0
ARC
  5
311
330
1F
100
AcDbEntity
  8
1
370
    13
100
AcDbCircle
 10
34.077617
 20
19.604812
 30
0.0
 40
2.785008051122348
100
AcDbArc
 50
150.647933
 51
191.288955
  0
ARC
  5
312
330
1F
100
AcDbEntity
  8
1
370
    13
100
AcDbCircle
 10
34.032525
 20
19.425973
 30
0.0
 40
2.90751517576483
100
AcDbArc
 50
0.941776
 51
42.96007
  0
ARC
  5
313
330
1F
100
AcDbEntity
  8
1
370
    13
100
AcDbCircle
 10
34.014674
 20
19.425929
 30
0.0
 40
2.920633812743675
100
AcDbArc
 50
42.722049
 51
84.611465
  0
ARC
  5
314
330
1F
100
AcDbEntity
  8
1
370
    13
100
AcDbCircle
 10
34.0045
 20
19.634667
 30
0.0
 40
2.706661553518727
100
AcDbArc
 50
106.317123
 51
150.44011
  0
ARC
  5
315
330
1F
100
AcDbEntity
  8
1
370
    13
100
AcDbCircle
 10
32.059844
 20
-17.738181
 30
0.0
 40
2.047946569243135
100
AcDbArc
 50
61.443006
 51
112.028855
  0
ARC
  5
316
330
1F
100
AcDbEntity
  8
1
370
    13
100
AcDbCircle
 10
32.789798
 20
8.804325
 30
0.0
 40
0.5537386171263623
100
AcDbArc
 50
276.514048
 51
343.54045
  0
ARC
  5
317
330
1F
100
AcDbEntity
  8
1
370
    13
100
AcDbCircle
 10
32.789974
 20
7.944433
 30
0.0
 40
0.3022612535027769
100
AcDbArc
 50
110.196453
 51
214.252157
  0
ARC
  5
318
330
1F
100
AcDbEntity
  8
1
370
    13
100
AcDbCircle
 10
33.82902
 20
6.32441
 30
0.0
 40
0.8511423008203061
100
AcDbArc
 50
66.335959
 51
113.753087
  0
ARC
  5
319
330
1F
100
AcDbEntity
  8
1
370
    13
100
AcDbCircle
 10
34.33482
 20
7.891091
 30
0.0
 40
0.8685009614093689
100
AcDbArc
 50
264.978647
 51
312.7454
  0
ARC
  5
31A
330
1F
100
AcDbEntity
  8
1
370
    13
100
AcDbCircle
 10
33.263125
 20
7.540816
 30
0.0
 40
0.5225261745038887
100
AcDbArc
 50
213.599887
 51
279.339146
  0
ARC
  5
31B
330
1F
100
AcDbEntity
  8
1
370
    13
100
AcDbCircle
 10
35.443247
 20
7.200431
 30
0.0
 40
0.5537386171265108
100
AcDbArc
 50
96.514048
 51
163.54045
  0
ARC
  5
31C
330
1F
100
AcDbEntity
  8
1
370
    13
100
AcDbCircle
 10
33.945519
 20
9.161847
 30
0.0
 40
2.277814909627427
100
AcDbArc
 50
280.977922
 51
320.059954
  0
ARC
  5
31D
330
1F
100
AcDbEntity
  8
1
370
    13
100
AcDbCircle
 10
35.078315
 20
8.230808
 30
0.0
 40
0.8116779302589858
100
AcDbArc
 50
319.114301
 51
11.538619
  0
ARC
  5
31E
330
1F
100
AcDbEntity
  8
1
370
    13
100
AcDbCircle
 10
32.641677
 20
7.465723
 30
0.0
 40
0.2869655732070623
100
AcDbArc
 50
337.470044
 51
80.20321
  0
ARC
  5
31F
330
1F
100
AcDbEntity
  8
1
370
    13
100
AcDbCircle
 10
32.748795
 20
7.805322
 30
0.0
 40
1.49140185082995
100
AcDbArc
 50
196.560215
 51
253.578755
  0
ARC
  5
320
330
1F
100
AcDbEntity
  8
1
370
    13
100
AcDbCircle
 10
35.443071
 20
8.060323
 30
0.0
 40
0.3022612535030743
100
AcDbArc
 50
290.196453
 51
34.252157
  0
ARC
  5
321
330
1F
100
AcDbEntity
  8
1
370
    13
100
AcDbCircle
 10
35.591368
 20
8.539033
 30
0.0
 40
0.286965573207084
100
AcDbArc
 50
157.470044
 51
260.20321
  0
ARC
  5
322
330
1F
100
AcDbEntity
  8
1
370
    13
100
AcDbCircle
 10
34.96992
 20
8.46394
 30
0.0
 40
0.522526174503668
100
AcDbArc
 50
33.599887
 51
99.339146
  0
ARC
  5
323
330
1F
100
AcDbEntity
  8
1
370
    13
100
AcDbCircle
 10
34.404025
 20
9.680345
 30
0.0
 40
0.8511423008205485
100
AcDbArc
 50
246.335959
 51
293.753087
  0
ARC
  5
324
330
1F
100
AcDbEntity
  8
1
370
    13
100
AcDbCircle
 10
33.898225
 20
8.113664
 30
0.0
 40
0.8685009614091806
100
AcDbArc
 50
84.978647
 51
132.7454
  0
ARC
  5
325
330
1F
100
AcDbEntity
  8
1
370
    13
100
AcDbCircle
 10
35.255874
 20
8.341584
 30
0.0
 40
1.368591881327682
100
AcDbArc
 50
17.140293
 51
76.406997
  0
ARC
  5
326
330
1F
100
AcDbEntity
  8
1
370
    13
100
AcDbCircle
 10
34.558263
 20
6.28509
 30
0.0
 40
3.536802740810388
100
AcDbArc
 50
73.250541
 51
104.147469
  0
ARC
  5
327
330
1F
100
AcDbEntity
  8
1
370
    13
100
AcDbCircle
 10
34.408197
 20
6.333783
 30
0.0
 40
3.455492374026773
100
AcDbArc
 50
101.931454
 51
133.321208
  0
ARC
  5
328
330
1F
100
AcDbEntity
  8
1
370
    13
100
AcDbCircle
 10
32.887645
 20
7.844329
 30
0.0
 40
1.315166625269225
100
AcDbArc
 50
130.276206
 51
191.202433
  0
ARC
  5
329
330
1F
100
AcDbEntity
  8
1
370
    13
100
AcDbCircle
 10
32.935132
 20
8.08475
 30
0.0
 40
1.42657089818282
100
AcDbArc
 50
200.34273
 51
257.929987
  0
ARC
  5
32A
330
1F
100
AcDbEntity
  8
1
370
    13
100
AcDbCircle
 10
33.590147
 20
10.175135
 30
0.0
 40
3.613441325820958
100
AcDbArc
 50
254.702791
 51
285.15247
  0
ARC
  5
32B
330
1F
100
AcDbEntity
  8
1
370
    13
100
AcDbCircle
 10
33.780637
 20
9.971864
 30
0.0
 40
3.369982570894918
100
AcDbArc
 50
282.929175
 51
314.858867
  0
ARC
  5
32C
330
1F
100
AcDbEntity
  8
1
370
    13
100
AcDbCircle
 10
35.286024
 20
8.539509
 30
0.0
 40
1.294063941273061
100
AcDbArc
 50
312.34505
 51
9.133589
  0
ARC
  5
32D
330
1F
100
AcDbEntity
  8
1
370
    13
100
AcDbCircle
 10
34.86098
 20
8.03898
 30
0.0
 40
1.072765786981908
100
AcDbArc
 50
19.278631
 51
85.201637
  0
ARC
  5
32E
330
1F
100
AcDbEntity
  8
1
370
    13
100
AcDbCircle
 10
34.470441
 20
6.386348
 30
0.0
 40
2.763689311856032
100
AcDbArc
 50
79.992307
 51
114.219245
  0
ARC
  5
32F
330
1F
100
AcDbEntity
  8
1
370
    13
100
AcDbCircle
 10
33.887507
 20
7.377817
 30
0.0
 40
1.625156789616502
100
AcDbArc
 50
109.811624
 51
159.149472
  0
ARC
  5
330
330
1F
100
AcDbEntity
  8
1
370
    13
100
AcDbCircle
 10
33.130457
 20
7.774617
 30
0.0
 40
0.7830382562764528
100
AcDbArc
 50
166.586751
 51
248.926832
  0
ARC
  5
331
330
1F
100
AcDbEntity
  8
1
370
    13
100
AcDbCircle
 10
33.783339
 20
9.17549
 30
0.0
 40
2.327367318774854
100
AcDbArc
 50
246.328182
 51
284.836399
  0
ARC
  5
332
330
1F
100
AcDbEntity
  8
1
370
    13
100
AcDbCircle
 10
36.244755
 20
-0.179511
 30
0.0
 40
2.542633248007697
100
AcDbArc
 50
132.191715
 51
176.67185
  0
ARC
  5
333
330
1F
100
AcDbEntity
  8
1
370
    13
100
AcDbCircle
 10
33.376594
 20
1.297727
 30
0.0
 40
0.5007298905728041
100
AcDbArc
 50
314.528671
 51
31.460194
  0
ARC
  5
334
330
1F
100
AcDbEntity
  8
1
370
    13
100
AcDbCircle
 10
32.799295
 20
-0.192815
 30
0.0
 40
1.999242462154517
100
AcDbArc
 50
62.19496
 51
99.668753
  0
ARC
  5
335
330
1F
100
AcDbEntity
  8
1
370
    13
100
AcDbCircle
 10
32.921133
 20
-3.586272
 30
0.0
 40
5.38378458988401
100
AcDbArc
 50
94.875948
 51
113.898934
  0
ARC
  5
336
330
1F
100
AcDbEntity
  8
1
370
    13
100
AcDbCircle
 10
36.269066
 20
-0.942105
 30
0.0
 40
3.067421875606029
100
AcDbArc
 50
86.886957
 51
115.913816
  0
ARC
  5
337
330
1F
100
AcDbEntity
  8
1
370
    13
100
AcDbCircle
 10
32.602706
 20
5.662357
 30
0.0
 40
3.041344722748087
100
AcDbArc
 50
264.219552
 51
293.413395
  0
ARC
  5
338
330
1F
100
AcDbEntity
  8
1
370
    13
100
AcDbCircle
 10
16.003915
 20
75.795473
 30
0.0
 40
74.93856961424609
100
AcDbArc
 50
283.89769
 51
286.274943
  0
ARC
  5
339
330
1F
100
AcDbEntity
  8
1
370
    13
100
AcDbCircle
 10
33.558754
 20
16.445199
 30
0.0
 40
13.04872530257934
100
AcDbArc
 50
285.314835
 51
293.031359
  0
ARC
  5
33A
330
1F
100
AcDbEntity
  8
1
370
    13
100
AcDbCircle
 10
31.654794
 20
-17.480151
 30
0.0
 40
2.137404373960722
100
AcDbArc
 50
116.461979
 51
158.041244
  0
ARC
  5
33B
330
1F
100
AcDbEntity
  8
1
370
    13
100
AcDbCircle
 10
31.643917
 20
-17.352452
 30
0.0
 40
1.978762583967763
100
AcDbArc
 50
45.799667
 51
97.374515
  0
ARC
  5
33C
330
1F
100
AcDbEntity
  8
1
370
    13
100
AcDbCircle
 10
39.295981
 20
-18.889803
 30
0.0
 40
5.49979192910924
100
AcDbArc
 50
149.91536
 51
173.056964
  0
ARC
  5
33D
330
1F
100
AcDbEntity
  8
1
370
    13
100
AcDbCircle
 10
31.502054
 20
-17.413808
 30
0.0
 40
2.125585889321788
100
AcDbArc
 50
337.798397
 51
27.058064
  0
ARC
  5
33E
330
1F
100
AcDbEntity
  8
1
370
    13
100
AcDbCircle
 10
46.735572
 20
-20.128973
 30
0.0
 40
13.03881705113167
100
AcDbArc
 50
171.603339
 51
183.174137
  0
ARC
  5
33F
330
1F
100
AcDbEntity
  8
1
370
    13
100
AcDbCircle
 10
32.591019
 20
-19.670997
 30
0.0
 40
5.514049333899706
100
AcDbArc
 50
22.063891
 51
41.239511
  0
ARC
  5
340
330
1F
100
AcDbEntity
  8
1
370
    13
100
AcDbCircle
 10
35.704298
 20
-16.85961
 30
0.0
 40
1.236363179212072
100
AcDbArc
 50
53.734261
 51
119.378602
  0
ARC
  5
341
330
1F
100
AcDbEntity
  8
1
370
    13
100
AcDbCircle
 10
33.561358
 20
9.953868
 30
0.0
 40
3.785926881621148
100
AcDbArc
 50
250.974378
 51
281.11491
  0
ARC
  5
342
330
1F
100
AcDbEntity
  8
1
370
    13
100
AcDbCircle
 10
35.668286
 20
8.337199
 30
0.0
 40
1.271655284616404
100
AcDbArc
 50
1.170891
 51
64.837348
  0
ARC
  5
343
330
1F
100
AcDbEntity
  8
1
370
    13
100
AcDbCircle
 10
33.617134
 20
10.375469
 30
0.0
 40
4.191074735607592
100
AcDbArc
 50
279.255278
 51
307.386094
  0
ARC
  5
344
330
1F
100
AcDbEntity
  8
1
370
    13
100
AcDbCircle
 10
34.728201
 20
6.546871
 30
0.0
 40
3.293023294645201
100
AcDbArc
 50
63.277382
 51
96.41582
  0
ARC
  5
345
330
1F
100
AcDbEntity
  8
1
370
    13
100
AcDbCircle
 10
35.127752
 20
8.544202
 30
0.0
 40
1.820943323688246
100
AcDbArc
 50
304.604593
 51
354.294867
  0
ARC
  5
346
330
1F
100
AcDbEntity
  8
1
370
    13
100
AcDbCircle
 10
33.465951
 20
7.210011
 30
0.0
 40
2.24847294347101
100
AcDbArc
 50
118.843172
 51
161.839126
  0
ARC
  5
347
330
1F
100
AcDbEntity
  8
1
370
    13
100
AcDbCircle
 10
34.704373
 20
5.373855
 30
0.0
 40
4.458716683954872
100
AcDbArc
 50
94.426768
 51
121.401231
  0
ARC
  5
348
330
1F
100
AcDbEntity
  8
1
370
    13
100
AcDbCircle
 10
34.603301
 20
-57.225057
 30
0.0
 40
48.79070834798434
100
AcDbArc
 50
91.470595
 51
92.298635
  0
ARC
  5
349
330
1F
100
AcDbEntity
  8
1
370
    13
100
AcDbCircle
 10
34.467626
 20
-53.773247
 30
0.0
 40
45.33623461620622
100
AcDbArc
 50
92.302273
 51
92.992493
  0
ARC
  5
34A
330
1F
100
AcDbEntity
  8
1
370
    13
100
AcDbCircle
 10
34.168582
 20
-49.130911
 30
0.0
 40
40.68406149200027
100
AcDbArc
 50
94.144032
 51
95.077958
  0
ARC
  5
34B
330
1F
100
AcDbEntity
  8
1
370
    13
100
AcDbCircle
 10
34.356832
 20
-51.705692
 30
0.0
 40
43.26571480168107
100
AcDbArc
 50
92.98891
 51
94.146276
  0
ARC
  5
34C
330
1F
100
AcDbEntity
  8
1
370
    13
100
AcDbCircle
 10
-27.478929
 20
297.143405
 30
0.0
 40
305.6490592326131
210
0.0
220
0.0
230
-1.0
100
AcDbArc
 50
268.798822
 51
268.842129
  0
ARC
  5
34D
330
1F
100
AcDbEntity
  8
CUT
370
    13
100
AcDbCircle
 10
-36.153931
 20
23.467414
 30
0.0
 40
1.721103408793123
210
0.0
220
0.0
230
-1.0
100
AcDbArc
 50
102.614333
 51
134.074725
  0
ARC
  5
34E
330
1F
100
AcDbEntity
  8
CUT
370
    13
100
AcDbCircle
 10
-38.299513
 20
17.321784
 30
0.0
 40
1.539862942359631
210
0.0
220
0.0
230
-1.0
100
AcDbArc
 50
190.180281
 51
224.562287
  0
ARC
  5
34F
330
1F
100
AcDbEntity
  8
1
370
    13
100
AcDbCircle
 10
54.957106
 20
53.489038
 30
0.0
 40
66.07670924951725
100
AcDbArc
 50
232.88808
 51
233.204566
  0
ARC
  5
350
330
1F
100
AcDbEntity
  8
1
370
    13
100
AcDbCircle
 10
-30.393471
 20
1.05031
 30
0.0
 40
7.295459186916468
210
0.0
220
0.0
230
-1.0
100
AcDbArc
 50
186.002834
 51
200.348359
  0
ARC
  5
351
330
1F
100
AcDbEntity
  8
1
370
    13
100
AcDbCircle
 10
23.20209
 20
11.665364
 30
0.0
 40
13.62598380321315
100
AcDbArc
 50
253.014549
 51
269.260013
  0
ARC
  5
352
330
1F
100
AcDbEntity
  8
1
370
    13
100
AcDbCircle
 10
-3.154105
 20
-3.671284
 30
0.0
 40
1.754832112784572
210
0.0
220
0.0
230
-1.0
100
AcDbArc
 50
210.391628
 51
230.806189
  0
ARC
  5
353
330
1F
100
AcDbEntity
  8
1
370
    13
100
AcDbCircle
 10
-34.852476
 20
-0.675896
 30
0.0
 40
2.515384606768507
210
0.0
220
0.0
230
-1.0
100
AcDbArc
 50
198.800038
 51
231.384159
  0
ARC
  5
354
330
1F
100
AcDbEntity
  8
1
370
    13
100
AcDbCircle
 10
-3.036417
 20
3.582806
 30
0.0
 40
1.90120066588387
210
0.0
220
0.0
230
-1.0
100
AcDbArc
 50
137.083413
 51
161.152846
  0
ARC
  5
355
330
1F
100
AcDbEntity
  8
1
370
    13
100
AcDbCircle
 10
-11.554764
 20
-11.200728
 30
0.0
 40
1.800021420722241
210
0.0
220
0.0
230
-1.0
100
AcDbArc
 50
356.780771
 51
23.85453
  0
ARC
  5
356
330
1F
100
AcDbEntity
  8
1
370
    13
100
AcDbCircle
 10
-11.414403
 20
-11.137765
 30
0.0
 40
1.64618828317761
210
0.0
220
0.0
230
-1.0
100
AcDbArc
 50
23.825969
 51
48.546083
  0
ARC
  5
357
330
1F
100
AcDbEntity
  8
1
370
    13
100
AcDbCircle
 10
-20.169886
 20
-11.501131
 30
0.0
 40
10.35933231886277
210
0.0
220
0.0
230
-1.0
100
AcDbArc
 50
341.874733
 51
352.361641
  0
ARC
  5
358
330
1F
100
AcDbEntity
  8
1
370
    13
100
AcDbCircle
 10
-3.430604
 20
-3.765456
 30
0.0
 40
1.469855790875751
210
0.0
220
0.0
230
-1.0
100
AcDbArc
 50
181.432894
 51
212.678493
  0
ARC
  5
359
330
1F
100
AcDbEntity
  8
1
370
    13
100
AcDbCircle
 10
27.865846
 20
12.298617
 30
0.0
 40
18.02898762100437
100
AcDbArc
 50
182.269614
 51
194.360677
  0
ARC
  5
35A
330
1F
100
AcDbEntity
  8
1
370
    13
100
AcDbCircle
 10
22.88731
 20
10.654194
 30
0.0
 40
12.56696715048294
100
AcDbArc
 50
233.316143
 51
253.040336
  0
ARC
  5
35B
330
1F
100
AcDbEntity
  8
1
370
    13
100
AcDbCircle
 10
23.219907
 20
12.299465
 30
0.0
 40
14.26026561310936
100
AcDbArc
 50
269.221336
 51
282.879983
  0
ARC
  5
35C
330
1F
100
AcDbEntity
  8
1
370
    13
100
AcDbCircle
 10
50.543399
 20
47.65695
 30
0.0
 40
58.76274604114312
100
AcDbArc
 50
232.436548
 51
232.888878
  0
ARC
  5
35D
330
1F
100
AcDbEntity
  8
1
370
    13
100
AcDbCircle
 10
-3.936437
 20
4.497628
 30
0.0
 40
0.621770996836516
210
0.0
220
0.0
230
-1.0
100
AcDbArc
 50
105.251673
 51
142.353756
  0
ARC
  5
35E
330
1F
100
AcDbEntity
  8
1
370
    13
100
AcDbCircle
 10
-34.043318
 20
-2.662994
 30
0.0
 40
5.426053505638909
210
0.0
220
0.0
230
-1.0
100
AcDbArc
 50
251.230852
 51
267.297336
  0
ARC
  5
35F
330
1F
100
AcDbEntity
  8
1
370
    13
100
AcDbCircle
 10
-34.530623
 20
-3.46548
 30
0.0
 40
4.509595831165004
210
0.0
220
0.0
230
-1.0
100
AcDbArc
 50
233.056833
 51
251.688081
  0
ARC
  5
360
330
1F
100
AcDbEntity
  8
1
370
    13
100
AcDbCircle
 10
-23.231412
 20
12.207281
 30
0.0
 40
14.26473014709746
210
0.0
220
0.0
230
-1.0
100
AcDbArc
 50
257.086616
 51
274.585109
  0
ARC
  5
361
330
1F
100
AcDbEntity
  8
1
370
    13
100
AcDbCircle
 10
-22.831747
 20
10.521057
 30
0.0
 40
12.51368567142644
210
0.0
220
0.0
230
-1.0
100
AcDbArc
 50
291.175961
 51
306.847821
  0
ARC
  5
362
330
1F
100
AcDbEntity
  8
1
370
    13
100
AcDbCircle
 10
-23.164894
 20
11.383007
 30
0.0
 40
13.43777720539037
210
0.0
220
0.0
230
-1.0
100
AcDbArc
 50
274.583347
 51
291.172916
  0
ARC
  5
363
330
1F
100
AcDbEntity
  8
1
370
    13
100
AcDbCircle
 10
-35.792651
 20
-1.769455
 30
0.0
 40
1.075438528242332
210
0.0
220
0.0
230
-1.0
100
AcDbArc
 50
234.161911
 51
278.680169
  0
ARC
  5
364
330
1F
100
AcDbEntity
  8
1
370
    13
100
AcDbCircle
 10
22.056255
 20
10.414519
 30
0.0
 40
11.88660679823942
100
AcDbArc
 50
206.970957
 51
223.101876
  0
ARC
  5
365
330
1F
100
AcDbEntity
  8
1
370
    13
100
AcDbCircle
 10
-22.639468
 20
10.76658
 30
0.0
 40
12.63812086825079
210
0.0
220
0.0
230
-1.0
100
AcDbArc
 50
323.31712
 51
338.538695
  0
ARC
  5
366
330
1F
100
AcDbEntity
  8
1
370
    13
100
AcDbCircle
 10
-35.93183
 20
-1.293636
 30
0.0
 40
1.568193085041482
210
0.0
220
0.0
230
-1.0
100
AcDbArc
 50
281.084055
 51
313.507185
  0
ARC
  5
367
330
1F
100
AcDbEntity
  8
1
370
    13
100
AcDbCircle
 10
-37.836116
 20
0.634848
 30
0.0
 40
4.278230857896142
210
0.0
220
0.0
230
-1.0
100
AcDbArc
 50
314.223686
 51
338.281835
  0
ARC
  5
368
330
1F
100
AcDbEntity
  8
1
370
    13
100
AcDbCircle
 10
23.896551
 20
11.337902
 30
0.0
 40
13.94554093030825
100
AcDbArc
 50
194.581668
 51
206.922915
  0
ARC
  5
369
330
1F
100
AcDbEntity
  8
1
370
    13
100
AcDbCircle
 10
-21.663005
 20
10.068976
 30
0.0
 40
11.43832835029655
210
0.0
220
0.0
230
-1.0
100
AcDbArc
 50
307.654149
 51
323.197509
  0
ARC
  5
36A
330
1F
100
AcDbEntity
  8
1
370
    13
100
AcDbCircle
 10
32.053802
 20
-17.967691
 30
0.0
 40
1.56759043133482
100
AcDbArc
 50
168.074763
 51
225.883528
  0
ARC
  5
36B
330
1F
100
AcDbEntity
  8
1
370
    13
100
AcDbCircle
 10
34.066604
 20
19.506692
 30
0.0
 40
1.788531411308356
100
AcDbArc
 50
59.026451
 51
106.170886
  0
ARC
  5
36C
330
1F
100
AcDbEntity
  8
1
370
    13
100
AcDbCircle
 10
34.048889
 20
19.454699
 30
0.0
 40
1.842263635180564
100
AcDbArc
 50
6.657134
 51
59.386236
  0
ARC
  5
36D
330
1F
100
AcDbEntity
  8
1
370
    13
100
AcDbCircle
 10
33.990702
 20
19.408097
 30
0.0
 40
2.584108637575999
100
AcDbArc
 50
46.695939
 51
91.281622
  0
ARC
  5
36E
330
1F
100
AcDbEntity
  8
1
370
    13
100
AcDbCircle
 10
32.677446
 20
-1.736277
 30
0.0
 40
2.450968662322134
100
AcDbArc
 50
71.249383
 51
100.994022
  0
ARC
  5
36F
330
1F
100
AcDbEntity
  8
1
370
    13
100
AcDbCircle
 10
33.893519
 20
19.309542
 30
0.0
 40
2.843147237310887
100
AcDbArc
 50
46.067571
 51
88.553795
  0
ARC
  5
370
330
1F
100
AcDbEntity
  8
1
370
    13
100
AcDbCircle
 10
32.095959
 20
-17.885346
 30
0.0
 40
1.542402744724884
100
AcDbArc
 50
9.667776
 51
53.92924
  0
ARC
  5
371
330
1F
100
AcDbEntity
  8
1
370
    13
100
AcDbCircle
 10
32.639229
 20
-3.157397
 30
0.0
 40
3.851098072103511
100
AcDbArc
 50
96.398825
 51
118.200585
  0
ARC
  5
372
330
1F
100
AcDbEntity
  8
1
370
    13
100
AcDbCircle
 10
34.000101
 20
19.56371
 30
0.0
 40
2.438222725643449
100
AcDbArc
 50
135.154309
 51
181.550009
  0
ARC
  5
373
330
1F
100
AcDbEntity
  8
1
370
    13
100
AcDbCircle
 10
33.992899
 20
19.391849
 30
0.0
 40
2.594456974134444
100
AcDbArc
 50
2.513464
 51
46.977359
  0
ARC
  5
374
330
1F
100
AcDbEntity
  8
1
370
    13
100
AcDbCircle
 10
33.956577
 20
19.520185
 30
0.0
 40
2.438222725643348
100
AcDbArc
 50
135.154309
 51
181.550009
  0
ARC
  5
375
330
1F
100
AcDbEntity
  8
1
370
    13
100
AcDbCircle
 10
32.118511
 20
-17.973275
 30
0.0
 40
1.632075512662414
100
AcDbArc
 50
112.142982
 51
168.352354
  0
ARC
  5
376
330
1F
100
AcDbEntity
  8
1
370
    13
100
AcDbCircle
 10
33.897419
 20
19.295915
 30
0.0
 40
2.850281720099115
100
AcDbArc
 50
3.90049
 51
46.314076
  0
ARC
  5
377
330
1F
100
AcDbEntity
  8
1
370
    13
100
AcDbCircle
 10
33.89692
 20
19.472897
 30
0.0
 40
2.679757999210391
100
AcDbArc
 50
88.53832
 51
132.777424
  0
ARC
  5
378
330
1F
100
AcDbEntity
  8
1
370
    13
100
AcDbCircle
 10
32.031245
 20
-17.933336
 30
0.0
 40
1.586423041801651
100
AcDbArc
 50
253.33624
 51
310.666317
  0
ARC
  5
379
330
1F
100
AcDbEntity
  8
1
370
    13
100
AcDbCircle
 10
31.35107
 20
1.21687
 30
0.0
 40
1.715584137799822
100
AcDbArc
 50
243.217079
 51
277.544859
  0
ARC
  5
37A
330
1F
100
AcDbEntity
  8
1
370
    13
100
AcDbCircle
 10
30.845124
 20
-0.103165
 30
0.0
 40
0.3407112255076474
100
AcDbArc
 50
94.337573
 51
218.372106
  0
ARC
  5
37B
330
1F
100
AcDbEntity
  8
1
370
    13
100
AcDbCircle
 10
32.094398
 20
-17.900519
 30
0.0
 40
1.555604945787839
100
AcDbArc
 50
54.211792
 51
112.330407
  0
ARC
  5
37C
330
1F
100
AcDbEntity
  8
1
370
    13
100
AcDbCircle
 10
36.645246
 20
10.172011
 30
0.0
 40
1.424331922332869
100
AcDbArc
 50
63.414479
 51
95.340012
  0
ARC
  5
37D
330
1F
100
AcDbEntity
  8
1
370
    13
100
AcDbCircle
 10
29.487615
 20
8.230683
 30
0.0
 40
0.9930299542259484
100
AcDbArc
 50
123.028653
 51
165.123586
  0
ARC
  5
37E
330
1F
100
AcDbEntity
  8
1
370
    13
100
AcDbCircle
 10
36.671122
 20
10.140947
 30
0.0
 40
1.519654336230642
100
AcDbArc
 50
63.418437
 51
95.336054
  0
ARC
  5
37F
330
1F
100
AcDbEntity
  8
1
370
    13
100
AcDbCircle
 10
29.523864
 20
8.249498
 30
0.0
 40
0.9300480878345382
100
AcDbArc
 50
123.0069
 51
165.145338
  0
ARC
  5
380
330
1F
100
AcDbEntity
  8
1
370
    13
100
AcDbCircle
 10
-26.47473
 20
34.190039
 30
0.0
 40
15.89716885796956
210
0.0
220
0.0
230
-1.0
100
AcDbArc
 50
252.543039
 51
263.098714
  0
ARC
  5
381
330
1F
100
AcDbEntity
  8
1
370
    13
100
AcDbCircle
 10
-15.996813
 20
-13.155722
 30
0.0
 40
5.85153733086444
210
0.0
220
0.0
230
-1.0
100
AcDbArc
 50
306.64522
 51
331.026875
  0
ARC
  5
382
330
1F
100
AcDbEntity
  8
1
370
    13
100
AcDbCircle
 10
-16.837976
 20
-11.89009
 30
0.0
 40
7.369508110528599
210
0.0
220
0.0
230
-1.0
100
AcDbArc
 50
287.064549
 51
306.019355
  0
ARC
  5
383
330
1F
100
AcDbEntity
  8
1
370
    13
100
AcDbCircle
 10
-27.157808
 20
-11.4505
 30
0.0
 40
72.08013427969118
100
AcDbArc
 50
23.364438
 51
24.165723
  0
ARC
  5
384
330
1F
100
AcDbEntity
  8
1
370
    13
100
AcDbCircle
 10
149.69859
 20
34.52849
 30
0.0
 40
194.6134660670504
210
0.0
220
0.0
230
-1.0
100
AcDbArc
 50
194.147947
 51
194.629227
  0
ARC
  5
385
330
1F
100
AcDbEntity
  8
1
370
    13
100
AcDbCircle
 10
53.219542
 20
5.672822
 30
0.0
 40
14.28408758142263
100
AcDbArc
 50
178.999137
 51
182.673109
  0
ARC
  5
386
330
1F
100
AcDbEntity
  8
1
370
    13
100
AcDbCircle
 10
-40.062692
 20
-17.236481
 30
0.0
 40
86.22275070146742
100
AcDbArc
 50
24.163038
 51
24.689881
  0
ARC
  5
387
330
1F
100
AcDbEntity
  8
1
370
    13
100
AcDbCircle
 10
-16.453383
 20
-60.56312
 30
0.0
 40
37.62231026969031
210
0.0
220
0.0
230
-1.0
100
AcDbArc
 50
80.624566
 51
82.003637
  0
ARC
  5
388
330
1F
100
AcDbEntity
  8
1
370
    13
100
AcDbCircle
 10
185.184031
 20
43.78076
 30
0.0
 40
231.2852659602883
210
0.0
220
0.0
230
-1.0
100
AcDbArc
 50
194.626752
 51
194.944997
  0
ARC
  5
389
330
1F
100
AcDbEntity
  8
1
370
    13
100
AcDbCircle
 10
89.822577
 20
35.540236
 30
0.0
 40
67.7732548894505
100
AcDbArc
 50
206.07826
 51
207.425331
  0
ARC
  5
38A
330
1F
100
AcDbEntity
  8
1
370
    13
100
AcDbCircle
 10
-46.588449
 20
4.344566
 30
0.0
 40
17.09659520172908
210
0.0
220
0.0
230
-1.0
100
AcDbArc
 50
352.521668
 51
356.481855
  0
ARC
  5
38B
330
1F
100
AcDbEntity
  8
1
370
    13
100
AcDbCircle
 10
-16.642532
 20
-62.057852
 30
0.0
 40
39.12882705314183
210
0.0
220
0.0
230
-1.0
100
AcDbArc
 50
82.033835
 51
83.196775
  0
ARC
  5
38C
330
1F
100
AcDbEntity
  8
1
370
    13
100
AcDbCircle
 10
42.288375
 20
5.124981
 30
0.0
 40
3.339475426157899
100
AcDbArc
 50
182.030705
 51
189.738877
  0
ARC
  5
38D
330
1F
100
AcDbEntity
  8
1
370
    13
100
AcDbCircle
 10
-42.09193
 20
5.177836
 30
0.0
 40
3.232400478988632
210
0.0
220
0.0
230
-1.0
100
AcDbArc
 50
349.853379
 51
359.049809
  0
ARC
  5
38E
330
1F
100
AcDbEntity
  8
1
370
    13
100
AcDbCircle
 10
-14.228087
 20
42.389933
 30
0.0
 40
19.44078072270075
210
0.0
220
0.0
230
-1.0
100
AcDbArc
 50
279.472636
 51
281.435651
  0
ARC
  5
38F
330
1F
100
AcDbEntity
  8
1
370
    13
100
AcDbCircle
 10
33.57517
 20
7.806809
 30
0.0
 40
0.5551187497179166
100
AcDbArc
 50
51.98346
 51
128.105586
  0
ARC
  5
390
330
1F
100
AcDbEntity
  8
1
370
    13
100
AcDbCircle
 10
13.512018
 20
38.891732
 30
0.0
 40
15.83821107248398
100
AcDbArc
 50
258.390008
 51
261.678287
  0
ARC
  5
391
330
1F
100
AcDbEntity
  8
1
370
    13
100
AcDbCircle
 10
15.27102
 20
28.042009
 30
0.0
 40
5.25400379172505
100
AcDbArc
 50
263.490697
 51
267.466834
  0
ARC
  5
392
330
1F
100
AcDbEntity
  8
1
370
    13
100
AcDbCircle
 10
-25.596944
 20
-942.710183
 30
0.0
 40
965.5531147970662
210
0.0
220
0.0
230
-1.0
100
AcDbArc
 50
89.390595
 51
89.762983
  0
ARC
  5
393
330
1F
100
AcDbEntity
  8
1
370
    13
100
AcDbCircle
 10
34.581947
 20
20.045758
 30
0.0
 40
0.5876726062117641
100
AcDbArc
 50
9.898091
 51
84.247147
  0
ARC
  5
394
330
1F
100
AcDbEntity
  8
1
370
    13
100
AcDbCircle
 10
35.090783
 20
8.458323
 30
0.0
 40
0.4339378997873046
100
AcDbArc
 50
85.233257
 51
174.821241
  0
ARC
  5
395
330
1F
100
AcDbEntity
  8
1
370
    13
100
AcDbCircle
 10
15.270737
 20
28.03584
 30
0.0
 40
5.247828708193941
100
AcDbArc
 50
267.466942
 51
270.618585
  0
ARC
  5
396
330
1F
100
AcDbEntity
  8
1
370
    13
100
AcDbCircle
 10
-15.015579
 20
47.133146
 30
0.0
 40
24.24892025503071
210
0.0
220
0.0
230
-1.0
100
AcDbArc
 50
277.189031
 51
279.463498
  0
ARC
  5
397
330
1F
100
AcDbEntity
  8
1
370
    13
100
AcDbCircle
 10
-25.333199
 20
-879.719325
 30
0.0
 40
902.5617049357794
210
0.0
220
0.0
230
-1.0
100
AcDbArc
 50
89.763184
 51
90.076009
  0
ARC
  5
398
330
1F
100
AcDbEntity
  8
1
370
    13
100
AcDbCircle
 10
34.151612
 20
8.810646
 30
0.0
 40
0.6999815590452886
100
AcDbArc
 50
258.706452
 51
319.017595
  0
ARC
  5
399
330
1F
100
AcDbEntity
  8
1
370
    13
100
AcDbCircle
 10
14.21975
 20
43.603766
 30
0.0
 40
20.6030715576609
100
AcDbArc
 50
261.627391
 51
263.835541
  0
ARC
  5
39A
330
1F
100
AcDbEntity
  8
1
370
    13
100
AcDbCircle
 10
9.720215
 20
23.154059
 30
0.0
 40
0.3495524372428059
100
AcDbArc
 50
53.253479
 51
80.583927
  0
ARC
  5
39B
330
1F
100
AcDbEntity
  8
1
370
    13
100
AcDbCircle
 10
39.392897
 20
10.68831
 30
0.0
 40
0.4762453914055597
100
AcDbArc
 50
277.808835
 51
332.448353
  0
ARC
  5
39C
330
1F
100
AcDbEntity
  8
1
370
    13
100
AcDbCircle
 10
-32.235069
 20
4.650305
 30
0.0
 40
2.402572051843495
210
0.0
220
0.0
230
-1.0
100
AcDbArc
 50
333.774656
 51
1.626044
  0
ARC
  5
39D
330
1F
100
AcDbEntity
  8
1
370
    13
100
AcDbCircle
 10
7.254143
 20
19.200219
 30
0.0
 40
5.008281015807729
100
AcDbArc
 50
52.187784
 51
57.713351
  0
ARC
  5
39E
330
1F
100
AcDbEntity
  8
1
370
    13
100
AcDbCircle
 10
-31.66247
 20
4.161791
 30
0.0
 40
1.670599194580525
210
0.0
220
0.0
230
-1.0
100
AcDbArc
 50
189.203505
 51
225.20834
  0
ARC
  5
39F
330
1F
100
AcDbEntity
  8
1
370
    13
100
AcDbCircle
 10
-26.969339
 20
12.308961
 30
0.0
 40
1.228735722038522
210
0.0
220
0.0
230
-1.0
100
AcDbArc
 50
32.342807
 51
64.298433
  0
ARC
  5
3A0
330
1F
100
AcDbEntity
  8
1
370
    13
100
AcDbCircle
 10
16.032673
 20
17.570273
 30
0.0
 40
5.306319699795522
100
AcDbArc
 50
255.179961
 51
259.204803
  0
ARC
  5
3A1
330
1F
100
AcDbEntity
  8
1
370
    13
100
AcDbCircle
 10
27.185792
 20
11.738657
 30
0.0
 40
1.713357784929758
100
AcDbArc
 50
72.029806
 51
102.280066
  0
ARC
  5
3A2
330
1F
100
AcDbEntity
  8
1
370
    13
100
AcDbCircle
 10
30.696556
 20
2.912085
 30
0.0
 40
0.422480244051989
100
AcDbArc
 50
164.221229
 51
227.167137
  0
ARC
  5
3A3
330
1F
100
AcDbEntity
  8
1
370
    13
100
AcDbCircle
 10
11.109851
 20
11.840532
 30
0.0
 40
1.238067513030484
100
AcDbArc
 50
126.48866
 51
163.216141
  0
ARC
  5
3A4
330
1F
100
AcDbEntity
  8
1
370
    13
100
AcDbCircle
 10
106.657153
 20
-928.579736
 30
0.0
 40
948.7655764932623
210
0.0
220
0.0
230
-1.0
100
AcDbArc
 50
97.387073
 51
97.769379
  0
ARC
  5
3A5
330
1F
100
AcDbEntity
  8
1
370
    13
100
AcDbCircle
 10
-37.542013
 20
25.225198
 30
0.0
 40
5.813104807198444
210
0.0
220
0.0
230
-1.0
100
AcDbArc
 50
284.74819
 51
299.340733
  0
ARC
  5
3A6
330
1F
100
AcDbEntity
  8
1
370
    13
100
AcDbCircle
 10
-23.149732
 20
39.667036
 30
0.0
 40
20.90438567619693
210
0.0
220
0.0
230
-1.0
100
AcDbArc
 50
300.613884
 51
305.949029
  0
ARC
  5
3A7
330
1F
100
AcDbEntity
  8
1
370
    13
100
AcDbCircle
 10
26.728718
 20
12.454457
 30
0.0
 40
0.8351518132703832
100
AcDbArc
 50
139.215125
 51
192.392842
  0
ARC
  5
3A8
330
1F
100
AcDbEntity
  8
1
370
    13
100
AcDbCircle
 10
26.983725
 20
12.547226
 30
0.0
 40
1.1047090459297
100
AcDbArc
 50
194.254051
 51
236.933703
  0
ARC
  5
3A9
330
1F
100
AcDbEntity
  8
1
370
    13
100
AcDbCircle
 10
-26.93122
 20
12.564853
 30
0.0
 40
1.142260140950706
210
0.0
220
0.0
230
-1.0
100
AcDbArc
 50
304.459396
 51
349.429301
  0
ARC
  5
3AA
330
1F
100
AcDbEntity
  8
1
370
    13
100
AcDbCircle
 10
16.004421
 20
17.422333
 30
0.0
 40
5.155705759205907
100
AcDbArc
 50
259.20528
 51
262.454341
  0
ARC
  5
3AB
330
1F
100
AcDbEntity
  8
1
370
    13
100
AcDbCircle
 10
98.564872
 20
-869.255337
 30
0.0
 40
888.891798136982
210
0.0
220
0.0
230
-1.0
100
AcDbArc
 50
97.769497
 51
98.0902
  0
ARC
  5
3AC
330
1F
100
AcDbEntity
  8
1
370
    13
100
AcDbCircle
 10
-80.424869
 20
27.132813
 30
0.0
 40
56.31772128866461
210
0.0
220
0.0
230
-1.0
100
AcDbArc
 50
343.130678
 51
343.628048
  0
ARC
  5
3AD
330
1F
100
AcDbEntity
  8
1
370
    13
100
AcDbCircle
 10
-37.008102
 20
22.934088
 30
0.0
 40
3.462206651882089
210
0.0
220
0.0
230
-1.0
100
AcDbArc
 50
267.740768
 51
285.855878
  0
ARC
  5
3AE
330
1F
100
AcDbEntity
  8
1
370
    13
100
AcDbCircle
 10
-24.110476
 20
41.314313
 30
0.0
 40
22.81132517933846
210
0.0
220
0.0
230
-1.0
100
AcDbArc
 50
294.432036
 51
300.583639
  0
ARC
  5
3AF
330
1F
100
AcDbEntity
  8
1
370
    13
100
AcDbCircle
 10
-36.929173
 20
24.204345
 30
0.0
 40
4.623038428459937
210
0.0
220
0.0
230
-1.0
100
AcDbArc
 50
298.919284
 51
311.570892
  0
ARC
  5
3B0
330
1F
100
AcDbEntity
  8
1
370
    13
100
AcDbCircle
 10
27.067941
 20
12.13673
 30
0.0
 40
1.299685294731759
100
AcDbArc
 50
100.935922
 51
138.37817
  0
ARC
  5
3B1
330
1F
100
AcDbEntity
  8
1
370
    13
100
AcDbCircle
 10
-23.23158
 20
44.591046
 30
0.0
 40
25.61765756209782
210
0.0
220
0.0
230
-1.0
100
AcDbArc
 50
262.851987
 51
272.551631
  0
ARC
  5
3B2
330
1F
100
AcDbEntity
  8
1
370
    13
100
AcDbCircle
 10
-78.276329
 20
26.501317
 30
0.0
 40
54.07829956128458
210
0.0
220
0.0
230
-1.0
100
AcDbArc
 50
343.628342
 51
344.030618
  0
ARC
  5
3B3
330
1F
100
AcDbEntity
  8
1
370
    13
100
AcDbCircle
 10
-23.193145
 20
43.421773
 30
0.0
 40
24.44783651994548
210
0.0
220
0.0
230
-1.0
100
AcDbArc
 50
272.583641
 51
283.406252
  0
ARC
  5
3B4
330
1F
100
AcDbEntity
  8
1
370
    13
100
AcDbCircle
 10
-37.168966
 20
20.24219
 30
0.0
 40
0.7680046575598765
210
0.0
220
0.0
230
-1.0
100
AcDbArc
 50
231.321823
 51
271.819204
  0
ARC
  5
3B5
330
1F
100
AcDbEntity
  8
1
370
    13
100
AcDbCircle
 10
-11.292977
 20
11.488751
 30
0.0
 40
1.720883133240494
210
0.0
220
0.0
230
-1.0
100
AcDbArc
 50
55.755745
 51
87.553252
  0
ARC
  5
3B6
330
1F
100
AcDbEntity
  8
1
370
    13
100
AcDbCircle
 10
-27.209851
 20
11.811738
 30
0.0
 40
1.781073029401655
210
0.0
220
0.0
230
-1.0
100
AcDbArc
 50
64.263695
 51
112.090536
  0
ARC
  5
3B7
330
1F
100
AcDbEntity
  8
1
370
    13
100
AcDbCircle
 10
-26.703683
 20
12.493103
 30
0.0
 40
0.9058802378913788
210
0.0
220
0.0
230
-1.0
100
AcDbArc
 50
351.250572
 51
31.491856
  0
ARC
  5
3B8
330
1F
100
AcDbEntity
  8
1
370
    13
100
AcDbCircle
 10
3276.331716
 20
9704.228737
 30
0.0
 40
10243.29794512038
210
0.0
220
0.0
230
-1.0
100
AcDbArc
 50
251.151787
 51
251.156651
  0
ARC
  5
3B9
330
1F
100
AcDbEntity
  8
1
370
    13
100
AcDbCircle
 10
60.459305
 20
-73.512116
 30
0.0
 40
88.12940914738759
100
AcDbArc
 50
108.793777
 51
109.235473
  0
ARC
  5
3BA
330
1F
100
AcDbEntity
  8
1
370
    13
100
AcDbCircle
 10
23.47983
 20
39.764886
 30
0.0
 40
72.19054777795733
210
0.0
220
0.0
230
-1.0
100
AcDbArc
 50
210.680996
 51
211.187191
  0
ARC
  5
3BB
330
1F
100
AcDbEntity
  8
1
370
    13
100
AcDbCircle
 10
1971.763875
 20
-14342.554335
 30
0.0
 40
14469.71867232658
210
0.0
220
0.0
230
-1.0
100
AcDbArc
 50
97.91832
 51
97.938021
  0
ARC
  5
3BC
330
1F
100
AcDbEntity
  8
1
370
    13
100
AcDbCircle
 10
11.436645
 20
-11.107833
 30
0.0
 40
1.581122676725087
100
AcDbArc
 50
132.246765
 51
163.010706
  0
ARC
  5
3BD
330
1F
100
AcDbEntity
  8
1
370
    13
100
AcDbCircle
 10
-11.93934
 20
-27.509234
 30
0.0
 40
9.088498019017173
210
0.0
220
0.0
230
-1.0
100
AcDbArc
 50
107.810908
 51
110.270962
  0
ARC
  5
3BE
330
1F
100
AcDbEntity
  8
1
370
    13
100
AcDbCircle
 10
-26.972637
 20
-9.689171
 30
0.0
 40
1.179672395223828
210
0.0
220
0.0
230
-1.0
100
AcDbArc
 50
305.660864
 51
350.737853
  0
ARC
  5
3BF
330
1F
100
AcDbEntity
  8
1
370
    13
100
AcDbCircle
 10
-11.587404
 20
-11.315374
 30
0.0
 40
1.893871918670791
210
0.0
220
0.0
230
-1.0
100
AcDbArc
 50
48.180579
 51
78.798838
  0
ARC
  5
3C0
330
1F
100
AcDbEntity
  8
1
370
    13
100
AcDbCircle
 10
-11.044108
 20
11.885764
 30
0.0
 40
1.25277459422725
210
0.0
220
0.0
230
-1.0
100
AcDbArc
 50
24.978317
 51
54.947031
  0
ARC
  5
3C1
330
1F
100
AcDbEntity
  8
1
370
    13
100
AcDbCircle
 10
-27.936611
 20
12.39896
 30
0.0
 40
18.19590343513527
210
0.0
220
0.0
230
-1.0
100
AcDbArc
 50
345.445916
 51
357.532183
  0
ARC
  5
3C2
330
1F
100
AcDbEntity
  8
1
370
    13
100
AcDbCircle
 10
21.380147
 20
-3.697068
 30
0.0
 40
16.52752319537918
100
AcDbArc
 50
248.712317
 51
262.495364
  0
ARC
  5
3C3
330
1F
100
AcDbEntity
  8
1
370
    13
100
AcDbCircle
 10
25.270929
 20
60.350946
 30
0.0
 40
70.97709733577494
100
AcDbArc
 50
261.414743
 51
261.711307
  0
ARC
  5
3C4
330
1F
100
AcDbEntity
  8
1
370
    13
100
AcDbCircle
 10
2117.582306
 20
-15390.815996
 30
0.0
 40
15528.07377555274
210
0.0
220
0.0
230
-1.0
100
AcDbArc
 50
97.895011
 51
97.918388
  0
ARC
  5
3C5
330
1F
100
AcDbEntity
  8
1
370
    13
100
AcDbCircle
 10
-56.363611
 20
-2.273451
 30
0.0
 40
31.22259042639231
210
0.0
220
0.0
230
-1.0
100
AcDbArc
 50
343.734616
 51
344.442413
  0
ARC
  5
3C6
330
1F
100
AcDbEntity
  8
1
370
    13
100
AcDbCircle
 10
27.163527
 20
-9.905611
 30
0.0
 40
1.338303104740847
100
AcDbArc
 50
104.812678
 51
142.882244
  0
ARC
  5
3C7
330
1F
100
AcDbEntity
  8
1
370
    13
100
AcDbCircle
 10
11.239704
 20
11.592826
 30
0.0
 40
1.515043747071386
100
AcDbArc
 50
98.00867
 51
124.865929
  0
ARC
  5
3C8
330
1F
100
AcDbEntity
  8
1
370
    13
100
AcDbCircle
 10
11.550699
 20
-11.247769
 30
0.0
 40
1.76141955664052
100
AcDbArc
 50
107.241199
 51
131.932743
  0
ARC
  5
3C9
330
1F
100
AcDbEntity
  8
1
370
    13
100
AcDbCircle
 10
22.579584
 20
-10.959993
 30
0.0
 40
12.73223519704317
100
AcDbArc
 50
181.372505
 51
196.946239
  0
ARC
  5
3CA
330
1F
100
AcDbEntity
  8
1
370
    13
100
AcDbCircle
 10
25.23229
 20
60.073256
 30
0.0
 40
70.69673703482805
100
AcDbArc
 50
261.709851
 51
261.946135
  0
ARC
  5
3CB
330
1F
100
AcDbEntity
  8
1
370
    13
100
AcDbCircle
 10
-11.398015
 20
11.719627
 30
0.0
 40
1.643735351549412
210
0.0
220
0.0
230
-1.0
100
AcDbArc
 50
356.367191
 51
25.018445
  0
ARC
  5
3CC
330
1F
100
AcDbEntity
  8
1
370
    13
100
AcDbCircle
 10
-11.834223
 20
-27.794588
 30
0.0
 40
9.392597213770346
210
0.0
220
0.0
230
-1.0
100
AcDbArc
 50
110.269393
 51
112.178157
  0
ARC
  5
3CD
330
1F
100
AcDbEntity
  8
1
370
    13
100
AcDbCircle
 10
-26.900471
 20
-9.733549
 30
0.0
 40
1.101774866192375
210
0.0
220
0.0
230
-1.0
100
AcDbArc
 50
352.411782
 51
40.607787
  0
ARC
  5
3CE
330
1F
100
AcDbEntity
  8
1
370
    13
100
AcDbCircle
 10
27.220896
 20
-10.047948
 30
0.0
 40
1.490699126684992
100
AcDbArc
 50
70.66714
 51
105.545771
  0
ARC
  5
3CF
330
1F
100
AcDbEntity
  8
1
370
    13
100
AcDbCircle
 10
-27.166352
 20
-9.957324
 30
0.0
 40
1.449280278246553
210
0.0
220
0.0
230
-1.0
100
AcDbArc
 50
40.482463
 51
79.458237
  0
ARC
  5
3D0
330
1F
100
AcDbEntity
  8
1
370
    13
100
AcDbCircle
 10
12.781121
 20
33.42558
 30
0.0
 40
59.75474821904584
210
0.0
220
0.0
230
-1.0
100
AcDbArc
 50
209.915869
 51
210.68786
  0
ARC
  5
3D1
330
1F
100
AcDbEntity
  8
1
370
    13
100
AcDbCircle
 10
26.890608
 20
-9.699808
 30
0.0
 40
0.996486163396519
100
AcDbArc
 50
142.848465
 51
191.177973
  0
ARC
  5
3D2
330
1F
100
AcDbEntity
  8
1
370
    13
100
AcDbCircle
 10
-55.725083
 20
-2.459912
 30
0.0
 40
30.5573945176941
210
0.0
220
0.0
230
-1.0
100
AcDbArc
 50
342.823574
 51
343.734907
  0
ARC
  5
3D3
330
1F
100
AcDbEntity
  8
1
370
    13
100
AcDbCircle
 10
11.651933
 20
-11.604468
 30
0.0
 40
2.132114564745499
100
AcDbArc
 50
81.121856
 51
106.998304
  0
ARC
  5
3D4
330
1F
100
AcDbEntity
  8
1
370
    13
100
AcDbCircle
 10
16.130721
 20
-13.024882
 30
0.0
 40
5.945367259596098
100
AcDbArc
 50
218.261731
 51
242.412108
  0
ARC
  5
3D5
330
1F
100
AcDbEntity
  8
1
370
    13
100
AcDbCircle
 10
11.343489
 20
10.810923
 30
0.0
 40
2.303788700637893
100
AcDbArc
 50
73.93556
 51
97.855375
  0
ARC
  5
3D6
330
1F
100
AcDbEntity
  8
1
370
    13
100
AcDbCircle
 10
-27.208049
 20
-10.077112
 30
0.0
 40
1.574790415982508
210
0.0
220
0.0
230
-1.0
100
AcDbArc
 50
78.764097
 51
115.244207
  0
ARC
  5
3D7
330
1F
100
AcDbEntity
  8
1
370
    13
100
AcDbCircle
 10
26.978999
 20
-9.647113
 30
0.0
 40
1.093961220209313
100
AcDbArc
 50
192.988339
 51
236.862533
  0
ARC
  5
3D8
330
1F
100
AcDbEntity
  8
1
370
    13
100
AcDbCircle
 10
16.744308
 20
-12.655149
 30
0.0
 40
6.656712504202464
100
AcDbArc
 50
197.628655
 51
217.490012
  0
ARC
  5
3D9
330
1F
100
AcDbEntity
  8
1
370
    13
100
AcDbCircle
 10
23.163789
 20
8.236921
 30
0.0
 40
28.59301326676176
100
AcDbArc
 50
262.075137
 51
271.42691
  0
ARC
  5
3DA
330
1F
100
AcDbEntity
  8
1
370
    13
100
AcDbCircle
 10
30.20251
 20
-10.390703
 30
0.0
 40
3.117712149647635
100
AcDbArc
 50
264.237194
 51
269.984831
  0
ARC
  5
3DB
330
1F
100
AcDbEntity
  8
1
370
    13
100
AcDbCircle
 10
34.393065
 20
-8.546306
 30
0.0
 40
4.747749000499666
100
AcDbArc
 50
281.875174
 51
286.027722
  0
ARC
  5
3DC
330
1F
100
AcDbEntity
  8
1
370
    13
100
AcDbCircle
 10
-34.067105
 20
-3.646991
 30
0.0
 40
4.864222393211927
210
0.0
220
0.0
230
-1.0
100
AcDbArc
 50
260.80623
 51
265.958691
  0
ARC
  5
3DD
330
1F
100
AcDbEntity
  8
1
370
    13
100
AcDbCircle
 10
30.102562
 20
-11.302685
 30
0.0
 40
2.2003171666624
100
AcDbArc
 50
255.366575
 51
264.442142
  0
ARC
  5
3DE
330
1F
100
AcDbEntity
  8
1
370
    13
100
AcDbCircle
 10
36.155802
 20
23.470883
 30
0.0
 40
1.717310555928929
100
AcDbArc
 50
45.88963
 51
77.421311
  0
ARC
  5
3DF
330
1F
100
AcDbEntity
  8
1
370
    13
100
AcDbCircle
 10
-34.06146
 20
-4.232229
 30
0.0
 40
8.980329325056038
210
0.0
220
0.0
230
-1.0
100
AcDbArc
 50
248.511235
 51
251.447567
  0
ARC
  5
3E0
330
1F
100
AcDbEntity
  8
1
370
    13
100
AcDbCircle
 10
-28.92002
 20
-6.476282
 30
0.0
 40
2.306367674462519
210
0.0
220
0.0
230
-1.0
100
AcDbArc
 50
269.426048
 51
275.797751
  0
ARC
  5
3E1
330
1F
100
AcDbEntity
  8
1
370
    13
100
AcDbCircle
 10
-34.081525
 20
-3.838203
 30
0.0
 40
4.672468929313016
210
0.0
220
0.0
230
-1.0
100
AcDbArc
 50
265.969836
 51
270.077053
  0
ARC
  5
3E2
330
1F
100
AcDbEntity
  8
1
370
    13
100
AcDbCircle
 10
36.162323
 20
23.479642
 30
0.0
 40
1.609461784318023
100
AcDbArc
 50
45.884436
 51
77.426506
  0
ARC
  5
3E3
330
1F
100
AcDbEntity
  8
1
370
    13
100
AcDbCircle
 10
-28.90562
 20
-5.027825
 30
0.0
 40
3.75489635324418
210
0.0
220
0.0
230
-1.0
100
AcDbArc
 50
263.576365
 51
269.42772
  0
ARC
  5
3E4
330
1F
100
AcDbEntity
  8
1
370
    13
100
AcDbCircle
 10
-28.655114
 20
13.368554
 30
0.0
 40
27.39071398422282
210
0.0
220
0.0
230
-1.0
100
AcDbArc
 50
252.440568
 51
253.291975
  0
ARC
  5
3E5
330
1F
100
AcDbEntity
  8
1
370
    13
100
AcDbCircle
 10
34.478724
 20
-8.994244
 30
0.0
 40
4.291779636095266
100
AcDbArc
 50
276.320602
 51
281.986665
  0
ARC
  5
3E6
330
1F
100
AcDbEntity
  8
1
370
    13
100
AcDbCircle
 10
30.007128
 20
21.849257
 30
0.0
 40
1.402086950210651
100
AcDbArc
 50
134.911851
 51
170.345581
  0
ARC
  5
3E7
330
1F
100
AcDbEntity
  8
1
370
    13
100
AcDbCircle
 10
-36.179399
 20
-23.453154
 30
0.0
 40
1.679370017855085
210
0.0
220
0.0
230
-1.0
100
AcDbArc
 50
225.755887
 51
257.956786
  0
ARC
  5
3E8
330
1F
100
AcDbEntity
  8
1
370
    13
100
AcDbCircle
 10
38.292941
 20
17.325187
 30
0.0
 40
1.546933961870614
100
AcDbArc
 50
315.518722
 51
349.73871
  0
ARC
  5
3E9
330
1F
100
AcDbEntity
  8
1
370
    13
100
AcDbCircle
 10
-38.255539
 20
-17.248954
 30
0.0
 40
1.584907401391498
210
0.0
220
0.0
230
-1.0
100
AcDbArc
 50
136.053164
 51
169.746102
  0
ARC
  5
3EA
330
1F
100
AcDbEntity
  8
1
370
    13
100
AcDbCircle
 10
-29.204606
 20
20.993511
 30
0.0
 40
1.539763991348342
210
0.0
220
0.0
230
-1.0
100
AcDbArc
 50
10.179142
 51
44.563426
  0
ARC
  5
3EB
330
1F
100
AcDbEntity
  8
1
370
    13
100
AcDbCircle
 10
35.403047
 20
-22.960287
 30
0.0
 40
1.552618347971924
100
AcDbArc
 50
280.68834
 51
315.598987
  0
ARC
  5
3EC
330
1F
100
AcDbEntity
  8
1
370
    13
100
AcDbCircle
 10
38.29146
 20
17.327778
 30
0.0
 40
1.449808800570705
100
AcDbArc
 50
315.513347
 51
349.744085
  0
ARC
  5
3ED
330
1F
100
AcDbEntity
  8
1
370
    13
100
AcDbCircle
 10
35.404145
 20
-22.958715
 30
0.0
 40
1.455156313724106
100
AcDbArc
 50
280.683098
 51
315.604229
  0
ARC
  5
3EE
330
1F
100
AcDbEntity
  8
1
370
    13
100
AcDbCircle
 10
30.002664
 20
21.853392
 30
0.0
 40
1.496005512538275
100
AcDbArc
 50
134.917309
 51
170.340123
  0
ARC
  5
3EF
330
1F
100
AcDbEntity
  8
1
370
    13
100
AcDbCircle
 10
-15.311687
 20
-27.949139
 30
0.0
 40
5.111750083415715
210
0.0
220
0.0
230
-1.0
100
AcDbArc
 50
82.849564
 51
86.939908
  0
ARC
  5
3F0
330
1F
100
AcDbEntity
  8
1
370
    13
100
AcDbCircle
 10
-26.193489
 20
-21.310638
 30
0.0
 40
1.532072830202558
210
0.0
220
0.0
230
-1.0
100
AcDbArc
 50
262.603731
 51
266.576677
  0
ARC
  5
3F1
330
1F
100
AcDbEntity
  8
1
370
    13
100
AcDbCircle
 10
-26.464
 20
-27.182364
 30
0.0
 40
4.407132930288535
210
0.0
220
0.0
230
-1.0
100
AcDbArc
 50
81.898004
 51
87.642427
  0
ARC
  5
3F2
330
1F
100
AcDbEntity
  8
1
370
    13
100
AcDbCircle
 10
-27.20075
 20
-38.375202
 30
0.0
 40
15.62323636489262
210
0.0
220
0.0
230
-1.0
100
AcDbArc
 50
86.631289
 51
90.509429
  0
ARC
  5
3F3
330
1F
100
AcDbEntity
  8
1
370
    13
100
AcDbCircle
 10
-34.731794
 20
-21.175705
 30
0.0
 40
2.93618372022728
210
0.0
220
0.0
230
-1.0
100
AcDbArc
 50
248.892214
 51
278.472893
  0
ARC
  5
3F4
330
1F
100
AcDbEntity
  8
1
370
    13
100
AcDbCircle
 10
-35.294765
 20
-20.285419
 30
0.0
 40
1.703654670552736
210
0.0
220
0.0
230
-1.0
100
AcDbArc
 50
228.559426
 51
258.639713
  0
ARC
  5
3F5
330
1F
100
AcDbEntity
  8
1
370
    13
100
AcDbCircle
 10
-30.944238
 20
-17.905314
 30
0.0
 40
6.761154005280246
210
0.0
220
0.0
230
-1.0
100
AcDbArc
 50
187.410038
 51
199.912425
  0
ARC
  5
3F6
330
1F
100
AcDbEntity
  8
1
370
    13
100
AcDbCircle
 10
-15.310795
 20
-27.932951
 30
0.0
 40
5.095537837863691
210
0.0
220
0.0
230
-1.0
100
AcDbArc
 50
86.940205
 51
90.186635
  0
ARC
  5
3F7
330
1F
100
AcDbEntity
  8
1
370
    13
100
AcDbCircle
 10
-26.16219
 20
-21.071965
 30
0.0
 40
1.772788817709094
210
0.0
220
0.0
230
-1.0
100
AcDbArc
 50
258.007393
 51
262.593583
  0
ARC
  5
3F8
330
1F
100
AcDbEntity
  8
1
370
    13
100
AcDbCircle
 10
-34.180354
 20
-19.145505
 30
0.0
 40
3.296741952543422
210
0.0
220
0.0
230
-1.0
100
AcDbArc
 50
198.802177
 51
227.15213
  0
ARC
  5
3F9
330
1F
100
AcDbEntity
  8
1
370
    13
100
AcDbCircle
 10
-35.690109
 20
-19.855755
 30
0.0
 40
2.195547637448646
210
0.0
220
0.0
230
-1.0
100
AcDbArc
 50
292.434896
 51
326.391372
  0
ARC
  5
3FA
330
1F
100
AcDbEntity
  8
1
370
    13
100
AcDbCircle
 10
-35.368253
 20
-20.520286
 30
0.0
 40
1.459141502617776
210
0.0
220
0.0
230
-1.0
100
AcDbArc
 50
259.652272
 51
290.711283
  0
ARC
  5
3FB
330
1F
100
AcDbEntity
  8
1
370
    13
100
AcDbCircle
 10
-26.082448
 20
-18.18854
 30
0.0
 40
4.655839587672892
210
0.0
220
0.0
230
-1.0
100
AcDbArc
 50
267.507742
 51
273.374165
  0
ARC
  5
3FC
330
1F
100
AcDbEntity
  8
1
370
    13
100
AcDbCircle
 10
-32.474511
 20
-13.437567
 30
0.0
 40
2.770136118826842
210
0.0
220
0.0
230
-1.0
100
AcDbArc
 50
309.772047
 51
337.725466
  0
ARC
  5
3FD
330
1F
100
AcDbEntity
  8
1
370
    13
100
AcDbCircle
 10
-22.912744
 20
5.256215
 30
0.0
 40
25.69803782960802
210
0.0
220
0.0
230
-1.0
100
AcDbArc
 50
271.83225
 51
280.314711
  0
ARC
  5
3FE
330
1F
100
AcDbEntity
  8
1
370
    13
100
AcDbCircle
 10
-34.67791
 20
-21.019237
 30
0.0
 40
3.101764982870726
210
0.0
220
0.0
230
-1.0
100
AcDbArc
 50
214.276435
 51
245.838523
  0
ARC
  5
3FF
330
1F
100
AcDbEntity
  8
1
370
    13
100
AcDbCircle
 10
-23.230306
 20
10.575079
 30
0.0
 40
31.02468579614445
210
0.0
220
0.0
230
-1.0
100
AcDbArc
 50
264.100279
 51
272.104353
  0
ARC
  5
400
330
1F
100
AcDbEntity
  8
1
370
    13
100
AcDbCircle
 10
-21.025078
 20
-4.805033
 30
0.0
 40
15.4614936678182
210
0.0
220
0.0
230
-1.0
100
AcDbArc
 50
280.10851
 51
291.623634
  0
ARC
  5
401
330
1F
100
AcDbEntity
  8
1
370
    13
100
AcDbCircle
 10
-28.22829
 20
-33.124625
 30
0.0
 40
10.38003688084255
210
0.0
220
0.0
230
-1.0
100
AcDbArc
 50
95.385702
 51
106.888006
  0
ARC
  5
402
330
1F
100
AcDbEntity
  8
1
370
    13
100
AcDbCircle
 10
32.481877
 20
-20.589055
 30
0.0
 40
5.324001252243714
100
AcDbArc
 50
104.713553
 51
107.518404
  0
ARC
  5
403
330
1F
100
AcDbEntity
  8
1
370
    13
100
AcDbCircle
 10
17.843475
 20
27.408497
 30
0.0
 40
7.555092247204945
100
AcDbArc
 50
245.573897
 51
248.610967
  0
ARC
  5
404
330
1F
100
AcDbEntity
  8
1
370
    13
100
AcDbCircle
 10
17.749128
 20
27.168239
 30
0.0
 40
7.296973207402673
100
AcDbArc
 50
248.612748
 51
251.052707
  0
ARC
  5
405
330
1F
100
AcDbEntity
  8
1
370
    13
100
AcDbCircle
 10
-27.482624
 20
-4.839237
 30
0.0
 40
11.20021275231809
210
0.0
220
0.0
230
-1.0
100
AcDbArc
 50
252.346017
 51
253.2934
  0
ARC
  5
406
330
1F
100
AcDbEntity
  8
1
370
    13
100
AcDbCircle
 10
25.2152
 20
42.619563
 30
0.0
 40
24.50261711726688
100
AcDbArc
 50
232.797828
 51
235.855955
  0
ARC
  5
407
330
1F
100
AcDbEntity
  8
1
370
    13
100
AcDbCircle
 10
23.434174
 20
40.104172
 30
0.0
 40
21.42125055386742
100
AcDbArc
 50
236.022325
 51
241.999599
  0
ARC
  5
408
330
1F
100
AcDbEntity
  8
1
370
    13
100
AcDbCircle
 10
28.824062
 20
-30.679483
 30
0.0
 40
9.547918976830692
100
AcDbArc
 50
75.319923
 51
92.636163
  0
MTEXT
  5
409
330
1F
100
AcDbEntity
  8
SK6
370
    13
100
AcDbMText
 10
0.5625
 20
74.257143
 30
0.0
 40
3.0
 41
0.0
 71
     7
 72
     5
  1
\W0.7350;200A06R-ISMOSN11-C
  7
cesky
 73
     2
 44
1.084337
  0
DIMENSION
  5
414
330
1F
100
AcDbEntity
  8
2
370
    13
100
AcDbDimension
  2
DimnDraft3D1
 10
48.0
 20
0.0
 30
0.0
 11
49.5
 21
-0.128571
 31
0.0
 70
   161
  1
\C254;%%c 50,8
 71
     5
 42
-1.0
  3
Standard
100
AcDbAlignedDimension
 13
39.0
 23
25.4
 33
0.0
 14
40.0
 24
-25.4
 34
0.0
1001
ACAD
1000
DSTYLE
1002
{
1070
   279
1070
     0
1070
    74
1070
     0
1070
   173
1070
     1
1070
   340
1005
40A
1070
    76
1070
     1
1070
   271
1070
     2
1070
   272
1070
     2
1070
    77
1070
     1
1070
    73
1070
     0
1070
   171
1070
     3
1070
   274
1070
     4
1070
   282
1070
     1
1070
   177
1070
   254
1070
   176
1070
   254
1070
   178
1070
   254
1070
    78
1070
     8
1070
    48
1040
-0.005
1070
    41
1041
3.5
1070
   147
1041
1.5
1070
    42
1041
0.0
1070
    44
1041
2.0
1070
   140
1041
3.0
1070
   343
1005
0
1070
   344
1005
0
1002
}
  0
DIMENSION
  5
41E
330
1F
100
AcDbEntity
  8
2
370
    13
100
AcDbDimension
  2
DimnDraft3D2
 10
40.0
 20
30.4
 30
0.0
 11
52.296429
 21
30.4
 31
0.0
 70
   160
  1
\C254;1,7
 71
     5
 42
-1.0
  3
Standard
100
AcDbAlignedDimension
 13
38.319175
 23
23.559198
 33
0.0
 14
40.0
 24
26.4
 34
0.0
100
AcDbRotatedDimension
1001
ACAD
1000
DSTYLE
1002
{
1070
   279
1070
     0
1070
   172
1070
     1
1070
   173
1070
     1
1070
   340
1005
40A
1070
   271
1070
     1
1070
   272
1070
     2
1070
    77
1070
     1
1070
    73
1070
     0
1070
   171
1070
     3
1070
   274
1070
     4
1070
   177
1070
   254
1070
   176
1070
   254
1070
   178
1070
   254
1070
    78
1070
     8
1070
    48
1040
-0.005
1070
    41
1041
3.5
1070
   147
1041
1.5
1070
    42
1041
0.0
1070
    44
1041
2.0
1070
   140
1041
3.0
1070
   343
1005
0
1070
   344
1005
0
1002
}
  0
DIMENSION
  5
428
330
1F
100
AcDbEntity
  8
SK2
370
    13
100
AcDbDimension
  2
DimnDraft3D3
 10
4.9
 20
-42.0
 30
0.0
 11
-12.296429
 21
-42.0
 31
0.0
 70
   160
  1
\C95;4.9
 71
     5
 42
-1.0
  3
Standard
100
AcDbAlignedDimension
 13
0.0
 23
-23.0
 33
0.0
 14
4.9
 24
-3.802212
 34
0.0
100
AcDbRotatedDimension
1001
ACAD
1000
DSTYLE
1002
{
1070
   279
1070
     0
1070
   172
1070
     1
1070
   173
1070
     1
1070
   340
1005
40A
1070
   271
1070
     1
1070
   272
1070
     2
1070
    77
1070
     1
1070
    73
1070
     0
1070
   171
1070
     3
1070
   274
1070
     4
1070
   177
1070
    95
1070
   176
1070
    95
1070
   178
1070
    95
1070
    78
1070
     8
1070
    48
1040
-0.005
1070
    41
1041
3.5
1070
   147
1041
1.5
1070
    42
1041
0.0
1070
    44
1041
2.0
1070
   140
1041
3.0
1070
   343
1005
0
1070
   344
1005
0
1002
}
  0
DIMENSION
  5
432
330
1F
100
AcDbEntity
  8
SK2
370
    13
100
AcDbDimension
  2
DimnDraft3D4
 10
-12.0
 20
-4.0975
 30
0.0
 11
-12.0
 21
17.476071
 31
0.0
 70
   160
  1
\C95;8.15
 71
     5
 42
-1.0
  3
Standard
100
AcDbAlignedDimension
 13
1.0
 23
4.0975
 33
0.0
 14
1.0
 24
-4.0975
 34
0.0
 50
90.0
100
AcDbRotatedDimension
1001
ACAD
1000
DSTYLE
1002
{
1070
    74
1070
     0
1070
   279
1070
     0
1070
   172
1070
     1
1070
   173
1070
     1
1070
   340
1005
40A
1070
   271
1070
     1
1070
   272
1070
     2
1070
    77
1070
     1
1070
    73
1070
     0
1070
   171
1070
     3
1070
   274
1070
     4
1070
   177
1070
    95
1070
   176
1070
    95
1070
   178
1070
    95
1070
    78
1070
     8
1070
    48
1040
-0.005
1070
    41
1041
3.5
1070
   147
1041
1.5
1070
    42
1041
0.0
1070
    44
1041
2.0
1070
   140
1041
3.0
1070
   343
1005
0
1070
   344
1005
0
1002
}
  0
DIMENSION
  5
43D
330
1F
100
AcDbEntity
  8
SK2
370
    13
100
AcDbDimension
  2
DimnDraft3D5
 10
-23.25
 20
9.525
 30
0.0
 11
-23.5
 21
2.035714
 31
0.0
 70
   161
  1
\C95;%%c 19
 71
     5
 42
-1.0
  3
Standard
100
AcDbAlignedDimension
 13
0.0
 23
-9.525
 33
0.0
 14
0.0
 24
9.525
 34
0.0
1001
ACAD
1000
DSTYLE
1002
{
1070
   279
1070
     0
1070
    74
1070
     0
1070
   173
1070
     1
1070
   340
1005
40A
1070
   271
1070
     1
1070
   272
1070
     2
1070
    77
1070
     1
1070
    73
1070
     0
1070
   171
1070
     3
1070
   274
1070
     4
1070
   177
1070
    95
1070
   176
1070
    95
1070
   178
1070
    95
1070
    78
1070
     8
1070
    48
1040
-0.005
1070
    41
1041
3.5
1070
   147
1041
1.5
1070
    42
1041
0.0
1070
    44
1041
2.0
1070
   140
1041
3.0
1070
   343
1005
0
1070
   344
1005
0
1002
}
  0
DIMENSION
  5
448
330
1F
100
AcDbEntity
  8
SK2
370
    13
100
AcDbDimension
  2
DimnDraft3D6
 10
-33.25
 20
23.5
 30
0.0
 11
-33.5
 21
2.035714
 31
0.0
 70
   161
  1
\C95;%%c 47
 71
     5
 42
-1.0
  3
Standard
100
AcDbAlignedDimension
 13
0.5
 23
-23.5
 33
0.0
 14
0.5
 24
23.5
 34
0.0
1001
ACAD
1000
DSTYLE
1002
{
1070
   279
1070
     0
1070
    74
1070
     0
1070
   173
1070
     1
1070
   340
1005
40A
1070
   271
1070
     1
1070
   272
1070
     2
1070
    77
1070
     1
1070
    73
1070
     0
1070
   171
1070
     3
1070
   274
1070
     4
1070
   177
1070
    95
1070
   176
1070
    95
1070
   178
1070
    95
1070
    78
1070
     8
1070
    48
1040
-0.005
1070
    41
1041
3.5
1070
   147
1041
1.5
1070
    42
1041
0.0
1070
    44
1041
2.0
1070
   140
1041
3.0
1070
   343
1005
0
1070
   344
1005
0
1002
}
  0
DIMENSION
  5
452
330
1F
100
AcDbEntity
  8
2
370
    13
100
AcDbDimension
  2
DimnDraft3D7
 10
40.0
 20
38.4
 30
0.0
 11
20.0
 21
38.4
 31
0.0
 70
   160
  1
\C254;40
 71
     5
 42
-1.0
  3
Standard
100
AcDbAlignedDimension
 13
0.0
 23
23.0
 33
0.0
 14
40.0
 24
26.4
 34
0.0
100
AcDbRotatedDimension
1001
ACAD
1000
DSTYLE
1002
{
1070
   279
1070
     0
1070
   172
1070
     1
1070
   173
1070
     1
1070
   340
1005
40A
1070
   271
1070
     1
1070
   272
1070
     2
1070
    77
1070
     1
1070
    73
1070
     0
1070
   171
1070
     3
1070
   274
1070
     4
1070
   177
1070
   254
1070
   176
1070
   254
1070
   178
1070
   254
1070
    78
1070
     8
1070
    48
1040
-0.005
1070
    41
1041
3.5
1070
   147
1041
1.5
1070
    42
1041
0.0
1070
    44
1041
2.0
1070
   140
1041
3.0
1070
   343
1005
0
1070
   344
1005
0
1002
}
  0
ENDSEC
  0
SECTION
  2
OBJECTS
  0
DICTIONARY
  5
C
330
0
100
AcDbDictionary
281
     1
  3
ACAD_GROUP
350
D
  3
ACAD_LAYOUT
350
1A
  3
ACAD_MATERIAL
350
43
  3
ACAD_MLEADERSTYLE
350
467
  3
ACAD_MLINESTYLE
350
17
  3
ACAD_PLOTSETTINGS
350
19
  3
ACAD_PLOTSTYLENAME
350
E
  3
ACAD_SCALELIST
350
47
  3
ACAD_VISUALSTYLE
350
2A
  3
AcDbVariableDictionary
350
465
  0
DICTIONARY
  5
D
102
{ACAD_REACTORS
330
C
102
}
330
C
100
AcDbDictionary
281
     1
  0
DICTIONARY
  5
1A
102
{ACAD_REACTORS
330
C
102
}
330
C
100
AcDbDictionary
281
     1
  3
Layout1
350
1E
  3
Layout2
350
26
  3
Model
350
22
  0
DICTIONARY
  5
43
102
{ACAD_REACTORS
330
C
102
}
330
C
100
AcDbDictionary
281
     1
  3
ByBlock
350
45
  3
ByLayer
350
44
  3
Global
350
46
  0
DICTIONARY
  5
467
102
{ACAD_REACTORS
330
C
102
}
330
C
100
AcDbDictionary
281
     1
  0
DICTIONARY
  5
17
102
{ACAD_REACTORS
330
C
102
}
330
C
100
AcDbDictionary
281
     1
  3
Standard
350
18
  0
DICTIONARY
  5
19
102
{ACAD_REACTORS
330
C
102
}
330
C
100
AcDbDictionary
281
     1
  0
ACDBDICTIONARYWDFLT
  5
E
102
{ACAD_REACTORS
330
C
102
}
330
C
100
AcDbDictionary
281
     1
  3
Normal
350
F
100
AcDbDictionaryWithDefault
340
F
  0
DICTIONARY
  5
47
102
{ACAD_REACTORS
330
C
102
}
330
C
100
AcDbDictionary
281
     1
  3
A0
350
48
  3
A1
350
49
  3
A2
350
4A
  3
A3
350
4B
  3
A4
350
4C
  3
A5
350
4D
  3
A6
350
4E
  3
A7
350
4F
  3
A8
350
50
  3
A9
350
51
  3
B0
350
52
  3
B1
350
53
  3
B2
350
54
  3
B3
350
55
  3
B4
350
56
  3
B5
350
57
  3
B6
350
58
  3
B7
350
59
  3
B8
350
5A
  3
B9
350
5B
  3
C0
350
5C
  3
C1
350
5D
  3
C2
350
5E
  3
C3
350
5F
  3
C4
350
60
  3
C5
350
61
  3
C6
350
62
  3
C7
350
63
  3
C8
350
64
  3
C9
350
65
  3
D0
350
66
  3
D1
350
67
  3
D2
350
68
  0
DICTIONARY
  5
2A
102
{ACAD_REACTORS
330
C
102
}
330
C
100
AcDbDictionary
281
     1
  3
2dWireframe
350
2F
  3
Basic
350
32
  3
Brighten
350
36
  3
ColorChange
350
3A
  3
Conceptual
350
34
  3
Dim
350
35
  3
EdgeColorOff
350
3D
  3
Facepattern
350
39
  3
Flat
350
2B
  3
FlatWithEdges
350
2C
  3
Gouraud
350
2D
  3
GouraudWithEdges
350
2E
  3
Hidden
350
31
  3
JitterOff
350
3B
  3
Linepattern
350
38
  3
OverhangOff
350
3C
  3
Realistic
350
33
  3
Shaded
350
42
  3
Shaded with edges
350
41
  3
Shades of Gray
350
3E
  3
Sketchy
350
3F
  3
Thicken
350
37
  3
Wireframe
350
30
  3
X-Ray
350
40
  0
DICTIONARY
  5
465
102
{ACAD_REACTORS
330
C
102
}
330
C
100
AcDbDictionary
281
     1
  3
CANNOSCALE
350
46C
  3
DIMASSOC
350
46A
  3
HIDETEXT
350
46B
  3
MSLTSCALE
350
46D
  0
LAYOUT
  5
1E
102
{ACAD_REACTORS
330
1A
102
}
330
1A
100
AcDbPlotSettings
  1

  2
none_device
  4

  6

 40
0.0
 41
0.0
 42
0.0
 43
0.0
 44
0.0
 45
0.0
 46
0.0
 47
0.0
 48
0.0
 49
0.0
140
0.0
141
0.0
142
1.0
143
1.0
 70
   688
 72
     0
 73
     0
 74
     5
  7

 75
    16
147
1.0
148
0.0
149
0.0
100
AcDbLayout
  1
Layout1
 70
     1
 71
     1
 10
-0.5
 20
-0.5
 11
5.0
 21
5.0
 12
0.0
 22
0.0
 32
0.0
 14
-0.5
 24
-0.5
 34
-0.5
 15
5.0
 25
5.0
 35
5.0
146
0.0
 13
0.0
 23
0.0
 33
0.0
 16
1.0
 26
0.0
 36
0.0
 17
0.0
 27
1.0
 37
0.0
 76
     0
330
1B
  0
LAYOUT
  5
26
102
{ACAD_REACTORS
330
1A
102
}
330
1A
100
AcDbPlotSettings
  1

  2
none_device
  4

  6

 40
0.0
 41
0.0
 42
0.0
 43
0.0
 44
0.0
 45
0.0
 46
0.0
 47
0.0
 48
0.0
 49
0.0
140
0.0
141
0.0
142
1.0
143
1.0
 70
   688
 72
     0
 73
     0
 74
     5
  7

 75
    16
147
1.0
148
0.0
149
0.0
100
AcDbLayout
  1
Layout2
 70
     1
 71
     2
 10
0.0
 20
0.0
 11
0.0
 21
0.0
 12
0.0
 22
0.0
 32
0.0
 14
0.0
 24
0.0
 34
0.0
 15
0.0
 25
0.0
 35
0.0
146
0.0
 13
0.0
 23
0.0
 33
0.0
 16
1.0
 26
0.0
 36
0.0
 17
0.0
 27
1.0
 37
0.0
 76
     0
330
23
  0
LAYOUT
  5
22
102
{ACAD_REACTORS
330
1A
102
}
330
1A
100
AcDbPlotSettings
  1

  2
none_device
  4
Letter_(8.50_x_11.00_Inches)
  6

 40
6.35
 41
6.35
 42
6.350005
 43
6.350005
 44
215.9
 45
279.4
 46
0.0
 47
0.0
 48
0.0
 49
0.0
140
0.0
141
0.0
142
1.0
143
1.0
 70
  1712
 72
     0
 73
     0
 74
     0
  7

 75
     0
147
1.0
148
0.0
149
0.0
100
AcDbLayout
  1
Model
 70
     1
 71
     0
 10
-0.5
 20
-0.5
 11
5.0
 21
5.0
 12
0.0
 22
0.0
 32
0.0
 14
-0.5
 24
-0.5
 34
-0.5
 15
5.0
 25
5.0
 35
5.0
146
0.0
 13
0.0
 23
0.0
 33
0.0
 16
1.0
 26
0.0
 36
0.0
 17
0.0
 27
1.0
 37
0.0
 76
     0
330
1F
331
454
  0
MATERIAL
  5
45
102
{ACAD_REACTORS
330
43
102
}
102
{ACAD_XDICTIONARY
360
4A0
102
}
330
43
100
AcDbMaterial
  1
ByBlock
  0
MATERIAL
  5
44
102
{ACAD_REACTORS
330
43
102
}
102
{ACAD_XDICTIONARY
360
49E
102
}
330
43
100
AcDbMaterial
  1
ByLayer
  0
MATERIAL
  5
46
102
{ACAD_REACTORS
330
43
102
}
102
{ACAD_XDICTIONARY
360
4A2
102
}
330
43
100
AcDbMaterial
  1
Global
  0
MLINESTYLE
  5
18
102
{ACAD_REACTORS
330
17
102
}
330
17
100
AcDbMlineStyle
  2
Standard
 70
     0
  3

 62
   256
 51
90.0
 52
90.0
 71
     2
 49
0.5
 62
   256
  6
BYLAYER
 49
-0.5
 62
   256
  6
BYLAYER
  0
ACDBPLACEHOLDER
  5
F
102
{ACAD_REACTORS
330
E
102
}
330
E
  0
SCALE
  5
48
102
{ACAD_REACTORS
330
47
102
}
330
47
100
AcDbScale
 70
     0
300
1:1
140
1.0
141
1.0
290
     1
  0
SCALE
  5
49
102
{ACAD_REACTORS
330
47
102
}
330
47
100
AcDbScale
 70
     0
300
1:2
140
1.0
141
2.0
290
     0
  0
SCALE
  5
4A
102
{ACAD_REACTORS
330
47
102
}
330
47
100
AcDbScale
 70
     0
300
1:4
140
1.0
141
4.0
290
     0
  0
SCALE
  5
4B
102
{ACAD_REACTORS
330
47
102
}
330
47
100
AcDbScale
 70
     0
300
1:5
140
1.0
141
5.0
290
     0
  0
SCALE
  5
4C
102
{ACAD_REACTORS
330
47
102
}
330
47
100
AcDbScale
 70
     0
300
1:8
140
1.0
141
8.0
290
     0
  0
SCALE
  5
4D
102
{ACAD_REACTORS
330
47
102
}
330
47
100
AcDbScale
 70
     0
300
1:10
140
1.0
141
10.0
290
     0
  0
SCALE
  5
4E
102
{ACAD_REACTORS
330
47
102
}
330
47
100
AcDbScale
 70
     0
300
1:16
140
1.0
141
16.0
290
     0
  0
SCALE
  5
4F
102
{ACAD_REACTORS
330
47
102
}
330
47
100
AcDbScale
 70
     0
300
1:20
140
1.0
141
20.0
290
     0
  0
SCALE
  5
50
102
{ACAD_REACTORS
330
47
102
}
330
47
100
AcDbScale
 70
     0
300
1:30
140
1.0
141
30.0
290
     0
  0
SCALE
  5
51
102
{ACAD_REACTORS
330
47
102
}
330
47
100
AcDbScale
 70
     0
300
1:40
140
1.0
141
40.0
290
     0
  0
SCALE
  5
52
102
{ACAD_REACTORS
330
47
102
}
330
47
100
AcDbScale
 70
     0
300
1:50
140
1.0
141
50.0
290
     0
  0
SCALE
  5
53
102
{ACAD_REACTORS
330
47
102
}
330
47
100
AcDbScale
 70
     0
300
1:100
140
1.0
141
100.0
290
     0
  0
SCALE
  5
54
102
{ACAD_REACTORS
330
47
102
}
330
47
100
AcDbScale
 70
     0
300
2:1
140
2.0
141
1.0
290
     0
  0
SCALE
  5
55
102
{ACAD_REACTORS
330
47
102
}
330
47
100
AcDbScale
 70
     0
300
4:1
140
4.0
141
1.0
290
     0
  0
SCALE
  5
56
102
{ACAD_REACTORS
330
47
102
}
330
47
100
AcDbScale
 70
     0
300
8:1
140
8.0
141
1.0
290
     0
  0
SCALE
  5
57
102
{ACAD_REACTORS
330
47
102
}
330
47
100
AcDbScale
 70
     0
300
10:1
140
10.0
141
1.0
290
     0
  0
SCALE
  5
58
102
{ACAD_REACTORS
330
47
102
}
330
47
100
AcDbScale
 70
     0
300
100:1
140
100.0
141
1.0
290
     0
  0
SCALE
  5
59
102
{ACAD_REACTORS
330
47
102
}
330
47
100
AcDbScale
 70
     0
300
1/128" = 1'-0"
140
0.007812
141
12.0
290
     0
  0
SCALE
  5
5A
102
{ACAD_REACTORS
330
47
102
}
330
47
100
AcDbScale
 70
     0
300
1/64" = 1'-0"
140
0.015625
141
12.0
290
     0
  0
SCALE
  5
5B
102
{ACAD_REACTORS
330
47
102
}
330
47
100
AcDbScale
 70
     0
300
1/32" = 1'-0"
140
0.03125
141
12.0
290
     0
  0
SCALE
  5
5C
102
{ACAD_REACTORS
330
47
102
}
330
47
100
AcDbScale
 70
     0
300
1/16" = 1'-0"
140
0.0625
141
12.0
290
     0
  0
SCALE
  5
5D
102
{ACAD_REACTORS
330
47
102
}
330
47
100
AcDbScale
 70
     0
300
3/32" = 1'-0"
140
0.09375
141
12.0
290
     0
  0
SCALE
  5
5E
102
{ACAD_REACTORS
330
47
102
}
330
47
100
AcDbScale
 70
     0
300
1/8" = 1'-0"
140
0.125
141
12.0
290
     0
  0
SCALE
  5
5F
102
{ACAD_REACTORS
330
47
102
}
330
47
100
AcDbScale
 70
     0
300
3/16" = 1'-0"
140
0.1875
141
12.0
290
     0
  0
SCALE
  5
60
102
{ACAD_REACTORS
330
47
102
}
330
47
100
AcDbScale
 70
     0
300
1/4" = 1'-0"
140
0.25
141
12.0
290
     0
  0
SCALE
  5
61
102
{ACAD_REACTORS
330
47
102
}
330
47
100
AcDbScale
 70
     0
300
3/8" = 1'-0"
140
0.375
141
12.0
290
     0
  0
SCALE
  5
62
102
{ACAD_REACTORS
330
47
102
}
330
47
100
AcDbScale
 70
     0
300
1/2" = 1'-0"
140
0.5
141
12.0
290
     0
  0
SCALE
  5
63
102
{ACAD_REACTORS
330
47
102
}
330
47
100
AcDbScale
 70
     0
300
3/4" = 1'-0"
140
0.75
141
12.0
290
     0
  0
SCALE
  5
64
102
{ACAD_REACTORS
330
47
102
}
330
47
100
AcDbScale
 70
     0
300
1" = 1'-0"
140
1.0
141
12.0
290
     0
  0
SCALE
  5
65
102
{ACAD_REACTORS
330
47
102
}
330
47
100
AcDbScale
 70
     0
300
1-1/2" = 1'-0"
140
1.5
141
12.0
290
     0
  0
SCALE
  5
66
102
{ACAD_REACTORS
330
47
102
}
330
47
100
AcDbScale
 70
     0
300
3" = 1'-0"
140
3.0
141
12.0
290
     0
  0
SCALE
  5
67
102
{ACAD_REACTORS
330
47
102
}
330
47
100
AcDbScale
 70
     0
300
6" = 1'-0"
140
6.0
141
12.0
290
     0
  0
SCALE
  5
68
102
{ACAD_REACTORS
330
47
102
}
330
47
100
AcDbScale
 70
     0
300
1'-0" = 1'-0"
140
12.0
141
12.0
290
     0
  0
VISUALSTYLE
  5
2F
102
{ACAD_REACTORS
330
2A
102
}
102
{ACAD_XDICTIONARY
360
476
102
}
330
2A
100
AcDbVisualStyle
  2
2dWireframe
 70
     4
 71
     0
 72
     2
 73
     0
 90
        0
 40
0.6
 41
30.0
 62
     5
 63
     7
 74
     1
 91
        4
 64
     7
 65
   257
 75
     1
175
     1
 42
1.0
 92
        0
 66
   257
 43
1.0
 76
     1
 77
     6
 78
     2
 67
     7
 79
     5
170
     0
171
     0
290
     0
174
     0
 93
        1
 44
0.0
173
     0
291
     0
 45
0.0
1001
ACAD
1000
AcDbSavedByObjectVersion
1070
     0
  0
VISUALSTYLE
  5
32
102
{ACAD_REACTORS
330
2A
102
}
102
{ACAD_XDICTIONARY
360
47C
102
}
330
2A
100
AcDbVisualStyle
  2
Basic
 70
     7
 71
     1
 72
     0
 73
     1
 90
        0
 40
0.6
 41
30.0
 62
     5
 63
     7
 74
     0
 91
        4
 64
     7
 65
   257
 75
     1
175
     1
 42
1.0
 92
        8
 66
     7
 43
1.0
 76
     1
 77
     6
 78
     2
 67
     7
 79
     5
170
     0
171
     0
290
     0
174
     0
 93
        1
 44
0.0
173
     0
291
     1
 45
0.0
1001
ACAD
1000
AcDbSavedByObjectVersion
1070
     0
  0
VISUALSTYLE
  5
36
102
{ACAD_REACTORS
330
2A
102
}
102
{ACAD_XDICTIONARY
360
484
102
}
330
2A
100
AcDbVisualStyle
  2
Brighten
 70
    12
 71
     2
 72
     2
 73
     0
 90
        0
 40
0.6
 41
30.0
 62
     5
 63
     7
 74
     1
 91
        4
 64
     7
 65
   257
 75
     1
175
     1
 42
1.0
 92
        8
 66
     7
 43
1.0
 76
     1
 77
     6
 78
     2
 67
     7
 79
     5
170
     0
171
     0
290
     0
174
     0
 93
        1
 44
50.0
173
     0
291
     1
 45
0.0
1001
ACAD
1000
AcDbSavedByObjectVersion
1070
     0
  0
VISUALSTYLE
  5
3A
102
{ACAD_REACTORS
330
2A
102
}
102
{ACAD_XDICTIONARY
360
48C
102
}
330
2A
100
AcDbVisualStyle
  2
ColorChange
 70
    16
 71
     2
 72
     2
 73
     3
 90
        0
 40
0.6
 41
30.0
 62
     5
 63
     8
 74
     1
 91
        4
 64
     7
 65
   257
 75
     1
175
     1
 42
1.0
 92
        8
 66
     8
 43
1.0
 76
     1
 77
     6
 78
     2
 67
     7
 79
     5
170
     0
171
     0
290
     0
174
     0
 93
        1
 44
0.0
173
     0
291
     1
 45
0.0
1001
ACAD
1000
AcDbSavedByObjectVersion
1070
     0
  0
VISUALSTYLE
  5
34
102
{ACAD_REACTORS
330
2A
102
}
102
{ACAD_XDICTIONARY
360
480
102
}
330
2A
100
AcDbVisualStyle
  2
Conceptual
 70
     9
 71
     3
 72
     2
 73
     0
 90
        0
 40
0.6
 41
30.0
 62
     5
 63
     7
 74
     2
 91
        2
 64
     7
 65
   257
 75
     1
175
     1
 42
179.0
 92
        8
 66
     7
 43
1.0
 76
     1
 77
     6
 78
     2
 67
     7
 79
     3
170
     0
171
     0
290
     0
174
     0
 93
        1
 44
0.0
173
     0
291
     0
 45
0.0
1001
ACAD
1000
AcDbSavedByObjectVersion
1070
     0
  0
VISUALSTYLE
  5
35
102
{ACAD_REACTORS
330
2A
102
}
102
{ACAD_XDICTIONARY
360
482
102
}
330
2A
100
AcDbVisualStyle
  2
Dim
 70
    11
 71
     2
 72
     2
 73
     0
 90
        0
 40
0.6
 41
30.0
 62
     5
 63
     7
 74
     1
 91
        4
 64
     7
 65
   257
 75
     1
175
     1
 42
1.0
 92
        8
 66
     7
 43
1.0
 76
     1
 77
     6
 78
     2
 67
     7
 79
     5
170
     0
171
     0
290
     0
174
     0
 93
        1
 44
-50.0
173
     0
291
     1
 45
0.0
1001
ACAD
1000
AcDbSavedByObjectVersion
1070
     0
  0
VISUALSTYLE
  5
3D
102
{ACAD_REACTORS
330
2A
102
}
102
{ACAD_XDICTIONARY
360
492
102
}
330
2A
100
AcDbVisualStyle
  2
EdgeColorOff
 70
    22
 71
     2
 72
     2
 73
     0
 90
        0
 40
0.6
 41
30.0
 62
     5
 63
     7
 74
     1
 91
        4
 64
     7
 65
   257
 75
     1
175
     1
 42
1.0
 92
        8
 66
     7
 43
1.0
 76
     1
 77
     6
 78
     2
 67
     7
 79
     5
170
     0
171
     0
290
     0
174
     0
 93
        1
 44
0.0
173
     0
291
     1
 45
0.0
1001
ACAD
1000
AcDbSavedByObjectVersion
1070
     0
  0
VISUALSTYLE
  5
39
102
{ACAD_REACTORS
330
2A
102
}
102
{ACAD_XDICTIONARY
360
48A
102
}
330
2A
100
AcDbVisualStyle
  2
Facepattern
 70
    15
 71
     2
 72
     2
 73
     0
 90
        0
 40
0.6
 41
30.0
 62
     5
 63
     7
 74
     1
 91
        4
 64
     7
 65
   257
 75
     1
175
     1
 42
1.0
 92
        8
 66
     7
 43
1.0
 76
     1
 77
     6
 78
     2
 67
     7
 79
     5
170
     0
171
     0
290
     0
174
     0
 93
        1
 44
0.0
173
     0
291
     1
 45
0.0
1001
ACAD
1000
AcDbSavedByObjectVersion
1070
     0
  0
VISUALSTYLE
  5
2B
102
{ACAD_REACTORS
330
2A
102
}
102
{ACAD_XDICTIONARY
360
46E
102
}
330
2A
100
AcDbVisualStyle
  2
Flat
 70
     0
 71
     2
 72
     1
 73
     1
 90
        2
 40
0.6
 41
30.0
 62
     5
 63
     7
 74
     0
 91
        0
 64
     7
 65
   257
 75
     1
175
     1
 42
1.0
 92
        8
 66
     7
 43
1.0
 76
     1
 77
     6
 78
     2
 67
     7
 79
     5
170
     0
171
     0
290
     0
174
     0
 93
       13
 44
0.0
173
     0
291
     1
 45
0.0
1001
ACAD
1000
AcDbSavedByObjectVersion
1070
     0
  0
VISUALSTYLE
  5
2C
102
{ACAD_REACTORS
330
2A
102
}
102
{ACAD_XDICTIONARY
360
470
102
}
330
2A
100
AcDbVisualStyle
  2
FlatWithEdges
 70
     1
 71
     2
 72
     1
 73
     1
 90
        2
 40
0.6
 41
30.0
 62
     5
 63
     7
 74
     1
 91
        0
 64
     7
 65
   257
 75
     1
175
     1
 42
1.0
 92
        0
 66
   257
 43
1.0
 76
     1
 77
     6
 78
     2
 67
     7
 79
     5
170
     0
171
     0
290
     0
174
     0
 93
       13
 44
0.0
173
     0
291
     1
 45
0.0
1001
ACAD
1000
AcDbSavedByObjectVersion
1070
     0
  0
VISUALSTYLE
  5
2D
102
{ACAD_REACTORS
330
2A
102
}
102
{ACAD_XDICTIONARY
360
472
102
}
330
2A
100
AcDbVisualStyle
  2
Gouraud
 70
     2
 71
     2
 72
     2
 73
     1
 90
        2
 40
0.6
 41
30.0
 62
     5
 63
     7
 74
     0
 91
        0
 64
     7
 65
   257
 75
     1
175
     1
 42
1.0
 92
        0
 66
     7
 43
1.0
 76
     1
 77
     6
 78
     2
 67
     7
 79
     5
170
     0
171
     0
290
     0
174
     0
 93
       13
 44
0.0
173
     0
291
     1
 45
0.0
1001
ACAD
1000
AcDbSavedByObjectVersion
1070
     0
  0
VISUALSTYLE
  5
2E
102
{ACAD_REACTORS
330
2A
102
}
102
{ACAD_XDICTIONARY
360
474
102
}
330
2A
100
AcDbVisualStyle
  2
GouraudWithEdges
 70
     3
 71
     2
 72
     2
 73
     1
 90
        2
 40
0.6
 41
30.0
 62
     5
 63
     7
 74
     1
 91
        0
 64
     7
 65
   257
 75
     1
175
     1
 42
1.0
 92
        0
 66
   257
 43
1.0
 76
     1
 77
     6
 78
     2
 67
     7
 79
     5
170
     0
171
     0
290
     0
174
     0
 93
       13
 44
0.0
173
     0
291
     1
 45
0.0
1001
ACAD
1000
AcDbSavedByObjectVersion
1070
     0
  0
VISUALSTYLE
  5
31
102
{ACAD_REACTORS
330
2A
102
}
102
{ACAD_XDICTIONARY
360
47A
102
}
330
2A
100
AcDbVisualStyle
  2
Hidden
 70
     6
 71
     1
 72
     2
 73
     2
 90
        0
 40
0.6
 41
30.0
 62
     5
 63
     7
 74
     2
 91
        2
 64
     7
 65
   257
 75
     2
175
     1
 42
40.0
 92
        0
 66
   257
 43
1.0
 76
     1
 77
     6
 78
     2
 67
     7
 79
     3
170
     0
171
     0
290
     0
174
     0
 93
        1
 44
0.0
173
     0
291
     0
 45
0.0
1001
ACAD
1000
AcDbSavedByObjectVersion
1070
     0
  0
VISUALSTYLE
  5
3B
102
{ACAD_REACTORS
330
2A
102
}
102
{ACAD_XDICTIONARY
360
48E
102
}
330
2A
100
AcDbVisualStyle
  2
JitterOff
 70
    20
 71
     2
 72
     2
 73
     0
 90
        0
 40
0.6
 41
30.0
 62
     5
 63
     7
 74
     1
 91
        4
 64
     7
 65
   257
 75
     1
175
     1
 42
1.0
 92
       10
 66
     7
 43
1.0
 76
     1
 77
     6
 78
     2
 67
     7
 79
     5
170
     0
171
     0
290
     0
174
     0
 93
        1
 44
0.0
173
     0
291
     1
 45
0.0
1001
ACAD
1000
AcDbSavedByObjectVersion
1070
     0
  0
VISUALSTYLE
  5
38
102
{ACAD_REACTORS
330
2A
102
}
102
{ACAD_XDICTIONARY
360
488
102
}
330
2A
100
AcDbVisualStyle
  2
Linepattern
 70
    14
 71
     2
 72
     2
 73
     0
 90
        0
 40
0.6
 41
30.0
 62
     5
 63
     7
 74
     1
 91
        4
 64
     7
 65
   257
 75
     7
175
     7
 42
1.0
 92
        8
 66
     7
 43
1.0
 76
     1
 77
     6
 78
     2
 67
     7
 79
     5
170
     0
171
     0
290
     0
174
     0
 93
        1
 44
0.0
173
     0
291
     1
 45
0.0
1001
ACAD
1000
AcDbSavedByObjectVersion
1070
     0
  0
VISUALSTYLE
  5
3C
102
{ACAD_REACTORS
330
2A
102
}
102
{ACAD_XDICTIONARY
360
490
102
}
330
2A
100
AcDbVisualStyle
  2
OverhangOff
 70
    21
 71
     2
 72
     2
 73
     0
 90
        0
 40
0.6
 41
30.0
 62
     5
 63
     7
 74
     1
 91
        4
 64
     7
 65
   257
 75
     1
175
     1
 42
1.0
 92
        9
 66
     7
 43
1.0
 76
     1
 77
     6
 78
     2
 67
     7
 79
     5
170
     0
171
     0
290
     0
174
     0
 93
        1
 44
0.0
173
     0
291
     1
 45
0.0
1001
ACAD
1000
AcDbSavedByObjectVersion
1070
     0
  0
VISUALSTYLE
  5
33
102
{ACAD_REACTORS
330
2A
102
}
102
{ACAD_XDICTIONARY
360
47E
102
}
330
2A
100
AcDbVisualStyle
  2
Realistic
 70
     8
 71
     2
 72
     3
 73
     0
 90
        2
 40
0.6
 41
30.0
 62
     5
 63
     7
 74
     0
 91
        0
 64
     7
 65
   257
 75
     1
175
     1
 42
1.0
 92
        8
 66
   257
 43
1.0
 76
     1
 77
     6
 78
     2
 67
     7
 79
     3
170
     0
171
     0
290
     0
174
     0
 93
       13
 44
0.0
173
     0
291
     0
 45
0.0
1001
ACAD
1000
AcDbSavedByObjectVersion
1070
     0
  0
VISUALSTYLE
  5
42
102
{ACAD_REACTORS
330
2A
102
}
102
{ACAD_XDICTIONARY
360
49C
102
}
330
2A
100
AcDbVisualStyle
  2
Shaded
 70
    27
 71
     2
 72
     2
 73
     1
 90
        2
 40
0.6
 41
30.0
 62
     5
 63
     7
 74
     0
 91
        4
 64
     7
 65
   257
 75
     1
175
     1
 42
1.0
 92
        8
 66
   257
 43
1.0
 76
     1
 77
     6
 78
     2
 67
     8
 79
     3
170
     0
171
     0
290
     0
174
     0
 93
        5
 44
0.0
173
     0
291
     0
 45
0.0
1001
ACAD
1000
AcDbSavedByObjectVersion
1070
     0
  0
VISUALSTYLE
  5
41
102
{ACAD_REACTORS
330
2A
102
}
102
{ACAD_XDICTIONARY
360
49A
102
}
330
2A
100
AcDbVisualStyle
  2
Shaded with edges
 70
    26
 71
     2
 72
     2
 73
     1
 90
        2
 40
0.6
 41
30.0
 62
     5
 63
     7
 74
     1
 91
       10
 64
     7
 65
   257
 75
     2
175
     1
 42
1.0
 92
        8
 66
   257
 43
1.0
 76
     1
 77
     6
 78
     2
 67
     7
 79
     3
170
     0
171
     0
290
     0
174
     0
 93
        5
 44
0.0
173
     0
291
     0
 45
0.0
1001
ACAD
1000
AcDbSavedByObjectVersion
1070
     0
  0
VISUALSTYLE
  5
3E
102
{ACAD_REACTORS
330
2A
102
}
102
{ACAD_XDICTIONARY
360
494
102
}
330
2A
100
AcDbVisualStyle
  2
Shades of Gray
 70
    23
 71
     2
 72
     2
 73
     3
 90
        0
 40
0.6
 41
30.0
 62
     5
 63
     7
 74
     2
 91
        2
 64
     7
 65
     7
 75
     1
175
     1
 42
40.0
 92
        8
 66
     7
 43
1.0
 76
     1
 77
     6
 78
     2
 67
     7
 79
     3
170
     0
171
     0
290
     0
174
     0
 93
        1
 44
0.0
173
     0
291
     0
 45
0.0
1001
ACAD
1000
AcDbSavedByObjectVersion
1070
     0
  0
VISUALSTYLE
  5
3F
102
{ACAD_REACTORS
330
2A
102
}
102
{ACAD_XDICTIONARY
360
496
102
}
330
2A
100
AcDbVisualStyle
  2
Sketchy
 70
    24
 71
     1
 72
     2
 73
     2
 90
        0
 40
0.6
 41
30.0
 62
     5
 63
     7
 74
     2
 91
        2
 64
     7
 65
     7
 75
     1
175
     1
 42
40.0
 92
       11
 66
     7
 43
1.0
 76
     1
 77
     6
 78
     2
 67
     7
 79
     6
170
     0
171
     0
290
     0
174
     0
 93
        1
 44
0.0
173
     0
291
     0
 45
0.0
1001
ACAD
1000
AcDbSavedByObjectVersion
1070
     0
  0
VISUALSTYLE
  5
37
102
{ACAD_REACTORS
330
2A
102
}
102
{ACAD_XDICTIONARY
360
486
102
}
330
2A
100
AcDbVisualStyle
  2
Thicken
 70
    13
 71
     2
 72
     2
 73
     0
 90
        0
 40
0.6
 41
30.0
 62
     5
 63
     7
 74
     1
 91
        4
 64
     7
 65
   257
 75
     1
175
     1
 42
1.0
 92
       12
 66
     7
 43
1.0
 76
     1
 77
     6
 78
     2
 67
     7
 79
     5
170
     0
171
     0
290
     0
174
     0
 93
        1
 44
0.0
173
     0
291
     1
 45
0.0
1001
ACAD
1000
AcDbSavedByObjectVersion
1070
     0
  0
VISUALSTYLE
  5
30
102
{ACAD_REACTORS
330
2A
102
}
102
{ACAD_XDICTIONARY
360
478
102
}
330
2A
100
AcDbVisualStyle
  2
Wireframe
 70
     5
 71
     0
 72
     2
 73
     0
 90
        0
 40
0.6
 41
30.0
 62
     5
 63
     7
 74
     1
 91
        4
 64
     7
 65
   257
 75
     1
175
     1
 42
1.0
 92
        0
 66
   257
 43
1.0
 76
     1
 77
     6
 78
     2
 67
     7
 79
     3
170
     0
171
     0
290
     0
174
     0
 93
        1
 44
0.0
173
     0
291
     0
 45
0.0
1001
ACAD
1000
AcDbSavedByObjectVersion
1070
     0
  0
VISUALSTYLE
  5
40
102
{ACAD_REACTORS
330
2A
102
}
102
{ACAD_XDICTIONARY
360
498
102
}
330
2A
100
AcDbVisualStyle
  2
X-Ray
 70
    25
 71
     2
 72
     2
 73
     1
 90
        1
 40
0.5
 41
30.0
 62
     5
 63
     7
 74
     1
 91
        0
 64
     7
 65
   257
 75
     1
175
     1
 42
1.0
 92
        8
 66
     7
 43
1.0
 76
     1
 77
     6
 78
     2
 67
     7
 79
     3
170
     0
171
     0
290
     0
174
     0
 93
       13
 44
0.0
173
     0
291
     0
 45
0.0
1001
ACAD
1000
AcDbSavedByObjectVersion
1070
     0
  0
DICTIONARYVAR
  5
46C
102
{ACAD_REACTORS
330
465
102
}
330
465
100
DictionaryVariables
280
     0
  1
1:1
  0
DICTIONARYVAR
  5
46A
102
{ACAD_REACTORS
330
465
102
}
330
465
100
DictionaryVariables
280
     0
  1
2
  0
DICTIONARYVAR
  5
46B
102
{ACAD_REACTORS
330
465
102
}
330
465
100
DictionaryVariables
280
     0
  1
1
  0
DICTIONARYVAR
  5
46D
102
{ACAD_REACTORS
330
465
102
}
330
465
100
DictionaryVariables
280
     0
  1
1
  0
DICTIONARY
  5
4A0
330
45
100
AcDbDictionary
280
     1
281
     1
  3
ACAD_XREC_ROUNDTRIP
360
4A1
  0
DICTIONARY
  5
49E
330
44
100
AcDbDictionary
280
     1
281
     1
  3
ACAD_XREC_ROUNDTRIP
360
49F
  0
DICTIONARY
  5
4A2
330
46
100
AcDbDictionary
280
     1
281
     1
  3
ACAD_XREC_ROUNDTRIP
360
4A3
  0
DICTIONARY
  5
476
330
2F
100
AcDbDictionary
280
     1
281
     1
  3
ACAD_XREC_ROUNDTRIP
360
477
  0
DICTIONARY
  5
47C
330
32
100
AcDbDictionary
280
     1
281
     1
  3
ACAD_XREC_ROUNDTRIP
360
47D
  0
DICTIONARY
  5
484
330
36
100
AcDbDictionary
280
     1
281
     1
  3
ACAD_XREC_ROUNDTRIP
360
485
  0
DICTIONARY
  5
48C
330
3A
100
AcDbDictionary
280
     1
281
     1
  3
ACAD_XREC_ROUNDTRIP
360
48D
  0
DICTIONARY
  5
480
330
34
100
AcDbDictionary
280
     1
281
     1
  3
ACAD_XREC_ROUNDTRIP
360
481
  0
DICTIONARY
  5
482
330
35
100
AcDbDictionary
280
     1
281
     1
  3
ACAD_XREC_ROUNDTRIP
360
483
  0
DICTIONARY
  5
492
330
3D
100
AcDbDictionary
280
     1
281
     1
  3
ACAD_XREC_ROUNDTRIP
360
493
  0
DICTIONARY
  5
48A
330
39
100
AcDbDictionary
280
     1
281
     1
  3
ACAD_XREC_ROUNDTRIP
360
48B
  0
DICTIONARY
  5
46E
330
2B
100
AcDbDictionary
280
     1
281
     1
  3
ACAD_XREC_ROUNDTRIP
360
46F
  0
DICTIONARY
  5
470
330
2C
100
AcDbDictionary
280
     1
281
     1
  3
ACAD_XREC_ROUNDTRIP
360
471
  0
DICTIONARY
  5
472
330
2D
100
AcDbDictionary
280
     1
281
     1
  3
ACAD_XREC_ROUNDTRIP
360
473
  0
DICTIONARY
  5
474
330
2E
100
AcDbDictionary
280
     1
281
     1
  3
ACAD_XREC_ROUNDTRIP
360
475
  0
DICTIONARY
  5
47A
330
31
100
AcDbDictionary
280
     1
281
     1
  3
ACAD_XREC_ROUNDTRIP
360
47B
  0
DICTIONARY
  5
48E
330
3B
100
AcDbDictionary
280
     1
281
     1
  3
ACAD_XREC_ROUNDTRIP
360
48F
  0
DICTIONARY
  5
488
330
38
100
AcDbDictionary
280
     1
281
     1
  3
ACAD_XREC_ROUNDTRIP
360
489
  0
DICTIONARY
  5
490
330
3C
100
AcDbDictionary
280
     1
281
     1
  3
ACAD_XREC_ROUNDTRIP
360
491
  0
DICTIONARY
  5
47E
330
33
100
AcDbDictionary
280
     1
281
     1
  3
ACAD_XREC_ROUNDTRIP
360
47F
  0
DICTIONARY
  5
49C
330
42
100
AcDbDictionary
280
     1
281
     1
  3
ACAD_XREC_ROUNDTRIP
360
49D
  0
DICTIONARY
  5
49A
330
41
100
AcDbDictionary
280
     1
281
     1
  3
ACAD_XREC_ROUNDTRIP
360
49B
  0
DICTIONARY
  5
494
330
3E
100
AcDbDictionary
280
     1
281
     1
  3
ACAD_XREC_ROUNDTRIP
360
495
  0
DICTIONARY
  5
496
330
3F
100
AcDbDictionary
280
     1
281
     1
  3
ACAD_XREC_ROUNDTRIP
360
497
  0
DICTIONARY
  5
486
330
37
100
AcDbDictionary
280
     1
281
     1
  3
ACAD_XREC_ROUNDTRIP
360
487
  0
DICTIONARY
  5
478
330
30
100
AcDbDictionary
280
     1
281
     1
  3
ACAD_XREC_ROUNDTRIP
360
479
  0
DICTIONARY
  5
498
330
40
100
AcDbDictionary
280
     1
281
     1
  3
ACAD_XREC_ROUNDTRIP
360
499
  0
XRECORD
  5
4A1
102
{ACAD_REACTORS
330
4A0
102
}
330
4A0
100
AcDbXrecord
280
     1
102
MATERIAL
148
0.0
149
0.0
149
0.0
 93
        0
 94
      127
282
     0
 72
     1
 77
     1
171
     1
175
     1
179
     1
273
     0
  0
XRECORD
  5
49F
102
{ACAD_REACTORS
330
49E
102
}
330
49E
100
AcDbXrecord
280
     1
102
MATERIAL
148
0.0
149
0.0
149
0.0
 93
        0
 94
      127
282
     0
 72
     1
 77
     1
171
     1
175
     1
179
     1
273
     0
  0
XRECORD
  5
4A3
102
{ACAD_REACTORS
330
4A2
102
}
330
4A2
100
AcDbXrecord
280
     1
102
MATERIAL
148
0.0
149
0.0
149
0.0
 93
        0
 94
      127
282
     0
 72
     1
 77
     1
171
     1
175
     1
179
     1
273
     0
  0
XRECORD
  5
477
102
{ACAD_REACTORS
330
476
102
}
330
476
100
AcDbXrecord
280
     1
102
RTVSPropertyOp0
 70
     1
102
RTVSPropertyOp1
 70
     1
102
RTVSPropertyOp2
 70
     1
102
RTVSPropertyOp3
 70
     1
102
RTVSPropertyOp4
 70
     1
102
RTVSPropertyOp5
 70
     1
102
RTVSPropertyOp6
 70
     1
102
RTVSPropertyOp7
 70
     1
102
RTVSPropertyOp8
 70
     1
102
RTVSPropertyOp9
 70
     1
102
RTVSPropertyOp10
 70
     1
102
RTVSPropertyOp11
 70
     1
102
RTVSPropertyOp12
 70
     1
102
RTVSPropertyOp13
 70
     1
102
RTVSPropertyOp14
 70
     1
102
RTVSPropertyOp15
 70
     1
102
RTVSPropertyOp16
 70
     1
102
RTVSPropertyOp17
 70
     1
102
RTVSPropertyOp18
 70
     1
102
RTVSPropertyOp19
 70
     1
102
RTVSPropertyOp20
 70
     1
102
RTVSPropertyOp21
 70
     1
102
RTVSPropertyOp22
 70
     1
102
RTVSPropertyOp23
 70
     1
102
RTVSPropertyOp24
 70
     1
102
RTVSPropertyOp25
 70
     1
102
RTVSPropertyOp26
 70
     1
102
RTVSPropertyOp27
 70
     1
102
RTVSPropertyOp28
 70
     1
102
RTVSPropertyOp29
 70
     1
102
RTVSPropertyOp30
 70
     1
102
RTVSPropertyOp31
 70
     1
102
RTVSPropertyOp32
 70
     1
102
RTVSPropertyOp33
 70
     1
102
RTVSPropertyOp34
 70
     1
102
RTVSPropertyOp35
 70
     1
102
RTVSPropertyOp36
 70
     1
102
RTVSPropertyOp37
 70
     1
102
RTVSPropertyOp38
 70
     1
102
RTVSPropertyOp39
 70
     1
102
RTVSPropertyOp40
 70
     1
102
RTVSPropertyOp41
 70
     1
102
RTVSPropertyOp42
 70
     1
102
RTVSPropertyOp43
 70
     1
102
RTVSPropertyOp44
 70
     1
102
RTVSPropertyOp45
 70
     1
102
RTVSPropertyOp46
 70
     1
102
RTVSPropertyOp47
 70
     1
102
RTVSPropertyOp48
 70
     1
102
RTVSPropertyOp49
 70
     1
102
RTVSPropertyOp50
 70
     1
102
RTVSPropertyOp51
 70
     0
102
RTVSPropertyOp52
 70
     0
102
RTVSPropertyOp53
 70
     1
102
RTVSPropertyOp54
 70
     1
102
RTVSPropertyOp55
 70
     1
102
RTVSPropertyOp56
 70
     1
102
RTVSPropertyOp57
 70
     1
102
RTVSPost2010Prop28
280
     1
102
RTVSPost2010PropOp28
 70
     1
102
RTVSPost2010Prop29
280
     1
102
RTVSPost2010PropOp29
 70
     1
102
RTVSPost2010Prop30
280
     0
102
RTVSPost2010PropOp30
 70
     1
102
RTVSPost2010Prop31
280
     0
102
RTVSPost2010PropOp31
 70
     1
102
RTVSPost2010Prop32
280
     0
102
RTVSPost2010PropOp32
 70
     1
102
RTVSPost2010Prop33
280
     0
102
RTVSPost2010PropOp33
 70
     1
102
RTVSPost2010Prop34
280
     0
102
RTVSPost2010PropOp34
 70
     1
102
RTVSPost2010Prop35
280
     0
102
RTVSPost2010PropOp35
 70
     1
102
RTVSPost2010Prop36
280
     0
102
RTVSPost2010PropOp36
 70
     1
102
RTVSPost2010Prop37
 90
       50
102
RTVSPost2010PropOp37
 70
     1
102
RTVSPost2010Prop38
140
0.0
102
RTVSPost2010PropOp38
 70
     1
102
RTVSPost2010Prop39
140
1.0
102
RTVSPost2010PropOp39
 70
     1
102
RTVSPost2010Prop40
 90
        0
102
RTVSPost2010PropOp40
 70
     1
102
RTVSPost2010Prop41ColorIndex
 90
       18
102
RTVSPost2010Prop41ColorRGB
 90
        0
102
RTVSPost2010PropOp41
 70
     1
102
RTVSPost2010Prop42
 90
       50
102
RTVSPost2010PropOp42
 70
     1
102
RTVSPost2010Prop43
 90
        3
102
RTVSPost2010PropOp43
 70
     1
102
RTVSPost2010Prop44ColorIndex
 90
        5
102
RTVSPost2010Prop44ColorRGB
 90
      255
102
RTVSPost2010PropOp44
 70
     1
102
RTVSPost2010Prop45
280
     0
102
RTVSPost2010PropOp45
 70
     1
102
RTVSPost2010Prop46
 90
       50
102
RTVSPost2010PropOp46
 70
     1
102
RTVSPost2010Prop47
 90
       50
102
RTVSPost2010PropOp47
 70
     1
102
RTVSPost2010Prop48
 90
       50
102
RTVSPost2010PropOp48
 70
     1
102
RTVSPost2010Prop49
280
     0
102
RTVSPost2010PropOp49
 70
     1
102
RTVSPost2010Prop50
 90
       50
102
RTVSPost2010PropOp50
 70
     1
102
RTVSPost2010Prop51ColorIndex
 90
      256
102
RTVSPost2010Prop51ColorRGB
 90
-16777216
102
RTVSPost2010PropOp51
 70
     0
102
RTVSPost2010Prop52
140
1.0
102
RTVSPost2010PropOp52
 70
     0
102
RTVSPost2010Prop53
 90
        2
102
RTVSPost2010PropOp53
 70
     1
102
RTVSPost2010Prop54
  1
strokes_ogs.tif
102
RTVSPost2010PropOp54
 70
     1
102
RTVSPost2010Prop55
280
     0
102
RTVSPost2010PropOp55
 70
     1
102
RTVSPost2010Prop56
140
1.0
102
RTVSPost2010PropOp56
 70
     1
102
RTVSPost2010Prop57
140
1.0
102
RTVSPost2010PropOp57
 70
     1
  0
XRECORD
  5
47D
102
{ACAD_REACTORS
330
47C
102
}
330
47C
100
AcDbXrecord
280
     1
102
RTVSPropertyOp0
 70
     1
102
RTVSPropertyOp1
 70
     1
102
RTVSPropertyOp2
 70
     1
102
RTVSPropertyOp3
 70
     1
102
RTVSPropertyOp4
 70
     1
102
RTVSPropertyOp5
 70
     1
102
RTVSPropertyOp6
 70
     1
102
RTVSPropertyOp7
 70
     1
102
RTVSPropertyOp8
 70
     1
102
RTVSPropertyOp9
 70
     1
102
RTVSPropertyOp10
 70
     1
102
RTVSPropertyOp11
 70
     1
102
RTVSPropertyOp12
 70
     1
102
RTVSPropertyOp13
 70
     1
102
RTVSPropertyOp14
 70
     1
102
RTVSPropertyOp15
 70
     1
102
RTVSPropertyOp16
 70
     1
102
RTVSPropertyOp17
 70
     1
102
RTVSPropertyOp18
 70
     1
102
RTVSPropertyOp19
 70
     1
102
RTVSPropertyOp20
 70
     1
102
RTVSPropertyOp21
 70
     1
102
RTVSPropertyOp22
 70
     1
102
RTVSPropertyOp23
 70
     1
102
RTVSPropertyOp24
 70
     1
102
RTVSPropertyOp25
 70
     1
102
RTVSPropertyOp26
 70
     1
102
RTVSPropertyOp27
 70
     1
102
RTVSPropertyOp28
 70
     1
102
RTVSPropertyOp29
 70
     1
102
RTVSPropertyOp30
 70
     1
102
RTVSPropertyOp31
 70
     1
102
RTVSPropertyOp32
 70
     1
102
RTVSPropertyOp33
 70
     1
102
RTVSPropertyOp34
 70
     1
102
RTVSPropertyOp35
 70
     1
102
RTVSPropertyOp36
 70
     1
102
RTVSPropertyOp37
 70
     1
102
RTVSPropertyOp38
 70
     1
102
RTVSPropertyOp39
 70
     1
102
RTVSPropertyOp40
 70
     1
102
RTVSPropertyOp41
 70
     1
102
RTVSPropertyOp42
 70
     1
102
RTVSPropertyOp43
 70
     1
102
RTVSPropertyOp44
 70
     1
102
RTVSPropertyOp45
 70
     1
102
RTVSPropertyOp46
 70
     1
102
RTVSPropertyOp47
 70
     1
102
RTVSPropertyOp48
 70
     1
102
RTVSPropertyOp49
 70
     1
102
RTVSPropertyOp50
 70
     1
102
RTVSPropertyOp51
 70
     0
102
RTVSPropertyOp52
 70
     0
102
RTVSPropertyOp53
 70
     1
102
RTVSPropertyOp54
 70
     1
102
RTVSPropertyOp55
 70
     1
102
RTVSPropertyOp56
 70
     1
102
RTVSPropertyOp57
 70
     1
102
RTVSPost2010Prop28
280
     0
102
RTVSPost2010PropOp28
 70
     1
102
RTVSPost2010Prop29
280
     1
102
RTVSPost2010PropOp29
 70
     1
102
RTVSPost2010Prop30
280
     1
102
RTVSPost2010PropOp30
 70
     1
102
RTVSPost2010Prop31
280
     0
102
RTVSPost2010PropOp31
 70
     1
102
RTVSPost2010Prop32
280
     0
102
RTVSPost2010PropOp32
 70
     1
102
RTVSPost2010Prop33
280
     0
102
RTVSPost2010PropOp33
 70
     1
102
RTVSPost2010Prop34
280
     0
102
RTVSPost2010PropOp34
 70
     1
102
RTVSPost2010Prop35
280
     0
102
RTVSPost2010PropOp35
 70
     1
102
RTVSPost2010Prop36
280
     0
102
RTVSPost2010PropOp36
 70
     1
102
RTVSPost2010Prop37
 90
       50
102
RTVSPost2010PropOp37
 70
     1
102
RTVSPost2010Prop38
140
0.0
102
RTVSPost2010PropOp38
 70
     1
102
RTVSPost2010Prop39
140
1.0
102
RTVSPost2010PropOp39
 70
     1
102
RTVSPost2010Prop40
 90
        0
102
RTVSPost2010PropOp40
 70
     1
102
RTVSPost2010Prop41ColorIndex
 90
       18
102
RTVSPost2010Prop41ColorRGB
 90
        0
102
RTVSPost2010PropOp41
 70
     1
102
RTVSPost2010Prop42
 90
       50
102
RTVSPost2010PropOp42
 70
     1
102
RTVSPost2010Prop43
 90
        3
102
RTVSPost2010PropOp43
 70
     1
102
RTVSPost2010Prop44ColorIndex
 90
        5
102
RTVSPost2010Prop44ColorRGB
 90
      255
102
RTVSPost2010PropOp44
 70
     1
102
RTVSPost2010Prop45
280
     0
102
RTVSPost2010PropOp45
 70
     1
102
RTVSPost2010Prop46
 90
       50
102
RTVSPost2010PropOp46
 70
     1
102
RTVSPost2010Prop47
 90
       50
102
RTVSPost2010PropOp47
 70
     1
102
RTVSPost2010Prop48
 90
       50
102
RTVSPost2010PropOp48
 70
     1
102
RTVSPost2010Prop49
280
     0
102
RTVSPost2010PropOp49
 70
     1
102
RTVSPost2010Prop50
 90
       50
102
RTVSPost2010PropOp50
 70
     1
102
RTVSPost2010Prop51ColorIndex
 90
      256
102
RTVSPost2010Prop51ColorRGB
 90
-16777216
102
RTVSPost2010PropOp51
 70
     0
102
RTVSPost2010Prop52
140
1.0
102
RTVSPost2010PropOp52
 70
     0
102
RTVSPost2010Prop53
 90
        2
102
RTVSPost2010PropOp53
 70
     1
102
RTVSPost2010Prop54
  1
strokes_ogs.tif
102
RTVSPost2010PropOp54
 70
     1
102
RTVSPost2010Prop55
280
     0
102
RTVSPost2010PropOp55
 70
     1
102
RTVSPost2010Prop56
140
1.0
102
RTVSPost2010PropOp56
 70
     1
102
RTVSPost2010Prop57
140
1.0
102
RTVSPost2010PropOp57
 70
     1
  0
XRECORD
  5
485
102
{ACAD_REACTORS
330
484
102
}
330
484
100
AcDbXrecord
280
     1
102
RTVSPropertyOp0
 70
     1
102
RTVSPropertyOp1
 70
     1
102
RTVSPropertyOp2
 70
     1
102
RTVSPropertyOp3
 70
     1
102
RTVSPropertyOp4
 70
     1
102
RTVSPropertyOp5
 70
     1
102
RTVSPropertyOp6
 70
     1
102
RTVSPropertyOp7
 70
     1
102
RTVSPropertyOp8
 70
     1
102
RTVSPropertyOp9
 70
     1
102
RTVSPropertyOp10
 70
     1
102
RTVSPropertyOp11
 70
     1
102
RTVSPropertyOp12
 70
     1
102
RTVSPropertyOp13
 70
     1
102
RTVSPropertyOp14
 70
     1
102
RTVSPropertyOp15
 70
     1
102
RTVSPropertyOp16
 70
     1
102
RTVSPropertyOp17
 70
     1
102
RTVSPropertyOp18
 70
     1
102
RTVSPropertyOp19
 70
     1
102
RTVSPropertyOp20
 70
     1
102
RTVSPropertyOp21
 70
     1
102
RTVSPropertyOp22
 70
     1
102
RTVSPropertyOp23
 70
     1
102
RTVSPropertyOp24
 70
     1
102
RTVSPropertyOp25
 70
     1
102
RTVSPropertyOp26
 70
     1
102
RTVSPropertyOp27
 70
     1
102
RTVSPropertyOp28
 70
     1
102
RTVSPropertyOp29
 70
     1
102
RTVSPropertyOp30
 70
     1
102
RTVSPropertyOp31
 70
     1
102
RTVSPropertyOp32
 70
     1
102
RTVSPropertyOp33
 70
     1
102
RTVSPropertyOp34
 70
     1
102
RTVSPropertyOp35
 70
     1
102
RTVSPropertyOp36
 70
     1
102
RTVSPropertyOp37
 70
     1
102
RTVSPropertyOp38
 70
     1
102
RTVSPropertyOp39
 70
     1
102
RTVSPropertyOp40
 70
     1
102
RTVSPropertyOp41
 70
     1
102
RTVSPropertyOp42
 70
     1
102
RTVSPropertyOp43
 70
     1
102
RTVSPropertyOp44
 70
     1
102
RTVSPropertyOp45
 70
     1
102
RTVSPropertyOp46
 70
     1
102
RTVSPropertyOp47
 70
     1
102
RTVSPropertyOp48
 70
     1
102
RTVSPropertyOp49
 70
     1
102
RTVSPropertyOp50
 70
     1
102
RTVSPropertyOp51
 70
     0
102
RTVSPropertyOp52
 70
     0
102
RTVSPropertyOp53
 70
     1
102
RTVSPropertyOp54
 70
     1
102
RTVSPropertyOp55
 70
     1
102
RTVSPropertyOp56
 70
     1
102
RTVSPropertyOp57
 70
     1
102
RTVSPost2010Prop28
280
     0
102
RTVSPost2010PropOp28
 70
     1
102
RTVSPost2010Prop29
280
     1
102
RTVSPost2010PropOp29
 70
     1
102
RTVSPost2010Prop30
280
     1
102
RTVSPost2010PropOp30
 70
     1
102
RTVSPost2010Prop31
280
     0
102
RTVSPost2010PropOp31
 70
     1
102
RTVSPost2010Prop32
280
     0
102
RTVSPost2010PropOp32
 70
     1
102
RTVSPost2010Prop33
280
     0
102
RTVSPost2010PropOp33
 70
     1
102
RTVSPost2010Prop34
280
     0
102
RTVSPost2010PropOp34
 70
     1
102
RTVSPost2010Prop35
280
     0
102
RTVSPost2010PropOp35
 70
     1
102
RTVSPost2010Prop36
280
     0
102
RTVSPost2010PropOp36
 70
     1
102
RTVSPost2010Prop37
 90
       50
102
RTVSPost2010PropOp37
 70
     1
102
RTVSPost2010Prop38
140
0.0
102
RTVSPost2010PropOp38
 70
     1
102
RTVSPost2010Prop39
140
1.0
102
RTVSPost2010PropOp39
 70
     1
102
RTVSPost2010Prop40
 90
        0
102
RTVSPost2010PropOp40
 70
     1
102
RTVSPost2010Prop41ColorIndex
 90
       18
102
RTVSPost2010Prop41ColorRGB
 90
        0
102
RTVSPost2010PropOp41
 70
     1
102
RTVSPost2010Prop42
 90
       50
102
RTVSPost2010PropOp42
 70
     1
102
RTVSPost2010Prop43
 90
        3
102
RTVSPost2010PropOp43
 70
     1
102
RTVSPost2010Prop44ColorIndex
 90
        5
102
RTVSPost2010Prop44ColorRGB
 90
      255
102
RTVSPost2010PropOp44
 70
     1
102
RTVSPost2010Prop45
280
     0
102
RTVSPost2010PropOp45
 70
     1
102
RTVSPost2010Prop46
 90
       50
102
RTVSPost2010PropOp46
 70
     1
102
RTVSPost2010Prop47
 90
       50
102
RTVSPost2010PropOp47
 70
     1
102
RTVSPost2010Prop48
 90
       50
102
RTVSPost2010PropOp48
 70
     1
102
RTVSPost2010Prop49
280
     0
102
RTVSPost2010PropOp49
 70
     1
102
RTVSPost2010Prop50
 90
       50
102
RTVSPost2010PropOp50
 70
     1
102
RTVSPost2010Prop51ColorIndex
 90
      256
102
RTVSPost2010Prop51ColorRGB
 90
-16777216
102
RTVSPost2010PropOp51
 70
     0
102
RTVSPost2010Prop52
140
1.0
102
RTVSPost2010PropOp52
 70
     0
102
RTVSPost2010Prop53
 90
        2
102
RTVSPost2010PropOp53
 70
     1
102
RTVSPost2010Prop54
  1
strokes_ogs.tif
102
RTVSPost2010PropOp54
 70
     1
102
RTVSPost2010Prop55
280
     0
102
RTVSPost2010PropOp55
 70
     1
102
RTVSPost2010Prop56
140
1.0
102
RTVSPost2010PropOp56
 70
     1
102
RTVSPost2010Prop57
140
1.0
102
RTVSPost2010PropOp57
 70
     1
  0
XRECORD
  5
48D
102
{ACAD_REACTORS
330
48C
102
}
330
48C
100
AcDbXrecord
280
     1
102
RTVSPropertyOp0
 70
     1
102
RTVSPropertyOp1
 70
     1
102
RTVSPropertyOp2
 70
     1
102
RTVSPropertyOp3
 70
     1
102
RTVSPropertyOp4
 70
     1
102
RTVSPropertyOp5
 70
     1
102
RTVSPropertyOp6
 70
     1
102
RTVSPropertyOp7
 70
     1
102
RTVSPropertyOp8
 70
     1
102
RTVSPropertyOp9
 70
     1
102
RTVSPropertyOp10
 70
     1
102
RTVSPropertyOp11
 70
     1
102
RTVSPropertyOp12
 70
     1
102
RTVSPropertyOp13
 70
     1
102
RTVSPropertyOp14
 70
     1
102
RTVSPropertyOp15
 70
     1
102
RTVSPropertyOp16
 70
     1
102
RTVSPropertyOp17
 70
     1
102
RTVSPropertyOp18
 70
     1
102
RTVSPropertyOp19
 70
     1
102
RTVSPropertyOp20
 70
     1
102
RTVSPropertyOp21
 70
     1
102
RTVSPropertyOp22
 70
     1
102
RTVSPropertyOp23
 70
     1
102
RTVSPropertyOp24
 70
     1
102
RTVSPropertyOp25
 70
     1
102
RTVSPropertyOp26
 70
     1
102
RTVSPropertyOp27
 70
     1
102
RTVSPropertyOp28
 70
     1
102
RTVSPropertyOp29
 70
     1
102
RTVSPropertyOp30
 70
     1
102
RTVSPropertyOp31
 70
     1
102
RTVSPropertyOp32
 70
     1
102
RTVSPropertyOp33
 70
     1
102
RTVSPropertyOp34
 70
     1
102
RTVSPropertyOp35
 70
     1
102
RTVSPropertyOp36
 70
     1
102
RTVSPropertyOp37
 70
     1
102
RTVSPropertyOp38
 70
     1
102
RTVSPropertyOp39
 70
     1
102
RTVSPropertyOp40
 70
     1
102
RTVSPropertyOp41
 70
     1
102
RTVSPropertyOp42
 70
     1
102
RTVSPropertyOp43
 70
     1
102
RTVSPropertyOp44
 70
     1
102
RTVSPropertyOp45
 70
     1
102
RTVSPropertyOp46
 70
     1
102
RTVSPropertyOp47
 70
     1
102
RTVSPropertyOp48
 70
     1
102
RTVSPropertyOp49
 70
     1
102
RTVSPropertyOp50
 70
     1
102
RTVSPropertyOp51
 70
     0
102
RTVSPropertyOp52
 70
     0
102
RTVSPropertyOp53
 70
     1
102
RTVSPropertyOp54
 70
     1
102
RTVSPropertyOp55
 70
     1
102
RTVSPropertyOp56
 70
     1
102
RTVSPropertyOp57
 70
     1
102
RTVSPost2010Prop28
280
     0
102
RTVSPost2010PropOp28
 70
     1
102
RTVSPost2010Prop29
280
     1
102
RTVSPost2010PropOp29
 70
     1
102
RTVSPost2010Prop30
280
     1
102
RTVSPost2010PropOp30
 70
     1
102
RTVSPost2010Prop31
280
     0
102
RTVSPost2010PropOp31
 70
     1
102
RTVSPost2010Prop32
280
     0
102
RTVSPost2010PropOp32
 70
     1
102
RTVSPost2010Prop33
280
     0
102
RTVSPost2010PropOp33
 70
     1
102
RTVSPost2010Prop34
280
     0
102
RTVSPost2010PropOp34
 70
     1
102
RTVSPost2010Prop35
280
     0
102
RTVSPost2010PropOp35
 70
     1
102
RTVSPost2010Prop36
280
     0
102
RTVSPost2010PropOp36
 70
     1
102
RTVSPost2010Prop37
 90
       50
102
RTVSPost2010PropOp37
 70
     1
102
RTVSPost2010Prop38
140
0.0
102
RTVSPost2010PropOp38
 70
     1
102
RTVSPost2010Prop39
140
1.0
102
RTVSPost2010PropOp39
 70
     1
102
RTVSPost2010Prop40
 90
        0
102
RTVSPost2010PropOp40
 70
     1
102
RTVSPost2010Prop41ColorIndex
 90
       18
102
RTVSPost2010Prop41ColorRGB
 90
        0
102
RTVSPost2010PropOp41
 70
     1
102
RTVSPost2010Prop42
 90
       50
102
RTVSPost2010PropOp42
 70
     1
102
RTVSPost2010Prop43
 90
        3
102
RTVSPost2010PropOp43
 70
     1
102
RTVSPost2010Prop44ColorIndex
 90
        5
102
RTVSPost2010Prop44ColorRGB
 90
      255
102
RTVSPost2010PropOp44
 70
     1
102
RTVSPost2010Prop45
280
     0
102
RTVSPost2010PropOp45
 70
     1
102
RTVSPost2010Prop46
 90
       50
102
RTVSPost2010PropOp46
 70
     1
102
RTVSPost2010Prop47
 90
       50
102
RTVSPost2010PropOp47
 70
     1
102
RTVSPost2010Prop48
 90
       50
102
RTVSPost2010PropOp48
 70
     1
102
RTVSPost2010Prop49
280
     0
102
RTVSPost2010PropOp49
 70
     1
102
RTVSPost2010Prop50
 90
       50
102
RTVSPost2010PropOp50
 70
     1
102
RTVSPost2010Prop51ColorIndex
 90
      256
102
RTVSPost2010Prop51ColorRGB
 90
-16777216
102
RTVSPost2010PropOp51
 70
     0
102
RTVSPost2010Prop52
140
1.0
102
RTVSPost2010PropOp52
 70
     0
102
RTVSPost2010Prop53
 90
        2
102
RTVSPost2010PropOp53
 70
     1
102
RTVSPost2010Prop54
  1
strokes_ogs.tif
102
RTVSPost2010PropOp54
 70
     1
102
RTVSPost2010Prop55
280
     0
102
RTVSPost2010PropOp55
 70
     1
102
RTVSPost2010Prop56
140
1.0
102
RTVSPost2010PropOp56
 70
     1
102
RTVSPost2010Prop57
140
1.0
102
RTVSPost2010PropOp57
 70
     1
  0
XRECORD
  5
481
102
{ACAD_REACTORS
330
480
102
}
330
480
100
AcDbXrecord
280
     1
102
RTVSPropertyOp0
 70
     1
102
RTVSPropertyOp1
 70
     1
102
RTVSPropertyOp2
 70
     1
102
RTVSPropertyOp3
 70
     1
102
RTVSPropertyOp4
 70
     1
102
RTVSPropertyOp5
 70
     1
102
RTVSPropertyOp6
 70
     1
102
RTVSPropertyOp7
 70
     1
102
RTVSPropertyOp8
 70
     1
102
RTVSPropertyOp9
 70
     1
102
RTVSPropertyOp10
 70
     1
102
RTVSPropertyOp11
 70
     1
102
RTVSPropertyOp12
 70
     1
102
RTVSPropertyOp13
 70
     1
102
RTVSPropertyOp14
 70
     1
102
RTVSPropertyOp15
 70
     1
102
RTVSPropertyOp16
 70
     1
102
RTVSPropertyOp17
 70
     1
102
RTVSPropertyOp18
 70
     1
102
RTVSPropertyOp19
 70
     1
102
RTVSPropertyOp20
 70
     1
102
RTVSPropertyOp21
 70
     1
102
RTVSPropertyOp22
 70
     1
102
RTVSPropertyOp23
 70
     1
102
RTVSPropertyOp24
 70
     1
102
RTVSPropertyOp25
 70
     1
102
RTVSPropertyOp26
 70
     1
102
RTVSPropertyOp27
 70
     1
102
RTVSPropertyOp28
 70
     1
102
RTVSPropertyOp29
 70
     1
102
RTVSPropertyOp30
 70
     1
102
RTVSPropertyOp31
 70
     1
102
RTVSPropertyOp32
 70
     1
102
RTVSPropertyOp33
 70
     1
102
RTVSPropertyOp34
 70
     1
102
RTVSPropertyOp35
 70
     1
102
RTVSPropertyOp36
 70
     1
102
RTVSPropertyOp37
 70
     1
102
RTVSPropertyOp38
 70
     1
102
RTVSPropertyOp39
 70
     1
102
RTVSPropertyOp40
 70
     1
102
RTVSPropertyOp41
 70
     1
102
RTVSPropertyOp42
 70
     1
102
RTVSPropertyOp43
 70
     1
102
RTVSPropertyOp44
 70
     1
102
RTVSPropertyOp45
 70
     1
102
RTVSPropertyOp46
 70
     1
102
RTVSPropertyOp47
 70
     1
102
RTVSPropertyOp48
 70
     1
102
RTVSPropertyOp49
 70
     1
102
RTVSPropertyOp50
 70
     1
102
RTVSPropertyOp51
 70
     0
102
RTVSPropertyOp52
 70
     0
102
RTVSPropertyOp53
 70
     1
102
RTVSPropertyOp54
 70
     1
102
RTVSPropertyOp55
 70
     1
102
RTVSPropertyOp56
 70
     1
102
RTVSPropertyOp57
 70
     1
102
RTVSPost2010Prop28
280
     0
102
RTVSPost2010PropOp28
 70
     1
102
RTVSPost2010Prop29
280
     1
102
RTVSPost2010PropOp29
 70
     1
102
RTVSPost2010Prop30
280
     1
102
RTVSPost2010PropOp30
 70
     1
102
RTVSPost2010Prop31
280
     0
102
RTVSPost2010PropOp31
 70
     1
102
RTVSPost2010Prop32
280
     0
102
RTVSPost2010PropOp32
 70
     1
102
RTVSPost2010Prop33
280
     0
102
RTVSPost2010PropOp33
 70
     1
102
RTVSPost2010Prop34
280
     0
102
RTVSPost2010PropOp34
 70
     1
102
RTVSPost2010Prop35
280
     0
102
RTVSPost2010PropOp35
 70
     1
102
RTVSPost2010Prop36
280
     0
102
RTVSPost2010PropOp36
 70
     1
102
RTVSPost2010Prop37
 90
       50
102
RTVSPost2010PropOp37
 70
     1
102
RTVSPost2010Prop38
140
0.0
102
RTVSPost2010PropOp38
 70
     1
102
RTVSPost2010Prop39
140
1.0
102
RTVSPost2010PropOp39
 70
     1
102
RTVSPost2010Prop40
 90
        0
102
RTVSPost2010PropOp40
 70
     1
102
RTVSPost2010Prop41ColorIndex
 90
       18
102
RTVSPost2010Prop41ColorRGB
 90
        0
102
RTVSPost2010PropOp41
 70
     1
102
RTVSPost2010Prop42
 90
       50
102
RTVSPost2010PropOp42
 70
     1
102
RTVSPost2010Prop43
 90
        3
102
RTVSPost2010PropOp43
 70
     1
102
RTVSPost2010Prop44ColorIndex
 90
        5
102
RTVSPost2010Prop44ColorRGB
 90
      255
102
RTVSPost2010PropOp44
 70
     1
102
RTVSPost2010Prop45
280
     0
102
RTVSPost2010PropOp45
 70
     1
102
RTVSPost2010Prop46
 90
       50
102
RTVSPost2010PropOp46
 70
     1
102
RTVSPost2010Prop47
 90
       50
102
RTVSPost2010PropOp47
 70
     1
102
RTVSPost2010Prop48
 90
       50
102
RTVSPost2010PropOp48
 70
     1
102
RTVSPost2010Prop49
280
     0
102
RTVSPost2010PropOp49
 70
     1
102
RTVSPost2010Prop50
 90
       50
102
RTVSPost2010PropOp50
 70
     1
102
RTVSPost2010Prop51ColorIndex
 90
      256
102
RTVSPost2010Prop51ColorRGB
 90
-16777216
102
RTVSPost2010PropOp51
 70
     0
102
RTVSPost2010Prop52
140
1.0
102
RTVSPost2010PropOp52
 70
     0
102
RTVSPost2010Prop53
 90
        2
102
RTVSPost2010PropOp53
 70
     1
102
RTVSPost2010Prop54
  1
strokes_ogs.tif
102
RTVSPost2010PropOp54
 70
     1
102
RTVSPost2010Prop55
280
     0
102
RTVSPost2010PropOp55
 70
     1
102
RTVSPost2010Prop56
140
1.0
102
RTVSPost2010PropOp56
 70
     1
102
RTVSPost2010Prop57
140
1.0
102
RTVSPost2010PropOp57
 70
     1
  0
XRECORD
  5
483
102
{ACAD_REACTORS
330
482
102
}
330
482
100
AcDbXrecord
280
     1
102
RTVSPropertyOp0
 70
     1
102
RTVSPropertyOp1
 70
     1
102
RTVSPropertyOp2
 70
     1
102
RTVSPropertyOp3
 70
     1
102
RTVSPropertyOp4
 70
     1
102
RTVSPropertyOp5
 70
     1
102
RTVSPropertyOp6
 70
     1
102
RTVSPropertyOp7
 70
     1
102
RTVSPropertyOp8
 70
     1
102
RTVSPropertyOp9
 70
     1
102
RTVSPropertyOp10
 70
     1
102
RTVSPropertyOp11
 70
     1
102
RTVSPropertyOp12
 70
     1
102
RTVSPropertyOp13
 70
     1
102
RTVSPropertyOp14
 70
     1
102
RTVSPropertyOp15
 70
     1
102
RTVSPropertyOp16
 70
     1
102
RTVSPropertyOp17
 70
     1
102
RTVSPropertyOp18
 70
     1
102
RTVSPropertyOp19
 70
     1
102
RTVSPropertyOp20
 70
     1
102
RTVSPropertyOp21
 70
     1
102
RTVSPropertyOp22
 70
     1
102
RTVSPropertyOp23
 70
     1
102
RTVSPropertyOp24
 70
     1
102
RTVSPropertyOp25
 70
     1
102
RTVSPropertyOp26
 70
     1
102
RTVSPropertyOp27
 70
     1
102
RTVSPropertyOp28
 70
     1
102
RTVSPropertyOp29
 70
     1
102
RTVSPropertyOp30
 70
     1
102
RTVSPropertyOp31
 70
     1
102
RTVSPropertyOp32
 70
     1
102
RTVSPropertyOp33
 70
     1
102
RTVSPropertyOp34
 70
     1
102
RTVSPropertyOp35
 70
     1
102
RTVSPropertyOp36
 70
     1
102
RTVSPropertyOp37
 70
     1
102
RTVSPropertyOp38
 70
     1
102
RTVSPropertyOp39
 70
     1
102
RTVSPropertyOp40
 70
     1
102
RTVSPropertyOp41
 70
     1
102
RTVSPropertyOp42
 70
     1
102
RTVSPropertyOp43
 70
     1
102
RTVSPropertyOp44
 70
     1
102
RTVSPropertyOp45
 70
     1
102
RTVSPropertyOp46
 70
     1
102
RTVSPropertyOp47
 70
     1
102
RTVSPropertyOp48
 70
     1
102
RTVSPropertyOp49
 70
     1
102
RTVSPropertyOp50
 70
     1
102
RTVSPropertyOp51
 70
     0
102
RTVSPropertyOp52
 70
     0
102
RTVSPropertyOp53
 70
     1
102
RTVSPropertyOp54
 70
     1
102
RTVSPropertyOp55
 70
     1
102
RTVSPropertyOp56
 70
     1
102
RTVSPropertyOp57
 70
     1
102
RTVSPost2010Prop28
280
     0
102
RTVSPost2010PropOp28
 70
     1
102
RTVSPost2010Prop29
280
     1
102
RTVSPost2010PropOp29
 70
     1
102
RTVSPost2010Prop30
280
     1
102
RTVSPost2010PropOp30
 70
     1
102
RTVSPost2010Prop31
280
     0
102
RTVSPost2010PropOp31
 70
     1
102
RTVSPost2010Prop32
280
     0
102
RTVSPost2010PropOp32
 70
     1
102
RTVSPost2010Prop33
280
     0
102
RTVSPost2010PropOp33
 70
     1
102
RTVSPost2010Prop34
280
     0
102
RTVSPost2010PropOp34
 70
     1
102
RTVSPost2010Prop35
280
     0
102
RTVSPost2010PropOp35
 70
     1
102
RTVSPost2010Prop36
280
     0
102
RTVSPost2010PropOp36
 70
     1
102
RTVSPost2010Prop37
 90
       50
102
RTVSPost2010PropOp37
 70
     1
102
RTVSPost2010Prop38
140
0.0
102
RTVSPost2010PropOp38
 70
     1
102
RTVSPost2010Prop39
140
1.0
102
RTVSPost2010PropOp39
 70
     1
102
RTVSPost2010Prop40
 90
        0
102
RTVSPost2010PropOp40
 70
     1
102
RTVSPost2010Prop41ColorIndex
 90
       18
102
RTVSPost2010Prop41ColorRGB
 90
        0
102
RTVSPost2010PropOp41
 70
     1
102
RTVSPost2010Prop42
 90
       50
102
RTVSPost2010PropOp42
 70
     1
102
RTVSPost2010Prop43
 90
        3
102
RTVSPost2010PropOp43
 70
     1
102
RTVSPost2010Prop44ColorIndex
 90
        5
102
RTVSPost2010Prop44ColorRGB
 90
      255
102
RTVSPost2010PropOp44
 70
     1
102
RTVSPost2010Prop45
280
     0
102
RTVSPost2010PropOp45
 70
     1
102
RTVSPost2010Prop46
 90
       50
102
RTVSPost2010PropOp46
 70
     1
102
RTVSPost2010Prop47
 90
       50
102
RTVSPost2010PropOp47
 70
     1
102
RTVSPost2010Prop48
 90
       50
102
RTVSPost2010PropOp48
 70
     1
102
RTVSPost2010Prop49
280
     0
102
RTVSPost2010PropOp49
 70
     1
102
RTVSPost2010Prop50
 90
       50
102
RTVSPost2010PropOp50
 70
     1
102
RTVSPost2010Prop51ColorIndex
 90
      256
102
RTVSPost2010Prop51ColorRGB
 90
-16777216
102
RTVSPost2010PropOp51
 70
     0
102
RTVSPost2010Prop52
140
1.0
102
RTVSPost2010PropOp52
 70
     0
102
RTVSPost2010Prop53
 90
        2
102
RTVSPost2010PropOp53
 70
     1
102
RTVSPost2010Prop54
  1
strokes_ogs.tif
102
RTVSPost2010PropOp54
 70
     1
102
RTVSPost2010Prop55
280
     0
102
RTVSPost2010PropOp55
 70
     1
102
RTVSPost2010Prop56
140
1.0
102
RTVSPost2010PropOp56
 70
     1
102
RTVSPost2010Prop57
140
1.0
102
RTVSPost2010PropOp57
 70
     1
  0
XRECORD
  5
493
102
{ACAD_REACTORS
330
492
102
}
330
492
100
AcDbXrecord
280
     1
102
RTVSPropertyOp0
 70
     0
102
RTVSPropertyOp1
 70
     0
102
RTVSPropertyOp2
 70
     0
102
RTVSPropertyOp3
 70
     0
102
RTVSPropertyOp4
 70
     0
102
RTVSPropertyOp5
 70
     0
102
RTVSPropertyOp6
 70
     0
102
RTVSPropertyOp7
 70
     0
102
RTVSPropertyOp8
 70
     0
102
RTVSPropertyOp9
 70
     0
102
RTVSPropertyOp10
 70
     0
102
RTVSPropertyOp11
 70
     0
102
RTVSPropertyOp12
 70
     0
102
RTVSPropertyOp13
 70
     0
102
RTVSPropertyOp14
 70
     2
102
RTVSPropertyOp15
 70
     0
102
RTVSPropertyOp16
 70
     0
102
RTVSPropertyOp17
 70
     0
102
RTVSPropertyOp18
 70
     0
102
RTVSPropertyOp19
 70
     0
102
RTVSPropertyOp20
 70
     0
102
RTVSPropertyOp21
 70
     0
102
RTVSPropertyOp22
 70
     0
102
RTVSPropertyOp23
 70
     0
102
RTVSPropertyOp24
 70
     0
102
RTVSPropertyOp25
 70
     0
102
RTVSPropertyOp26
 70
     0
102
RTVSPropertyOp27
 70
     0
102
RTVSPropertyOp28
 70
     0
102
RTVSPropertyOp29
 70
     0
102
RTVSPropertyOp30
 70
     0
102
RTVSPropertyOp31
 70
     0
102
RTVSPropertyOp32
 70
     0
102
RTVSPropertyOp33
 70
     0
102
RTVSPropertyOp34
 70
     0
102
RTVSPropertyOp35
 70
     0
102
RTVSPropertyOp36
 70
     0
102
RTVSPropertyOp37
 70
     0
102
RTVSPropertyOp38
 70
     0
102
RTVSPropertyOp39
 70
     0
102
RTVSPropertyOp40
 70
     0
102
RTVSPropertyOp41
 70
     0
102
RTVSPropertyOp42
 70
     0
102
RTVSPropertyOp43
 70
     0
102
RTVSPropertyOp44
 70
     0
102
RTVSPropertyOp45
 70
     0
102
RTVSPropertyOp46
 70
     0
102
RTVSPropertyOp47
 70
     0
102
RTVSPropertyOp48
 70
     0
102
RTVSPropertyOp49
 70
     0
102
RTVSPropertyOp50
 70
     0
102
RTVSPropertyOp51
 70
     0
102
RTVSPropertyOp52
 70
     0
102
RTVSPropertyOp53
 70
     0
102
RTVSPropertyOp54
 70
     0
102
RTVSPropertyOp55
 70
     0
102
RTVSPropertyOp56
 70
     0
102
RTVSPropertyOp57
 70
     0
102
RTVSPost2010Prop28
280
     0
102
RTVSPost2010PropOp28
 70
     0
102
RTVSPost2010Prop29
280
     1
102
RTVSPost2010PropOp29
 70
     0
102
RTVSPost2010Prop30
280
     1
102
RTVSPost2010PropOp30
 70
     0
102
RTVSPost2010Prop31
280
     0
102
RTVSPost2010PropOp31
 70
     0
102
RTVSPost2010Prop32
280
     0
102
RTVSPost2010PropOp32
 70
     0
102
RTVSPost2010Prop33
280
     0
102
RTVSPost2010PropOp33
 70
     0
102
RTVSPost2010Prop34
280
     0
102
RTVSPost2010PropOp34
 70
     0
102
RTVSPost2010Prop35
280
     0
102
RTVSPost2010PropOp35
 70
     0
102
RTVSPost2010Prop36
280
     0
102
RTVSPost2010PropOp36
 70
     0
102
RTVSPost2010Prop37
 90
       50
102
RTVSPost2010PropOp37
 70
     0
102
RTVSPost2010Prop38
140
0.0
102
RTVSPost2010PropOp38
 70
     0
102
RTVSPost2010Prop39
140
1.0
102
RTVSPost2010PropOp39
 70
     0
102
RTVSPost2010Prop40
 90
        0
102
RTVSPost2010PropOp40
 70
     0
102
RTVSPost2010Prop41ColorIndex
 90
       18
102
RTVSPost2010Prop41ColorRGB
 90
        0
102
RTVSPost2010PropOp41
 70
     0
102
RTVSPost2010Prop42
 90
       50
102
RTVSPost2010PropOp42
 70
     0
102
RTVSPost2010Prop43
 90
        3
102
RTVSPost2010PropOp43
 70
     0
102
RTVSPost2010Prop44ColorIndex
 90
        5
102
RTVSPost2010Prop44ColorRGB
 90
      255
102
RTVSPost2010PropOp44
 70
     0
102
RTVSPost2010Prop45
280
     0
102
RTVSPost2010PropOp45
 70
     0
102
RTVSPost2010Prop46
 90
       50
102
RTVSPost2010PropOp46
 70
     0
102
RTVSPost2010Prop47
 90
       50
102
RTVSPost2010PropOp47
 70
     0
102
RTVSPost2010Prop48
 90
       50
102
RTVSPost2010PropOp48
 70
     0
102
RTVSPost2010Prop49
280
     0
102
RTVSPost2010PropOp49
 70
     0
102
RTVSPost2010Prop50
 90
       50
102
RTVSPost2010PropOp50
 70
     0
102
RTVSPost2010Prop51ColorIndex
 90
      256
102
RTVSPost2010Prop51ColorRGB
 90
-16777216
102
RTVSPost2010PropOp51
 70
     0
102
RTVSPost2010Prop52
140
1.0
102
RTVSPost2010PropOp52
 70
     0
102
RTVSPost2010Prop53
 90
        2
102
RTVSPost2010PropOp53
 70
     0
102
RTVSPost2010Prop54
  1
strokes_ogs.tif
102
RTVSPost2010PropOp54
 70
     0
102
RTVSPost2010Prop55
280
     0
102
RTVSPost2010PropOp55
 70
     0
102
RTVSPost2010Prop56
140
1.0
102
RTVSPost2010PropOp56
 70
     0
102
RTVSPost2010Prop57
140
1.0
102
RTVSPost2010PropOp57
 70
     0
  0
XRECORD
  5
48B
102
{ACAD_REACTORS
330
48A
102
}
330
48A
100
AcDbXrecord
280
     1
102
RTVSPropertyOp0
 70
     1
102
RTVSPropertyOp1
 70
     1
102
RTVSPropertyOp2
 70
     1
102
RTVSPropertyOp3
 70
     1
102
RTVSPropertyOp4
 70
     1
102
RTVSPropertyOp5
 70
     1
102
RTVSPropertyOp6
 70
     1
102
RTVSPropertyOp7
 70
     1
102
RTVSPropertyOp8
 70
     1
102
RTVSPropertyOp9
 70
     1
102
RTVSPropertyOp10
 70
     1
102
RTVSPropertyOp11
 70
     1
102
RTVSPropertyOp12
 70
     1
102
RTVSPropertyOp13
 70
     1
102
RTVSPropertyOp14
 70
     1
102
RTVSPropertyOp15
 70
     1
102
RTVSPropertyOp16
 70
     1
102
RTVSPropertyOp17
 70
     1
102
RTVSPropertyOp18
 70
     1
102
RTVSPropertyOp19
 70
     1
102
RTVSPropertyOp20
 70
     1
102
RTVSPropertyOp21
 70
     1
102
RTVSPropertyOp22
 70
     1
102
RTVSPropertyOp23
 70
     1
102
RTVSPropertyOp24
 70
     1
102
RTVSPropertyOp25
 70
     1
102
RTVSPropertyOp26
 70
     1
102
RTVSPropertyOp27
 70
     1
102
RTVSPropertyOp28
 70
     1
102
RTVSPropertyOp29
 70
     1
102
RTVSPropertyOp30
 70
     1
102
RTVSPropertyOp31
 70
     1
102
RTVSPropertyOp32
 70
     1
102
RTVSPropertyOp33
 70
     1
102
RTVSPropertyOp34
 70
     1
102
RTVSPropertyOp35
 70
     1
102
RTVSPropertyOp36
 70
     1
102
RTVSPropertyOp37
 70
     1
102
RTVSPropertyOp38
 70
     1
102
RTVSPropertyOp39
 70
     1
102
RTVSPropertyOp40
 70
     1
102
RTVSPropertyOp41
 70
     1
102
RTVSPropertyOp42
 70
     1
102
RTVSPropertyOp43
 70
     1
102
RTVSPropertyOp44
 70
     1
102
RTVSPropertyOp45
 70
     1
102
RTVSPropertyOp46
 70
     1
102
RTVSPropertyOp47
 70
     1
102
RTVSPropertyOp48
 70
     1
102
RTVSPropertyOp49
 70
     1
102
RTVSPropertyOp50
 70
     1
102
RTVSPropertyOp51
 70
     0
102
RTVSPropertyOp52
 70
     0
102
RTVSPropertyOp53
 70
     1
102
RTVSPropertyOp54
 70
     1
102
RTVSPropertyOp55
 70
     1
102
RTVSPropertyOp56
 70
     1
102
RTVSPropertyOp57
 70
     1
102
RTVSPost2010Prop28
280
     0
102
RTVSPost2010PropOp28
 70
     1
102
RTVSPost2010Prop29
280
     1
102
RTVSPost2010PropOp29
 70
     1
102
RTVSPost2010Prop30
280
     1
102
RTVSPost2010PropOp30
 70
     1
102
RTVSPost2010Prop31
280
     0
102
RTVSPost2010PropOp31
 70
     1
102
RTVSPost2010Prop32
280
     0
102
RTVSPost2010PropOp32
 70
     1
102
RTVSPost2010Prop33
280
     0
102
RTVSPost2010PropOp33
 70
     1
102
RTVSPost2010Prop34
280
     0
102
RTVSPost2010PropOp34
 70
     1
102
RTVSPost2010Prop35
280
     0
102
RTVSPost2010PropOp35
 70
     1
102
RTVSPost2010Prop36
280
     0
102
RTVSPost2010PropOp36
 70
     1
102
RTVSPost2010Prop37
 90
       50
102
RTVSPost2010PropOp37
 70
     1
102
RTVSPost2010Prop38
140
0.0
102
RTVSPost2010PropOp38
 70
     1
102
RTVSPost2010Prop39
140
1.0
102
RTVSPost2010PropOp39
 70
     1
102
RTVSPost2010Prop40
 90
        0
102
RTVSPost2010PropOp40
 70
     1
102
RTVSPost2010Prop41ColorIndex
 90
       18
102
RTVSPost2010Prop41ColorRGB
 90
        0
102
RTVSPost2010PropOp41
 70
     1
102
RTVSPost2010Prop42
 90
       50
102
RTVSPost2010PropOp42
 70
     1
102
RTVSPost2010Prop43
 90
        3
102
RTVSPost2010PropOp43
 70
     1
102
RTVSPost2010Prop44ColorIndex
 90
        5
102
RTVSPost2010Prop44ColorRGB
 90
      255
102
RTVSPost2010PropOp44
 70
     1
102
RTVSPost2010Prop45
280
     0
102
RTVSPost2010PropOp45
 70
     1
102
RTVSPost2010Prop46
 90
       50
102
RTVSPost2010PropOp46
 70
     1
102
RTVSPost2010Prop47
 90
       50
102
RTVSPost2010PropOp47
 70
     1
102
RTVSPost2010Prop48
 90
       50
102
RTVSPost2010PropOp48
 70
     1
102
RTVSPost2010Prop49
280
     0
102
RTVSPost2010PropOp49
 70
     1
102
RTVSPost2010Prop50
 90
       50
102
RTVSPost2010PropOp50
 70
     1
102
RTVSPost2010Prop51ColorIndex
 90
      256
102
RTVSPost2010Prop51ColorRGB
 90
-16777216
102
RTVSPost2010PropOp51
 70
     0
102
RTVSPost2010Prop52
140
1.0
102
RTVSPost2010PropOp52
 70
     0
102
RTVSPost2010Prop53
 90
        2
102
RTVSPost2010PropOp53
 70
     1
102
RTVSPost2010Prop54
  1
strokes_ogs.tif
102
RTVSPost2010PropOp54
 70
     1
102
RTVSPost2010Prop55
280
     0
102
RTVSPost2010PropOp55
 70
     1
102
RTVSPost2010Prop56
140
1.0
102
RTVSPost2010PropOp56
 70
     1
102
RTVSPost2010Prop57
140
1.0
102
RTVSPost2010PropOp57
 70
     1
  0
XRECORD
  5
46F
102
{ACAD_REACTORS
330
46E
102
}
330
46E
100
AcDbXrecord
280
     1
102
RTVSPropertyOp0
 70
     1
102
RTVSPropertyOp1
 70
     1
102
RTVSPropertyOp2
 70
     1
102
RTVSPropertyOp3
 70
     1
102
RTVSPropertyOp4
 70
     1
102
RTVSPropertyOp5
 70
     1
102
RTVSPropertyOp6
 70
     1
102
RTVSPropertyOp7
 70
     1
102
RTVSPropertyOp8
 70
     1
102
RTVSPropertyOp9
 70
     1
102
RTVSPropertyOp10
 70
     1
102
RTVSPropertyOp11
 70
     1
102
RTVSPropertyOp12
 70
     1
102
RTVSPropertyOp13
 70
     1
102
RTVSPropertyOp14
 70
     1
102
RTVSPropertyOp15
 70
     1
102
RTVSPropertyOp16
 70
     1
102
RTVSPropertyOp17
 70
     1
102
RTVSPropertyOp18
 70
     1
102
RTVSPropertyOp19
 70
     1
102
RTVSPropertyOp20
 70
     1
102
RTVSPropertyOp21
 70
     1
102
RTVSPropertyOp22
 70
     1
102
RTVSPropertyOp23
 70
     1
102
RTVSPropertyOp24
 70
     1
102
RTVSPropertyOp25
 70
     1
102
RTVSPropertyOp26
 70
     1
102
RTVSPropertyOp27
 70
     1
102
RTVSPropertyOp28
 70
     1
102
RTVSPropertyOp29
 70
     1
102
RTVSPropertyOp30
 70
     1
102
RTVSPropertyOp31
 70
     1
102
RTVSPropertyOp32
 70
     1
102
RTVSPropertyOp33
 70
     1
102
RTVSPropertyOp34
 70
     1
102
RTVSPropertyOp35
 70
     1
102
RTVSPropertyOp36
 70
     1
102
RTVSPropertyOp37
 70
     1
102
RTVSPropertyOp38
 70
     1
102
RTVSPropertyOp39
 70
     1
102
RTVSPropertyOp40
 70
     1
102
RTVSPropertyOp41
 70
     1
102
RTVSPropertyOp42
 70
     1
102
RTVSPropertyOp43
 70
     1
102
RTVSPropertyOp44
 70
     1
102
RTVSPropertyOp45
 70
     1
102
RTVSPropertyOp46
 70
     1
102
RTVSPropertyOp47
 70
     1
102
RTVSPropertyOp48
 70
     1
102
RTVSPropertyOp49
 70
     1
102
RTVSPropertyOp50
 70
     1
102
RTVSPropertyOp51
 70
     0
102
RTVSPropertyOp52
 70
     0
102
RTVSPropertyOp53
 70
     1
102
RTVSPropertyOp54
 70
     1
102
RTVSPropertyOp55
 70
     1
102
RTVSPropertyOp56
 70
     1
102
RTVSPropertyOp57
 70
     1
102
RTVSPost2010Prop28
280
     0
102
RTVSPost2010PropOp28
 70
     1
102
RTVSPost2010Prop29
280
     1
102
RTVSPost2010PropOp29
 70
     1
102
RTVSPost2010Prop30
280
     1
102
RTVSPost2010PropOp30
 70
     1
102
RTVSPost2010Prop31
280
     0
102
RTVSPost2010PropOp31
 70
     1
102
RTVSPost2010Prop32
280
     0
102
RTVSPost2010PropOp32
 70
     1
102
RTVSPost2010Prop33
280
     0
102
RTVSPost2010PropOp33
 70
     1
102
RTVSPost2010Prop34
280
     0
102
RTVSPost2010PropOp34
 70
     1
102
RTVSPost2010Prop35
280
     0
102
RTVSPost2010PropOp35
 70
     1
102
RTVSPost2010Prop36
280
     0
102
RTVSPost2010PropOp36
 70
     1
102
RTVSPost2010Prop37
 90
       50
102
RTVSPost2010PropOp37
 70
     1
102
RTVSPost2010Prop38
140
0.0
102
RTVSPost2010PropOp38
 70
     1
102
RTVSPost2010Prop39
140
1.0
102
RTVSPost2010PropOp39
 70
     1
102
RTVSPost2010Prop40
 90
        0
102
RTVSPost2010PropOp40
 70
     1
102
RTVSPost2010Prop41ColorIndex
 90
       18
102
RTVSPost2010Prop41ColorRGB
 90
        0
102
RTVSPost2010PropOp41
 70
     1
102
RTVSPost2010Prop42
 90
       50
102
RTVSPost2010PropOp42
 70
     1
102
RTVSPost2010Prop43
 90
        3
102
RTVSPost2010PropOp43
 70
     1
102
RTVSPost2010Prop44ColorIndex
 90
        5
102
RTVSPost2010Prop44ColorRGB
 90
      255
102
RTVSPost2010PropOp44
 70
     1
102
RTVSPost2010Prop45
280
     0
102
RTVSPost2010PropOp45
 70
     1
102
RTVSPost2010Prop46
 90
       50
102
RTVSPost2010PropOp46
 70
     1
102
RTVSPost2010Prop47
 90
       50
102
RTVSPost2010PropOp47
 70
     1
102
RTVSPost2010Prop48
 90
       50
102
RTVSPost2010PropOp48
 70
     1
102
RTVSPost2010Prop49
280
     0
102
RTVSPost2010PropOp49
 70
     1
102
RTVSPost2010Prop50
 90
       50
102
RTVSPost2010PropOp50
 70
     1
102
RTVSPost2010Prop51ColorIndex
 90
      256
102
RTVSPost2010Prop51ColorRGB
 90
-16777216
102
RTVSPost2010PropOp51
 70
     0
102
RTVSPost2010Prop52
140
1.0
102
RTVSPost2010PropOp52
 70
     0
102
RTVSPost2010Prop53
 90
        2
102
RTVSPost2010PropOp53
 70
     1
102
RTVSPost2010Prop54
  1
strokes_ogs.tif
102
RTVSPost2010PropOp54
 70
     1
102
RTVSPost2010Prop55
280
     0
102
RTVSPost2010PropOp55
 70
     1
102
RTVSPost2010Prop56
140
1.0
102
RTVSPost2010PropOp56
 70
     1
102
RTVSPost2010Prop57
140
1.0
102
RTVSPost2010PropOp57
 70
     1
  0
XRECORD
  5
471
102
{ACAD_REACTORS
330
470
102
}
330
470
100
AcDbXrecord
280
     1
102
RTVSPropertyOp0
 70
     1
102
RTVSPropertyOp1
 70
     1
102
RTVSPropertyOp2
 70
     1
102
RTVSPropertyOp3
 70
     1
102
RTVSPropertyOp4
 70
     1
102
RTVSPropertyOp5
 70
     1
102
RTVSPropertyOp6
 70
     1
102
RTVSPropertyOp7
 70
     1
102
RTVSPropertyOp8
 70
     1
102
RTVSPropertyOp9
 70
     1
102
RTVSPropertyOp10
 70
     1
102
RTVSPropertyOp11
 70
     1
102
RTVSPropertyOp12
 70
     1
102
RTVSPropertyOp13
 70
     1
102
RTVSPropertyOp14
 70
     1
102
RTVSPropertyOp15
 70
     1
102
RTVSPropertyOp16
 70
     1
102
RTVSPropertyOp17
 70
     1
102
RTVSPropertyOp18
 70
     1
102
RTVSPropertyOp19
 70
     1
102
RTVSPropertyOp20
 70
     1
102
RTVSPropertyOp21
 70
     1
102
RTVSPropertyOp22
 70
     1
102
RTVSPropertyOp23
 70
     1
102
RTVSPropertyOp24
 70
     1
102
RTVSPropertyOp25
 70
     1
102
RTVSPropertyOp26
 70
     1
102
RTVSPropertyOp27
 70
     1
102
RTVSPropertyOp28
 70
     1
102
RTVSPropertyOp29
 70
     1
102
RTVSPropertyOp30
 70
     1
102
RTVSPropertyOp31
 70
     1
102
RTVSPropertyOp32
 70
     1
102
RTVSPropertyOp33
 70
     1
102
RTVSPropertyOp34
 70
     1
102
RTVSPropertyOp35
 70
     1
102
RTVSPropertyOp36
 70
     1
102
RTVSPropertyOp37
 70
     1
102
RTVSPropertyOp38
 70
     1
102
RTVSPropertyOp39
 70
     1
102
RTVSPropertyOp40
 70
     1
102
RTVSPropertyOp41
 70
     1
102
RTVSPropertyOp42
 70
     1
102
RTVSPropertyOp43
 70
     1
102
RTVSPropertyOp44
 70
     1
102
RTVSPropertyOp45
 70
     1
102
RTVSPropertyOp46
 70
     1
102
RTVSPropertyOp47
 70
     1
102
RTVSPropertyOp48
 70
     1
102
RTVSPropertyOp49
 70
     1
102
RTVSPropertyOp50
 70
     1
102
RTVSPropertyOp51
 70
     0
102
RTVSPropertyOp52
 70
     0
102
RTVSPropertyOp53
 70
     1
102
RTVSPropertyOp54
 70
     1
102
RTVSPropertyOp55
 70
     1
102
RTVSPropertyOp56
 70
     1
102
RTVSPropertyOp57
 70
     1
102
RTVSPost2010Prop28
280
     0
102
RTVSPost2010PropOp28
 70
     1
102
RTVSPost2010Prop29
280
     1
102
RTVSPost2010PropOp29
 70
     1
102
RTVSPost2010Prop30
280
     1
102
RTVSPost2010PropOp30
 70
     1
102
RTVSPost2010Prop31
280
     0
102
RTVSPost2010PropOp31
 70
     1
102
RTVSPost2010Prop32
280
     0
102
RTVSPost2010PropOp32
 70
     1
102
RTVSPost2010Prop33
280
     0
102
RTVSPost2010PropOp33
 70
     1
102
RTVSPost2010Prop34
280
     0
102
RTVSPost2010PropOp34
 70
     1
102
RTVSPost2010Prop35
280
     0
102
RTVSPost2010PropOp35
 70
     1
102
RTVSPost2010Prop36
280
     0
102
RTVSPost2010PropOp36
 70
     1
102
RTVSPost2010Prop37
 90
       50
102
RTVSPost2010PropOp37
 70
     1
102
RTVSPost2010Prop38
140
0.0
102
RTVSPost2010PropOp38
 70
     1
102
RTVSPost2010Prop39
140
1.0
102
RTVSPost2010PropOp39
 70
     1
102
RTVSPost2010Prop40
 90
        0
102
RTVSPost2010PropOp40
 70
     1
102
RTVSPost2010Prop41ColorIndex
 90
       18
102
RTVSPost2010Prop41ColorRGB
 90
        0
102
RTVSPost2010PropOp41
 70
     1
102
RTVSPost2010Prop42
 90
       50
102
RTVSPost2010PropOp42
 70
     1
102
RTVSPost2010Prop43
 90
        3
102
RTVSPost2010PropOp43
 70
     1
102
RTVSPost2010Prop44ColorIndex
 90
        5
102
RTVSPost2010Prop44ColorRGB
 90
      255
102
RTVSPost2010PropOp44
 70
     1
102
RTVSPost2010Prop45
280
     0
102
RTVSPost2010PropOp45
 70
     1
102
RTVSPost2010Prop46
 90
       50
102
RTVSPost2010PropOp46
 70
     1
102
RTVSPost2010Prop47
 90
       50
102
RTVSPost2010PropOp47
 70
     1
102
RTVSPost2010Prop48
 90
       50
102
RTVSPost2010PropOp48
 70
     1
102
RTVSPost2010Prop49
280
     0
102
RTVSPost2010PropOp49
 70
     1
102
RTVSPost2010Prop50
 90
       50
102
RTVSPost2010PropOp50
 70
     1
102
RTVSPost2010Prop51ColorIndex
 90
      256
102
RTVSPost2010Prop51ColorRGB
 90
-16777216
102
RTVSPost2010PropOp51
 70
     0
102
RTVSPost2010Prop52
140
1.0
102
RTVSPost2010PropOp52
 70
     0
102
RTVSPost2010Prop53
 90
        2
102
RTVSPost2010PropOp53
 70
     1
102
RTVSPost2010Prop54
  1
strokes_ogs.tif
102
RTVSPost2010PropOp54
 70
     1
102
RTVSPost2010Prop55
280
     0
102
RTVSPost2010PropOp55
 70
     1
102
RTVSPost2010Prop56
140
1.0
102
RTVSPost2010PropOp56
 70
     1
102
RTVSPost2010Prop57
140
1.0
102
RTVSPost2010PropOp57
 70
     1
  0
XRECORD
  5
473
102
{ACAD_REACTORS
330
472
102
}
330
472
100
AcDbXrecord
280
     1
102
RTVSPropertyOp0
 70
     1
102
RTVSPropertyOp1
 70
     1
102
RTVSPropertyOp2
 70
     1
102
RTVSPropertyOp3
 70
     1
102
RTVSPropertyOp4
 70
     1
102
RTVSPropertyOp5
 70
     1
102
RTVSPropertyOp6
 70
     1
102
RTVSPropertyOp7
 70
     1
102
RTVSPropertyOp8
 70
     1
102
RTVSPropertyOp9
 70
     1
102
RTVSPropertyOp10
 70
     1
102
RTVSPropertyOp11
 70
     1
102
RTVSPropertyOp12
 70
     1
102
RTVSPropertyOp13
 70
     1
102
RTVSPropertyOp14
 70
     1
102
RTVSPropertyOp15
 70
     1
102
RTVSPropertyOp16
 70
     1
102
RTVSPropertyOp17
 70
     1
102
RTVSPropertyOp18
 70
     1
102
RTVSPropertyOp19
 70
     1
102
RTVSPropertyOp20
 70
     1
102
RTVSPropertyOp21
 70
     1
102
RTVSPropertyOp22
 70
     1
102
RTVSPropertyOp23
 70
     1
102
RTVSPropertyOp24
 70
     1
102
RTVSPropertyOp25
 70
     1
102
RTVSPropertyOp26
 70
     1
102
RTVSPropertyOp27
 70
     1
102
RTVSPropertyOp28
 70
     1
102
RTVSPropertyOp29
 70
     1
102
RTVSPropertyOp30
 70
     1
102
RTVSPropertyOp31
 70
     1
102
RTVSPropertyOp32
 70
     1
102
RTVSPropertyOp33
 70
     1
102
RTVSPropertyOp34
 70
     1
102
RTVSPropertyOp35
 70
     1
102
RTVSPropertyOp36
 70
     1
102
RTVSPropertyOp37
 70
     1
102
RTVSPropertyOp38
 70
     1
102
RTVSPropertyOp39
 70
     1
102
RTVSPropertyOp40
 70
     1
102
RTVSPropertyOp41
 70
     1
102
RTVSPropertyOp42
 70
     1
102
RTVSPropertyOp43
 70
     1
102
RTVSPropertyOp44
 70
     1
102
RTVSPropertyOp45
 70
     1
102
RTVSPropertyOp46
 70
     1
102
RTVSPropertyOp47
 70
     1
102
RTVSPropertyOp48
 70
     1
102
RTVSPropertyOp49
 70
     1
102
RTVSPropertyOp50
 70
     1
102
RTVSPropertyOp51
 70
     0
102
RTVSPropertyOp52
 70
     0
102
RTVSPropertyOp53
 70
     1
102
RTVSPropertyOp54
 70
     1
102
RTVSPropertyOp55
 70
     1
102
RTVSPropertyOp56
 70
     1
102
RTVSPropertyOp57
 70
     1
102
RTVSPost2010Prop28
280
     0
102
RTVSPost2010PropOp28
 70
     1
102
RTVSPost2010Prop29
280
     1
102
RTVSPost2010PropOp29
 70
     1
102
RTVSPost2010Prop30
280
     1
102
RTVSPost2010PropOp30
 70
     1
102
RTVSPost2010Prop31
280
     0
102
RTVSPost2010PropOp31
 70
     1
102
RTVSPost2010Prop32
280
     0
102
RTVSPost2010PropOp32
 70
     1
102
RTVSPost2010Prop33
280
     0
102
RTVSPost2010PropOp33
 70
     1
102
RTVSPost2010Prop34
280
     0
102
RTVSPost2010PropOp34
 70
     1
102
RTVSPost2010Prop35
280
     0
102
RTVSPost2010PropOp35
 70
     1
102
RTVSPost2010Prop36
280
     0
102
RTVSPost2010PropOp36
 70
     1
102
RTVSPost2010Prop37
 90
       50
102
RTVSPost2010PropOp37
 70
     1
102
RTVSPost2010Prop38
140
0.0
102
RTVSPost2010PropOp38
 70
     1
102
RTVSPost2010Prop39
140
1.0
102
RTVSPost2010PropOp39
 70
     1
102
RTVSPost2010Prop40
 90
        0
102
RTVSPost2010PropOp40
 70
     1
102
RTVSPost2010Prop41ColorIndex
 90
       18
102
RTVSPost2010Prop41ColorRGB
 90
        0
102
RTVSPost2010PropOp41
 70
     1
102
RTVSPost2010Prop42
 90
       50
102
RTVSPost2010PropOp42
 70
     1
102
RTVSPost2010Prop43
 90
        3
102
RTVSPost2010PropOp43
 70
     1
102
RTVSPost2010Prop44ColorIndex
 90
        5
102
RTVSPost2010Prop44ColorRGB
 90
      255
102
RTVSPost2010PropOp44
 70
     1
102
RTVSPost2010Prop45
280
     0
102
RTVSPost2010PropOp45
 70
     1
102
RTVSPost2010Prop46
 90
       50
102
RTVSPost2010PropOp46
 70
     1
102
RTVSPost2010Prop47
 90
       50
102
RTVSPost2010PropOp47
 70
     1
102
RTVSPost2010Prop48
 90
       50
102
RTVSPost2010PropOp48
 70
     1
102
RTVSPost2010Prop49
280
     0
102
RTVSPost2010PropOp49
 70
     1
102
RTVSPost2010Prop50
 90
       50
102
RTVSPost2010PropOp50
 70
     1
102
RTVSPost2010Prop51ColorIndex
 90
      256
102
RTVSPost2010Prop51ColorRGB
 90
-16777216
102
RTVSPost2010PropOp51
 70
     0
102
RTVSPost2010Prop52
140
1.0
102
RTVSPost2010PropOp52
 70
     0
102
RTVSPost2010Prop53
 90
        2
102
RTVSPost2010PropOp53
 70
     1
102
RTVSPost2010Prop54
  1
strokes_ogs.tif
102
RTVSPost2010PropOp54
 70
     1
102
RTVSPost2010Prop55
280
     0
102
RTVSPost2010PropOp55
 70
     1
102
RTVSPost2010Prop56
140
1.0
102
RTVSPost2010PropOp56
 70
     1
102
RTVSPost2010Prop57
140
1.0
102
RTVSPost2010PropOp57
 70
     1
  0
XRECORD
  5
475
102
{ACAD_REACTORS
330
474
102
}
330
474
100
AcDbXrecord
280
     1
102
RTVSPropertyOp0
 70
     1
102
RTVSPropertyOp1
 70
     1
102
RTVSPropertyOp2
 70
     1
102
RTVSPropertyOp3
 70
     1
102
RTVSPropertyOp4
 70
     1
102
RTVSPropertyOp5
 70
     1
102
RTVSPropertyOp6
 70
     1
102
RTVSPropertyOp7
 70
     1
102
RTVSPropertyOp8
 70
     1
102
RTVSPropertyOp9
 70
     1
102
RTVSPropertyOp10
 70
     1
102
RTVSPropertyOp11
 70
     1
102
RTVSPropertyOp12
 70
     1
102
RTVSPropertyOp13
 70
     1
102
RTVSPropertyOp14
 70
     1
102
RTVSPropertyOp15
 70
     1
102
RTVSPropertyOp16
 70
     1
102
RTVSPropertyOp17
 70
     1
102
RTVSPropertyOp18
 70
     1
102
RTVSPropertyOp19
 70
     1
102
RTVSPropertyOp20
 70
     1
102
RTVSPropertyOp21
 70
     1
102
RTVSPropertyOp22
 70
     1
102
RTVSPropertyOp23
 70
     1
102
RTVSPropertyOp24
 70
     1
102
RTVSPropertyOp25
 70
     1
102
RTVSPropertyOp26
 70
     1
102
RTVSPropertyOp27
 70
     1
102
RTVSPropertyOp28
 70
     1
102
RTVSPropertyOp29
 70
     1
102
RTVSPropertyOp30
 70
     1
102
RTVSPropertyOp31
 70
     1
102
RTVSPropertyOp32
 70
     1
102
RTVSPropertyOp33
 70
     1
102
RTVSPropertyOp34
 70
     1
102
RTVSPropertyOp35
 70
     1
102
RTVSPropertyOp36
 70
     1
102
RTVSPropertyOp37
 70
     1
102
RTVSPropertyOp38
 70
     1
102
RTVSPropertyOp39
 70
     1
102
RTVSPropertyOp40
 70
     1
102
RTVSPropertyOp41
 70
     1
102
RTVSPropertyOp42
 70
     1
102
RTVSPropertyOp43
 70
     1
102
RTVSPropertyOp44
 70
     1
102
RTVSPropertyOp45
 70
     1
102
RTVSPropertyOp46
 70
     1
102
RTVSPropertyOp47
 70
     1
102
RTVSPropertyOp48
 70
     1
102
RTVSPropertyOp49
 70
     1
102
RTVSPropertyOp50
 70
     1
102
RTVSPropertyOp51
 70
     0
102
RTVSPropertyOp52
 70
     0
102
RTVSPropertyOp53
 70
     1
102
RTVSPropertyOp54
 70
     1
102
RTVSPropertyOp55
 70
     1
102
RTVSPropertyOp56
 70
     1
102
RTVSPropertyOp57
 70
     1
102
RTVSPost2010Prop28
280
     0
102
RTVSPost2010PropOp28
 70
     1
102
RTVSPost2010Prop29
280
     1
102
RTVSPost2010PropOp29
 70
     1
102
RTVSPost2010Prop30
280
     1
102
RTVSPost2010PropOp30
 70
     1
102
RTVSPost2010Prop31
280
     0
102
RTVSPost2010PropOp31
 70
     1
102
RTVSPost2010Prop32
280
     0
102
RTVSPost2010PropOp32
 70
     1
102
RTVSPost2010Prop33
280
     0
102
RTVSPost2010PropOp33
 70
     1
102
RTVSPost2010Prop34
280
     0
102
RTVSPost2010PropOp34
 70
     1
102
RTVSPost2010Prop35
280
     0
102
RTVSPost2010PropOp35
 70
     1
102
RTVSPost2010Prop36
280
     0
102
RTVSPost2010PropOp36
 70
     1
102
RTVSPost2010Prop37
 90
       50
102
RTVSPost2010PropOp37
 70
     1
102
RTVSPost2010Prop38
140
0.0
102
RTVSPost2010PropOp38
 70
     1
102
RTVSPost2010Prop39
140
1.0
102
RTVSPost2010PropOp39
 70
     1
102
RTVSPost2010Prop40
 90
        0
102
RTVSPost2010PropOp40
 70
     1
102
RTVSPost2010Prop41ColorIndex
 90
       18
102
RTVSPost2010Prop41ColorRGB
 90
        0
102
RTVSPost2010PropOp41
 70
     1
102
RTVSPost2010Prop42
 90
       50
102
RTVSPost2010PropOp42
 70
     1
102
RTVSPost2010Prop43
 90
        3
102
RTVSPost2010PropOp43
 70
     1
102
RTVSPost2010Prop44ColorIndex
 90
        5
102
RTVSPost2010Prop44ColorRGB
 90
      255
102
RTVSPost2010PropOp44
 70
     1
102
RTVSPost2010Prop45
280
     0
102
RTVSPost2010PropOp45
 70
     1
102
RTVSPost2010Prop46
 90
       50
102
RTVSPost2010PropOp46
 70
     1
102
RTVSPost2010Prop47
 90
       50
102
RTVSPost2010PropOp47
 70
     1
102
RTVSPost2010Prop48
 90
       50
102
RTVSPost2010PropOp48
 70
     1
102
RTVSPost2010Prop49
280
     0
102
RTVSPost2010PropOp49
 70
     1
102
RTVSPost2010Prop50
 90
       50
102
RTVSPost2010PropOp50
 70
     1
102
RTVSPost2010Prop51ColorIndex
 90
      256
102
RTVSPost2010Prop51ColorRGB
 90
-16777216
102
RTVSPost2010PropOp51
 70
     0
102
RTVSPost2010Prop52
140
1.0
102
RTVSPost2010PropOp52
 70
     0
102
RTVSPost2010Prop53
 90
        2
102
RTVSPost2010PropOp53
 70
     1
102
RTVSPost2010Prop54
  1
strokes_ogs.tif
102
RTVSPost2010PropOp54
 70
     1
102
RTVSPost2010Prop55
280
     0
102
RTVSPost2010PropOp55
 70
     1
102
RTVSPost2010Prop56
140
1.0
102
RTVSPost2010PropOp56
 70
     1
102
RTVSPost2010Prop57
140
1.0
102
RTVSPost2010PropOp57
 70
     1
  0
XRECORD
  5
47B
102
{ACAD_REACTORS
330
47A
102
}
330
47A
100
AcDbXrecord
280
     1
102
RTVSPropertyOp0
 70
     1
102
RTVSPropertyOp1
 70
     1
102
RTVSPropertyOp2
 70
     1
102
RTVSPropertyOp3
 70
     1
102
RTVSPropertyOp4
 70
     1
102
RTVSPropertyOp5
 70
     1
102
RTVSPropertyOp6
 70
     1
102
RTVSPropertyOp7
 70
     1
102
RTVSPropertyOp8
 70
     1
102
RTVSPropertyOp9
 70
     1
102
RTVSPropertyOp10
 70
     1
102
RTVSPropertyOp11
 70
     1
102
RTVSPropertyOp12
 70
     1
102
RTVSPropertyOp13
 70
     1
102
RTVSPropertyOp14
 70
     1
102
RTVSPropertyOp15
 70
     1
102
RTVSPropertyOp16
 70
     1
102
RTVSPropertyOp17
 70
     1
102
RTVSPropertyOp18
 70
     1
102
RTVSPropertyOp19
 70
     1
102
RTVSPropertyOp20
 70
     1
102
RTVSPropertyOp21
 70
     1
102
RTVSPropertyOp22
 70
     1
102
RTVSPropertyOp23
 70
     1
102
RTVSPropertyOp24
 70
     1
102
RTVSPropertyOp25
 70
     1
102
RTVSPropertyOp26
 70
     1
102
RTVSPropertyOp27
 70
     1
102
RTVSPropertyOp28
 70
     1
102
RTVSPropertyOp29
 70
     1
102
RTVSPropertyOp30
 70
     1
102
RTVSPropertyOp31
 70
     1
102
RTVSPropertyOp32
 70
     1
102
RTVSPropertyOp33
 70
     1
102
RTVSPropertyOp34
 70
     1
102
RTVSPropertyOp35
 70
     1
102
RTVSPropertyOp36
 70
     1
102
RTVSPropertyOp37
 70
     1
102
RTVSPropertyOp38
 70
     1
102
RTVSPropertyOp39
 70
     1
102
RTVSPropertyOp40
 70
     1
102
RTVSPropertyOp41
 70
     1
102
RTVSPropertyOp42
 70
     1
102
RTVSPropertyOp43
 70
     1
102
RTVSPropertyOp44
 70
     1
102
RTVSPropertyOp45
 70
     1
102
RTVSPropertyOp46
 70
     1
102
RTVSPropertyOp47
 70
     1
102
RTVSPropertyOp48
 70
     1
102
RTVSPropertyOp49
 70
     1
102
RTVSPropertyOp50
 70
     1
102
RTVSPropertyOp51
 70
     0
102
RTVSPropertyOp52
 70
     0
102
RTVSPropertyOp53
 70
     1
102
RTVSPropertyOp54
 70
     1
102
RTVSPropertyOp55
 70
     1
102
RTVSPropertyOp56
 70
     1
102
RTVSPropertyOp57
 70
     1
102
RTVSPost2010Prop28
280
     0
102
RTVSPost2010PropOp28
 70
     1
102
RTVSPost2010Prop29
280
     1
102
RTVSPost2010PropOp29
 70
     1
102
RTVSPost2010Prop30
280
     1
102
RTVSPost2010PropOp30
 70
     1
102
RTVSPost2010Prop31
280
     0
102
RTVSPost2010PropOp31
 70
     1
102
RTVSPost2010Prop32
280
     0
102
RTVSPost2010PropOp32
 70
     1
102
RTVSPost2010Prop33
280
     0
102
RTVSPost2010PropOp33
 70
     1
102
RTVSPost2010Prop34
280
     0
102
RTVSPost2010PropOp34
 70
     1
102
RTVSPost2010Prop35
280
     0
102
RTVSPost2010PropOp35
 70
     1
102
RTVSPost2010Prop36
280
     0
102
RTVSPost2010PropOp36
 70
     1
102
RTVSPost2010Prop37
 90
       50
102
RTVSPost2010PropOp37
 70
     1
102
RTVSPost2010Prop38
140
0.0
102
RTVSPost2010PropOp38
 70
     1
102
RTVSPost2010Prop39
140
1.0
102
RTVSPost2010PropOp39
 70
     1
102
RTVSPost2010Prop40
 90
        0
102
RTVSPost2010PropOp40
 70
     1
102
RTVSPost2010Prop41ColorIndex
 90
       18
102
RTVSPost2010Prop41ColorRGB
 90
        0
102
RTVSPost2010PropOp41
 70
     1
102
RTVSPost2010Prop42
 90
       50
102
RTVSPost2010PropOp42
 70
     1
102
RTVSPost2010Prop43
 90
        3
102
RTVSPost2010PropOp43
 70
     1
102
RTVSPost2010Prop44ColorIndex
 90
        5
102
RTVSPost2010Prop44ColorRGB
 90
      255
102
RTVSPost2010PropOp44
 70
     1
102
RTVSPost2010Prop45
280
     0
102
RTVSPost2010PropOp45
 70
     1
102
RTVSPost2010Prop46
 90
       50
102
RTVSPost2010PropOp46
 70
     1
102
RTVSPost2010Prop47
 90
       50
102
RTVSPost2010PropOp47
 70
     1
102
RTVSPost2010Prop48
 90
       50
102
RTVSPost2010PropOp48
 70
     1
102
RTVSPost2010Prop49
280
     0
102
RTVSPost2010PropOp49
 70
     1
102
RTVSPost2010Prop50
 90
       50
102
RTVSPost2010PropOp50
 70
     1
102
RTVSPost2010Prop51ColorIndex
 90
      256
102
RTVSPost2010Prop51ColorRGB
 90
-16777216
102
RTVSPost2010PropOp51
 70
     0
102
RTVSPost2010Prop52
140
1.0
102
RTVSPost2010PropOp52
 70
     0
102
RTVSPost2010Prop53
 90
        2
102
RTVSPost2010PropOp53
 70
     1
102
RTVSPost2010Prop54
  1
strokes_ogs.tif
102
RTVSPost2010PropOp54
 70
     1
102
RTVSPost2010Prop55
280
     0
102
RTVSPost2010PropOp55
 70
     1
102
RTVSPost2010Prop56
140
1.0
102
RTVSPost2010PropOp56
 70
     1
102
RTVSPost2010Prop57
140
1.0
102
RTVSPost2010PropOp57
 70
     1
  0
XRECORD
  5
48F
102
{ACAD_REACTORS
330
48E
102
}
330
48E
100
AcDbXrecord
280
     1
102
RTVSPropertyOp0
 70
     0
102
RTVSPropertyOp1
 70
     0
102
RTVSPropertyOp2
 70
     0
102
RTVSPropertyOp3
 70
     0
102
RTVSPropertyOp4
 70
     0
102
RTVSPropertyOp5
 70
     0
102
RTVSPropertyOp6
 70
     0
102
RTVSPropertyOp7
 70
     0
102
RTVSPropertyOp8
 70
     0
102
RTVSPropertyOp9
 70
     0
102
RTVSPropertyOp10
 70
     0
102
RTVSPropertyOp11
 70
     0
102
RTVSPropertyOp12
 70
     0
102
RTVSPropertyOp13
 70
     0
102
RTVSPropertyOp14
 70
     2
102
RTVSPropertyOp15
 70
     0
102
RTVSPropertyOp16
 70
     0
102
RTVSPropertyOp17
 70
     0
102
RTVSPropertyOp18
 70
     0
102
RTVSPropertyOp19
 70
     0
102
RTVSPropertyOp20
 70
     0
102
RTVSPropertyOp21
 70
     0
102
RTVSPropertyOp22
 70
     0
102
RTVSPropertyOp23
 70
     0
102
RTVSPropertyOp24
 70
     0
102
RTVSPropertyOp25
 70
     0
102
RTVSPropertyOp26
 70
     0
102
RTVSPropertyOp27
 70
     0
102
RTVSPropertyOp28
 70
     0
102
RTVSPropertyOp29
 70
     0
102
RTVSPropertyOp30
 70
     0
102
RTVSPropertyOp31
 70
     0
102
RTVSPropertyOp32
 70
     0
102
RTVSPropertyOp33
 70
     0
102
RTVSPropertyOp34
 70
     0
102
RTVSPropertyOp35
 70
     0
102
RTVSPropertyOp36
 70
     0
102
RTVSPropertyOp37
 70
     0
102
RTVSPropertyOp38
 70
     0
102
RTVSPropertyOp39
 70
     0
102
RTVSPropertyOp40
 70
     0
102
RTVSPropertyOp41
 70
     0
102
RTVSPropertyOp42
 70
     0
102
RTVSPropertyOp43
 70
     0
102
RTVSPropertyOp44
 70
     0
102
RTVSPropertyOp45
 70
     0
102
RTVSPropertyOp46
 70
     0
102
RTVSPropertyOp47
 70
     0
102
RTVSPropertyOp48
 70
     0
102
RTVSPropertyOp49
 70
     0
102
RTVSPropertyOp50
 70
     0
102
RTVSPropertyOp51
 70
     0
102
RTVSPropertyOp52
 70
     0
102
RTVSPropertyOp53
 70
     0
102
RTVSPropertyOp54
 70
     0
102
RTVSPropertyOp55
 70
     0
102
RTVSPropertyOp56
 70
     0
102
RTVSPropertyOp57
 70
     0
102
RTVSPost2010Prop28
280
     0
102
RTVSPost2010PropOp28
 70
     0
102
RTVSPost2010Prop29
280
     1
102
RTVSPost2010PropOp29
 70
     0
102
RTVSPost2010Prop30
280
     1
102
RTVSPost2010PropOp30
 70
     0
102
RTVSPost2010Prop31
280
     0
102
RTVSPost2010PropOp31
 70
     0
102
RTVSPost2010Prop32
280
     0
102
RTVSPost2010PropOp32
 70
     0
102
RTVSPost2010Prop33
280
     0
102
RTVSPost2010PropOp33
 70
     0
102
RTVSPost2010Prop34
280
     0
102
RTVSPost2010PropOp34
 70
     0
102
RTVSPost2010Prop35
280
     0
102
RTVSPost2010PropOp35
 70
     0
102
RTVSPost2010Prop36
280
     0
102
RTVSPost2010PropOp36
 70
     0
102
RTVSPost2010Prop37
 90
       50
102
RTVSPost2010PropOp37
 70
     0
102
RTVSPost2010Prop38
140
0.0
102
RTVSPost2010PropOp38
 70
     0
102
RTVSPost2010Prop39
140
1.0
102
RTVSPost2010PropOp39
 70
     0
102
RTVSPost2010Prop40
 90
        0
102
RTVSPost2010PropOp40
 70
     0
102
RTVSPost2010Prop41ColorIndex
 90
       18
102
RTVSPost2010Prop41ColorRGB
 90
        0
102
RTVSPost2010PropOp41
 70
     0
102
RTVSPost2010Prop42
 90
       50
102
RTVSPost2010PropOp42
 70
     0
102
RTVSPost2010Prop43
 90
        3
102
RTVSPost2010PropOp43
 70
     0
102
RTVSPost2010Prop44ColorIndex
 90
        5
102
RTVSPost2010Prop44ColorRGB
 90
      255
102
RTVSPost2010PropOp44
 70
     0
102
RTVSPost2010Prop45
280
     0
102
RTVSPost2010PropOp45
 70
     0
102
RTVSPost2010Prop46
 90
       50
102
RTVSPost2010PropOp46
 70
     0
102
RTVSPost2010Prop47
 90
       50
102
RTVSPost2010PropOp47
 70
     0
102
RTVSPost2010Prop48
 90
       50
102
RTVSPost2010PropOp48
 70
     0
102
RTVSPost2010Prop49
280
     0
102
RTVSPost2010PropOp49
 70
     0
102
RTVSPost2010Prop50
 90
       50
102
RTVSPost2010PropOp50
 70
     0
102
RTVSPost2010Prop51ColorIndex
 90
      256
102
RTVSPost2010Prop51ColorRGB
 90
-16777216
102
RTVSPost2010PropOp51
 70
     0
102
RTVSPost2010Prop52
140
1.0
102
RTVSPost2010PropOp52
 70
     0
102
RTVSPost2010Prop53
 90
        2
102
RTVSPost2010PropOp53
 70
     0
102
RTVSPost2010Prop54
  1
strokes_ogs.tif
102
RTVSPost2010PropOp54
 70
     0
102
RTVSPost2010Prop55
280
     0
102
RTVSPost2010PropOp55
 70
     0
102
RTVSPost2010Prop56
140
1.0
102
RTVSPost2010PropOp56
 70
     0
102
RTVSPost2010Prop57
140
1.0
102
RTVSPost2010PropOp57
 70
     0
  0
XRECORD
  5
489
102
{ACAD_REACTORS
330
488
102
}
330
488
100
AcDbXrecord
280
     1
102
RTVSPropertyOp0
 70
     1
102
RTVSPropertyOp1
 70
     1
102
RTVSPropertyOp2
 70
     1
102
RTVSPropertyOp3
 70
     1
102
RTVSPropertyOp4
 70
     1
102
RTVSPropertyOp5
 70
     1
102
RTVSPropertyOp6
 70
     1
102
RTVSPropertyOp7
 70
     1
102
RTVSPropertyOp8
 70
     1
102
RTVSPropertyOp9
 70
     1
102
RTVSPropertyOp10
 70
     1
102
RTVSPropertyOp11
 70
     1
102
RTVSPropertyOp12
 70
     1
102
RTVSPropertyOp13
 70
     1
102
RTVSPropertyOp14
 70
     1
102
RTVSPropertyOp15
 70
     1
102
RTVSPropertyOp16
 70
     1
102
RTVSPropertyOp17
 70
     1
102
RTVSPropertyOp18
 70
     1
102
RTVSPropertyOp19
 70
     1
102
RTVSPropertyOp20
 70
     1
102
RTVSPropertyOp21
 70
     1
102
RTVSPropertyOp22
 70
     1
102
RTVSPropertyOp23
 70
     1
102
RTVSPropertyOp24
 70
     1
102
RTVSPropertyOp25
 70
     1
102
RTVSPropertyOp26
 70
     1
102
RTVSPropertyOp27
 70
     1
102
RTVSPropertyOp28
 70
     1
102
RTVSPropertyOp29
 70
     1
102
RTVSPropertyOp30
 70
     1
102
RTVSPropertyOp31
 70
     1
102
RTVSPropertyOp32
 70
     1
102
RTVSPropertyOp33
 70
     1
102
RTVSPropertyOp34
 70
     1
102
RTVSPropertyOp35
 70
     1
102
RTVSPropertyOp36
 70
     1
102
RTVSPropertyOp37
 70
     1
102
RTVSPropertyOp38
 70
     1
102
RTVSPropertyOp39
 70
     1
102
RTVSPropertyOp40
 70
     1
102
RTVSPropertyOp41
 70
     1
102
RTVSPropertyOp42
 70
     1
102
RTVSPropertyOp43
 70
     1
102
RTVSPropertyOp44
 70
     1
102
RTVSPropertyOp45
 70
     1
102
RTVSPropertyOp46
 70
     1
102
RTVSPropertyOp47
 70
     1
102
RTVSPropertyOp48
 70
     1
102
RTVSPropertyOp49
 70
     1
102
RTVSPropertyOp50
 70
     1
102
RTVSPropertyOp51
 70
     0
102
RTVSPropertyOp52
 70
     0
102
RTVSPropertyOp53
 70
     1
102
RTVSPropertyOp54
 70
     1
102
RTVSPropertyOp55
 70
     1
102
RTVSPropertyOp56
 70
     1
102
RTVSPropertyOp57
 70
     1
102
RTVSPost2010Prop28
280
     0
102
RTVSPost2010PropOp28
 70
     1
102
RTVSPost2010Prop29
280
     1
102
RTVSPost2010PropOp29
 70
     1
102
RTVSPost2010Prop30
280
     1
102
RTVSPost2010PropOp30
 70
     1
102
RTVSPost2010Prop31
280
     0
102
RTVSPost2010PropOp31
 70
     1
102
RTVSPost2010Prop32
280
     0
102
RTVSPost2010PropOp32
 70
     1
102
RTVSPost2010Prop33
280
     0
102
RTVSPost2010PropOp33
 70
     1
102
RTVSPost2010Prop34
280
     0
102
RTVSPost2010PropOp34
 70
     1
102
RTVSPost2010Prop35
280
     0
102
RTVSPost2010PropOp35
 70
     1
102
RTVSPost2010Prop36
280
     0
102
RTVSPost2010PropOp36
 70
     1
102
RTVSPost2010Prop37
 90
       50
102
RTVSPost2010PropOp37
 70
     1
102
RTVSPost2010Prop38
140
0.0
102
RTVSPost2010PropOp38
 70
     1
102
RTVSPost2010Prop39
140
1.0
102
RTVSPost2010PropOp39
 70
     1
102
RTVSPost2010Prop40
 90
        0
102
RTVSPost2010PropOp40
 70
     1
102
RTVSPost2010Prop41ColorIndex
 90
       18
102
RTVSPost2010Prop41ColorRGB
 90
        0
102
RTVSPost2010PropOp41
 70
     1
102
RTVSPost2010Prop42
 90
       50
102
RTVSPost2010PropOp42
 70
     1
102
RTVSPost2010Prop43
 90
        3
102
RTVSPost2010PropOp43
 70
     1
102
RTVSPost2010Prop44ColorIndex
 90
        5
102
RTVSPost2010Prop44ColorRGB
 90
      255
102
RTVSPost2010PropOp44
 70
     1
102
RTVSPost2010Prop45
280
     0
102
RTVSPost2010PropOp45
 70
     1
102
RTVSPost2010Prop46
 90
       50
102
RTVSPost2010PropOp46
 70
     1
102
RTVSPost2010Prop47
 90
       50
102
RTVSPost2010PropOp47
 70
     1
102
RTVSPost2010Prop48
 90
       50
102
RTVSPost2010PropOp48
 70
     1
102
RTVSPost2010Prop49
280
     0
102
RTVSPost2010PropOp49
 70
     1
102
RTVSPost2010Prop50
 90
       50
102
RTVSPost2010PropOp50
 70
     1
102
RTVSPost2010Prop51ColorIndex
 90
      256
102
RTVSPost2010Prop51ColorRGB
 90
-16777216
102
RTVSPost2010PropOp51
 70
     0
102
RTVSPost2010Prop52
140
1.0
102
RTVSPost2010PropOp52
 70
     0
102
RTVSPost2010Prop53
 90
        2
102
RTVSPost2010PropOp53
 70
     1
102
RTVSPost2010Prop54
  1
strokes_ogs.tif
102
RTVSPost2010PropOp54
 70
     1
102
RTVSPost2010Prop55
280
     0
102
RTVSPost2010PropOp55
 70
     1
102
RTVSPost2010Prop56
140
1.0
102
RTVSPost2010PropOp56
 70
     1
102
RTVSPost2010Prop57
140
1.0
102
RTVSPost2010PropOp57
 70
     1
  0
XRECORD
  5
491
102
{ACAD_REACTORS
330
490
102
}
330
490
100
AcDbXrecord
280
     1
102
RTVSPropertyOp0
 70
     0
102
RTVSPropertyOp1
 70
     0
102
RTVSPropertyOp2
 70
     0
102
RTVSPropertyOp3
 70
     0
102
RTVSPropertyOp4
 70
     0
102
RTVSPropertyOp5
 70
     0
102
RTVSPropertyOp6
 70
     0
102
RTVSPropertyOp7
 70
     0
102
RTVSPropertyOp8
 70
     0
102
RTVSPropertyOp9
 70
     0
102
RTVSPropertyOp10
 70
     0
102
RTVSPropertyOp11
 70
     0
102
RTVSPropertyOp12
 70
     0
102
RTVSPropertyOp13
 70
     0
102
RTVSPropertyOp14
 70
     2
102
RTVSPropertyOp15
 70
     0
102
RTVSPropertyOp16
 70
     0
102
RTVSPropertyOp17
 70
     0
102
RTVSPropertyOp18
 70
     0
102
RTVSPropertyOp19
 70
     0
102
RTVSPropertyOp20
 70
     0
102
RTVSPropertyOp21
 70
     0
102
RTVSPropertyOp22
 70
     0
102
RTVSPropertyOp23
 70
     0
102
RTVSPropertyOp24
 70
     0
102
RTVSPropertyOp25
 70
     0
102
RTVSPropertyOp26
 70
     0
102
RTVSPropertyOp27
 70
     0
102
RTVSPropertyOp28
 70
     0
102
RTVSPropertyOp29
 70
     0
102
RTVSPropertyOp30
 70
     0
102
RTVSPropertyOp31
 70
     0
102
RTVSPropertyOp32
 70
     0
102
RTVSPropertyOp33
 70
     0
102
RTVSPropertyOp34
 70
     0
102
RTVSPropertyOp35
 70
     0
102
RTVSPropertyOp36
 70
     0
102
RTVSPropertyOp37
 70
     0
102
RTVSPropertyOp38
 70
     0
102
RTVSPropertyOp39
 70
     0
102
RTVSPropertyOp40
 70
     0
102
RTVSPropertyOp41
 70
     0
102
RTVSPropertyOp42
 70
     0
102
RTVSPropertyOp43
 70
     0
102
RTVSPropertyOp44
 70
     0
102
RTVSPropertyOp45
 70
     0
102
RTVSPropertyOp46
 70
     0
102
RTVSPropertyOp47
 70
     0
102
RTVSPropertyOp48
 70
     0
102
RTVSPropertyOp49
 70
     0
102
RTVSPropertyOp50
 70
     0
102
RTVSPropertyOp51
 70
     0
102
RTVSPropertyOp52
 70
     0
102
RTVSPropertyOp53
 70
     0
102
RTVSPropertyOp54
 70
     0
102
RTVSPropertyOp55
 70
     0
102
RTVSPropertyOp56
 70
     0
102
RTVSPropertyOp57
 70
     0
102
RTVSPost2010Prop28
280
     0
102
RTVSPost2010PropOp28
 70
     0
102
RTVSPost2010Prop29
280
     1
102
RTVSPost2010PropOp29
 70
     0
102
RTVSPost2010Prop30
280
     1
102
RTVSPost2010PropOp30
 70
     0
102
RTVSPost2010Prop31
280
     0
102
RTVSPost2010PropOp31
 70
     0
102
RTVSPost2010Prop32
280
     0
102
RTVSPost2010PropOp32
 70
     0
102
RTVSPost2010Prop33
280
     0
102
RTVSPost2010PropOp33
 70
     0
102
RTVSPost2010Prop34
280
     0
102
RTVSPost2010PropOp34
 70
     0
102
RTVSPost2010Prop35
280
     0
102
RTVSPost2010PropOp35
 70
     0
102
RTVSPost2010Prop36
280
     0
102
RTVSPost2010PropOp36
 70
     0
102
RTVSPost2010Prop37
 90
       50
102
RTVSPost2010PropOp37
 70
     0
102
RTVSPost2010Prop38
140
0.0
102
RTVSPost2010PropOp38
 70
     0
102
RTVSPost2010Prop39
140
1.0
102
RTVSPost2010PropOp39
 70
     0
102
RTVSPost2010Prop40
 90
        0
102
RTVSPost2010PropOp40
 70
     0
102
RTVSPost2010Prop41ColorIndex
 90
       18
102
RTVSPost2010Prop41ColorRGB
 90
        0
102
RTVSPost2010PropOp41
 70
     0
102
RTVSPost2010Prop42
 90
       50
102
RTVSPost2010PropOp42
 70
     0
102
RTVSPost2010Prop43
 90
        3
102
RTVSPost2010PropOp43
 70
     0
102
RTVSPost2010Prop44ColorIndex
 90
        5
102
RTVSPost2010Prop44ColorRGB
 90
      255
102
RTVSPost2010PropOp44
 70
     0
102
RTVSPost2010Prop45
280
     0
102
RTVSPost2010PropOp45
 70
     0
102
RTVSPost2010Prop46
 90
       50
102
RTVSPost2010PropOp46
 70
     0
102
RTVSPost2010Prop47
 90
       50
102
RTVSPost2010PropOp47
 70
     0
102
RTVSPost2010Prop48
 90
       50
102
RTVSPost2010PropOp48
 70
     0
102
RTVSPost2010Prop49
280
     0
102
RTVSPost2010PropOp49
 70
     0
102
RTVSPost2010Prop50
 90
       50
102
RTVSPost2010PropOp50
 70
     0
102
RTVSPost2010Prop51ColorIndex
 90
      256
102
RTVSPost2010Prop51ColorRGB
 90
-16777216
102
RTVSPost2010PropOp51
 70
     0
102
RTVSPost2010Prop52
140
1.0
102
RTVSPost2010PropOp52
 70
     0
102
RTVSPost2010Prop53
 90
        2
102
RTVSPost2010PropOp53
 70
     0
102
RTVSPost2010Prop54
  1
strokes_ogs.tif
102
RTVSPost2010PropOp54
 70
     0
102
RTVSPost2010Prop55
280
     0
102
RTVSPost2010PropOp55
 70
     0
102
RTVSPost2010Prop56
140
1.0
102
RTVSPost2010PropOp56
 70
     0
102
RTVSPost2010Prop57
140
1.0
102
RTVSPost2010PropOp57
 70
     0
  0
XRECORD
  5
47F
102
{ACAD_REACTORS
330
47E
102
}
330
47E
100
AcDbXrecord
280
     1
102
RTVSPropertyOp0
 70
     1
102
RTVSPropertyOp1
 70
     1
102
RTVSPropertyOp2
 70
     1
102
RTVSPropertyOp3
 70
     1
102
RTVSPropertyOp4
 70
     1
102
RTVSPropertyOp5
 70
     1
102
RTVSPropertyOp6
 70
     1
102
RTVSPropertyOp7
 70
     1
102
RTVSPropertyOp8
 70
     1
102
RTVSPropertyOp9
 70
     1
102
RTVSPropertyOp10
 70
     1
102
RTVSPropertyOp11
 70
     1
102
RTVSPropertyOp12
 70
     1
102
RTVSPropertyOp13
 70
     1
102
RTVSPropertyOp14
 70
     1
102
RTVSPropertyOp15
 70
     1
102
RTVSPropertyOp16
 70
     1
102
RTVSPropertyOp17
 70
     1
102
RTVSPropertyOp18
 70
     1
102
RTVSPropertyOp19
 70
     1
102
RTVSPropertyOp20
 70
     1
102
RTVSPropertyOp21
 70
     1
102
RTVSPropertyOp22
 70
     1
102
RTVSPropertyOp23
 70
     1
102
RTVSPropertyOp24
 70
     1
102
RTVSPropertyOp25
 70
     1
102
RTVSPropertyOp26
 70
     1
102
RTVSPropertyOp27
 70
     1
102
RTVSPropertyOp28
 70
     1
102
RTVSPropertyOp29
 70
     1
102
RTVSPropertyOp30
 70
     1
102
RTVSPropertyOp31
 70
     1
102
RTVSPropertyOp32
 70
     1
102
RTVSPropertyOp33
 70
     1
102
RTVSPropertyOp34
 70
     1
102
RTVSPropertyOp35
 70
     1
102
RTVSPropertyOp36
 70
     1
102
RTVSPropertyOp37
 70
     1
102
RTVSPropertyOp38
 70
     1
102
RTVSPropertyOp39
 70
     1
102
RTVSPropertyOp40
 70
     1
102
RTVSPropertyOp41
 70
     1
102
RTVSPropertyOp42
 70
     1
102
RTVSPropertyOp43
 70
     1
102
RTVSPropertyOp44
 70
     1
102
RTVSPropertyOp45
 70
     1
102
RTVSPropertyOp46
 70
     1
102
RTVSPropertyOp47
 70
     1
102
RTVSPropertyOp48
 70
     1
102
RTVSPropertyOp49
 70
     1
102
RTVSPropertyOp50
 70
     1
102
RTVSPropertyOp51
 70
     0
102
RTVSPropertyOp52
 70
     0
102
RTVSPropertyOp53
 70
     1
102
RTVSPropertyOp54
 70
     1
102
RTVSPropertyOp55
 70
     1
102
RTVSPropertyOp56
 70
     1
102
RTVSPropertyOp57
 70
     1
102
RTVSPost2010Prop28
280
     0
102
RTVSPost2010PropOp28
 70
     1
102
RTVSPost2010Prop29
280
     1
102
RTVSPost2010PropOp29
 70
     1
102
RTVSPost2010Prop30
280
     1
102
RTVSPost2010PropOp30
 70
     1
102
RTVSPost2010Prop31
280
     0
102
RTVSPost2010PropOp31
 70
     1
102
RTVSPost2010Prop32
280
     0
102
RTVSPost2010PropOp32
 70
     1
102
RTVSPost2010Prop33
280
     0
102
RTVSPost2010PropOp33
 70
     1
102
RTVSPost2010Prop34
280
     0
102
RTVSPost2010PropOp34
 70
     1
102
RTVSPost2010Prop35
280
     0
102
RTVSPost2010PropOp35
 70
     1
102
RTVSPost2010Prop36
280
     0
102
RTVSPost2010PropOp36
 70
     1
102
RTVSPost2010Prop37
 90
       50
102
RTVSPost2010PropOp37
 70
     1
102
RTVSPost2010Prop38
140
0.0
102
RTVSPost2010PropOp38
 70
     1
102
RTVSPost2010Prop39
140
1.0
102
RTVSPost2010PropOp39
 70
     1
102
RTVSPost2010Prop40
 90
        0
102
RTVSPost2010PropOp40
 70
     1
102
RTVSPost2010Prop41ColorIndex
 90
       18
102
RTVSPost2010Prop41ColorRGB
 90
        0
102
RTVSPost2010PropOp41
 70
     1
102
RTVSPost2010Prop42
 90
       50
102
RTVSPost2010PropOp42
 70
     1
102
RTVSPost2010Prop43
 90
        3
102
RTVSPost2010PropOp43
 70
     1
102
RTVSPost2010Prop44ColorIndex
 90
        5
102
RTVSPost2010Prop44ColorRGB
 90
      255
102
RTVSPost2010PropOp44
 70
     1
102
RTVSPost2010Prop45
280
     0
102
RTVSPost2010PropOp45
 70
     1
102
RTVSPost2010Prop46
 90
       50
102
RTVSPost2010PropOp46
 70
     1
102
RTVSPost2010Prop47
 90
       50
102
RTVSPost2010PropOp47
 70
     1
102
RTVSPost2010Prop48
 90
       50
102
RTVSPost2010PropOp48
 70
     1
102
RTVSPost2010Prop49
280
     0
102
RTVSPost2010PropOp49
 70
     1
102
RTVSPost2010Prop50
 90
       50
102
RTVSPost2010PropOp50
 70
     1
102
RTVSPost2010Prop51ColorIndex
 90
      256
102
RTVSPost2010Prop51ColorRGB
 90
-16777216
102
RTVSPost2010PropOp51
 70
     0
102
RTVSPost2010Prop52
140
1.0
102
RTVSPost2010PropOp52
 70
     0
102
RTVSPost2010Prop53
 90
        2
102
RTVSPost2010PropOp53
 70
     1
102
RTVSPost2010Prop54
  1
strokes_ogs.tif
102
RTVSPost2010PropOp54
 70
     1
102
RTVSPost2010Prop55
280
     0
102
RTVSPost2010PropOp55
 70
     1
102
RTVSPost2010Prop56
140
1.0
102
RTVSPost2010PropOp56
 70
     1
102
RTVSPost2010Prop57
140
1.0
102
RTVSPost2010PropOp57
 70
     1
  0
XRECORD
  5
49D
102
{ACAD_REACTORS
330
49C
102
}
330
49C
100
AcDbXrecord
280
     1
102
RTVSPropertyOp0
 70
     1
102
RTVSPropertyOp1
 70
     1
102
RTVSPropertyOp2
 70
     1
102
RTVSPropertyOp3
 70
     1
102
RTVSPropertyOp4
 70
     1
102
RTVSPropertyOp5
 70
     1
102
RTVSPropertyOp6
 70
     1
102
RTVSPropertyOp7
 70
     1
102
RTVSPropertyOp8
 70
     1
102
RTVSPropertyOp9
 70
     1
102
RTVSPropertyOp10
 70
     1
102
RTVSPropertyOp11
 70
     1
102
RTVSPropertyOp12
 70
     1
102
RTVSPropertyOp13
 70
     1
102
RTVSPropertyOp14
 70
     1
102
RTVSPropertyOp15
 70
     1
102
RTVSPropertyOp16
 70
     1
102
RTVSPropertyOp17
 70
     1
102
RTVSPropertyOp18
 70
     1
102
RTVSPropertyOp19
 70
     1
102
RTVSPropertyOp20
 70
     1
102
RTVSPropertyOp21
 70
     1
102
RTVSPropertyOp22
 70
     1
102
RTVSPropertyOp23
 70
     1
102
RTVSPropertyOp24
 70
     1
102
RTVSPropertyOp25
 70
     1
102
RTVSPropertyOp26
 70
     1
102
RTVSPropertyOp27
 70
     1
102
RTVSPropertyOp28
 70
     1
102
RTVSPropertyOp29
 70
     1
102
RTVSPropertyOp30
 70
     1
102
RTVSPropertyOp31
 70
     1
102
RTVSPropertyOp32
 70
     1
102
RTVSPropertyOp33
 70
     1
102
RTVSPropertyOp34
 70
     1
102
RTVSPropertyOp35
 70
     1
102
RTVSPropertyOp36
 70
     1
102
RTVSPropertyOp37
 70
     1
102
RTVSPropertyOp38
 70
     1
102
RTVSPropertyOp39
 70
     1
102
RTVSPropertyOp40
 70
     1
102
RTVSPropertyOp41
 70
     1
102
RTVSPropertyOp42
 70
     1
102
RTVSPropertyOp43
 70
     1
102
RTVSPropertyOp44
 70
     1
102
RTVSPropertyOp45
 70
     1
102
RTVSPropertyOp46
 70
     1
102
RTVSPropertyOp47
 70
     1
102
RTVSPropertyOp48
 70
     1
102
RTVSPropertyOp49
 70
     1
102
RTVSPropertyOp50
 70
     1
102
RTVSPropertyOp51
 70
     0
102
RTVSPropertyOp52
 70
     0
102
RTVSPropertyOp53
 70
     1
102
RTVSPropertyOp54
 70
     1
102
RTVSPropertyOp55
 70
     1
102
RTVSPropertyOp56
 70
     1
102
RTVSPropertyOp57
 70
     1
102
RTVSPost2010Prop28
280
     0
102
RTVSPost2010PropOp28
 70
     1
102
RTVSPost2010Prop29
280
     1
102
RTVSPost2010PropOp29
 70
     1
102
RTVSPost2010Prop30
280
     1
102
RTVSPost2010PropOp30
 70
     1
102
RTVSPost2010Prop31
280
     0
102
RTVSPost2010PropOp31
 70
     1
102
RTVSPost2010Prop32
280
     0
102
RTVSPost2010PropOp32
 70
     1
102
RTVSPost2010Prop33
280
     0
102
RTVSPost2010PropOp33
 70
     1
102
RTVSPost2010Prop34
280
     0
102
RTVSPost2010PropOp34
 70
     1
102
RTVSPost2010Prop35
280
     0
102
RTVSPost2010PropOp35
 70
     1
102
RTVSPost2010Prop36
280
     0
102
RTVSPost2010PropOp36
 70
     1
102
RTVSPost2010Prop37
 90
       50
102
RTVSPost2010PropOp37
 70
     1
102
RTVSPost2010Prop38
140
0.0
102
RTVSPost2010PropOp38
 70
     1
102
RTVSPost2010Prop39
140
1.0
102
RTVSPost2010PropOp39
 70
     1
102
RTVSPost2010Prop40
 90
        0
102
RTVSPost2010PropOp40
 70
     1
102
RTVSPost2010Prop41ColorIndex
 90
       18
102
RTVSPost2010Prop41ColorRGB
 90
        0
102
RTVSPost2010PropOp41
 70
     1
102
RTVSPost2010Prop42
 90
       50
102
RTVSPost2010PropOp42
 70
     1
102
RTVSPost2010Prop43
 90
        3
102
RTVSPost2010PropOp43
 70
     1
102
RTVSPost2010Prop44ColorIndex
 90
        5
102
RTVSPost2010Prop44ColorRGB
 90
      255
102
RTVSPost2010PropOp44
 70
     1
102
RTVSPost2010Prop45
280
     0
102
RTVSPost2010PropOp45
 70
     1
102
RTVSPost2010Prop46
 90
       50
102
RTVSPost2010PropOp46
 70
     1
102
RTVSPost2010Prop47
 90
       50
102
RTVSPost2010PropOp47
 70
     1
102
RTVSPost2010Prop48
 90
       50
102
RTVSPost2010PropOp48
 70
     1
102
RTVSPost2010Prop49
280
     0
102
RTVSPost2010PropOp49
 70
     1
102
RTVSPost2010Prop50
 90
       50
102
RTVSPost2010PropOp50
 70
     1
102
RTVSPost2010Prop51ColorIndex
 90
      256
102
RTVSPost2010Prop51ColorRGB
 90
-16777216
102
RTVSPost2010PropOp51
 70
     0
102
RTVSPost2010Prop52
140
1.0
102
RTVSPost2010PropOp52
 70
     0
102
RTVSPost2010Prop53
 90
        2
102
RTVSPost2010PropOp53
 70
     1
102
RTVSPost2010Prop54
  1
strokes_ogs.tif
102
RTVSPost2010PropOp54
 70
     1
102
RTVSPost2010Prop55
280
     0
102
RTVSPost2010PropOp55
 70
     1
102
RTVSPost2010Prop56
140
1.0
102
RTVSPost2010PropOp56
 70
     1
102
RTVSPost2010Prop57
140
1.0
102
RTVSPost2010PropOp57
 70
     1
  0
XRECORD
  5
49B
102
{ACAD_REACTORS
330
49A
102
}
330
49A
100
AcDbXrecord
280
     1
102
RTVSPropertyOp0
 70
     1
102
RTVSPropertyOp1
 70
     1
102
RTVSPropertyOp2
 70
     1
102
RTVSPropertyOp3
 70
     1
102
RTVSPropertyOp4
 70
     1
102
RTVSPropertyOp5
 70
     1
102
RTVSPropertyOp6
 70
     1
102
RTVSPropertyOp7
 70
     1
102
RTVSPropertyOp8
 70
     1
102
RTVSPropertyOp9
 70
     1
102
RTVSPropertyOp10
 70
     1
102
RTVSPropertyOp11
 70
     1
102
RTVSPropertyOp12
 70
     1
102
RTVSPropertyOp13
 70
     1
102
RTVSPropertyOp14
 70
     1
102
RTVSPropertyOp15
 70
     1
102
RTVSPropertyOp16
 70
     1
102
RTVSPropertyOp17
 70
     1
102
RTVSPropertyOp18
 70
     1
102
RTVSPropertyOp19
 70
     1
102
RTVSPropertyOp20
 70
     1
102
RTVSPropertyOp21
 70
     1
102
RTVSPropertyOp22
 70
     1
102
RTVSPropertyOp23
 70
     1
102
RTVSPropertyOp24
 70
     1
102
RTVSPropertyOp25
 70
     1
102
RTVSPropertyOp26
 70
     1
102
RTVSPropertyOp27
 70
     1
102
RTVSPropertyOp28
 70
     1
102
RTVSPropertyOp29
 70
     1
102
RTVSPropertyOp30
 70
     1
102
RTVSPropertyOp31
 70
     1
102
RTVSPropertyOp32
 70
     1
102
RTVSPropertyOp33
 70
     1
102
RTVSPropertyOp34
 70
     1
102
RTVSPropertyOp35
 70
     1
102
RTVSPropertyOp36
 70
     1
102
RTVSPropertyOp37
 70
     1
102
RTVSPropertyOp38
 70
     1
102
RTVSPropertyOp39
 70
     1
102
RTVSPropertyOp40
 70
     1
102
RTVSPropertyOp41
 70
     1
102
RTVSPropertyOp42
 70
     1
102
RTVSPropertyOp43
 70
     1
102
RTVSPropertyOp44
 70
     1
102
RTVSPropertyOp45
 70
     1
102
RTVSPropertyOp46
 70
     1
102
RTVSPropertyOp47
 70
     1
102
RTVSPropertyOp48
 70
     1
102
RTVSPropertyOp49
 70
     1
102
RTVSPropertyOp50
 70
     1
102
RTVSPropertyOp51
 70
     0
102
RTVSPropertyOp52
 70
     0
102
RTVSPropertyOp53
 70
     1
102
RTVSPropertyOp54
 70
     1
102
RTVSPropertyOp55
 70
     1
102
RTVSPropertyOp56
 70
     1
102
RTVSPropertyOp57
 70
     1
102
RTVSPost2010Prop28
280
     0
102
RTVSPost2010PropOp28
 70
     1
102
RTVSPost2010Prop29
280
     1
102
RTVSPost2010PropOp29
 70
     1
102
RTVSPost2010Prop30
280
     1
102
RTVSPost2010PropOp30
 70
     1
102
RTVSPost2010Prop31
280
     0
102
RTVSPost2010PropOp31
 70
     1
102
RTVSPost2010Prop32
280
     0
102
RTVSPost2010PropOp32
 70
     1
102
RTVSPost2010Prop33
280
     0
102
RTVSPost2010PropOp33
 70
     1
102
RTVSPost2010Prop34
280
     0
102
RTVSPost2010PropOp34
 70
     1
102
RTVSPost2010Prop35
280
     0
102
RTVSPost2010PropOp35
 70
     1
102
RTVSPost2010Prop36
280
     0
102
RTVSPost2010PropOp36
 70
     1
102
RTVSPost2010Prop37
 90
       50
102
RTVSPost2010PropOp37
 70
     1
102
RTVSPost2010Prop38
140
0.0
102
RTVSPost2010PropOp38
 70
     1
102
RTVSPost2010Prop39
140
1.0
102
RTVSPost2010PropOp39
 70
     1
102
RTVSPost2010Prop40
 90
        0
102
RTVSPost2010PropOp40
 70
     1
102
RTVSPost2010Prop41ColorIndex
 90
       18
102
RTVSPost2010Prop41ColorRGB
 90
        0
102
RTVSPost2010PropOp41
 70
     1
102
RTVSPost2010Prop42
 90
       50
102
RTVSPost2010PropOp42
 70
     1
102
RTVSPost2010Prop43
 90
        3
102
RTVSPost2010PropOp43
 70
     1
102
RTVSPost2010Prop44ColorIndex
 90
        5
102
RTVSPost2010Prop44ColorRGB
 90
      255
102
RTVSPost2010PropOp44
 70
     1
102
RTVSPost2010Prop45
280
     0
102
RTVSPost2010PropOp45
 70
     1
102
RTVSPost2010Prop46
 90
       50
102
RTVSPost2010PropOp46
 70
     1
102
RTVSPost2010Prop47
 90
       50
102
RTVSPost2010PropOp47
 70
     1
102
RTVSPost2010Prop48
 90
       50
102
RTVSPost2010PropOp48
 70
     1
102
RTVSPost2010Prop49
280
     0
102
RTVSPost2010PropOp49
 70
     1
102
RTVSPost2010Prop50
 90
       50
102
RTVSPost2010PropOp50
 70
     1
102
RTVSPost2010Prop51ColorIndex
 90
      256
102
RTVSPost2010Prop51ColorRGB
 90
-16777216
102
RTVSPost2010PropOp51
 70
     0
102
RTVSPost2010Prop52
140
1.0
102
RTVSPost2010PropOp52
 70
     0
102
RTVSPost2010Prop53
 90
        2
102
RTVSPost2010PropOp53
 70
     1
102
RTVSPost2010Prop54
  1
strokes_ogs.tif
102
RTVSPost2010PropOp54
 70
     1
102
RTVSPost2010Prop55
280
     0
102
RTVSPost2010PropOp55
 70
     1
102
RTVSPost2010Prop56
140
1.0
102
RTVSPost2010PropOp56
 70
     1
102
RTVSPost2010Prop57
140
1.0
102
RTVSPost2010PropOp57
 70
     1
  0
XRECORD
  5
495
102
{ACAD_REACTORS
330
494
102
}
330
494
100
AcDbXrecord
280
     1
102
RTVSPropertyOp0
 70
     1
102
RTVSPropertyOp1
 70
     1
102
RTVSPropertyOp2
 70
     1
102
RTVSPropertyOp3
 70
     1
102
RTVSPropertyOp4
 70
     1
102
RTVSPropertyOp5
 70
     1
102
RTVSPropertyOp6
 70
     1
102
RTVSPropertyOp7
 70
     1
102
RTVSPropertyOp8
 70
     1
102
RTVSPropertyOp9
 70
     1
102
RTVSPropertyOp10
 70
     1
102
RTVSPropertyOp11
 70
     1
102
RTVSPropertyOp12
 70
     1
102
RTVSPropertyOp13
 70
     1
102
RTVSPropertyOp14
 70
     1
102
RTVSPropertyOp15
 70
     1
102
RTVSPropertyOp16
 70
     1
102
RTVSPropertyOp17
 70
     1
102
RTVSPropertyOp18
 70
     1
102
RTVSPropertyOp19
 70
     1
102
RTVSPropertyOp20
 70
     1
102
RTVSPropertyOp21
 70
     1
102
RTVSPropertyOp22
 70
     1
102
RTVSPropertyOp23
 70
     1
102
RTVSPropertyOp24
 70
     1
102
RTVSPropertyOp25
 70
     1
102
RTVSPropertyOp26
 70
     1
102
RTVSPropertyOp27
 70
     1
102
RTVSPropertyOp28
 70
     1
102
RTVSPropertyOp29
 70
     1
102
RTVSPropertyOp30
 70
     1
102
RTVSPropertyOp31
 70
     1
102
RTVSPropertyOp32
 70
     1
102
RTVSPropertyOp33
 70
     1
102
RTVSPropertyOp34
 70
     1
102
RTVSPropertyOp35
 70
     1
102
RTVSPropertyOp36
 70
     1
102
RTVSPropertyOp37
 70
     1
102
RTVSPropertyOp38
 70
     1
102
RTVSPropertyOp39
 70
     1
102
RTVSPropertyOp40
 70
     1
102
RTVSPropertyOp41
 70
     1
102
RTVSPropertyOp42
 70
     1
102
RTVSPropertyOp43
 70
     1
102
RTVSPropertyOp44
 70
     1
102
RTVSPropertyOp45
 70
     1
102
RTVSPropertyOp46
 70
     1
102
RTVSPropertyOp47
 70
     1
102
RTVSPropertyOp48
 70
     1
102
RTVSPropertyOp49
 70
     1
102
RTVSPropertyOp50
 70
     1
102
RTVSPropertyOp51
 70
     0
102
RTVSPropertyOp52
 70
     0
102
RTVSPropertyOp53
 70
     1
102
RTVSPropertyOp54
 70
     1
102
RTVSPropertyOp55
 70
     1
102
RTVSPropertyOp56
 70
     1
102
RTVSPropertyOp57
 70
     1
102
RTVSPost2010Prop28
280
     0
102
RTVSPost2010PropOp28
 70
     1
102
RTVSPost2010Prop29
280
     1
102
RTVSPost2010PropOp29
 70
     1
102
RTVSPost2010Prop30
280
     1
102
RTVSPost2010PropOp30
 70
     1
102
RTVSPost2010Prop31
280
     0
102
RTVSPost2010PropOp31
 70
     1
102
RTVSPost2010Prop32
280
     0
102
RTVSPost2010PropOp32
 70
     1
102
RTVSPost2010Prop33
280
     0
102
RTVSPost2010PropOp33
 70
     1
102
RTVSPost2010Prop34
280
     0
102
RTVSPost2010PropOp34
 70
     1
102
RTVSPost2010Prop35
280
     0
102
RTVSPost2010PropOp35
 70
     1
102
RTVSPost2010Prop36
280
     0
102
RTVSPost2010PropOp36
 70
     1
102
RTVSPost2010Prop37
 90
       50
102
RTVSPost2010PropOp37
 70
     1
102
RTVSPost2010Prop38
140
0.0
102
RTVSPost2010PropOp38
 70
     1
102
RTVSPost2010Prop39
140
1.0
102
RTVSPost2010PropOp39
 70
     1
102
RTVSPost2010Prop40
 90
        0
102
RTVSPost2010PropOp40
 70
     1
102
RTVSPost2010Prop41ColorIndex
 90
       18
102
RTVSPost2010Prop41ColorRGB
 90
        0
102
RTVSPost2010PropOp41
 70
     1
102
RTVSPost2010Prop42
 90
       50
102
RTVSPost2010PropOp42
 70
     1
102
RTVSPost2010Prop43
 90
        3
102
RTVSPost2010PropOp43
 70
     1
102
RTVSPost2010Prop44ColorIndex
 90
        5
102
RTVSPost2010Prop44ColorRGB
 90
      255
102
RTVSPost2010PropOp44
 70
     1
102
RTVSPost2010Prop45
280
     0
102
RTVSPost2010PropOp45
 70
     1
102
RTVSPost2010Prop46
 90
       50
102
RTVSPost2010PropOp46
 70
     1
102
RTVSPost2010Prop47
 90
       50
102
RTVSPost2010PropOp47
 70
     1
102
RTVSPost2010Prop48
 90
       50
102
RTVSPost2010PropOp48
 70
     1
102
RTVSPost2010Prop49
280
     0
102
RTVSPost2010PropOp49
 70
     1
102
RTVSPost2010Prop50
 90
       50
102
RTVSPost2010PropOp50
 70
     1
102
RTVSPost2010Prop51ColorIndex
 90
      256
102
RTVSPost2010Prop51ColorRGB
 90
-16777216
102
RTVSPost2010PropOp51
 70
     0
102
RTVSPost2010Prop52
140
1.0
102
RTVSPost2010PropOp52
 70
     0
102
RTVSPost2010Prop53
 90
        2
102
RTVSPost2010PropOp53
 70
     1
102
RTVSPost2010Prop54
  1
strokes_ogs.tif
102
RTVSPost2010PropOp54
 70
     1
102
RTVSPost2010Prop55
280
     0
102
RTVSPost2010PropOp55
 70
     1
102
RTVSPost2010Prop56
140
1.0
102
RTVSPost2010PropOp56
 70
     1
102
RTVSPost2010Prop57
140
1.0
102
RTVSPost2010PropOp57
 70
     1
  0
XRECORD
  5
497
102
{ACAD_REACTORS
330
496
102
}
330
496
100
AcDbXrecord
280
     1
102
RTVSPropertyOp0
 70
     1
102
RTVSPropertyOp1
 70
     1
102
RTVSPropertyOp2
 70
     1
102
RTVSPropertyOp3
 70
     1
102
RTVSPropertyOp4
 70
     1
102
RTVSPropertyOp5
 70
     1
102
RTVSPropertyOp6
 70
     1
102
RTVSPropertyOp7
 70
     1
102
RTVSPropertyOp8
 70
     1
102
RTVSPropertyOp9
 70
     1
102
RTVSPropertyOp10
 70
     1
102
RTVSPropertyOp11
 70
     1
102
RTVSPropertyOp12
 70
     1
102
RTVSPropertyOp13
 70
     1
102
RTVSPropertyOp14
 70
     1
102
RTVSPropertyOp15
 70
     1
102
RTVSPropertyOp16
 70
     1
102
RTVSPropertyOp17
 70
     1
102
RTVSPropertyOp18
 70
     1
102
RTVSPropertyOp19
 70
     1
102
RTVSPropertyOp20
 70
     1
102
RTVSPropertyOp21
 70
     1
102
RTVSPropertyOp22
 70
     1
102
RTVSPropertyOp23
 70
     1
102
RTVSPropertyOp24
 70
     1
102
RTVSPropertyOp25
 70
     1
102
RTVSPropertyOp26
 70
     1
102
RTVSPropertyOp27
 70
     1
102
RTVSPropertyOp28
 70
     1
102
RTVSPropertyOp29
 70
     1
102
RTVSPropertyOp30
 70
     1
102
RTVSPropertyOp31
 70
     1
102
RTVSPropertyOp32
 70
     1
102
RTVSPropertyOp33
 70
     1
102
RTVSPropertyOp34
 70
     1
102
RTVSPropertyOp35
 70
     1
102
RTVSPropertyOp36
 70
     1
102
RTVSPropertyOp37
 70
     1
102
RTVSPropertyOp38
 70
     1
102
RTVSPropertyOp39
 70
     1
102
RTVSPropertyOp40
 70
     1
102
RTVSPropertyOp41
 70
     1
102
RTVSPropertyOp42
 70
     1
102
RTVSPropertyOp43
 70
     1
102
RTVSPropertyOp44
 70
     1
102
RTVSPropertyOp45
 70
     1
102
RTVSPropertyOp46
 70
     1
102
RTVSPropertyOp47
 70
     1
102
RTVSPropertyOp48
 70
     1
102
RTVSPropertyOp49
 70
     1
102
RTVSPropertyOp50
 70
     1
102
RTVSPropertyOp51
 70
     0
102
RTVSPropertyOp52
 70
     0
102
RTVSPropertyOp53
 70
     1
102
RTVSPropertyOp54
 70
     1
102
RTVSPropertyOp55
 70
     1
102
RTVSPropertyOp56
 70
     1
102
RTVSPropertyOp57
 70
     1
102
RTVSPost2010Prop28
280
     0
102
RTVSPost2010PropOp28
 70
     1
102
RTVSPost2010Prop29
280
     1
102
RTVSPost2010PropOp29
 70
     1
102
RTVSPost2010Prop30
280
     1
102
RTVSPost2010PropOp30
 70
     1
102
RTVSPost2010Prop31
280
     0
102
RTVSPost2010PropOp31
 70
     1
102
RTVSPost2010Prop32
280
     0
102
RTVSPost2010PropOp32
 70
     1
102
RTVSPost2010Prop33
280
     0
102
RTVSPost2010PropOp33
 70
     1
102
RTVSPost2010Prop34
280
     0
102
RTVSPost2010PropOp34
 70
     1
102
RTVSPost2010Prop35
280
     0
102
RTVSPost2010PropOp35
 70
     1
102
RTVSPost2010Prop36
280
     0
102
RTVSPost2010PropOp36
 70
     1
102
RTVSPost2010Prop37
 90
       50
102
RTVSPost2010PropOp37
 70
     1
102
RTVSPost2010Prop38
140
0.0
102
RTVSPost2010PropOp38
 70
     1
102
RTVSPost2010Prop39
140
1.0
102
RTVSPost2010PropOp39
 70
     1
102
RTVSPost2010Prop40
 90
        0
102
RTVSPost2010PropOp40
 70
     1
102
RTVSPost2010Prop41ColorIndex
 90
       18
102
RTVSPost2010Prop41ColorRGB
 90
        0
102
RTVSPost2010PropOp41
 70
     1
102
RTVSPost2010Prop42
 90
       50
102
RTVSPost2010PropOp42
 70
     1
102
RTVSPost2010Prop43
 90
        3
102
RTVSPost2010PropOp43
 70
     1
102
RTVSPost2010Prop44ColorIndex
 90
        5
102
RTVSPost2010Prop44ColorRGB
 90
      255
102
RTVSPost2010PropOp44
 70
     1
102
RTVSPost2010Prop45
280
     0
102
RTVSPost2010PropOp45
 70
     1
102
RTVSPost2010Prop46
 90
       50
102
RTVSPost2010PropOp46
 70
     1
102
RTVSPost2010Prop47
 90
       50
102
RTVSPost2010PropOp47
 70
     1
102
RTVSPost2010Prop48
 90
       50
102
RTVSPost2010PropOp48
 70
     1
102
RTVSPost2010Prop49
280
     0
102
RTVSPost2010PropOp49
 70
     1
102
RTVSPost2010Prop50
 90
       50
102
RTVSPost2010PropOp50
 70
     1
102
RTVSPost2010Prop51ColorIndex
 90
      256
102
RTVSPost2010Prop51ColorRGB
 90
-16777216
102
RTVSPost2010PropOp51
 70
     0
102
RTVSPost2010Prop52
140
1.0
102
RTVSPost2010PropOp52
 70
     0
102
RTVSPost2010Prop53
 90
        2
102
RTVSPost2010PropOp53
 70
     1
102
RTVSPost2010Prop54
  1
strokes_ogs.tif
102
RTVSPost2010PropOp54
 70
     1
102
RTVSPost2010Prop55
280
     0
102
RTVSPost2010PropOp55
 70
     1
102
RTVSPost2010Prop56
140
1.0
102
RTVSPost2010PropOp56
 70
     1
102
RTVSPost2010Prop57
140
1.0
102
RTVSPost2010PropOp57
 70
     1
  0
XRECORD
  5
487
102
{ACAD_REACTORS
330
486
102
}
330
486
100
AcDbXrecord
280
     1
102
RTVSPropertyOp0
 70
     1
102
RTVSPropertyOp1
 70
     1
102
RTVSPropertyOp2
 70
     1
102
RTVSPropertyOp3
 70
     1
102
RTVSPropertyOp4
 70
     1
102
RTVSPropertyOp5
 70
     1
102
RTVSPropertyOp6
 70
     1
102
RTVSPropertyOp7
 70
     1
102
RTVSPropertyOp8
 70
     1
102
RTVSPropertyOp9
 70
     1
102
RTVSPropertyOp10
 70
     1
102
RTVSPropertyOp11
 70
     1
102
RTVSPropertyOp12
 70
     1
102
RTVSPropertyOp13
 70
     1
102
RTVSPropertyOp14
 70
     1
102
RTVSPropertyOp15
 70
     1
102
RTVSPropertyOp16
 70
     1
102
RTVSPropertyOp17
 70
     1
102
RTVSPropertyOp18
 70
     1
102
RTVSPropertyOp19
 70
     1
102
RTVSPropertyOp20
 70
     1
102
RTVSPropertyOp21
 70
     1
102
RTVSPropertyOp22
 70
     1
102
RTVSPropertyOp23
 70
     1
102
RTVSPropertyOp24
 70
     1
102
RTVSPropertyOp25
 70
     1
102
RTVSPropertyOp26
 70
     1
102
RTVSPropertyOp27
 70
     1
102
RTVSPropertyOp28
 70
     1
102
RTVSPropertyOp29
 70
     1
102
RTVSPropertyOp30
 70
     1
102
RTVSPropertyOp31
 70
     1
102
RTVSPropertyOp32
 70
     1
102
RTVSPropertyOp33
 70
     1
102
RTVSPropertyOp34
 70
     1
102
RTVSPropertyOp35
 70
     1
102
RTVSPropertyOp36
 70
     1
102
RTVSPropertyOp37
 70
     1
102
RTVSPropertyOp38
 70
     1
102
RTVSPropertyOp39
 70
     1
102
RTVSPropertyOp40
 70
     1
102
RTVSPropertyOp41
 70
     1
102
RTVSPropertyOp42
 70
     1
102
RTVSPropertyOp43
 70
     1
102
RTVSPropertyOp44
 70
     1
102
RTVSPropertyOp45
 70
     1
102
RTVSPropertyOp46
 70
     1
102
RTVSPropertyOp47
 70
     1
102
RTVSPropertyOp48
 70
     1
102
RTVSPropertyOp49
 70
     1
102
RTVSPropertyOp50
 70
     1
102
RTVSPropertyOp51
 70
     0
102
RTVSPropertyOp52
 70
     0
102
RTVSPropertyOp53
 70
     1
102
RTVSPropertyOp54
 70
     1
102
RTVSPropertyOp55
 70
     1
102
RTVSPropertyOp56
 70
     1
102
RTVSPropertyOp57
 70
     1
102
RTVSPost2010Prop28
280
     0
102
RTVSPost2010PropOp28
 70
     1
102
RTVSPost2010Prop29
280
     1
102
RTVSPost2010PropOp29
 70
     1
102
RTVSPost2010Prop30
280
     1
102
RTVSPost2010PropOp30
 70
     1
102
RTVSPost2010Prop31
280
     0
102
RTVSPost2010PropOp31
 70
     1
102
RTVSPost2010Prop32
280
     0
102
RTVSPost2010PropOp32
 70
     1
102
RTVSPost2010Prop33
280
     0
102
RTVSPost2010PropOp33
 70
     1
102
RTVSPost2010Prop34
280
     0
102
RTVSPost2010PropOp34
 70
     1
102
RTVSPost2010Prop35
280
     0
102
RTVSPost2010PropOp35
 70
     1
102
RTVSPost2010Prop36
280
     0
102
RTVSPost2010PropOp36
 70
     1
102
RTVSPost2010Prop37
 90
       50
102
RTVSPost2010PropOp37
 70
     1
102
RTVSPost2010Prop38
140
0.0
102
RTVSPost2010PropOp38
 70
     1
102
RTVSPost2010Prop39
140
1.0
102
RTVSPost2010PropOp39
 70
     1
102
RTVSPost2010Prop40
 90
        0
102
RTVSPost2010PropOp40
 70
     1
102
RTVSPost2010Prop41ColorIndex
 90
       18
102
RTVSPost2010Prop41ColorRGB
 90
        0
102
RTVSPost2010PropOp41
 70
     1
102
RTVSPost2010Prop42
 90
       50
102
RTVSPost2010PropOp42
 70
     1
102
RTVSPost2010Prop43
 90
        3
102
RTVSPost2010PropOp43
 70
     1
102
RTVSPost2010Prop44ColorIndex
 90
        5
102
RTVSPost2010Prop44ColorRGB
 90
      255
102
RTVSPost2010PropOp44
 70
     1
102
RTVSPost2010Prop45
280
     0
102
RTVSPost2010PropOp45
 70
     1
102
RTVSPost2010Prop46
 90
       50
102
RTVSPost2010PropOp46
 70
     1
102
RTVSPost2010Prop47
 90
       50
102
RTVSPost2010PropOp47
 70
     1
102
RTVSPost2010Prop48
 90
       50
102
RTVSPost2010PropOp48
 70
     1
102
RTVSPost2010Prop49
280
     0
102
RTVSPost2010PropOp49
 70
     1
102
RTVSPost2010Prop50
 90
       50
102
RTVSPost2010PropOp50
 70
     1
102
RTVSPost2010Prop51ColorIndex
 90
      256
102
RTVSPost2010Prop51ColorRGB
 90
-16777216
102
RTVSPost2010PropOp51
 70
     0
102
RTVSPost2010Prop52
140
1.0
102
RTVSPost2010PropOp52
 70
     0
102
RTVSPost2010Prop53
 90
        2
102
RTVSPost2010PropOp53
 70
     1
102
RTVSPost2010Prop54
  1
strokes_ogs.tif
102
RTVSPost2010PropOp54
 70
     1
102
RTVSPost2010Prop55
280
     0
102
RTVSPost2010PropOp55
 70
     1
102
RTVSPost2010Prop56
140
1.0
102
RTVSPost2010PropOp56
 70
     1
102
RTVSPost2010Prop57
140
1.0
102
RTVSPost2010PropOp57
 70
     1
  0
XRECORD
  5
479
102
{ACAD_REACTORS
330
478
102
}
330
478
100
AcDbXrecord
280
     1
102
RTVSPropertyOp0
 70
     1
102
RTVSPropertyOp1
 70
     1
102
RTVSPropertyOp2
 70
     1
102
RTVSPropertyOp3
 70
     1
102
RTVSPropertyOp4
 70
     1
102
RTVSPropertyOp5
 70
     1
102
RTVSPropertyOp6
 70
     1
102
RTVSPropertyOp7
 70
     1
102
RTVSPropertyOp8
 70
     1
102
RTVSPropertyOp9
 70
     1
102
RTVSPropertyOp10
 70
     1
102
RTVSPropertyOp11
 70
     1
102
RTVSPropertyOp12
 70
     1
102
RTVSPropertyOp13
 70
     1
102
RTVSPropertyOp14
 70
     1
102
RTVSPropertyOp15
 70
     1
102
RTVSPropertyOp16
 70
     1
102
RTVSPropertyOp17
 70
     1
102
RTVSPropertyOp18
 70
     1
102
RTVSPropertyOp19
 70
     1
102
RTVSPropertyOp20
 70
     1
102
RTVSPropertyOp21
 70
     1
102
RTVSPropertyOp22
 70
     1
102
RTVSPropertyOp23
 70
     1
102
RTVSPropertyOp24
 70
     1
102
RTVSPropertyOp25
 70
     1
102
RTVSPropertyOp26
 70
     1
102
RTVSPropertyOp27
 70
     1
102
RTVSPropertyOp28
 70
     1
102
RTVSPropertyOp29
 70
     1
102
RTVSPropertyOp30
 70
     1
102
RTVSPropertyOp31
 70
     1
102
RTVSPropertyOp32
 70
     1
102
RTVSPropertyOp33
 70
     1
102
RTVSPropertyOp34
 70
     1
102
RTVSPropertyOp35
 70
     1
102
RTVSPropertyOp36
 70
     1
102
RTVSPropertyOp37
 70
     1
102
RTVSPropertyOp38
 70
     1
102
RTVSPropertyOp39
 70
     1
102
RTVSPropertyOp40
 70
     1
102
RTVSPropertyOp41
 70
     1
102
RTVSPropertyOp42
 70
     1
102
RTVSPropertyOp43
 70
     1
102
RTVSPropertyOp44
 70
     1
102
RTVSPropertyOp45
 70
     1
102
RTVSPropertyOp46
 70
     1
102
RTVSPropertyOp47
 70
     1
102
RTVSPropertyOp48
 70
     1
102
RTVSPropertyOp49
 70
     1
102
RTVSPropertyOp50
 70
     1
102
RTVSPropertyOp51
 70
     0
102
RTVSPropertyOp52
 70
     0
102
RTVSPropertyOp53
 70
     1
102
RTVSPropertyOp54
 70
     1
102
RTVSPropertyOp55
 70
     1
102
RTVSPropertyOp56
 70
     1
102
RTVSPropertyOp57
 70
     1
102
RTVSPost2010Prop28
280
     0
102
RTVSPost2010PropOp28
 70
     1
102
RTVSPost2010Prop29
280
     1
102
RTVSPost2010PropOp29
 70
     1
102
RTVSPost2010Prop30
280
     1
102
RTVSPost2010PropOp30
 70
     1
102
RTVSPost2010Prop31
280
     0
102
RTVSPost2010PropOp31
 70
     1
102
RTVSPost2010Prop32
280
     0
102
RTVSPost2010PropOp32
 70
     1
102
RTVSPost2010Prop33
280
     0
102
RTVSPost2010PropOp33
 70
     1
102
RTVSPost2010Prop34
280
     0
102
RTVSPost2010PropOp34
 70
     1
102
RTVSPost2010Prop35
280
     0
102
RTVSPost2010PropOp35
 70
     1
102
RTVSPost2010Prop36
280
     0
102
RTVSPost2010PropOp36
 70
     1
102
RTVSPost2010Prop37
 90
       50
102
RTVSPost2010PropOp37
 70
     1
102
RTVSPost2010Prop38
140
0.0
102
RTVSPost2010PropOp38
 70
     1
102
RTVSPost2010Prop39
140
1.0
102
RTVSPost2010PropOp39
 70
     1
102
RTVSPost2010Prop40
 90
        0
102
RTVSPost2010PropOp40
 70
     1
102
RTVSPost2010Prop41ColorIndex
 90
       18
102
RTVSPost2010Prop41ColorRGB
 90
        0
102
RTVSPost2010PropOp41
 70
     1
102
RTVSPost2010Prop42
 90
       50
102
RTVSPost2010PropOp42
 70
     1
102
RTVSPost2010Prop43
 90
        3
102
RTVSPost2010PropOp43
 70
     1
102
RTVSPost2010Prop44ColorIndex
 90
        5
102
RTVSPost2010Prop44ColorRGB
 90
      255
102
RTVSPost2010PropOp44
 70
     1
102
RTVSPost2010Prop45
280
     0
102
RTVSPost2010PropOp45
 70
     1
102
RTVSPost2010Prop46
 90
       50
102
RTVSPost2010PropOp46
 70
     1
102
RTVSPost2010Prop47
 90
       50
102
RTVSPost2010PropOp47
 70
     1
102
RTVSPost2010Prop48
 90
       50
102
RTVSPost2010PropOp48
 70
     1
102
RTVSPost2010Prop49
280
     0
102
RTVSPost2010PropOp49
 70
     1
102
RTVSPost2010Prop50
 90
       50
102
RTVSPost2010PropOp50
 70
     1
102
RTVSPost2010Prop51ColorIndex
 90
      256
102
RTVSPost2010Prop51ColorRGB
 90
-16777216
102
RTVSPost2010PropOp51
 70
     0
102
RTVSPost2010Prop52
140
1.0
102
RTVSPost2010PropOp52
 70
     0
102
RTVSPost2010Prop53
 90
        2
102
RTVSPost2010PropOp53
 70
     1
102
RTVSPost2010Prop54
  1
strokes_ogs.tif
102
RTVSPost2010PropOp54
 70
     1
102
RTVSPost2010Prop55
280
     0
102
RTVSPost2010PropOp55
 70
     1
102
RTVSPost2010Prop56
140
1.0
102
RTVSPost2010PropOp56
 70
     1
102
RTVSPost2010Prop57
140
1.0
102
RTVSPost2010PropOp57
 70
     1
  0
XRECORD
  5
499
102
{ACAD_REACTORS
330
498
102
}
330
498
100
AcDbXrecord
280
     1
102
RTVSPropertyOp0
 70
     1
102
RTVSPropertyOp1
 70
     1
102
RTVSPropertyOp2
 70
     1
102
RTVSPropertyOp3
 70
     1
102
RTVSPropertyOp4
 70
     1
102
RTVSPropertyOp5
 70
     1
102
RTVSPropertyOp6
 70
     1
102
RTVSPropertyOp7
 70
     1
102
RTVSPropertyOp8
 70
     1
102
RTVSPropertyOp9
 70
     1
102
RTVSPropertyOp10
 70
     1
102
RTVSPropertyOp11
 70
     1
102
RTVSPropertyOp12
 70
     1
102
RTVSPropertyOp13
 70
     1
102
RTVSPropertyOp14
 70
     1
102
RTVSPropertyOp15
 70
     1
102
RTVSPropertyOp16
 70
     1
102
RTVSPropertyOp17
 70
     1
102
RTVSPropertyOp18
 70
     1
102
RTVSPropertyOp19
 70
     1
102
RTVSPropertyOp20
 70
     1
102
RTVSPropertyOp21
 70
     1
102
RTVSPropertyOp22
 70
     1
102
RTVSPropertyOp23
 70
     1
102
RTVSPropertyOp24
 70
     1
102
RTVSPropertyOp25
 70
     1
102
RTVSPropertyOp26
 70
     1
102
RTVSPropertyOp27
 70
     1
102
RTVSPropertyOp28
 70
     1
102
RTVSPropertyOp29
 70
     1
102
RTVSPropertyOp30
 70
     1
102
RTVSPropertyOp31
 70
     1
102
RTVSPropertyOp32
 70
     1
102
RTVSPropertyOp33
 70
     1
102
RTVSPropertyOp34
 70
     1
102
RTVSPropertyOp35
 70
     1
102
RTVSPropertyOp36
 70
     1
102
RTVSPropertyOp37
 70
     1
102
RTVSPropertyOp38
 70
     1
102
RTVSPropertyOp39
 70
     1
102
RTVSPropertyOp40
 70
     1
102
RTVSPropertyOp41
 70
     1
102
RTVSPropertyOp42
 70
     1
102
RTVSPropertyOp43
 70
     1
102
RTVSPropertyOp44
 70
     1
102
RTVSPropertyOp45
 70
     1
102
RTVSPropertyOp46
 70
     1
102
RTVSPropertyOp47
 70
     1
102
RTVSPropertyOp48
 70
     1
102
RTVSPropertyOp49
 70
     1
102
RTVSPropertyOp50
 70
     1
102
RTVSPropertyOp51
 70
     0
102
RTVSPropertyOp52
 70
     0
102
RTVSPropertyOp53
 70
     1
102
RTVSPropertyOp54
 70
     1
102
RTVSPropertyOp55
 70
     1
102
RTVSPropertyOp56
 70
     1
102
RTVSPropertyOp57
 70
     1
102
RTVSPost2010Prop28
280
     0
102
RTVSPost2010PropOp28
 70
     1
102
RTVSPost2010Prop29
280
     1
102
RTVSPost2010PropOp29
 70
     1
102
RTVSPost2010Prop30
280
     1
102
RTVSPost2010PropOp30
 70
     1
102
RTVSPost2010Prop31
280
     0
102
RTVSPost2010PropOp31
 70
     1
102
RTVSPost2010Prop32
280
     0
102
RTVSPost2010PropOp32
 70
     1
102
RTVSPost2010Prop33
280
     0
102
RTVSPost2010PropOp33
 70
     1
102
RTVSPost2010Prop34
280
     0
102
RTVSPost2010PropOp34
 70
     1
102
RTVSPost2010Prop35
280
     0
102
RTVSPost2010PropOp35
 70
     1
102
RTVSPost2010Prop36
280
     0
102
RTVSPost2010PropOp36
 70
     1
102
RTVSPost2010Prop37
 90
       50
102
RTVSPost2010PropOp37
 70
     1
102
RTVSPost2010Prop38
140
0.0
102
RTVSPost2010PropOp38
 70
     1
102
RTVSPost2010Prop39
140
1.0
102
RTVSPost2010PropOp39
 70
     1
102
RTVSPost2010Prop40
 90
        0
102
RTVSPost2010PropOp40
 70
     1
102
RTVSPost2010Prop41ColorIndex
 90
       18
102
RTVSPost2010Prop41ColorRGB
 90
        0
102
RTVSPost2010PropOp41
 70
     1
102
RTVSPost2010Prop42
 90
       50
102
RTVSPost2010PropOp42
 70
     1
102
RTVSPost2010Prop43
 90
        3
102
RTVSPost2010PropOp43
 70
     1
102
RTVSPost2010Prop44ColorIndex
 90
        5
102
RTVSPost2010Prop44ColorRGB
 90
      255
102
RTVSPost2010PropOp44
 70
     1
102
RTVSPost2010Prop45
280
     0
102
RTVSPost2010PropOp45
 70
     1
102
RTVSPost2010Prop46
 90
       50
102
RTVSPost2010PropOp46
 70
     1
102
RTVSPost2010Prop47
 90
       50
102
RTVSPost2010PropOp47
 70
     1
102
RTVSPost2010Prop48
 90
       50
102
RTVSPost2010PropOp48
 70
     1
102
RTVSPost2010Prop49
280
     0
102
RTVSPost2010PropOp49
 70
     1
102
RTVSPost2010Prop50
 90
       50
102
RTVSPost2010PropOp50
 70
     1
102
RTVSPost2010Prop51ColorIndex
 90
      256
102
RTVSPost2010Prop51ColorRGB
 90
-16777216
102
RTVSPost2010PropOp51
 70
     0
102
RTVSPost2010Prop52
140
1.0
102
RTVSPost2010PropOp52
 70
     0
102
RTVSPost2010Prop53
 90
        2
102
RTVSPost2010PropOp53
 70
     1
102
RTVSPost2010Prop54
  1
strokes_ogs.tif
102
RTVSPost2010PropOp54
 70
     1
102
RTVSPost2010Prop55
280
     0
102
RTVSPost2010PropOp55
 70
     1
102
RTVSPost2010Prop56
140
1.0
102
RTVSPost2010PropOp56
 70
     1
102
RTVSPost2010Prop57
140
1.0
102
RTVSPost2010PropOp57
 70
     1
  0
ENDSEC
  0
EOF
