  0
SECTION
  2
HEADER
  9
$ACADVER
  1
AC1018
  9
$ACADMAINTVER
 70
     0
  9
$DWGCODEPAGE
  3
ANSI_1252
  9
$INSBASE
 10
0.0
 20
0.0
 30
0.0
  9
$EXTMIN
 10
-0.5
 20
-0.5
 30
-0.5
  9
$EXTMAX
 10
5.0
 20
5.0
 30
5.0
  9
$LIMMIN
 10
-0.5
 20
-0.5
  9
$LIMMAX
 10
5.0
 20
5.0
  9
$ORTHOMODE
 70
     0
  9
$REGENMODE
 70
     1
  9
$FILLMODE
 70
     1
  9
$QTEXTMODE
 70
     0
  9
$MIRRTEXT
 70
     1
  9
$LTSCALE
 40
1.0
  9
$ATTMODE
 70
     1
  9
$TEXTSIZE
 40
0.2
  9
$TRACEWID
 40
0.05
  9
$TEXTSTYLE
  7
Standard
  9
$CLAYER
  8
0
  9
$CELTYPE
  6
ByLayer
  9
$CECOLOR
 62
   256
  9
$CELTSCALE
 40
1.0
  9
$DISPSILH
 70
     0
  9
$DIMSCALE
 40
1.0
  9
$DIMASZ
 40
0.18
  9
$DIMEXO
 40
0.0625
  9
$DIMDLI
 40
0.38
  9
$DIMRND
 40
0.0
  9
$DIMDLE
 40
0.0
  9
$DIMEXE
 40
0.18
  9
$DIMTP
 40
0.0
  9
$DIMTM
 40
0.0
  9
$DIMTXT
 40
0.18
  9
$DIMCEN
 40
0.09
  9
$DIMTSZ
 40
0.0
  9
$DIMTOL
 70
     0
  9
$DIMLIM
 70
     0
  9
$DIMTIH
 70
     1
  9
$DIMTOH
 70
     1
  9
$DIMSE1
 70
     0
  9
$DIMSE2
 70
     0
  9
$DIMTAD
 70
     0
  9
$DIMZIN
 70
     0
  9
$DIMBLK
  1

  9
$DIMASO
 70
     1
  9
$DIMSHO
 70
     1
  9
$DIMPOST
  1

  9
$DIMAPOST
  1

  9
$DIMALT
 70
     0
  9
$DIMALTD
 70
     2
  9
$DIMALTF
 40
25.4
  9
$DIMLFAC
 40
1.0
  9
$DIMTOFL
 70
     0
  9
$DIMTVP
 40
0.0
  9
$DIMTIX
 70
     0
  9
$DIMSOXD
 70
     0
  9
$DIMSAH
 70
     0
  9
$DIMBLK1
  1

  9
$DIMBLK2
  1

  9
$DIMSTYLE
  2
Standard
  9
$DIMCLRD
 70
     0
  9
$DIMCLRE
 70
     0
  9
$DIMCLRT
 70
     0
  9
$DIMTFAC
 40
1.0
  9
$DIMGAP
 40
0.09
  9
$DIMJUST
 70
     0
  9
$DIMSD1
 70
     0
  9
$DIMSD2
 70
     0
  9
$DIMTOLJ
 70
     1
  9
$DIMTZIN
 70
     0
  9
$DIMALTZ
 70
     0
  9
$DIMALTTZ
 70
     0
  9
$DIMUPT
 70
     0
  9
$DIMDEC
 70
     4
  9
$DIMTDEC
 70
     4
  9
$DIMALTU
 70
     2
  9
$DIMALTTD
 70
     2
  9
$DIMTXSTY
  7
Standard
  9
$DIMAUNIT
 70
     0
  9
$DIMADEC
 70
     0
  9
$DIMALTRND
 40
0.0
  9
$DIMAZIN
 70
     0
  9
$DIMDSEP
 70
    46
  9
$DIMATFIT
 70
     3
  9
$DIMFRAC
 70
     0
  9
$DIMLDRBLK
  1

  9
$DIMLUNIT
 70
     2
  9
$DIMLWD
 70
    -2
  9
$DIMLWE
 70
    -2
  9
$DIMTMOVE
 70
     0
  9
$LUNITS
 70
     2
  9
$LUPREC
 70
     4
  9
$SKETCHINC
 40
0.1
  9
$FILLETRAD
 40
0.5
  9
$AUNITS
 70
     0
  9
$AUPREC
 70
     0
  9
$MENU
  1
.
  9
$ELEVATION
 40
0.0
  9
$PELEVATION
 40
0.0
  9
$THICKNESS
 40
0.0
  9
$LIMCHECK
 70
     0
  9
$CHAMFERA
 40
0.0
  9
$CHAMFERB
 40
0.0
  9
$CHAMFERC
 40
0.0
  9
$CHAMFERD
 40
0.0
  9
$SKPOLY
 70
     0
  9
$TDCREATE
 40
2459781.393748993
  9
$TDUCREATE
 40
2459781.31041566
  9
$TDUPDATE
 40
2459781.394105602
  9
$TDUUPDATE
 40
2459781.310772269
  9
$TDINDWG
 40
0.0000000116
  9
$TDUSRTIMER
 40
0.0000000116
  9
$USRTIMER
 70
     1
  9
$ANGBASE
 50
0.0
  9
$ANGDIR
 70
     0
  9
$PDMODE
 70
     0
  9
$PDSIZE
 40
0.0
  9
$PLINEWID
 40
0.0
  9
$SPLFRAME
 70
     0
  9
$SPLINETYPE
 70
     6
  9
$SPLINESEGS
 70
     8
  9
$HANDSEED
  5
530
  9
$SURFTAB1
 70
     6
  9
$SURFTAB2
 70
     6
  9
$SURFTYPE
 70
     6
  9
$SURFU
 70
     6
  9
$SURFV
 70
     6
  9
$UCSBASE
  2

  9
$UCSNAME
  2

  9
$UCSORG
 10
0.0
 20
0.0
 30
0.0
  9
$UCSXDIR
 10
1.0
 20
0.0
 30
0.0
  9
$UCSYDIR
 10
0.0
 20
1.0
 30
0.0
  9
$UCSORTHOREF
  2

  9
$UCSORTHOVIEW
 70
     0
  9
$UCSORGTOP
 10
0.0
 20
0.0
 30
0.0
  9
$UCSORGBOTTOM
 10
0.0
 20
0.0
 30
0.0
  9
$UCSORGLEFT
 10
0.0
 20
0.0
 30
0.0
  9
$UCSORGRIGHT
 10
0.0
 20
0.0
 30
0.0
  9
$UCSORGFRONT
 10
0.0
 20
0.0
 30
0.0
  9
$UCSORGBACK
 10
0.0
 20
0.0
 30
0.0
  9
$PUCSBASE
  2

  9
$PUCSNAME
  2

  9
$PUCSORG
 10
0.0
 20
0.0
 30
0.0
  9
$PUCSXDIR
 10
1.0
 20
0.0
 30
0.0
  9
$PUCSYDIR
 10
0.0
 20
1.0
 30
0.0
  9
$PUCSORTHOREF
  2

  9
$PUCSORTHOVIEW
 70
     0
  9
$PUCSORGTOP
 10
0.0
 20
0.0
 30
0.0
  9
$PUCSORGBOTTOM
 10
0.0
 20
0.0
 30
0.0
  9
$PUCSORGLEFT
 10
0.0
 20
0.0
 30
0.0
  9
$PUCSORGRIGHT
 10
0.0
 20
0.0
 30
0.0
  9
$PUCSORGFRONT
 10
0.0
 20
0.0
 30
0.0
  9
$PUCSORGBACK
 10
0.0
 20
0.0
 30
0.0
  9
$USERI1
 70
     0
  9
$USERI2
 70
     0
  9
$USERI3
 70
     0
  9
$USERI4
 70
     0
  9
$USERI5
 70
     0
  9
$USERR1
 40
0.0
  9
$USERR2
 40
0.0
  9
$USERR3
 40
0.0
  9
$USERR4
 40
0.0
  9
$USERR5
 40
0.0
  9
$WORLDVIEW
 70
     1
  9
$SHADEDGE
 70
     3
  9
$SHADEDIF
 70
    70
  9
$TILEMODE
 70
     1
  9
$MAXACTVP
 70
    64
  9
$PINSBASE
 10
0.0
 20
0.0
 30
0.0
  9
$PLIMCHECK
 70
     0
  9
$PEXTMIN
 10
-0.5
 20
-0.5
 30
-0.5
  9
$PEXTMAX
 10
5.0
 20
5.0
 30
5.0
  9
$PLIMMIN
 10
-0.5
 20
-0.5
  9
$PLIMMAX
 10
5.0
 20
5.0
  9
$UNITMODE
 70
     0
  9
$VISRETAIN
 70
     1
  9
$PLINEGEN
 70
     0
  9
$PSLTSCALE
 70
     1
  9
$TREEDEPTH
 70
  3020
  9
$CMLSTYLE
  2
Standard
  9
$CMLJUST
 70
     0
  9
$CMLSCALE
 40
1.0
  9
$PROXYGRAPHICS
 70
     1
  9
$MEASUREMENT
 70
     1
  9
$CELWEIGHT
370
    18
  9
$ENDCAPS
280
     0
  9
$JOINSTYLE
280
     0
  9
$LWDISPLAY
290
     0
  9
$INSUNITS
 70
     4
  9
$HYPERLINKBASE
  1

  9
$STYLESHEET
  1

  9
$XEDIT
290
     1
  9
$CEPSNTYPE
380
     0
  9
$PSTYLEMODE
290
     1
  9
$FINGERPRINTGUID
  2
{8f74185b-43f7-4e65-95a4-6bf96b455736}
  9
$VERSIONGUID
  2
{FAEB1C32-E019-11D5-929B-00C0DF256EC4}
  9
$EXTNAMES
290
     1
  9
$PSVPSCALE
 40
0.0
  9
$OLESTARTUP
290
     0
  9
$SORTENTS
280
   127
  9
$INDEXCTL
280
     0
  9
$HIDETEXT
280
     1
  9
$XCLIPFRAME
290
     0
  9
$HALOGAP
280
     0
  9
$OBSCOLOR
 70
   257
  9
$OBSLTYPE
280
     0
  9
$INTERSECTIONDISPLAY
280
     0
  9
$INTERSECTIONCOLOR
 70
   257
  9
$DIMASSOC
280
     2
  9
$PROJECTNAME
  1

  0
ENDSEC
  0
SECTION
  2
CLASSES
  0
CLASS
  1
ACDBDICTIONARYWDFLT
  2
AcDbDictionaryWithDefault
  3
ObjectDBX Classes
 90
        0
 91
        3
280
     0
281
     0
  0
CLASS
  1
VISUALSTYLE
  2
AcDbVisualStyle
  3
ObjectDBX Classes
 90
     4095
 91
        3
280
     0
281
     0
  0
CLASS
  1
MATERIAL
  2
AcDbMaterial
  3
ObjectDBX Classes
 90
     1153
 91
        3
280
     0
281
     0
  0
CLASS
  1
SCALE
  2
AcDbScale
  3
ObjectDBX Classes
 90
     1153
 91
        3
280
     0
281
     0
  0
CLASS
  1
TABLESTYLE
  2
AcDbTableStyle
  3
ObjectDBX Classes
 90
     4095
 91
        3
280
     0
281
     0
  0
CLASS
  1
MLEADERSTYLE
  2
AcDbMLeaderStyle
  3
ACDB_MLEADERSTYLE_CLASS
 90
     4095
 91
        3
280
     0
281
     0
  0
CLASS
  1
SUN
  2
AcDbSun
  3
SCENEOE
 90
     1153
 91
        3
280
     0
281
     0
  0
CLASS
  1
DIMASSOC
  2
AcDbDimAssoc
  3
"AcDbDimAssoc|Product Desc:     AcDim ARX App For Dimension|Company:          Autodesk, Inc.|WEB Address:      www.autodesk.com"
 90
        0
 91
        3
280
     0
281
     0
  0
CLASS
  1
DICTIONARYVAR
  2
AcDbDictionaryVar
  3
ObjectDBX Classes
 90
        0
 91
        3
280
     0
281
     0
  0
CLASS
  1
CELLSTYLEMAP
  2
AcDbCellStyleMap
  3
ObjectDBX Classes
 90
     1152
 91
        3
280
     0
281
     0
  0
ENDSEC
  0
SECTION
  2
TABLES
  0
TABLE
  2
VPORT
  5
8
102
{ACAD_XDICTIONARY
360
4E9
102
}
330
0
100
AcDbSymbolTable
 70
    16
  0
VPORT
  5
29
330
8
100
AcDbSymbolTableRecord
100
AcDbViewportTableRecord
  2
*Active
 70
     0
 10
0.0
 20
0.0
 11
1.0
 21
1.0
 12
1.697948
 22
11.189951
 13
0.0
 23
0.0
 14
0.5
 24
0.5
 15
0.5
 25
0.5
 16
0.0
 26
0.0
 36
1.0
 17
0.0
 27
0.0
 37
0.0
 40
254.0
 41
0.069908
 42
50.0
 43
238.446887
 44
-238.446887
 50
0.0
 51
0.0
 71
     0
 72
   100
 73
     1
 74
     3
 75
     0
 76
     0
 77
     0
 78
     0
281
     0
 65
     1
110
0.0
120
0.0
130
0.0
111
1.0
121
0.0
131
0.0
112
0.0
122
1.0
132
0.0
 79
     0
146
0.0
  0
VPORT
  5
4D5
330
8
100
AcDbSymbolTableRecord
100
AcDbViewportTableRecord
  2
L1
 70
     0
 10
0.0
 20
0.0
 11
1.0
 21
1.0
 12
1.697948
 22
11.189951
 13
0.0
 23
0.0
 14
0.5
 24
0.5
 15
0.5
 25
0.5
 16
0.0
 26
0.0
 36
1.0
 17
0.0
 27
0.0
 37
0.0
 40
254.0
 41
0.069908
 42
50.0
 43
238.446887
 44
-238.446887
 50
0.0
 51
0.0
 71
     0
 72
   100
 73
     1
 74
     3
 75
     0
 76
     0
 77
     0
 78
     0
281
     0
 65
     1
110
0.0
120
0.0
130
0.0
111
1.0
121
0.0
131
0.0
112
0.0
122
1.0
132
0.0
 79
     0
146
0.0
  0
VPORT
  5
4D6
330
8
100
AcDbSymbolTableRecord
100
AcDbViewportTableRecord
  2
L2
 70
     0
 10
0.0
 20
0.0
 11
0.5
 21
1.0
 12
0.0
 22
0.0
 13
0.0
 23
0.0
 14
0.5
 24
0.5
 15
0.5
 25
0.5
 16
0.0
 26
-1.0
 36
0.0
 17
0.0
 27
0.0
 37
0.0
 40
1686.119035
 41
0.010531
 42
50.0
 43
870.323791
 44
-870.323791
 50
0.0
 51
0.0
 71
     0
 72
   100
 73
     1
 74
     3
 75
     0
 76
     0
 77
     0
 78
     0
281
     0
 65
     1
110
0.0
120
0.0
130
0.0
111
1.0
121
0.0
131
0.0
112
0.0
122
1.0
132
0.0
 79
     0
146
0.0
  0
VPORT
  5
4D7
330
8
100
AcDbSymbolTableRecord
100
AcDbViewportTableRecord
  2
L2
 70
     0
 10
0.5
 20
0.0
 11
1.0
 21
1.0
 12
0.0
 22
0.0
 13
0.0
 23
0.0
 14
0.5
 24
0.5
 15
0.5
 25
0.5
 16
1.0
 26
0.0
 36
0.0
 17
0.0
 27
0.0
 37
0.0
 40
1686.119035
 41
0.010531
 42
50.0
 43
852.57161
 44
-852.57161
 50
0.0
 51
0.0
 71
     0
 72
   100
 73
     1
 74
     3
 75
     0
 76
     0
 77
     0
 78
     0
281
     0
 65
     1
110
0.0
120
0.0
130
0.0
111
1.0
121
0.0
131
0.0
112
0.0
122
1.0
132
0.0
 79
     0
146
0.0
  0
VPORT
  5
4D8
330
8
100
AcDbSymbolTableRecord
100
AcDbViewportTableRecord
  2
L3
 70
     0
 10
0.0
 20
0.5
 11
1.0
 21
1.0
 12
1.697948
 22
11.189951
 13
0.0
 23
0.0
 14
0.5
 24
0.5
 15
0.5
 25
0.5
 16
0.0
 26
0.0
 36
1.0
 17
0.0
 27
0.0
 37
0.0
 40
254.0
 41
0.069908
 42
50.0
 43
238.446887
 44
-238.446887
 50
0.0
 51
0.0
 71
     0
 72
   100
 73
     1
 74
     3
 75
     0
 76
     0
 77
     0
 78
     0
281
     0
 65
     1
110
0.0
120
0.0
130
0.0
111
1.0
121
0.0
131
0.0
112
0.0
122
1.0
132
0.0
 79
     0
146
0.0
  0
VPORT
  5
4D9
330
8
100
AcDbSymbolTableRecord
100
AcDbViewportTableRecord
  2
L3
 70
     0
 10
0.0
 20
0.0
 11
1.0
 21
0.5
 12
0.0
 22
0.0
 13
0.0
 23
0.0
 14
0.5
 24
0.5
 15
0.5
 25
0.5
 16
0.0
 26
-1.0
 36
0.0
 17
0.0
 27
0.0
 37
0.0
 40
1686.119035
 41
0.010531
 42
50.0
 43
870.323791
 44
-870.323791
 50
0.0
 51
0.0
 71
     0
 72
   100
 73
     1
 74
     3
 75
     0
 76
     0
 77
     0
 78
     0
281
     0
 65
     1
110
0.0
120
0.0
130
0.0
111
1.0
121
0.0
131
0.0
112
0.0
122
1.0
132
0.0
 79
     0
146
0.0
  0
VPORT
  5
4DA
330
8
100
AcDbSymbolTableRecord
100
AcDbViewportTableRecord
  2
L4
 70
     0
 10
0.0
 20
0.5
 11
0.5
 21
1.0
 12
1.697948
 22
11.189951
 13
0.0
 23
0.0
 14
0.5
 24
0.5
 15
0.5
 25
0.5
 16
0.0
 26
0.0
 36
1.0
 17
0.0
 27
0.0
 37
0.0
 40
254.0
 41
0.069908
 42
50.0
 43
238.446887
 44
-238.446887
 50
0.0
 51
0.0
 71
     0
 72
   100
 73
     1
 74
     3
 75
     0
 76
     0
 77
     0
 78
     0
281
     0
 65
     1
110
0.0
120
0.0
130
0.0
111
1.0
121
0.0
131
0.0
112
0.0
122
1.0
132
0.0
 79
     0
146
0.0
  0
VPORT
  5
4DB
330
8
100
AcDbSymbolTableRecord
100
AcDbViewportTableRecord
  2
L4
 70
     0
 10
0.0
 20
0.0
 11
0.5
 21
0.5
 12
0.0
 22
0.0
 13
0.0
 23
0.0
 14
0.5
 24
0.5
 15
0.5
 25
0.5
 16
0.0
 26
-1.0
 36
0.0
 17
0.0
 27
0.0
 37
0.0
 40
1686.119035
 41
0.010531
 42
50.0
 43
870.323791
 44
-870.323791
 50
0.0
 51
0.0
 71
     0
 72
   100
 73
     1
 74
     3
 75
     0
 76
     0
 77
     0
 78
     0
281
     0
 65
     1
110
0.0
120
0.0
130
0.0
111
1.0
121
0.0
131
0.0
112
0.0
122
1.0
132
0.0
 79
     0
146
0.0
  0
VPORT
  5
4DC
330
8
100
AcDbSymbolTableRecord
100
AcDbViewportTableRecord
  2
L4
 70
     0
 10
0.5
 20
0.0
 11
1.0
 21
0.5
 12
0.0
 22
0.0
 13
0.0
 23
0.0
 14
0.5
 24
0.5
 15
0.5
 25
0.5
 16
1.0
 26
0.0
 36
0.0
 17
0.0
 27
0.0
 37
0.0
 40
1686.119035
 41
0.010531
 42
50.0
 43
852.57161
 44
-852.57161
 50
0.0
 51
0.0
 71
     0
 72
   100
 73
     1
 74
     3
 75
     0
 76
     0
 77
     0
 78
     0
281
     0
 65
     1
110
0.0
120
0.0
130
0.0
111
1.0
121
0.0
131
0.0
112
0.0
122
1.0
132
0.0
 79
     0
146
0.0
  0
VPORT
  5
4DD
330
8
100
AcDbSymbolTableRecord
100
AcDbViewportTableRecord
  2
L4
 70
     0
 10
0.5
 20
0.5
 11
1.0
 21
1.0
 12
0.0
 22
0.0
 13
0.0
 23
0.0
 14
0.5
 24
0.5
 15
0.5
 25
0.5
 16
0.5773502691896258
 26
-0.5773502691896258
 36
0.5773502691896258
 17
0.0
 27
0.0
 37
0.0
 40
1656.878626
 41
0.010717
 42
50.0
 43
863.239457
 44
-863.239457
 50
0.0
 51
0.0
 71
     0
 72
   100
 73
     1
 74
     3
 75
     0
 76
     0
 77
     0
 78
     0
281
     0
 65
     1
110
0.0
120
0.0
130
0.0
111
1.0
121
0.0
131
0.0
112
0.0
122
1.0
132
0.0
 79
     0
146
0.0
  0
VPORT
  5
4DE
330
8
100
AcDbSymbolTableRecord
100
AcDbViewportTableRecord
  2
L6
 70
     0
 10
0.0
 20
0.5
 11
0.333333
 21
1.0
 12
0.0
 22
0.0
 13
0.0
 23
0.0
 14
0.5
 24
0.5
 15
0.5
 25
0.5
 16
0.7188730927569433
 26
-0.5850486126764433
 36
0.3754192287502549
 17
0.0
 27
0.0
 37
0.0
 40
1748.845658
 41
0.010153
 42
50.0
 43
905.432167
 44
-905.432167
 50
0.0
 51
0.0
 71
     0
 72
   100
 73
     1
 74
     3
 75
     0
 76
     0
 77
     0
 78
     0
281
     0
 65
     1
110
0.0
120
0.0
130
0.0
111
1.0
121
0.0
131
0.0
112
0.0
122
1.0
132
0.0
 79
     0
146
0.0
  0
VPORT
  5
4DF
330
8
100
AcDbSymbolTableRecord
100
AcDbViewportTableRecord
  2
L6
 70
     0
 10
0.0
 20
0.0
 11
0.333333
 21
0.5
 12
0.0
 22
0.0
 13
0.0
 23
0.0
 14
0.5
 24
0.5
 15
0.5
 25
0.5
 16
-1.0
 26
0.0
 36
0.0
 17
0.0
 27
0.0
 37
0.0
 40
1686.119035
 41
0.010531
 42
50.0
 43
852.57161
 44
-852.57161
 50
0.0
 51
0.0
 71
     0
 72
   100
 73
     1
 74
     3
 75
     0
 76
     0
 77
     0
 78
     0
281
     0
 65
     1
110
0.0
120
0.0
130
0.0
111
1.0
121
0.0
131
0.0
112
0.0
122
1.0
132
0.0
 79
     0
146
0.0
  0
VPORT
  5
4E0
330
8
100
AcDbSymbolTableRecord
100
AcDbViewportTableRecord
  2
L6
 70
     0
 10
0.333333
 20
0.5
 11
0.666667
 21
1.0
 12
1.697948
 22
11.189951
 13
0.0
 23
0.0
 14
0.5
 24
0.5
 15
0.5
 25
0.5
 16
0.0
 26
0.0
 36
1.0
 17
0.0
 27
0.0
 37
0.0
 40
254.0
 41
0.069908
 42
50.0
 43
238.446887
 44
-238.446887
 50
0.0
 51
0.0
 71
     0
 72
   100
 73
     1
 74
     3
 75
     0
 76
     0
 77
     0
 78
     0
281
     0
 65
     1
110
0.0
120
0.0
130
0.0
111
1.0
121
0.0
131
0.0
112
0.0
122
1.0
132
0.0
 79
     0
146
0.0
  0
VPORT
  5
4E1
330
8
100
AcDbSymbolTableRecord
100
AcDbViewportTableRecord
  2
L6
 70
     0
 10
0.333333
 20
0.0
 11
0.666667
 21
0.5
 12
0.0
 22
0.0
 13
0.0
 23
0.0
 14
0.5
 24
0.5
 15
0.5
 25
0.5
 16
0.0
 26
-1.0
 36
0.0
 17
0.0
 27
0.0
 37
0.0
 40
1686.119035
 41
0.010531
 42
50.0
 43
870.323791
 44
-870.323791
 50
0.0
 51
0.0
 71
     0
 72
   100
 73
     1
 74
     3
 75
     0
 76
     0
 77
     0
 78
     0
281
     0
 65
     1
110
0.0
120
0.0
130
0.0
111
1.0
121
0.0
131
0.0
112
0.0
122
1.0
132
0.0
 79
     0
146
0.0
  0
VPORT
  5
4E2
330
8
100
AcDbSymbolTableRecord
100
AcDbViewportTableRecord
  2
L6
 70
     0
 10
0.666667
 20
0.5
 11
1.0
 21
1.0
 12
0.0
 22
0.0
 13
0.0
 23
0.0
 14
0.5
 24
0.5
 15
0.5
 25
0.5
 16
0.5773502691896258
 26
-0.5773502691896258
 36
0.5773502691896258
 17
0.0
 27
0.0
 37
0.0
 40
1656.878626
 41
0.010717
 42
50.0
 43
863.239457
 44
-863.239457
 50
0.0
 51
0.0
 71
     0
 72
   100
 73
     1
 74
     3
 75
     0
 76
     0
 77
     0
 78
     0
281
     0
 65
     1
110
0.0
120
0.0
130
0.0
111
1.0
121
0.0
131
0.0
112
0.0
122
1.0
132
0.0
 79
     0
146
0.0
  0
VPORT
  5
4E3
330
8
100
AcDbSymbolTableRecord
100
AcDbViewportTableRecord
  2
L6
 70
     0
 10
0.666667
 20
0.0
 11
1.0
 21
0.5
 12
0.0
 22
0.0
 13
0.0
 23
0.0
 14
0.5
 24
0.5
 15
0.5
 25
0.5
 16
1.0
 26
0.0
 36
0.0
 17
0.0
 27
0.0
 37
0.0
 40
1686.119035
 41
0.010531
 42
50.0
 43
852.57161
 44
-852.57161
 50
0.0
 51
0.0
 71
     0
 72
   100
 73
     1
 74
     3
 75
     0
 76
     0
 77
     0
 78
     0
281
     0
 65
     1
110
0.0
120
0.0
130
0.0
111
1.0
121
0.0
131
0.0
112
0.0
122
1.0
132
0.0
 79
     0
146
0.0
  0
ENDTAB
  0
TABLE
  2
LTYPE
  5
5
330
0
100
AcDbSymbolTable
 70
     6
  0
LTYPE
  5
14
330
5
100
AcDbSymbolTableRecord
100
AcDbLinetypeTableRecord
  2
ByBlock
 70
     0
  3

 72
    65
 73
     0
 40
0.0
  0
LTYPE
  5
15
330
5
100
AcDbSymbolTableRecord
100
AcDbLinetypeTableRecord
  2
ByLayer
 70
     0
  3

 72
    65
 73
     0
 40
0.0
  0
LTYPE
  5
16
330
5
100
AcDbSymbolTableRecord
100
AcDbLinetypeTableRecord
  2
Continuous
 70
     0
  3
Solid line
 72
    65
 73
     0
 40
0.0
  0
LTYPE
  5
6E
330
5
100
AcDbSymbolTableRecord
100
AcDbLinetypeTableRecord
  2
CENTER
 70
     0
  3
____ _ ____ _ ____ _ ____
 72
    65
 73
     4
 40
47.4
 49
22.0
 74
     4
 75
     0
340
0
 46
0.0
 50
0.0
 44
0.0
 45
0.0
 49
-8.5
 74
     4
 75
     0
340
0
 46
0.0
 50
0.0
 44
0.0
 45
0.0
 49
8.5
 74
     4
 75
     0
340
0
 46
0.0
 50
0.0
 44
0.0
 45
0.0
 49
-8.5
 74
     4
 75
     0
340
0
 46
0.0
 50
0.0
 44
0.0
 45
0.0
  0
LTYPE
  5
6F
330
5
100
AcDbSymbolTableRecord
100
AcDbLinetypeTableRecord
  2
DASHDOT
 70
     0
  3
_._._._._._._._._._._._._._._._.
 72
    65
 73
     4
 40
70.0
 49
31.0
 74
     4
 75
     0
340
0
 46
0.0
 50
0.0
 44
0.0
 45
0.0
 49
-13.0
 74
     4
 75
     0
340
0
 46
0.0
 50
0.0
 44
0.0
 45
0.0
 49
13.0
 74
     4
 75
     0
340
0
 46
0.0
 50
0.0
 44
0.0
 45
0.0
 49
-13.0
 74
     4
 75
     0
340
0
 46
0.0
 50
0.0
 44
0.0
 45
0.0
  0
LTYPE
  5
70
330
5
100
AcDbSymbolTableRecord
100
AcDbLinetypeTableRecord
  2
DASHED
 70
     0
  3
__ __ __ __ __ __ __ __ __
 72
    65
 73
     2
 40
25.72
 49
12.86
 74
     4
 75
     0
340
0
 46
0.0
 50
0.0
 44
0.0
 45
0.0
 49
-12.86
 74
     4
 75
     0
340
0
 46
0.0
 50
0.0
 44
0.0
 45
0.0
  0
LTYPE
  5
71
330
5
100
AcDbSymbolTableRecord
100
AcDbLinetypeTableRecord
  2
DOT
 70
     0
  3
.........................
 72
    65
 73
     2
 40
10.0
 49
0.0
 74
     4
 75
     0
340
0
 46
0.0
 50
0.0
 44
0.0
 45
0.0
 49
-10.0
 74
     4
 75
     0
340
0
 46
0.0
 50
0.0
 44
0.0
 45
0.0
  0
LTYPE
  5
72
330
5
100
AcDbSymbolTableRecord
100
AcDbLinetypeTableRecord
  2
PHANTOM
 70
     0
  3
____ _ _ ____ _ _ _____ _ _ ____
 72
    65
 73
     6
 40
50.5
 49
18.0
 74
     4
 75
     0
340
0
 46
0.0
 50
0.0
 44
0.0
 45
0.0
 49
-6.5
 74
     4
 75
     0
340
0
 46
0.0
 50
0.0
 44
0.0
 45
0.0
 49
6.5
 74
     4
 75
     0
340
0
 46
0.0
 50
0.0
 44
0.0
 45
0.0
 49
-6.5
 74
     4
 75
     0
340
0
 46
0.0
 50
0.0
 44
0.0
 45
0.0
 49
6.5
 74
     4
 75
     0
340
0
 46
0.0
 50
0.0
 44
0.0
 45
0.0
 49
-6.5
 74
     4
 75
     0
340
0
 46
0.0
 50
0.0
 44
0.0
 45
0.0
  0
ENDTAB
  0
TABLE
  2
LAYER
  5
99901
330
0
100
AcDbSymbolTable
 70
    19
  0
LAYER
  5
99902
102
{ACAD_XDICTIONARY
360
60E
102
}
330
2
100
AcDbSymbolTableRecord
100
AcDbLayerTableRecord
  2
0
 70
     0
 62
     7
  6
CONTINUOUS
370
    -3
390
F
  0
LAYER
  5
99903
102
{ACAD_XDICTIONARY
360
610
102
}
330
2
100
AcDbSymbolTableRecord
100
AcDbLayerTableRecord
  2
1
 70
     0
 62
     4
  6
CONTINUOUS
370
    -3
390
F
  0
LAYER
  5
99904
102
{ACAD_XDICTIONARY
360
612
102
}
330
2
100
AcDbSymbolTableRecord
100
AcDbLayerTableRecord
  2
2
 70
     0
 62
     7
  6
CONTINUOUS
370
    -3
390
F
  0
LAYER
  5
99905
102
{ACAD_XDICTIONARY
360
614
102
}
330
2
100
AcDbSymbolTableRecord
100
AcDbLayerTableRecord
  2
4
 70
     0
 62
     2
  6
CENTER
370
    -3
390
F
  0
LAYER
  5
99906
102
{ACAD_XDICTIONARY
360
616
102
}
330
2
100
AcDbSymbolTableRecord
100
AcDbLayerTableRecord
  2
SK2
 70
     0
 62
     7
  6
CONTINUOUS
370
    -3
390
F
  0
LAYER
  5
99907
102
{ACAD_XDICTIONARY
360
618
102
}
330
2
100
AcDbSymbolTableRecord
100
AcDbLayerTableRecord
  2
SK3
 70
     0
 62
     1
  6
DASHED
370
    -3
390
F
  0
LAYER
  5
99908
102
{ACAD_XDICTIONARY
360
61A
102
}
330
2
100
AcDbSymbolTableRecord
100
AcDbLayerTableRecord
  2
SK4
 70
     0
 62
     2
  6
CENTER
370
    -3
390
F
  0
LAYER
  5
99909
102
{ACAD_XDICTIONARY
360
61C
102
}
330
2
100
AcDbSymbolTableRecord
100
AcDbLayerTableRecord
  2
SK6
 70
     0
 62
     5
  6
CONTINUOUS
370
    -3
390
F
  0
LAYER
  5
9990A
102
{ACAD_XDICTIONARY
360
61E
102
}
330
2
100
AcDbSymbolTableRecord
100
AcDbLayerTableRecord
  2
CUT
 70
     0
 62
     1
  6
CONTINUOUS
370
    -3
390
F
  0
LAYER
  5
9990B
102
{ACAD_XDICTIONARY
360
620
102
}
330
2
100
AcDbSymbolTableRecord
100
AcDbLayerTableRecord
  2
NOCUT
 70
     0
 62
     7
  6
CONTINUOUS
370
    -3
390
F
  0
LAYER
  5
9990C
102
{ACAD_XDICTIONARY
360
622
102
}
330
2
100
AcDbSymbolTableRecord
100
AcDbLayerTableRecord
  2
80
 70
     0
 62
     6
  6
CONTINUOUS
370
    -3
390
F
  0
LAYER
  5
9990D
102
{ACAD_XDICTIONARY
360
624
102
}
330
2
100
AcDbSymbolTableRecord
100
AcDbLayerTableRecord
  2
81
 70
     0
 62
     3
  6
CONTINUOUS
370
    -3
390
F
  0
LAYER
  5
9990E
102
{ACAD_XDICTIONARY
360
626
102
}
330
2
100
AcDbSymbolTableRecord
100
AcDbLayerTableRecord
  2
SK1
 70
     0
 62
     4
  6
CONTINUOUS
370
    -3
390
F
  0
ENDTAB
  0
TABLE
  2
STYLE
  5
3
330
0
100
AcDbSymbolTable
 70
     3
  0
STYLE
  5
11
330
3
100
AcDbSymbolTableRecord
100
AcDbTextStyleTableRecord
  2
Standard
 70
     0
 40
0.0
 41
1.0
 50
0.0
 71
     0
 42
0.2
  3
txt
  4

  0
STYLE
  5
421
330
3
100
AcDbSymbolTableRecord
100
AcDbTextStyleTableRecord
  2
iso_b_vert
 70
     0
 40
0.0
 41
1.0
 50
0.0
 71
     0
 42
0.2
  3
simplex.shx
  4

  0
STYLE
  5
422
330
3
100
AcDbSymbolTableRecord
100
AcDbTextStyleTableRecord
  2
DWGDirectTextStyle
 70
     0
 40
0.0
 41
1.0
 50
0.0
 71
     0
 42
0.2
  3
simplex
  4

  0
ENDTAB
  0
TABLE
  2
VIEW
  5
6
330
0
100
AcDbSymbolTable
 70
     8
  0
VIEW
  5
4CB
330
6
100
AcDbSymbolTableRecord
100
AcDbViewTableRecord
  2
Top
 70
     0
 40
254.0
 10
1.697948
 20
11.189951
 41
432.269129
 11
0.0
 21
0.0
 31
1.0
 12
0.0
 22
0.0
 32
0.0
 42
50.0
 43
238.446887
 44
-238.446887
 50
0.0
 71
     0
281
     0
 72
     0
  0
VIEW
  5
4CC
330
6
100
AcDbSymbolTableRecord
100
AcDbViewTableRecord
  2
Front
 70
     0
 40
1686.119035
 10
0.0
 20
0.0
 41
432.269129
 11
0.0
 21
-1.0
 31
0.0
 12
0.0
 22
0.0
 32
0.0
 42
50.0
 43
870.323791
 44
-870.323791
 50
0.0
 71
     0
281
     0
 72
     0
  0
VIEW
  5
4CD
330
6
100
AcDbSymbolTableRecord
100
AcDbViewTableRecord
  2
Right
 70
     0
 40
1686.119035
 10
0.0
 20
0.0
 41
254.0
 11
1.0
 21
0.0
 31
0.0
 12
0.0
 22
0.0
 32
0.0
 42
50.0
 43
852.57161
 44
-852.57161
 50
0.0
 71
     0
281
     0
 72
     0
  0
VIEW
  5
4CE
330
6
100
AcDbSymbolTableRecord
100
AcDbViewTableRecord
  2
Back
 70
     0
 40
1686.119035
 10
0.0
 20
0.0
 41
432.269129
 11
0.0
 21
1.0
 31
0.0
 12
0.0
 22
0.0
 32
0.0
 42
50.0
 43
870.323791
 44
-870.323791
 50
0.0
 71
     0
281
     0
 72
     0
  0
VIEW
  5
4CF
330
6
100
AcDbSymbolTableRecord
100
AcDbViewTableRecord
  2
Bottom
 70
     0
 40
254.0
 10
0.0
 20
0.0
 41
432.269129
 11
0.0
 21
0.0
 31
-1.0
 12
0.0
 22
0.0
 32
0.0
 42
50.0
 43
843.059518
 44
-843.059518
 50
180.0
 71
     0
281
     0
 72
     0
  0
VIEW
  5
4D0
330
6
100
AcDbSymbolTableRecord
100
AcDbViewTableRecord
  2
Left
 70
     0
 40
1686.119035
 10
0.0
 20
0.0
 41
254.0
 11
-1.0
 21
0.0
 31
0.0
 12
0.0
 22
0.0
 32
0.0
 42
50.0
 43
852.57161
 44
-852.57161
 50
0.0
 71
     0
281
     0
 72
     0
  0
VIEW
  5
4D1
330
6
100
AcDbSymbolTableRecord
100
AcDbViewTableRecord
  2
Isometric
 70
     0
 40
1656.878626
 10
0.0
 20
0.0
 41
485.265555
 11
0.5773502691896258
 21
-0.5773502691896258
 31
0.5773502691896258
 12
0.0
 22
0.0
 32
0.0
 42
50.0
 43
863.239457
 44
-863.239457
 50
0.0
 71
     0
281
     0
 72
     0
  0
VIEW
  5
4D2
330
6
100
AcDbSymbolTableRecord
100
AcDbViewTableRecord
  2
Trimetric
 70
     0
 40
1748.845658
 10
0.0
 20
0.0
 41
469.860082
 11
0.7188730927569433
 21
-0.5850486126764433
 31
0.3754192287502549
 12
0.0
 22
0.0
 32
0.0
 42
50.0
 43
905.432167
 44
-905.432167
 50
0.0
 71
     0
281
     0
 72
     0
  0
ENDTAB
  0
TABLE
  2
UCS
  5
7
330
0
100
AcDbSymbolTable
 70
     0
  0
ENDTAB
  0
TABLE
  2
APPID
  5
9
330
0
100
AcDbSymbolTable
 70
     8
  0
APPID
  5
12
330
9
100
AcDbSymbolTableRecord
100
AcDbRegAppTableRecord
  2
ACAD
 70
     0
  0
APPID
  5
432
330
9
100
AcDbSymbolTableRecord
100
AcDbRegAppTableRecord
  2
ACAD_DSTYLE_DIMBREAK
 70
     0
  0
APPID
  5
4E4
330
9
100
AcDbSymbolTableRecord
100
AcDbRegAppTableRecord
  2
ACAD_DSTYLE_DIM_LINETYPE
 70
     0
  0
APPID
  5
4E5
330
9
100
AcDbSymbolTableRecord
100
AcDbRegAppTableRecord
  2
ACAD_DSTYLE_DIM_EXT1_LINETYPE
 70
     0
  0
APPID
  5
4E6
330
9
100
AcDbSymbolTableRecord
100
AcDbRegAppTableRecord
  2
ACAD_DSTYLE_DIM_EXT2_LINETYPE
 70
     0
  0
APPID
  5
4E7
330
9
100
AcDbSymbolTableRecord
100
AcDbRegAppTableRecord
  2
ACAD_DSTYLE_DIMFLIPARROW_SYMBOL
 70
     0
  0
APPID
  5
4E8
330
9
100
AcDbSymbolTableRecord
100
AcDbRegAppTableRecord
  2
ACAD_DSTYLE_DIMFLIPARROW_WHICH_SYMBOL
 70
     0
  0
APPID
  5
528
330
9
100
AcDbSymbolTableRecord
100
AcDbRegAppTableRecord
  2
ACAD_MLEADERVER
 70
     0
  0
ENDTAB
  0
TABLE
  2
DIMSTYLE
  5
A
330
0
100
AcDbSymbolTable
 70
     1
100
AcDbDimStyleTable
  0
DIMSTYLE
105
27
102
{ACAD_REACTORS
330
433
330
44D
330
466
330
47F
330
499
330
4B1
102
}
330
A
100
AcDbSymbolTableRecord
100
AcDbDimStyleTableRecord
  2
Standard
 70
     0
178
     0
340
11
1001
ACAD_DSTYLE_DIMBREAK
1070
   391
1040
6.35
  0
ENDTAB
  0
TABLE
  2
BLOCK_RECORD
  5
1
330
0
100
AcDbSymbolTable
 70
    13
  0
BLOCK_RECORD
  5
1F
330
1
100
AcDbSymbolTableRecord
100
AcDbBlockTableRecord
  2
*Model_Space
340
22
  0
BLOCK_RECORD
  5
1B
330
1
100
AcDbSymbolTableRecord
100
AcDbBlockTableRecord
  2
*Paper_Space
340
1E
  0
BLOCK_RECORD
  5
23
330
1
100
AcDbSymbolTableRecord
100
AcDbBlockTableRecord
  2
*Paper_Space0
340
26
  0
BLOCK_RECORD
  5
437
330
1
100
AcDbSymbolTableRecord
100
AcDbBlockTableRecord
  2
*D1
340
0
  0
BLOCK_RECORD
  5
443
330
1
100
AcDbSymbolTableRecord
100
AcDbBlockTableRecord
  2
_U0
340
0
  0
BLOCK_RECORD
  5
450
330
1
100
AcDbSymbolTableRecord
100
AcDbBlockTableRecord
  2
*D3
340
0
  0
BLOCK_RECORD
  5
45C
330
1
100
AcDbSymbolTableRecord
100
AcDbBlockTableRecord
  2
_U1
340
0
  0
BLOCK_RECORD
  5
469
330
1
100
AcDbSymbolTableRecord
100
AcDbBlockTableRecord
  2
*D5
340
0
  0
BLOCK_RECORD
  5
476
330
1
100
AcDbSymbolTableRecord
100
AcDbBlockTableRecord
  2
_U2
340
0
  0
BLOCK_RECORD
  5
482
330
1
100
AcDbSymbolTableRecord
100
AcDbBlockTableRecord
  2
*D7
340
0
  0
BLOCK_RECORD
  5
490
330
1
100
AcDbSymbolTableRecord
100
AcDbBlockTableRecord
  2
_U3
340
0
  0
BLOCK_RECORD
  5
49C
330
1
100
AcDbSymbolTableRecord
100
AcDbBlockTableRecord
  2
*D9
340
0
  0
BLOCK_RECORD
  5
4A8
330
1
100
AcDbSymbolTableRecord
100
AcDbBlockTableRecord
  2
_U4
340
0
  0
BLOCK_RECORD
  5
4B4
330
1
100
AcDbSymbolTableRecord
100
AcDbBlockTableRecord
  2
*D11
340
0
  0
BLOCK_RECORD
  5
4C2
330
1
100
AcDbSymbolTableRecord
100
AcDbBlockTableRecord
  2
_U5
340
0
  0
ENDTAB
  0
ENDSEC
  0
SECTION
  2
BLOCKS
  0
BLOCK
  5
20
330
1F
100
AcDbEntity
  8
0
100
AcDbBlockBegin
  2
*Model_Space
 70
     0
 10
0.0
 20
0.0
 30
0.0
  3
*Model_Space
  1

  0
ENDBLK
  5
21
330
1F
100
AcDbEntity
  8
0
100
AcDbBlockEnd
  0
BLOCK
  5
1C
330
1B
100
AcDbEntity
 67
     1
  8
0
100
AcDbBlockBegin
  2
*Paper_Space
 70
     0
 10
0.0
 20
0.0
 30
0.0
  3
*Paper_Space
  1

  0
ENDBLK
  5
1D
330
1B
100
AcDbEntity
 67
     1
  8
0
100
AcDbBlockEnd
  0
BLOCK
  5
24
330
23
100
AcDbEntity
  8
0
100
AcDbBlockBegin
  2
*Paper_Space0
 70
     0
 10
0.0
 20
0.0
 30
0.0
  3
*Paper_Space0
  1

  0
ENDBLK
  5
25
330
23
100
AcDbEntity
  8
0
100
AcDbBlockEnd
  0
BLOCK
  5
438
330
437
100
AcDbEntity
  8
0
100
AcDbBlockBegin
  2
*D1
 70
     1
 10
0.0
 20
0.0
 30
0.0
  3
*D1
  1

  0
LINE
  5
43A
330
437
100
AcDbEntity
  8
0
 62
    95
370
    -2
100
AcDbLine
 10
-1.0875
 20
-23.5
 30
0.0
 11
-48.799875
 21
-23.5
 31
0.0
  0
LINE
  5
43B
330
437
100
AcDbEntity
  8
0
 62
    95
370
    -2
100
AcDbLine
 10
-1.0875
 20
23.5
 30
0.0
 11
-48.799875
 21
23.5
 31
0.0
  0
LINE
  5
43C
330
437
100
AcDbEntity
  8
0
 62
    95
370
    -2
100
AcDbLine
 10
-45.624875
 20
-20.325
 30
0.0
 11
-45.624875
 21
20.325
 31
0.0
  0
SOLID
  5
43D
330
437
100
AcDbEntity
  8
0
 62
    95
100
AcDbTrace
 10
-46.154042
 20
-20.325
 30
0.0
 11
-45.095708
 21
-20.325
 31
0.0
 12
-45.624875
 22
-23.5
 32
0.0
 13
-45.624875
 23
-23.5
 33
0.0
  0
SOLID
  5
43E
330
437
100
AcDbEntity
  8
0
 62
    95
100
AcDbTrace
 10
-45.095708
 20
20.325
 30
0.0
 11
-46.154042
 21
20.325
 31
0.0
 12
-45.624875
 22
23.5
 32
0.0
 13
-45.624875
 23
23.5
 33
0.0
  0
MTEXT
  5
43F
330
437
100
AcDbEntity
  8
0
 62
    95
370
    18
100
AcDbMText
 10
-52.931334
 20
0.0
 30
0.0
 40
3.5001
 41
0.0
 71
     5
 72
     1
  1
\A1;47
  7
iso_b_vert
 11
0.0
 21
1.0
 31
0.0
 73
     1
 44
1.0
  0
POINT
  5
440
330
437
100
AcDbEntity
  8
Defpoints
 62
     0
100
AcDbPoint
 10
0.5
 20
-23.5
 30
0.0
  0
POINT
  5
441
330
437
100
AcDbEntity
  8
Defpoints
 62
     0
100
AcDbPoint
 10
0.5
 20
23.5
 30
0.0
  0
POINT
  5
442
330
437
100
AcDbEntity
  8
Defpoints
 62
     0
100
AcDbPoint
 10
-45.624875
 20
23.5
 30
0.0
  0
ENDBLK
  5
439
330
437
100
AcDbEntity
  8
0
100
AcDbBlockEnd
  0
BLOCK
  5
44B
330
443
100
AcDbEntity
  8
0
100
AcDbBlockBegin
  2
_U0
 70
     0
 10
0.0
 20
0.0
 30
0.0
  3
_U0
  1

  0
MTEXT
  5
444
330
443
100
AcDbEntity
  8
2
  6
Continuous
 62
    95
370
    13
100
AcDbMText
 10
-47.189553
 20
3.132857
 30
0.0
 40
3.5001
 41
0.0
 71
     7
 72
     5
  1
\W0.8253;46
  7
iso_b_vert
 11
6.123233995736766E-17
 21
1.0
 31
0.0
 73
     2
 44
1.084337
  0
MTEXT
  5
445
330
443
100
AcDbEntity
  8
2
  6
Continuous
 62
    95
370
    13
100
AcDbMText
 10
-47.189553
 20
-7.367443
 30
0.0
 40
3.5001
 41
0.0
 71
     7
 72
     5
  1
%%c
  7
iso_b_vert
 11
6.123233995736766E-17
 21
1.0
 31
0.0
 73
     2
 44
1.084337
  0
LINE
  5
446
330
443
100
AcDbEntity
  8
2
 62
    95
370
    13
100
AcDbLine
 10
-1.0875
 20
-23.5
 30
0.0
 11
-48.799875
 21
-23.5
 31
0.0
  0
LINE
  5
447
330
443
100
AcDbEntity
  8
2
 62
    95
370
    13
100
AcDbLine
 10
-1.0875
 20
23.5
 30
0.0
 11
-48.799875
 21
23.5
 31
0.0
  0
LINE
  5
448
330
443
100
AcDbEntity
  8
2
 62
    95
370
    13
100
AcDbLine
 10
-45.624875
 20
-23.5
 30
0.0
 11
-45.624875
 21
23.5
 31
0.0
  0
SOLID
  5
449
330
443
100
AcDbEntity
  8
2
 62
    95
370
    18
100
AcDbTrace
 10
-45.624875
 20
-23.5
 30
0.0
 11
-46.042872
 21
-20.325002
 31
0.0
 12
-45.206878
 22
-20.324998
 32
0.0
 13
-45.206878
 23
-20.324998
 33
0.0
  0
SOLID
  5
44A
330
443
100
AcDbEntity
  8
2
 62
    95
370
    18
100
AcDbTrace
 10
-45.624875
 20
23.5
 30
0.0
 11
-45.206878
 21
20.325002
 31
0.0
 12
-46.042872
 22
20.324998
 32
0.0
 13
-46.042872
 23
20.324998
 33
0.0
  0
ENDBLK
  5
44C
330
443
100
AcDbEntity
  8
0
100
AcDbBlockEnd
  0
BLOCK
  5
451
330
450
100
AcDbEntity
  8
0
100
AcDbBlockBegin
  2
*D3
 70
     1
 10
0.0
 20
0.0
 30
0.0
  3
*D3
  1

  0
LINE
  5
453
330
450
100
AcDbEntity
  8
0
 62
    95
370
    -2
100
AcDbLine
 10
-0.5875
 20
9.625
 30
0.0
 11
-38.799875
 21
9.625
 31
0.0
  0
LINE
  5
454
330
450
100
AcDbEntity
  8
0
 62
    95
370
    -2
100
AcDbLine
 10
-0.5875
 20
-9.625
 30
0.0
 11
-38.799875
 21
-9.625
 31
0.0
  0
LINE
  5
455
330
450
100
AcDbEntity
  8
0
 62
    95
370
    -2
100
AcDbLine
 10
-35.624875
 20
6.45
 30
0.0
 11
-35.624875
 21
-6.45
 31
0.0
  0
SOLID
  5
456
330
450
100
AcDbEntity
  8
0
 62
    95
100
AcDbTrace
 10
-35.095708
 20
6.45
 30
0.0
 11
-36.154042
 21
6.45
 31
0.0
 12
-35.624875
 22
9.625
 32
0.0
 13
-35.624875
 23
9.625
 33
0.0
  0
SOLID
  5
457
330
450
100
AcDbEntity
  8
0
 62
    95
100
AcDbTrace
 10
-36.154042
 20
-6.45
 30
0.0
 11
-35.095708
 21
-6.45
 31
0.0
 12
-35.624875
 22
-9.625
 32
0.0
 13
-35.624875
 23
-9.625
 33
0.0
  0
MTEXT
  5
458
330
450
100
AcDbEntity
  8
0
 62
    95
370
    18
100
AcDbMText
 10
-42.931334
 20
0.0
 30
0.0
 40
3.5001
 41
0.0
 71
     5
 72
     1
  1
\A1;19.3
  7
iso_b_vert
 11
0.0
 21
1.0
 31
0.0
 73
     1
 44
1.0
  0
POINT
  5
459
330
450
100
AcDbEntity
  8
Defpoints
 62
     0
100
AcDbPoint
 10
1.0
 20
9.625
 30
0.0
  0
POINT
  5
45A
330
450
100
AcDbEntity
  8
Defpoints
 62
     0
100
AcDbPoint
 10
1.0
 20
-9.625
 30
0.0
  0
POINT
  5
45B
330
450
100
AcDbEntity
  8
Defpoints
 62
     0
100
AcDbPoint
 10
-35.624875
 20
-9.625
 30
0.0
  0
ENDBLK
  5
452
330
450
100
AcDbEntity
  8
0
100
AcDbBlockEnd
  0
BLOCK
  5
464
330
45C
100
AcDbEntity
  8
0
100
AcDbBlockBegin
  2
_U1
 70
     0
 10
0.0
 20
0.0
 30
0.0
  3
_U1
  1

  0
MTEXT
  5
45D
330
45C
100
AcDbEntity
  8
2
  6
Continuous
 62
    95
370
    13
100
AcDbMText
 10
-37.189553
 20
2.267366
 30
0.0
 40
3.5001
 41
0.0
 71
     7
 72
     5
  1
\W0.7335;19,1
  7
iso_b_vert
 11
6.123233995736766E-17
 21
1.0
 31
0.0
 73
     2
 44
1.084337
  0
MTEXT
  5
45E
330
45C
100
AcDbEntity
  8
2
  6
Continuous
 62
    95
370
    13
100
AcDbMText
 10
-37.189553
 20
-8.232934
 30
0.0
 40
3.5001
 41
0.0
 71
     7
 72
     5
  1
%%c
  7
iso_b_vert
 11
6.123233995736766E-17
 21
1.0
 31
0.0
 73
     2
 44
1.084337
  0
LINE
  5
45F
330
45C
100
AcDbEntity
  8
2
 62
    95
370
    13
100
AcDbLine
 10
-0.5875
 20
9.625
 30
0.0
 11
-38.799875
 21
9.625
 31
0.0
  0
LINE
  5
460
330
45C
100
AcDbEntity
  8
2
 62
    95
370
    13
100
AcDbLine
 10
-0.5875
 20
-9.625
 30
0.0
 11
-38.799875
 21
-9.625
 31
0.0
  0
LINE
  5
461
330
45C
100
AcDbEntity
  8
2
 62
    95
370
    13
100
AcDbLine
 10
-35.624875
 20
9.625
 30
0.0
 11
-35.624875
 21
-9.625
 31
0.0
  0
SOLID
  5
462
330
45C
100
AcDbEntity
  8
2
 62
    95
370
    18
100
AcDbTrace
 10
-35.624875
 20
9.625
 30
0.0
 11
-35.206878
 21
6.450002
 31
0.0
 12
-36.042872
 22
6.449998
 32
0.0
 13
-36.042872
 23
6.449998
 33
0.0
  0
SOLID
  5
463
330
45C
100
AcDbEntity
  8
2
 62
    95
370
    18
100
AcDbTrace
 10
-35.624875
 20
-9.625
 30
0.0
 11
-36.042872
 21
-6.450002
 31
0.0
 12
-35.206878
 22
-6.449998
 32
0.0
 13
-35.206878
 23
-6.449998
 33
0.0
  0
ENDBLK
  5
465
330
45C
100
AcDbEntity
  8
0
100
AcDbBlockEnd
  0
BLOCK
  5
46A
330
469
100
AcDbEntity
  8
0
100
AcDbBlockBegin
  2
*D5
 70
     1
 10
0.0
 20
0.0
 30
0.0
  3
*D5
  1

  0
LINE
  5
46C
330
469
100
AcDbEntity
  8
0
 62
    95
370
    -2
100
AcDbLine
 10
-0.5875
 20
4.0975
 30
0.0
 11
-14.6749
 21
4.0975
 31
0.0
  0
LINE
  5
46D
330
469
100
AcDbEntity
  8
0
 62
    95
370
    -2
100
AcDbLine
 10
-0.5875
 20
-4.0975
 30
0.0
 11
-14.6749
 21
-4.0975
 31
0.0
  0
LINE
  5
46E
330
469
100
AcDbEntity
  8
0
 62
    95
370
    -2
100
AcDbLine
 10
-11.4999
 20
4.0975
 30
0.0
 11
-11.4999
 21
7.2725
 31
0.0
  0
LINE
  5
46F
330
469
100
AcDbEntity
  8
0
 62
    95
370
    -2
100
AcDbLine
 10
-11.4999
 20
-4.0975
 30
0.0
 11
-11.4999
 21
-7.2725
 31
0.0
  0
SOLID
  5
470
330
469
100
AcDbEntity
  8
0
 62
    95
100
AcDbTrace
 10
-10.970733
 20
0.9225
 30
0.0
 11
-12.029067
 21
0.9225
 31
0.0
 12
-11.4999
 22
4.0975
 32
0.0
 13
-11.4999
 23
4.0975
 33
0.0
  0
SOLID
  5
471
330
469
100
AcDbEntity
  8
0
 62
    95
100
AcDbTrace
 10
-12.029067
 20
-0.9225
 30
0.0
 11
-10.970733
 21
-0.9225
 31
0.0
 12
-11.4999
 22
-4.0975
 32
0.0
 13
-11.4999
 23
-4.0975
 33
0.0
  0
MTEXT
  5
472
330
469
100
AcDbEntity
  8
0
 62
    95
370
    18
100
AcDbMText
 10
-18.806359
 20
0.0
 30
0.0
 40
3.5001
 41
0.0
 71
     5
 72
     1
  1
\A1;8.2
  7
iso_b_vert
 11
0.0
 21
1.0
 31
0.0
 73
     1
 44
1.0
  0
POINT
  5
473
330
469
100
AcDbEntity
  8
Defpoints
 62
     0
100
AcDbPoint
 10
1.0
 20
4.0975
 30
0.0
  0
POINT
  5
474
330
469
100
AcDbEntity
  8
Defpoints
 62
     0
100
AcDbPoint
 10
1.0
 20
-4.0975
 30
0.0
  0
POINT
  5
475
330
469
100
AcDbEntity
  8
Defpoints
 62
     0
100
AcDbPoint
 10
-11.4999
 20
-4.0975
 30
0.0
  0
ENDBLK
  5
46B
330
469
100
AcDbEntity
  8
0
100
AcDbBlockEnd
  0
BLOCK
  5
47D
330
476
100
AcDbEntity
  8
0
100
AcDbBlockBegin
  2
_U2
 70
     0
 10
0.0
 20
0.0
 30
0.0
  3
_U2
  1

  0
MTEXT
  5
477
330
476
100
AcDbEntity
  8
2
  6
Continuous
 62
    95
370
    13
100
AcDbMText
 10
-12.189553
 20
-2.549905
 30
0.0
 40
3.5001
 41
0.0
 71
     7
 72
     5
  1
\W0.7383;8,2
  7
iso_b_vert
 11
6.123233995736766E-17
 21
1.0
 31
0.0
 73
     2
 44
1.084337
  0
LINE
  5
478
330
476
100
AcDbEntity
  8
2
 62
    95
370
    13
100
AcDbLine
 10
-0.5875
 20
4.0975
 30
0.0
 11
-14.6749
 21
4.0975
 31
0.0
  0
LINE
  5
479
330
476
100
AcDbEntity
  8
2
 62
    95
370
    13
100
AcDbLine
 10
-0.5875
 20
-4.0975
 30
0.0
 11
-14.6749
 21
-4.0975
 31
0.0
  0
LINE
  5
47A
330
476
100
AcDbEntity
  8
2
 62
    95
370
    13
100
AcDbLine
 10
-11.4999
 20
12.84775
 30
0.0
 11
-11.4999
 21
-12.84775
 31
0.0
  0
SOLID
  5
47B
330
476
100
AcDbEntity
  8
2
 62
    95
370
    18
100
AcDbTrace
 10
-11.4999
 20
4.0975
 30
0.0
 11
-11.917897
 21
7.272498
 31
0.0
 12
-11.081903
 22
7.272502
 32
0.0
 13
-11.081903
 23
7.272502
 33
0.0
  0
SOLID
  5
47C
330
476
100
AcDbEntity
  8
2
 62
    95
370
    18
100
AcDbTrace
 10
-11.4999
 20
-4.0975
 30
0.0
 11
-11.081903
 21
-7.272498
 31
0.0
 12
-11.917897
 22
-7.272502
 32
0.0
 13
-11.917897
 23
-7.272502
 33
0.0
  0
ENDBLK
  5
47E
330
476
100
AcDbEntity
  8
0
100
AcDbBlockEnd
  0
BLOCK
  5
483
330
482
100
AcDbEntity
  8
0
100
AcDbBlockBegin
  2
*D7
 70
     1
 10
0.0
 20
0.0
 30
0.0
  3
*D7
  1

  0
LINE
  5
485
330
482
100
AcDbEntity
  8
0
 62
   254
370
    -2
100
AcDbLine
 10
35.942131
 20
31.347466
 30
0.0
 11
35.942131
 21
37.434866
 31
0.0
  0
LINE
  5
486
330
482
100
AcDbEntity
  8
0
 62
   254
370
    -2
100
AcDbLine
 10
40.0
 20
27.4675
 30
0.0
 11
40.0
 21
37.434866
 31
0.0
  0
LINE
  5
487
330
482
100
AcDbEntity
  8
0
 62
   254
370
    -2
100
AcDbLine
 10
40.0
 20
34.259866
 30
0.0
 11
63.296318
 21
34.259866
 31
0.0
  0
LINE
  5
488
330
482
100
AcDbEntity
  8
0
 62
   254
370
    -2
100
AcDbLine
 10
32.767131
 20
34.259866
 30
0.0
 11
29.592131
 21
34.259866
 31
0.0
  0
LINE
  5
489
330
482
100
AcDbEntity
  8
0
 62
   254
370
    -2
100
AcDbLine
 10
43.175
 20
34.259866
 30
0.0
 11
46.35
 21
34.259866
 31
0.0
  0
SOLID
  5
48A
330
482
100
AcDbEntity
  8
0
 62
   254
100
AcDbTrace
 10
32.767131
 20
33.730699
 30
0.0
 11
32.767131
 21
34.789032
 31
0.0
 12
35.942131
 22
34.259866
 32
0.0
 13
35.942131
 23
34.259866
 33
0.0
  0
SOLID
  5
48B
330
482
100
AcDbEntity
  8
0
 62
   254
100
AcDbTrace
 10
43.175
 20
34.789032
 30
0.0
 11
43.175
 21
33.730699
 31
0.0
 12
40.0
 22
34.259866
 32
0.0
 13
40.0
 23
34.259866
 33
0.0
  0
MTEXT
  5
48C
330
482
100
AcDbEntity
  8
0
 62
   254
370
    18
100
AcDbMText
 10
54.823159
 20
41.566324
 30
0.0
 40
3.5001
 41
0.0
 71
     5
 72
     1
  1
\A1;4.1
  7
iso_b_vert
 73
     1
 44
1.0
  0
POINT
  5
48D
330
482
100
AcDbEntity
  8
Defpoints
 62
     0
100
AcDbPoint
 10
35.942131
 20
29.759966
 30
0.0
  0
POINT
  5
48E
330
482
100
AcDbEntity
  8
Defpoints
 62
     0
100
AcDbPoint
 10
40.0
 20
25.88
 30
0.0
  0
POINT
  5
48F
330
482
100
AcDbEntity
  8
Defpoints
 62
     0
100
AcDbPoint
 10
40.0
 20
34.259866
 30
0.0
  0
ENDBLK
  5
484
330
482
100
AcDbEntity
  8
0
100
AcDbBlockEnd
  0
BLOCK
  5
497
330
490
100
AcDbEntity
  8
0
100
AcDbBlockBegin
  2
_U3
 70
     0
 10
0.0
 20
0.0
 30
0.0
  3
_U3
  1

  0
MTEXT
  5
491
330
490
100
AcDbEntity
  8
2
  6
Continuous
 62
   254
370
    13
100
AcDbMText
 10
51.298005
 20
35.292529
 30
0.0
 40
3.5001
 41
0.0
 71
     7
 72
     5
  1
\W0.8344;4,1
  7
iso_b_vert
 73
     2
 44
1.084337
  0
LINE
  5
492
330
490
100
AcDbEntity
  8
2
 62
   254
370
    13
100
AcDbLine
 10
35.942131
 20
31.347466
 30
0.0
 11
35.942131
 21
37.434866
 31
0.0
  0
LINE
  5
493
330
490
100
AcDbEntity
  8
2
 62
   254
370
    13
100
AcDbLine
 10
40.0
 20
27.4675
 30
0.0
 11
40.0
 21
37.434866
 31
0.0
  0
LINE
  5
494
330
490
100
AcDbEntity
  8
2
 62
   254
370
    13
100
AcDbLine
 10
56.020972
 20
34.259866
 30
0.0
 11
27.191881
 21
34.259866
 31
0.0
  0
SOLID
  5
495
330
490
100
AcDbEntity
  8
2
 62
   254
370
    18
100
AcDbTrace
 10
35.942131
 20
34.259866
 30
0.0
 11
32.767133
 21
33.841869
 31
0.0
 12
32.76713
 22
34.677862
 32
0.0
 13
32.76713
 23
34.677862
 33
0.0
  0
SOLID
  5
496
330
490
100
AcDbEntity
  8
2
 62
   254
370
    18
100
AcDbTrace
 10
40.0
 20
34.259866
 30
0.0
 11
43.174998
 21
34.677862
 31
0.0
 12
43.175002
 22
33.841869
 32
0.0
 13
43.175002
 23
33.841869
 33
0.0
  0
ENDBLK
  5
498
330
490
100
AcDbEntity
  8
0
100
AcDbBlockEnd
  0
BLOCK
  5
49D
330
49C
100
AcDbEntity
  8
0
100
AcDbBlockBegin
  2
*D9
 70
     1
 10
0.0
 20
0.0
 30
0.0
  3
*D9
  1

  0
LINE
  5
49F
330
49C
100
AcDbEntity
  8
0
 62
   254
370
    -2
100
AcDbLine
 10
0.0
 20
6.685
 30
0.0
 11
0.0
 21
57.0549
 31
0.0
  0
LINE
  5
4A0
330
49C
100
AcDbEntity
  8
0
 62
   254
370
    -2
100
AcDbLine
 10
40.0
 20
27.4675
 30
0.0
 11
40.0
 21
57.0549
 31
0.0
  0
LINE
  5
4A1
330
49C
100
AcDbEntity
  8
0
 62
   254
370
    -2
100
AcDbLine
 10
3.175
 20
53.8799
 30
0.0
 11
36.825
 21
53.8799
 31
0.0
  0
SOLID
  5
4A2
330
49C
100
AcDbEntity
  8
0
 62
   254
100
AcDbTrace
 10
3.175
 20
54.409067
 30
0.0
 11
3.175
 21
53.350733
 31
0.0
 12
0.0
 22
53.8799
 32
0.0
 13
0.0
 23
53.8799
 33
0.0
  0
SOLID
  5
4A3
330
49C
100
AcDbEntity
  8
0
 62
   254
100
AcDbTrace
 10
36.825
 20
53.350733
 30
0.0
 11
36.825
 21
54.409067
 31
0.0
 12
40.0
 22
53.8799
 32
0.0
 13
40.0
 23
53.8799
 33
0.0
  0
MTEXT
  5
4A4
330
49C
100
AcDbEntity
  8
0
 62
   254
370
    18
100
AcDbMText
 10
20.0
 20
61.186359
 30
0.0
 40
3.5001
 41
0.0
 71
     5
 72
     1
  1
\A1;40
  7
iso_b_vert
 73
     1
 44
1.0
  0
POINT
  5
4A5
330
49C
100
AcDbEntity
  8
Defpoints
 62
     0
100
AcDbPoint
 10
0.0
 20
5.0975
 30
0.0
  0
POINT
  5
4A6
330
49C
100
AcDbEntity
  8
Defpoints
 62
     0
100
AcDbPoint
 10
40.0
 20
25.88
 30
0.0
  0
POINT
  5
4A7
330
49C
100
AcDbEntity
  8
Defpoints
 62
     0
100
AcDbPoint
 10
40.0
 20
53.8799
 30
0.0
  0
ENDBLK
  5
49E
330
49C
100
AcDbEntity
  8
0
100
AcDbBlockEnd
  0
BLOCK
  5
4AF
330
4A8
100
AcDbEntity
  8
0
100
AcDbBlockBegin
  2
_U4
 70
     0
 10
0.0
 20
0.0
 30
0.0
  3
_U4
  1

  0
MTEXT
  5
4A9
330
4A8
100
AcDbEntity
  8
2
  6
Continuous
 62
   254
370
    13
100
AcDbMText
 10
17.910707
 20
54.912563
 30
0.0
 40
3.5001
 41
0.0
 71
     7
 72
     5
  1
\W0.8010;40
  7
iso_b_vert
 73
     2
 44
1.084337
  0
LINE
  5
4AA
330
4A8
100
AcDbEntity
  8
2
 62
   254
370
    13
100
AcDbLine
 10
0.0
 20
8.487896
 30
0.0
 11
0.0
 21
57.0549
 31
0.0
  0
LINE
  5
4AB
330
4A8
100
AcDbEntity
  8
2
 62
   254
370
    13
100
AcDbLine
 10
40.0
 20
27.4675
 30
0.0
 11
40.0
 21
57.0549
 31
0.0
  0
LINE
  5
4AC
330
4A8
100
AcDbEntity
  8
2
 62
   254
370
    13
100
AcDbLine
 10
0.0
 20
53.8799
 30
0.0
 11
40.0
 21
53.8799
 31
0.0
  0
SOLID
  5
4AD
330
4A8
100
AcDbEntity
  8
2
 62
   254
370
    18
100
AcDbTrace
 10
0.0
 20
53.8799
 30
0.0
 11
3.174998
 21
54.297897
 31
0.0
 12
3.175002
 22
53.461903
 32
0.0
 13
3.175002
 23
53.461903
 33
0.0
  0
SOLID
  5
4AE
330
4A8
100
AcDbEntity
  8
2
 62
   254
370
    18
100
AcDbTrace
 10
40.0
 20
53.8799
 30
0.0
 11
36.825002
 21
53.461903
 31
0.0
 12
36.824998
 22
54.297897
 32
0.0
 13
36.824998
 23
54.297897
 33
0.0
  0
ENDBLK
  5
4B0
330
4A8
100
AcDbEntity
  8
0
100
AcDbBlockEnd
  0
BLOCK
  5
4B5
330
4B4
100
AcDbEntity
  8
0
100
AcDbBlockBegin
  2
*D11
 70
     1
 10
0.0
 20
0.0
 30
0.0
  3
*D11
  1

  0
LINE
  5
4B7
330
4B4
100
AcDbEntity
  8
0
 62
    95
370
    -2
100
AcDbLine
 10
0.0
 20
-8.487896
 30
0.0
 11
0.0
 21
-46.1751
 31
0.0
  0
LINE
  5
4B8
330
4B4
100
AcDbEntity
  8
0
 62
    95
370
    -2
100
AcDbLine
 10
4.9
 20
2.214712
 30
0.0
 11
4.9
 21
-46.1751
 31
0.0
  0
LINE
  5
4B9
330
4B4
100
AcDbEntity
  8
0
 62
    95
370
    -2
100
AcDbLine
 10
0.0
 20
-43.0001
 30
0.0
 11
-24.629689
 21
-43.0001
 31
0.0
  0
LINE
  5
4BA
330
4B4
100
AcDbEntity
  8
0
 62
    95
370
    -2
100
AcDbLine
 10
-3.175
 20
-43.0001
 30
0.0
 11
-6.35
 21
-43.0001
 31
0.0
  0
LINE
  5
4BB
330
4B4
100
AcDbEntity
  8
0
 62
    95
370
    -2
100
AcDbLine
 10
8.075
 20
-43.0001
 30
0.0
 11
11.25
 21
-43.0001
 31
0.0
  0
SOLID
  5
4BC
330
4B4
100
AcDbEntity
  8
0
 62
    95
100
AcDbTrace
 10
-3.175
 20
-43.529267
 30
0.0
 11
-3.175
 21
-42.470933
 31
0.0
 12
0.0
 22
-43.0001
 32
0.0
 13
0.0
 23
-43.0001
 33
0.0
  0
SOLID
  5
4BD
330
4B4
100
AcDbEntity
  8
0
 62
    95
100
AcDbTrace
 10
8.075
 20
-42.470933
 30
0.0
 11
8.075
 21
-43.529267
 31
0.0
 12
4.9
 22
-43.0001
 32
0.0
 13
4.9
 23
-43.0001
 33
0.0
  0
MTEXT
  5
4BE
330
4B4
100
AcDbEntity
  8
0
 62
    95
370
    18
100
AcDbMText
 10
-15.489844
 20
-35.693641
 30
0.0
 40
3.5001
 41
0.0
 71
     5
 72
     1
  1
\A1;4.9
  7
iso_b_vert
 73
     1
 44
1.0
  0
POINT
  5
4BF
330
4B4
100
AcDbEntity
  8
Defpoints
 62
     0
100
AcDbPoint
 10
0.0
 20
-6.900396
 30
0.0
  0
POINT
  5
4C0
330
4B4
100
AcDbEntity
  8
Defpoints
 62
     0
100
AcDbPoint
 10
4.9
 20
3.802212
 30
0.0
  0
POINT
  5
4C1
330
4B4
100
AcDbEntity
  8
Defpoints
 62
     0
100
AcDbPoint
 10
4.9
 20
-43.0001
 30
0.0
  0
ENDBLK
  5
4B6
330
4B4
100
AcDbEntity
  8
0
100
AcDbBlockEnd
  0
BLOCK
  5
4C9
330
4C2
100
AcDbEntity
  8
0
100
AcDbBlockBegin
  2
_U5
 70
     0
 10
0.0
 20
0.0
 30
0.0
  3
_U5
  1

  0
MTEXT
  5
4C3
330
4C2
100
AcDbEntity
  8
2
  6
Continuous
 62
    95
370
    13
100
AcDbMText
 10
-16.710358
 20
-41.967437
 30
0.0
 40
3.5001
 41
0.0
 71
     7
 72
     5
  1
\W0.8012;4,9
  7
iso_b_vert
 73
     2
 44
1.084337
  0
LINE
  5
4C4
330
4C2
100
AcDbEntity
  8
2
 62
    95
370
    13
100
AcDbLine
 10
0.0
 20
-8.487896
 30
0.0
 11
0.0
 21
-46.1751
 31
0.0
  0
LINE
  5
4C5
330
4C2
100
AcDbEntity
  8
2
 62
    95
370
    13
100
AcDbLine
 10
4.9
 20
-5.389712
 30
0.0
 11
4.9
 21
-46.1751
 31
0.0
  0
LINE
  5
4C6
330
4C2
100
AcDbEntity
  8
2
 62
    95
370
    13
100
AcDbLine
 10
13.65025
 20
-43.0001
 30
0.0
 11
-16.895864
 21
-43.0001
 31
0.0
  0
SOLID
  5
4C7
330
4C2
100
AcDbEntity
  8
2
 62
    95
370
    18
100
AcDbTrace
 10
0.0
 20
-43.0001
 30
0.0
 11
-3.174998
 21
-43.418097
 31
0.0
 12
-3.175002
 22
-42.582103
 32
0.0
 13
-3.175002
 23
-42.582103
 33
0.0
  0
SOLID
  5
4C8
330
4C2
100
AcDbEntity
  8
2
 62
    95
370
    18
100
AcDbTrace
 10
4.9
 20
-43.0001
 30
0.0
 11
8.074998
 21
-42.582103
 31
0.0
 12
8.075002
 22
-43.418097
 32
0.0
 13
8.075002
 23
-43.418097
 33
0.0
  0
ENDBLK
  5
4CA
330
4C2
100
AcDbEntity
  8
0
100
AcDbBlockEnd
  0
ENDSEC
  0
SECTION
  2
ENTITIES
  0
POINT
  5
73
102
{ACAD_REACTORS
330
481
102
}
330
1F
100
AcDbEntity
  8
2
370
    18
100
AcDbPoint
 10
35.942131
 20
29.759966
 30
0.0
  0
LINE
  5
75
330
1F
100
AcDbEntity
  8
80
370
    18
100
AcDbLine
 10
0.0
 20
-0.5
 30
0.0
 11
0.0
 21
0.5
 31
0.0
  0
LINE
  5
77
330
1F
100
AcDbEntity
  8
80
370
    18
100
AcDbLine
 10
-0.5
 20
0.0
 30
0.0
 11
0.5
 21
0.0
 31
0.0
  0
LINE
  5
78
330
1F
100
AcDbEntity
  8
NOCUT
370
    18
100
AcDbLine
 10
39.2
 20
23.398269
 30
0.0
 11
39.2
 21
20.022641
 31
0.0
  0
LINE
  5
79
330
1F
100
AcDbEntity
  8
NOCUT
370
    18
100
AcDbLine
 10
21.0
 20
5.5
 30
0.0
 11
25.5
 21
5.5
 31
0.0
  0
LINE
  5
7A
330
1F
100
AcDbEntity
  8
NOCUT
370
    18
100
AcDbLine
 10
26.0
 20
6.0
 30
0.0
 11
25.5
 21
5.5
 31
0.0
  0
LINE
  5
7B
330
1F
100
AcDbEntity
  8
NOCUT
370
    18
100
AcDbLine
 10
0.5
 20
23.5
 30
0.0
 11
10.599585
 21
23.5
 31
0.0
  0
LINE
  5
7C
330
1F
100
AcDbEntity
  8
NOCUT
370
    18
100
AcDbLine
 10
33.755278
 20
10.506851
 30
0.0
 11
35.107107
 21
9.155022
 31
0.0
  0
LINE
  5
7D
330
1F
100
AcDbEntity
  8
NOCUT
370
    18
100
AcDbLine
 10
17.830447
 20
29.9
 30
0.0
 11
32.934583
 21
29.9
 31
0.0
  0
LINE
  5
7E
330
1F
100
AcDbEntity
  8
NOCUT
370
    18
100
AcDbLine
 10
16.1
 20
9.52825
 30
0.0
 11
18.088128
 21
10.676096
 31
0.0
  0
LINE
  5
7F
330
1F
100
AcDbEntity
  8
NOCUT
370
    18
100
AcDbLine
 10
20.5
 20
8.170382
 30
0.0
 11
20.5
 21
6.0
 31
0.0
  0
LINE
  5
80
330
1F
100
AcDbEntity
  8
NOCUT
370
    18
100
AcDbLine
 10
21.0
 20
5.5
 30
0.0
 11
20.5
 21
6.0
 31
0.0
  0
LINE
  5
81
330
1F
100
AcDbEntity
  8
NOCUT
370
    18
100
AcDbLine
 10
0.0
 20
23.0
 30
0.0
 11
0.5
 21
23.5
 31
0.0
  0
LINE
  5
82
330
1F
100
AcDbEntity
  8
NOCUT
370
    18
100
AcDbLine
 10
26.4
 20
8.0
 30
0.0
 11
35.4
 21
8.0
 31
0.0
  0
LINE
  5
83
330
1F
100
AcDbEntity
  8
NOCUT
370
    18
100
AcDbLine
 10
0.0
 20
10.624
 30
0.0
 11
0.0
 21
23.0
 31
0.0
  0
LINE
  5
84
330
1F
100
AcDbEntity
  8
NOCUT
370
    18
100
AcDbLine
 10
35.128644
 20
28.945995
 30
0.0
 11
38.394061
 21
25.444264
 31
0.0
  0
LINE
  5
85
330
1F
100
AcDbEntity
  8
NOCUT
370
    18
100
AcDbLine
 10
12.47897
 20
24.81596
 30
0.0
 11
13.131984
 21
26.610101
 31
0.0
  0
LINE
  5
86
330
1F
100
AcDbEntity
  8
NOCUT
370
    18
100
AcDbLine
 10
1.0
 20
9.625
 30
0.0
 11
5.4
 21
9.625
 31
0.0
  0
LINE
  5
87
330
1F
100
AcDbEntity
  8
NOCUT
370
    18
100
AcDbLine
 10
26.0
 20
6.0
 30
0.0
 11
26.0
 21
7.6
 31
0.0
  0
LINE
  5
88
330
1F
100
AcDbEntity
  8
NOCUT
370
    18
100
AcDbLine
 10
38.32132
 20
17.90132
 30
0.0
 11
33.755278
 21
13.335278
 31
0.0
  0
LINE
  5
89
330
1F
100
AcDbEntity
  8
NOCUT
370
    18
100
AcDbLine
 10
5.4
 20
9.625
 30
0.0
 11
6.505858
 21
9.52825
 31
0.0
  0
LINE
  5
8A
330
1F
100
AcDbEntity
  8
NOCUT
370
    18
100
AcDbLine
 10
35.4
 20
8.447915
 30
0.0
 11
35.4
 21
8.0
 31
0.0
  0
LINE
  5
8B
330
1F
100
AcDbEntity
  8
NOCUT
370
    18
100
AcDbLine
 10
18.594546
 20
10.586801
 30
0.0
 11
20.406418
 21
8.427497
 31
0.0
  0
LINE
  5
8C
330
1F
100
AcDbEntity
  8
NOCUT
370
    18
100
AcDbLine
 10
6.505858
 20
9.52825
 30
0.0
 11
16.1
 21
9.52825
 31
0.0
  0
LINE
  5
8D
330
1F
100
AcDbEntity
  8
NOCUT
370
    18
100
AcDbLine
 10
0.001
 20
10.624
 30
0.0
 11
1.0
 21
9.625
 31
0.0
  0
LINE
  5
8E
330
1F
100
AcDbEntity
  8
CUT
370
    18
100
AcDbLine
 10
22.917023
 20
19.924113
 30
0.0
 11
22.902882
 21
19.684996
 31
0.0
  0
LINE
  5
90
330
1F
100
AcDbEntity
  8
1
370
    13
100
AcDbLine
 10
4.1
 20
5.0975
 30
0.0
 11
1.0
 21
5.0975
 31
0.0
  0
LINE
  5
92
330
1F
100
AcDbEntity
  8
1
370
    13
100
AcDbLine
 10
0.5
 20
23.5
 30
0.0
 11
0.5
 21
6.976746
 31
0.0
  0
LINE
  5
93
102
{ACAD_REACTORS
330
49B
102
}
330
1F
100
AcDbEntity
  8
1
370
    13
100
AcDbLine
 10
0.0
 20
6.900396
 30
0.0
 11
0.0
 21
5.0975
 31
0.0
  0
LINE
  5
94
102
{ACAD_REACTORS
330
468
102
}
330
1F
100
AcDbEntity
  8
1
370
    13
100
AcDbLine
 10
1.0
 20
4.0975
 30
0.0
 11
4.1
 21
4.0975
 31
0.0
  0
LINE
  5
95
330
1F
100
AcDbEntity
  8
1
370
    13
100
AcDbLine
 10
1.0
 20
4.0975
 30
0.0
 11
1.0
 21
5.0975
 31
0.0
  0
LINE
  5
96
330
1F
100
AcDbEntity
  8
1
370
    13
100
AcDbLine
 10
1.0
 20
4.0975
 30
0.0
 11
0.0
 21
5.0975
 31
0.0
  0
LINE
  5
97
330
1F
100
AcDbEntity
  8
1
370
    13
100
AcDbLine
 10
39.152834
 20
-14.549685
 30
0.0
 11
39.152834
 21
-11.135057
 31
0.0
  0
LINE
  5
98
330
1F
100
AcDbEntity
  8
1
370
    13
100
AcDbLine
 10
26.36207
 20
-19.22668
 30
0.0
 11
26.359044
 21
-20.241391
 31
0.0
  0
LINE
  5
99
330
1F
100
AcDbEntity
  8
1
370
    13
100
AcDbLine
 10
35.343114
 20
-6.66155
 30
0.0
 11
32.988103
 21
-6.873393
 31
0.0
  0
LINE
  5
9A
330
1F
100
AcDbEntity
  8
1
370
    13
100
AcDbLine
 10
0.0
 20
-23.0
 30
0.0
 11
0.0
 21
-6.900396
 31
0.0
  0
LINE
  5
9B
330
1F
100
AcDbEntity
  8
1
370
    13
100
AcDbLine
 10
0.0
 20
23.0
 30
0.0
 11
0.0
 21
6.900396
 31
0.0
  0
LINE
  5
9C
330
1F
100
AcDbEntity
  8
1
370
    13
100
AcDbLine
 10
39.156799
 20
4.536241
 30
0.0
 11
39.156799
 21
4.60307
 31
0.0
  0
LINE
  5
9D
330
1F
100
AcDbEntity
  8
1
370
    13
100
AcDbLine
 10
39.2
 20
4.652351
 30
0.0
 11
39.2
 21
4.585522
 31
0.0
  0
LINE
  5
9E
330
1F
100
AcDbEntity
  8
1
370
    13
100
AcDbLine
 10
39.2
 20
-14.571732
 30
0.0
 11
39.2
 21
-22.661929
 31
0.0
  0
LINE
  5
9F
330
1F
100
AcDbEntity
  8
1
370
    13
100
AcDbLine
 10
39.2
 20
-11.157104
 30
0.0
 11
39.2
 21
-14.571732
 31
0.0
  0
LINE
  5
A0
330
1F
100
AcDbEntity
  8
1
370
    13
100
AcDbLine
 10
27.480416
 20
-6.711235
 30
0.0
 11
27.435411
 21
-6.515464
 31
0.0
  0
LINE
  5
A1
330
1F
100
AcDbEntity
  8
1
370
    13
100
AcDbLine
 10
32.981273
 20
-6.845791
 30
0.0
 11
35.336283
 21
-6.633949
 31
0.0
  0
LINE
  5
A2
330
1F
100
AcDbEntity
  8
1
370
    13
100
AcDbLine
 10
35.4
 20
-3.655375
 30
0.0
 11
35.4
 21
-6.452305
 31
0.0
  0
LINE
  5
A3
330
1F
100
AcDbEntity
  8
1
370
    13
100
AcDbLine
 10
39.2
 20
-4.585522
 30
0.0
 11
39.2
 21
-11.164339
 31
0.0
  0
LINE
  5
A4
330
1F
100
AcDbEntity
  8
1
370
    13
100
AcDbLine
 10
35.268414
 20
-2.880277
 30
0.0
 11
35.154376
 21
-2.899439
 31
0.0
  0
LINE
  5
A6
330
1F
100
AcDbEntity
  8
1
370
    13
100
AcDbLine
 10
27.396657
 20
-3.471792
 30
0.0
 11
27.291017
 21
-3.471003
 31
0.0
  0
LINE
  5
A7
330
1F
100
AcDbEntity
  8
1
370
    13
100
AcDbLine
 10
29.965022
 20
22.694201
 30
0.0
 11
30.116019
 21
22.998524
 31
0.0
  0
LINE
  5
A9
330
1F
100
AcDbEntity
  8
1
370
    13
100
AcDbLine
 10
32.651252
 20
23.290472
 30
0.0
 11
32.507024
 21
22.99979
 31
0.0
  0
LINE
  5
AA
330
1F
100
AcDbEntity
  8
1
370
    13
100
AcDbLine
 10
31.738796
 20
23.50179
 30
0.0
 11
31.882417
 21
23.791247
 31
0.0
  0
LINE
  5
AB
330
1F
100
AcDbEntity
  8
1
370
    13
100
AcDbLine
 10
31.894612
 20
23.822072
 30
0.0
 11
31.752033
 21
23.534715
 31
0.0
  0
LINE
  5
AC
330
1F
100
AcDbEntity
  8
1
370
    13
100
AcDbLine
 10
23.143788
 20
26.083899
 30
0.0
 11
22.654313
 21
25.097398
 31
0.0
  0
LINE
  5
AD
330
1F
100
AcDbEntity
  8
1
370
    13
100
AcDbLine
 10
39.255745
 20
17.475
 30
0.0
 11
39.74522
 21
18.461502
 31
0.0
  0
LINE
  5
AE
102
{ACAD_REACTORS
330
435
102
}
330
1F
100
AcDbEntity
  8
1
370
    13
100
AcDbLine
 10
0.5
 20
-23.5
 30
0.0
 11
10.599585
 21
-23.5
 31
0.0
  0
LINE
  5
AF
102
{ACAD_REACTORS
330
435
102
}
330
1F
100
AcDbEntity
  8
1
370
    13
100
AcDbLine
 10
10.599585
 20
23.5
 30
0.0
 11
0.5
 21
23.5
 31
0.0
  0
LINE
  5
B0
330
1F
100
AcDbEntity
  8
1
370
    13
100
AcDbLine
 10
0.0
 20
-23.0
 30
0.0
 11
0.5
 21
-23.5
 31
0.0
  0
LINE
  5
B1
330
1F
100
AcDbEntity
  8
1
370
    13
100
AcDbLine
 10
0.5
 20
23.5
 30
0.0
 11
0.0
 21
23.0
 31
0.0
  0
LINE
  5
B2
330
1F
100
AcDbEntity
  8
1
370
    13
100
AcDbLine
 10
17.830447
 20
-29.9
 30
0.0
 11
27.216909
 21
-29.9
 31
0.0
  0
LINE
  5
B3
330
1F
100
AcDbEntity
  8
1
370
    13
100
AcDbLine
 10
12.47897
 20
-24.81596
 30
0.0
 11
13.131984
 21
-26.610101
 31
0.0
  0
LINE
  5
B4
330
1F
100
AcDbEntity
  8
1
370
    13
100
AcDbLine
 10
13.131984
 20
26.610101
 30
0.0
 11
12.47897
 21
24.81596
 31
0.0
  0
LINE
  5
B5
330
1F
100
AcDbEntity
  8
1
370
    13
100
AcDbLine
 10
25.977803
 20
29.9
 30
0.0
 11
17.830447
 21
29.9
 31
0.0
  0
LINE
  5
B6
330
1F
100
AcDbEntity
  8
1
370
    13
100
AcDbLine
 10
39.797783
 20
-0.000034
 30
0.0
 11
40.002844
 21
2.370923
 31
0.0
  0
LINE
  5
B7
330
1F
100
AcDbEntity
  8
1
370
    13
100
AcDbLine
 10
39.507191
 20
-3.359919
 30
0.0
 11
39.532338
 21
-3.069168
 31
0.0
  0
LINE
  5
B8
330
1F
100
AcDbEntity
  8
1
370
    13
100
AcDbLine
 10
39.692513
 20
-18.287352
 30
0.0
 11
39.200796
 21
-17.567127
 31
0.0
  0
LINE
  5
B9
330
1F
100
AcDbEntity
  8
1
370
    13
100
AcDbLine
 10
34.339627
 20
-2.30477
 30
0.0
 11
34.598468
 21
-2.261418
 31
0.0
  0
LINE
  5
BA
330
1F
100
AcDbEntity
  8
1
370
    13
100
AcDbLine
 10
40.002844
 20
-2.370923
 30
0.0
 11
39.507191
 21
3.359919
 31
0.0
  0
LINE
  5
BB
330
1F
100
AcDbEntity
  8
1
370
    13
100
AcDbLine
 10
34.968136
 20
-2.254946
 30
0.0
 11
35.125673
 21
-2.256189
 31
0.0
  0
LINE
  5
BC
330
1F
100
AcDbEntity
  8
1
370
    13
100
AcDbLine
 10
27.124151
 20
-3.022778
 30
0.0
 11
27.27766
 21
-3.015449
 31
0.0
  0
LINE
  5
BD
330
1F
100
AcDbEntity
  8
1
370
    13
100
AcDbLine
 10
26.389035
 20
-3.204637
 30
0.0
 11
27.0816
 21
-3.189276
 31
0.0
  0
LINE
  5
BE
330
1F
100
AcDbEntity
  8
1
370
    13
100
AcDbLine
 10
26.26476
 20
-3.262923
 30
0.0
 11
26.539758
 21
-3.240107
 31
0.0
  0
LINE
  5
BF
330
1F
100
AcDbEntity
  8
1
370
    13
100
AcDbLine
 10
26.332431
 20
-3.428684
 30
0.0
 11
27.074163
 21
-3.339498
 31
0.0
  0
LINE
  5
C0
330
1F
100
AcDbEntity
  8
1
370
    13
100
AcDbLine
 10
35.681646
 20
-2.614218
 30
0.0
 11
36.412427
 21
-2.579328
 31
0.0
  0
LINE
  5
C1
330
1F
100
AcDbEntity
  8
1
370
    13
100
AcDbLine
 10
27.329599
 20
-3.446514
 30
0.0
 11
27.880428
 21
-3.368211
 31
0.0
  0
LINE
  5
C2
330
1F
100
AcDbEntity
  8
1
370
    13
100
AcDbLine
 10
28.063171
 20
-3.354319
 30
0.0
 11
28.556247
 21
-3.358003
 31
0.0
  0
LINE
  5
C3
330
1F
100
AcDbEntity
  8
1
370
    13
100
AcDbLine
 10
33.879813
 20
-2.92131
 30
0.0
 11
34.600793
 21
-2.800162
 31
0.0
  0
LINE
  5
C4
330
1F
100
AcDbEntity
  8
1
370
    13
100
AcDbLine
 10
34.802831
 20
-2.783283
 30
0.0
 11
34.87467
 21
-2.783805
 31
0.0
  0
LINE
  5
C5
330
1F
100
AcDbEntity
  8
1
370
    13
100
AcDbLine
 10
22.861231
 20
-3.893409
 30
0.0
 11
22.901565
 21
-4.359756
 31
0.0
  0
LINE
  5
C6
330
1F
100
AcDbEntity
  8
1
370
    13
100
AcDbLine
 10
27.154589
 20
-3.485471
 30
0.0
 11
27.266885
 21
-3.48631
 31
0.0
  0
LINE
  5
C7
330
1F
100
AcDbEntity
  8
1
370
    13
100
AcDbLine
 10
29.109049
 20
-3.455652
 30
0.0
 11
29.427235
 21
-3.364413
 31
0.0
  0
LINE
  5
C8
330
1F
100
AcDbEntity
  8
1
370
    13
100
AcDbLine
 10
33.230813
 20
-3.043004
 30
0.0
 11
33.522562
 21
-3.082849
 31
0.0
  0
LINE
  5
C9
330
1F
100
AcDbEntity
  8
81
370
    18
100
AcDbLine
 10
39.5
 20
25.38
 30
0.0
 11
40.5
 21
25.38
 31
0.0
  0
LINE
  5
CA
102
{ACAD_REACTORS
330
481
330
49B
102
}
330
1F
100
AcDbEntity
  8
81
370
    18
100
AcDbLine
 10
40.0
 20
24.88
 30
0.0
 11
40.0
 21
25.88
 31
0.0
  0
LINE
  5
CB
330
1F
100
AcDbEntity
  8
1
370
    13
100
AcDbLine
 10
1.0
 20
-4.0975
 30
0.0
 11
1.0
 21
-5.0975
 31
0.0
  0
LINE
  5
CC
102
{ACAD_REACTORS
330
468
102
}
330
1F
100
AcDbEntity
  8
1
370
    13
100
AcDbLine
 10
1.0
 20
-4.0975
 30
0.0
 11
4.1
 21
-4.0975
 31
0.0
  0
LINE
  5
CD
330
1F
100
AcDbEntity
  8
1
370
    13
100
AcDbLine
 10
1.0
 20
-4.0975
 30
0.0
 11
0.0
 21
-5.0975
 31
0.0
  0
LINE
  5
CE
102
{ACAD_REACTORS
330
4B3
102
}
330
1F
100
AcDbEntity
  8
1
370
    13
100
AcDbLine
 10
0.0
 20
-5.0975
 30
0.0
 11
0.0
 21
-6.900396
 31
0.0
  0
LINE
  5
CF
330
1F
100
AcDbEntity
  8
SK3
370
    18
100
AcDbLine
 10
5.4
 20
9.625
 30
0.0
 11
6.505858
 21
9.52825
 31
0.0
  0
LINE
  5
D0
330
1F
100
AcDbEntity
  8
SK3
370
    18
100
AcDbLine
 10
6.505858
 20
9.52825
 30
0.0
 11
16.1
 21
9.52825
 31
0.0
  0
LINE
  5
D1
330
1F
100
AcDbEntity
  8
SK3
370
    18
100
AcDbLine
 10
16.1
 20
9.52825
 30
0.0
 11
18.088128
 21
10.676096
 31
0.0
  0
LINE
  5
D2
330
1F
100
AcDbEntity
  8
SK3
370
    18
100
AcDbLine
 10
18.594546
 20
10.586801
 30
0.0
 11
20.406418
 21
8.427497
 31
0.0
  0
LINE
  5
D3
330
1F
100
AcDbEntity
  8
SK3
370
    18
100
AcDbLine
 10
20.5
 20
8.170382
 30
0.0
 11
20.5
 21
6.0
 31
0.0
  0
LINE
  5
D4
330
1F
100
AcDbEntity
  8
SK3
370
    18
100
AcDbLine
 10
21.0
 20
5.5
 30
0.0
 11
20.5
 21
6.0
 31
0.0
  0
LINE
  5
D5
330
1F
100
AcDbEntity
  8
SK3
370
    18
100
AcDbLine
 10
21.0
 20
5.5
 30
0.0
 11
25.5
 21
5.5
 31
0.0
  0
LINE
  5
D6
330
1F
100
AcDbEntity
  8
SK3
370
    18
100
AcDbLine
 10
26.0
 20
6.0
 30
0.0
 11
25.5
 21
5.5
 31
0.0
  0
LINE
  5
D7
330
1F
100
AcDbEntity
  8
SK3
370
    18
100
AcDbLine
 10
26.0
 20
6.0
 30
0.0
 11
26.0
 21
7.6
 31
0.0
  0
LINE
  5
D8
330
1F
100
AcDbEntity
  8
SK3
370
    18
100
AcDbLine
 10
26.4
 20
8.0
 30
0.0
 11
35.4
 21
8.0
 31
0.0
  0
LINE
  5
D9
330
1F
100
AcDbEntity
  8
SK3
370
    18
100
AcDbLine
 10
26.4
 20
8.0
 30
0.0
 11
35.4
 21
8.0
 31
0.0
  0
LINE
  5
DA
330
1F
100
AcDbEntity
  8
SK4
370
    18
100
AcDbLine
 10
-2.0
 20
0.0
 30
0.0
 11
42.0
 21
0.0
 31
0.0
  0
LINE
  5
DB
330
1F
100
AcDbEntity
  8
4
370
    18
100
AcDbLine
 10
-2.0
 20
0.0
 30
0.0
 11
42.0
 21
0.0
 31
0.0
  0
LINE
  5
DC
330
1F
100
AcDbEntity
  8
1
370
    18
100
AcDbLine
 10
28.393229
 20
23.529063
 30
0.0
 11
28.126019
 21
22.75105
 31
0.0
  0
LINE
  5
DD
330
1F
100
AcDbEntity
  8
1
370
    18
100
AcDbLine
 10
29.367241
 20
23.129742
 30
0.0
 11
29.180574
 21
22.576716
 31
0.0
  0
LINE
  5
DE
330
1F
100
AcDbEntity
  8
1
370
    18
100
AcDbLine
 10
29.632911
 20
23.540822
 30
0.0
 11
29.367241
 21
23.129742
 31
0.0
  0
LINE
  5
DF
330
1F
100
AcDbEntity
  8
1
370
    18
100
AcDbLine
 10
33.333347
 20
21.947915
 30
0.0
 11
33.220379
 21
22.469531
 31
0.0
  0
LINE
  5
E0
330
1F
100
AcDbEntity
  8
1
370
    18
100
AcDbLine
 10
33.220379
 20
22.469531
 30
0.0
 11
33.111537
 21
22.513168
 31
0.0
  0
LINE
  5
E1
330
1F
100
AcDbEntity
  8
1
370
    18
100
AcDbLine
 10
33.042608
 20
22.521756
 30
0.0
 11
33.111537
 21
22.513168
 31
0.0
  0
LINE
  5
E2
330
1F
100
AcDbEntity
  8
1
370
    18
100
AcDbLine
 10
32.672864
 20
23.31929
 30
0.0
 11
32.641672
 21
23.25853
 31
0.0
  0
LINE
  5
E3
330
1F
100
AcDbEntity
  8
1
370
    18
100
AcDbLine
 10
32.672864
 20
23.31929
 30
0.0
 11
32.696615
 21
23.43202
 31
0.0
  0
LINE
  5
E4
330
1F
100
AcDbEntity
  8
1
370
    18
100
AcDbLine
 10
31.97974
 20
23.877462
 30
0.0
 11
31.888514
 21
23.806659
 31
0.0
  0
LINE
  5
E5
330
1F
100
AcDbEntity
  8
1
370
    18
100
AcDbLine
 10
31.847429
 20
23.752047
 30
0.0
 11
31.888514
 21
23.806659
 31
0.0
  0
LINE
  5
E6
330
1F
100
AcDbEntity
  8
1
370
    18
100
AcDbLine
 10
30.968653
 20
23.844685
 30
0.0
 11
31.0067
 21
23.786802
 31
0.0
  0
LINE
  5
E7
330
1F
100
AcDbEntity
  8
1
370
    18
100
AcDbLine
 10
30.968653
 20
23.844685
 30
0.0
 11
30.88145
 21
23.922864
 31
0.0
  0
LINE
  5
E8
330
1F
100
AcDbEntity
  8
1
370
    18
100
AcDbLine
 10
30.14214
 20
23.537618
 30
0.0
 11
30.159756
 21
23.423179
 31
0.0
  0
LINE
  5
E9
330
1F
100
AcDbEntity
  8
1
370
    18
100
AcDbLine
 10
30.1876
 20
23.359979
 30
0.0
 11
30.159756
 21
23.423179
 31
0.0
  0
LINE
  5
EA
330
1F
100
AcDbEntity
  8
1
370
    18
100
AcDbLine
 10
29.678567
 20
22.655082
 30
0.0
 11
29.747806
 21
22.657959
 31
0.0
  0
LINE
  5
EB
330
1F
100
AcDbEntity
  8
1
370
    18
100
AcDbLine
 10
29.678567
 20
22.655082
 30
0.0
 11
29.567614
 21
22.620532
 31
0.0
  0
LINE
  5
EC
330
1F
100
AcDbEntity
  8
1
370
    18
100
AcDbLine
 10
29.567614
 20
22.620532
 30
0.0
 11
29.529521
 21
22.565815
 31
0.0
  0
LINE
  5
ED
330
1F
100
AcDbEntity
  8
1
370
    18
100
AcDbLine
 10
30.799816
 20
-22.419372
 30
0.0
 11
30.986345
 21
-22.360409
 31
0.0
  0
LINE
  5
EE
330
1F
100
AcDbEntity
  8
1
370
    18
100
AcDbLine
 10
31.758857
 20
-2.684433
 30
0.0
 11
31.491195
 21
-2.696402
 31
0.0
  0
LINE
  5
EF
330
1F
100
AcDbEntity
  8
1
370
    18
100
AcDbLine
 10
31.796904
 20
-2.68624
 30
0.0
 11
31.884107
 21
-2.685559
 31
0.0
  0
LINE
  5
F0
330
1F
100
AcDbEntity
  8
1
370
    18
100
AcDbLine
 10
31.884107
 20
-2.685559
 30
0.0
 11
32.623417
 21
-2.587029
 31
0.0
  0
LINE
  5
F1
330
1F
100
AcDbEntity
  8
1
370
    18
100
AcDbLine
 10
32.688052
 20
-2.52768
 30
0.0
 11
32.577957
 21
-2.57527
 31
0.0
  0
LINE
  5
F2
330
1F
100
AcDbEntity
  8
1
370
    18
100
AcDbLine
 10
32.136256
 20
25.453932
 30
0.0
 11
31.482073
 21
25.543764
 31
0.0
  0
LINE
  5
F3
330
1F
100
AcDbEntity
  8
1
370
    18
100
AcDbLine
 10
28.314624
 20
23.690795
 30
0.0
 11
28.017821
 21
22.781575
 31
0.0
  0
LINE
  5
F4
330
1F
100
AcDbEntity
  8
1
370
    18
100
AcDbLine
 10
28.14648
 20
25.066596
 30
0.0
 11
28.126545
 21
25.162058
 31
0.0
  0
LINE
  5
F5
330
1F
100
AcDbEntity
  8
1
370
    18
100
AcDbLine
 10
27.225936
 20
26.061948
 30
0.0
 11
27.125565
 21
26.085927
 31
0.0
  0
LINE
  5
F6
330
1F
100
AcDbEntity
  8
1
370
    18
100
AcDbLine
 10
27.752338
 20
25.503667
 30
0.0
 11
27.651025
 21
25.518206
 31
0.0
  0
LINE
  5
F7
330
1F
100
AcDbEntity
  8
1
370
    18
100
AcDbLine
 10
27.225936
 20
26.061948
 30
0.0
 11
27.286159
 21
26.04756
 31
0.0
  0
LINE
  5
F8
330
1F
100
AcDbEntity
  8
1
370
    18
100
AcDbLine
 10
28.428844
 20
25.620312
 30
0.0
 11
28.489682
 21
25.61275
 31
0.0
  0
LINE
  5
F9
330
1F
100
AcDbEntity
  8
1
370
    18
100
AcDbLine
 10
27.763752
 20
26.581821
 30
0.0
 11
27.752497
 21
26.692476
 31
0.0
  0
LINE
  5
FA
330
1F
100
AcDbEntity
  8
1
370
    18
100
AcDbLine
 10
27.757515
 20
25.838184
 30
0.0
 11
27.740018
 21
25.947852
 31
0.0
  0
LINE
  5
FB
330
1F
100
AcDbEntity
  8
1
370
    18
100
AcDbLine
 10
27.579856
 20
26.102715
 30
0.0
 11
27.471024
 21
26.092585
 31
0.0
  0
LINE
  5
FC
330
1F
100
AcDbEntity
  8
1
370
    18
100
AcDbLine
 10
27.763752
 20
26.581821
 30
0.0
 11
27.770505
 21
26.515429
 31
0.0
  0
LINE
  5
FD
330
1F
100
AcDbEntity
  8
1
370
    18
100
AcDbLine
 10
27.405724
 20
26.086507
 30
0.0
 11
27.471024
 21
26.092585
 31
0.0
  0
LINE
  5
FE
330
1F
100
AcDbEntity
  8
1
370
    18
100
AcDbLine
 10
27.757515
 20
25.838184
 30
0.0
 11
27.768013
 21
25.772382
 31
0.0
  0
LINE
  5
FF
330
1F
100
AcDbEntity
  8
1
370
    18
100
AcDbLine
 10
27.737668
 20
26.264268
 30
0.0
 11
27.720832
 21
26.360113
 31
0.0
  0
LINE
  5
100
330
1F
100
AcDbEntity
  8
1
370
    18
100
AcDbLine
 10
36.831377
 20
21.73827
 30
0.0
 11
36.763783
 21
21.823274
 31
0.0
  0
LINE
  5
101
330
1F
100
AcDbEntity
  8
1
370
    18
100
AcDbLine
 10
37.03211
 20
22.414198
 30
0.0
 11
36.95064
 21
22.337802
 31
0.0
  0
LINE
  5
102
330
1F
100
AcDbEntity
  8
1
370
    18
100
AcDbLine
 10
36.901922
 20
22.29179
 30
0.0
 11
36.950639
 21
22.337802
 31
0.0
  0
LINE
  5
103
330
1F
100
AcDbEntity
  8
1
370
    18
100
AcDbLine
 10
36.526877
 20
22.067706
 30
0.0
 11
36.450222
 21
22.13621
 31
0.0
  0
LINE
  5
104
330
1F
100
AcDbEntity
  8
1
370
    18
100
AcDbLine
 10
36.404238
 20
22.17732
 30
0.0
 11
36.450222
 21
22.13621
 31
0.0
  0
LINE
  5
105
330
1F
100
AcDbEntity
  8
1
370
    18
100
AcDbLine
 10
36.83751
 20
22.119814
 30
0.0
 11
36.767963
 21
22.053831
 31
0.0
  0
LINE
  5
106
330
1F
100
AcDbEntity
  8
1
370
    18
100
AcDbLine
 10
36.837511
 20
22.119815
 30
0.0
 11
36.879024
 21
22.159612
 31
0.0
  0
LINE
  5
107
330
1F
100
AcDbEntity
  8
1
370
    18
100
AcDbLine
 10
31.961879
 20
26.438297
 30
0.0
 11
31.889363
 21
26.510476
 31
0.0
  0
LINE
  5
108
330
1F
100
AcDbEntity
  8
1
370
    18
100
AcDbLine
 10
31.124905
 20
26.540111
 30
0.0
 11
31.061094
 21
26.46893
 31
0.0
  0
LINE
  5
109
330
1F
100
AcDbEntity
  8
1
370
    18
100
AcDbLine
 10
31.124905
 20
26.540112
 30
0.0
 11
31.163192
 21
26.58282
 31
0.0
  0
LINE
  5
10A
330
1F
100
AcDbEntity
  8
1
370
    18
100
AcDbLine
 10
31.481428
 20
27.232856
 30
0.0
 11
31.517359
 21
27.184112
 31
0.0
  0
LINE
  5
10B
330
1F
100
AcDbEntity
  8
1
370
    18
100
AcDbLine
 10
31.577244
 20
27.102871
 30
0.0
 11
31.517359
 21
27.184111
 31
0.0
  0
LINE
  5
10C
330
1F
100
AcDbEntity
  8
1
370
    18
100
AcDbLine
 10
31.12624
 20
27.14481
 30
0.0
 11
31.057876
 21
27.229117
 31
0.0
  0
LINE
  5
10D
330
1F
100
AcDbEntity
  8
1
370
    18
100
AcDbLine
 10
31.322245
 20
27.287633
 30
0.0
 11
31.271308
 21
27.384797
 31
0.0
  0
LINE
  5
10E
330
1F
100
AcDbEntity
  8
1
370
    18
100
AcDbLine
 10
31.126241
 20
27.14481
 30
0.0
 11
31.16733
 21
27.094291
 31
0.0
  0
LINE
  5
10F
330
1F
100
AcDbEntity
  8
1
370
    18
100
AcDbLine
 10
31.322245
 20
27.287633
 30
0.0
 11
31.352806
 21
27.229335
 31
0.0
  0
LINE
  5
110
330
1F
100
AcDbEntity
  8
1
370
    18
100
AcDbLine
 10
31.951061
 20
27.330137
 30
0.0
 11
31.89125
 21
27.411422
 31
0.0
  0
LINE
  5
111
330
1F
100
AcDbEntity
  8
1
370
    18
100
AcDbLine
 10
31.546142
 20
27.421855
 30
0.0
 11
31.493367
 21
27.517915
 31
0.0
  0
LINE
  5
112
330
1F
100
AcDbEntity
  8
1
370
    18
100
AcDbLine
 10
31.546142
 20
27.421855
 30
0.0
 11
31.577789
 21
27.364208
 31
0.0
  0
LINE
  5
113
330
1F
100
AcDbEntity
  8
1
370
    18
100
AcDbLine
 10
31.855363
 20
27.460193
 30
0.0
 11
31.89125
 21
27.411422
 31
0.0
  0
LINE
  5
114
330
1F
100
AcDbEntity
  8
1
370
    18
100
AcDbLine
 10
29.621971
 20
4.242723
 30
0.0
 11
29.574395
 21
4.214713
 31
0.0
  0
LINE
  5
115
330
1F
100
AcDbEntity
  8
1
370
    18
100
AcDbLine
 10
29.574395
 20
4.214713
 30
0.0
 11
29.245735
 21
4.255476
 31
0.0
  0
LINE
  5
116
330
1F
100
AcDbEntity
  8
1
370
    18
100
AcDbLine
 10
26.923842
 20
0.96359
 30
0.0
 11
27.260736
 21
0.563163
 31
0.0
  0
LINE
  5
117
330
1F
100
AcDbEntity
  8
1
370
    18
100
AcDbLine
 10
29.836168
 20
4.191722
 30
0.0
 11
29.632958
 21
4.204393
 31
0.0
  0
LINE
  5
118
330
1F
100
AcDbEntity
  8
1
370
    18
100
AcDbLine
 10
32.267719
 20
22.001298
 30
0.0
 11
32.274602
 21
22.076787
 31
0.0
  0
LINE
  5
119
330
1F
100
AcDbEntity
  8
1
370
    18
100
AcDbLine
 10
32.34059
 20
21.526583
 30
0.0
 11
32.274602
 21
22.076787
 31
0.0
  0
LINE
  5
11A
330
1F
100
AcDbEntity
  8
1
370
    18
100
AcDbLine
 10
1.0
 20
5.0975
 30
0.0
 11
0.5
 21
6.976746
 31
0.0
  0
LINE
  5
11B
330
1F
100
AcDbEntity
  8
1
370
    18
100
AcDbLine
 10
26.365394
 20
-19.101099
 30
0.0
 11
26.36207
 21
-19.22668
 31
0.0
  0
LINE
  5
11C
330
1F
100
AcDbEntity
  8
1
370
    18
100
AcDbLine
 10
26.959953
 20
-24.7897
 30
0.0
 11
27.146444
 21
-25.894306
 31
0.0
  0
LINE
  5
11D
330
1F
100
AcDbEntity
  8
1
370
    18
100
AcDbLine
 10
32.599662
 20
-22.076038
 30
0.0
 11
32.516852
 21
-19.265195
 31
0.0
  0
LINE
  5
11E
330
1F
100
AcDbEntity
  8
1
370
    18
100
AcDbLine
 10
32.599662
 20
-22.076038
 30
0.0
 11
32.934583
 21
-24.472348
 31
0.0
  0
LINE
  5
11F
330
1F
100
AcDbEntity
  8
1
370
    18
100
AcDbLine
 10
22.874307
 20
-4.044474
 30
0.0
 11
22.692094
 21
-4.22098
 31
0.0
  0
LINE
  5
120
330
1F
100
AcDbEntity
  8
1
370
    18
100
AcDbLine
 10
26.923842
 20
-29.495138
 30
0.0
 11
27.260736
 21
-29.830201
 31
0.0
  0
LINE
  5
121
330
1F
100
AcDbEntity
  8
1
370
    18
100
AcDbLine
 10
26.999329
 20
-29.479319
 30
0.0
 11
27.287759
 21
-29.765463
 31
0.0
  0
LINE
  5
122
330
1F
100
AcDbEntity
  8
1
370
    18
100
AcDbLine
 10
37.270079
 20
-2.527592
 30
0.0
 11
37.549879
 21
-2.426889
 31
0.0
  0
LINE
  5
123
330
1F
100
AcDbEntity
  8
1
370
    18
100
AcDbLine
 10
28.512749
 20
-2.894769
 30
0.0
 11
27.819399
 21
-3.102011
 31
0.0
  0
LINE
  5
124
330
1F
100
AcDbEntity
  8
1
370
    18
100
AcDbLine
 10
33.859335
 20
-2.393232
 30
0.0
 11
33.634018
 21
-2.395845
 31
0.0
  0
LINE
  5
125
330
1F
100
AcDbEntity
  8
1
370
    18
100
AcDbLine
 10
26.198458
 20
-3.253082
 30
0.0
 11
26.264169
 21
-3.262308
 31
0.0
  0
LINE
  5
126
330
1F
100
AcDbEntity
  8
1
370
    18
100
AcDbLine
 10
35.516278
 20
-2.493524
 30
0.0
 11
35.617555
 21
-2.441929
 31
0.0
  0
LINE
  5
127
330
1F
100
AcDbEntity
  8
1
370
    18
100
AcDbLine
 10
35.630695
 20
-2.522605
 30
0.0
 11
35.71252
 21
-2.466787
 31
0.0
  0
LINE
  5
128
330
1F
100
AcDbEntity
  8
1
370
    18
100
AcDbLine
 10
28.040535
 20
-3.401187
 30
0.0
 11
28.149307
 21
-3.435777
 31
0.0
  0
LINE
  5
129
330
1F
100
AcDbEntity
  8
1
370
    18
100
AcDbLine
 10
26.856101
 20
-3.538343
 30
0.0
 11
26.939589
 21
-3.502863
 31
0.0
  0
LINE
  5
12A
330
1F
100
AcDbEntity
  8
1
370
    18
100
AcDbLine
 10
27.19949
 20
-3.485807
 30
0.0
 11
27.288646
 21
-3.505666
 31
0.0
  0
LINE
  5
12B
330
1F
100
AcDbEntity
  8
1
370
    18
100
AcDbLine
 10
30.622436
 20
-3.384728
 30
0.0
 11
30.716232
 21
-3.329788
 31
0.0
  0
LINE
  5
12C
330
1F
100
AcDbEntity
  8
1
370
    18
100
AcDbLine
 10
30.772548
 20
-3.296829
 30
0.0
 11
30.716233
 21
-3.329789
 31
0.0
  0
LINE
  5
12D
330
1F
100
AcDbEntity
  8
1
370
    18
100
AcDbLine
 10
31.561814
 20
-3.271002
 30
0.0
 11
31.636604
 21
-3.314813
 31
0.0
  0
LINE
  5
12E
330
1F
100
AcDbEntity
  8
1
370
    18
100
AcDbLine
 10
31.009562
 20
-3.285828
 30
0.0
 11
31.070975
 21
-3.312739
 31
0.0
  0
LINE
  5
12F
330
1F
100
AcDbEntity
  8
1
370
    18
100
AcDbLine
 10
29.904152
 20
22.593709
 30
0.0
 11
29.965057
 21
22.694271
 31
0.0
  0
LINE
  5
130
330
1F
100
AcDbEntity
  8
1
370
    18
100
AcDbLine
 10
33.185258
 20
21.95946
 30
0.0
 11
33.080322
 21
22.187257
 31
0.0
  0
LINE
  5
131
330
1F
100
AcDbEntity
  8
1
370
    18
100
AcDbLine
 10
33.080322
 20
22.187257
 30
0.0
 11
32.968434
 21
22.224754
 31
0.0
  0
LINE
  5
132
330
1F
100
AcDbEntity
  8
1
370
    18
100
AcDbLine
 10
32.897463
 20
22.229229
 30
0.0
 11
32.968434
 21
22.224754
 31
0.0
  0
LINE
  5
133
330
1F
100
AcDbEntity
  8
1
370
    18
100
AcDbLine
 10
30.82555
 20
23.556272
 30
0.0
 11
30.861556
 21
23.494274
 31
0.0
  0
LINE
  5
134
330
1F
100
AcDbEntity
  8
1
370
    18
100
AcDbLine
 10
30.82555
 20
23.556272
 30
0.0
 11
30.741394
 21
23.64059
 31
0.0
  0
LINE
  5
135
330
1F
100
AcDbEntity
  8
1
370
    18
100
AcDbLine
 10
31.702285
 20
23.45952
 30
0.0
 11
31.738816
 21
23.501806
 31
0.0
  0
LINE
  5
136
330
1F
100
AcDbEntity
  8
1
370
    18
100
AcDbLine
 10
31.839683
 20
23.595188
 30
0.0
 11
31.761471
 21
23.550393
 31
0.0
  0
LINE
  5
137
330
1F
100
AcDbEntity
  8
1
370
    18
100
AcDbLine
 10
23.061566
 20
25.757041
 30
0.0
 11
23.017118
 21
23.767129
 31
0.0
  0
LINE
  5
138
330
1F
100
AcDbEntity
  8
1
370
    18
100
AcDbLine
 10
22.524118
 20
23.785414
 30
0.0
 11
22.52861
 21
23.986514
 31
0.0
  0
LINE
  5
139
330
1F
100
AcDbEntity
  8
1
370
    18
100
AcDbLine
 10
22.550612
 20
24.522081
 30
0.0
 11
22.52861
 21
23.986514
 31
0.0
  0
LINE
  5
13A
330
1F
100
AcDbEntity
  8
1
370
    18
100
AcDbLine
 10
22.550612
 20
24.522081
 30
0.0
 11
22.564753
 21
24.755752
 31
0.0
  0
LINE
  5
13B
330
1F
100
AcDbEntity
  8
1
370
    18
100
AcDbLine
 10
39.434556
 20
18.124444
 30
0.0
 11
39.200809
 21
17.917164
 31
0.0
  0
LINE
  5
13C
330
1F
100
AcDbEntity
  8
1
370
    18
100
AcDbLine
 10
39.434556
 20
18.124444
 30
0.0
 11
39.585703
 21
18.254765
 31
0.0
  0
LINE
  5
13D
330
1F
100
AcDbEntity
  8
1
370
    18
100
AcDbLine
 10
23.200167
 20
23.760426
 30
0.0
 11
23.240003
 21
25.639056
 31
0.0
  0
LINE
  5
13E
330
1F
100
AcDbEntity
  8
1
370
    18
100
AcDbLine
 10
39.259809
 20
18.215349
 30
0.0
 11
39.203232
 21
18.167857
 31
0.0
  0
LINE
  5
13F
330
1F
100
AcDbEntity
  8
1
370
    18
100
AcDbLine
 10
23.655989
 20
26.384045
 30
0.0
 11
24.050336
 21
26.754504
 31
0.0
  0
LINE
  5
140
330
1F
100
AcDbEntity
  8
1
370
    18
100
AcDbLine
 10
23.488525
 20
26.489629
 30
0.0
 11
23.8782
 21
26.857669
 31
0.0
  0
LINE
  5
141
330
1F
100
AcDbEntity
  8
1
370
    18
100
AcDbLine
 10
39.401326
 20
18.335218
 30
0.0
 11
39.261242
 21
18.216553
 31
0.0
  0
LINE
  5
142
330
1F
100
AcDbEntity
  8
1
370
    18
100
AcDbLine
 10
23.245285
 20
25.672592
 30
0.0
 11
23.470665
 21
26.196094
 31
0.0
  0
LINE
  5
143
330
1F
100
AcDbEntity
  8
1
370
    18
100
AcDbLine
 10
23.06198
 20
25.770423
 30
0.0
 11
23.282197
 21
26.285795
 31
0.0
  0
LINE
  5
144
330
1F
100
AcDbEntity
  8
1
370
    18
100
AcDbLine
 10
23.320817
 20
26.325929
 30
0.0
 11
23.282197
 21
26.285795
 31
0.0
  0
LINE
  5
145
330
1F
100
AcDbEntity
  8
1
370
    18
100
AcDbLine
 10
22.564753
 20
24.755752
 30
0.0
 11
22.569859
 21
24.811156
 31
0.0
  0
LINE
  5
146
330
1F
100
AcDbEntity
  8
1
370
    18
100
AcDbLine
 10
22.654134
 20
25.097039
 30
0.0
 11
22.569859
 21
24.811156
 31
0.0
  0
LINE
  5
147
330
1F
100
AcDbEntity
  8
1
370
    18
100
AcDbLine
 10
24.053984
 20
26.757887
 30
0.0
 11
27.969492
 21
30.345966
 31
0.0
  0
LINE
  5
148
330
1F
100
AcDbEntity
  8
1
370
    18
100
AcDbLine
 10
23.498757
 20
26.232503
 30
0.0
 11
23.654398
 21
26.382523
 31
0.0
  0
LINE
  5
149
330
1F
100
AcDbEntity
  8
1
370
    18
100
AcDbLine
 10
23.488525
 20
26.489629
 30
0.0
 11
23.320817
 21
26.325929
 31
0.0
  0
LINE
  5
14A
330
1F
100
AcDbEntity
  8
1
370
    18
100
AcDbLine
 10
39.805339
 20
24.309868
 30
0.0
 11
39.638509
 21
18.885191
 31
0.0
  0
LINE
  5
14B
330
1F
100
AcDbEntity
  8
1
370
    18
100
AcDbLine
 10
39.823254
 20
18.779919
 30
0.0
 11
40.0
 21
24.375268
 31
0.0
  0
LINE
  5
14C
330
1F
100
AcDbEntity
  8
1
370
    18
100
AcDbLine
 10
27.922152
 20
30.557012
 30
0.0
 11
23.8782
 21
26.857669
 31
0.0
  0
LINE
  5
14D
330
1F
100
AcDbEntity
  8
1
370
    18
100
AcDbLine
 10
39.632698
 20
18.850589
 30
0.0
 11
39.425753
 21
18.364242
 31
0.0
  0
LINE
  5
14E
330
1F
100
AcDbEntity
  8
1
370
    18
100
AcDbLine
 10
39.822703
 20
18.766261
 30
0.0
 11
39.620289
 21
18.286769
 31
0.0
  0
LINE
  5
14F
330
1F
100
AcDbEntity
  8
1
370
    18
100
AcDbLine
 10
39.207777
 20
17.392504
 30
0.0
 11
39.256552
 21
17.476627
 31
0.0
  0
LINE
  5
150
330
1F
100
AcDbEntity
  8
1
370
    18
100
AcDbLine
 10
27.65533
 20
25.403167
 30
0.0
 11
27.754992
 21
25.41332
 31
0.0
  0
LINE
  5
151
330
1F
100
AcDbEntity
  8
1
370
    18
100
AcDbLine
 10
35.847425
 20
29.577277
 30
0.0
 11
39.564986
 21
25.570262
 31
0.0
  0
LINE
  5
152
330
1F
100
AcDbEntity
  8
1
370
    18
100
AcDbLine
 10
28.126545
 20
25.162058
 30
0.0
 11
28.114893
 21
25.219375
 31
0.0
  0
LINE
  5
153
330
1F
100
AcDbEntity
  8
1
370
    18
100
AcDbLine
 10
27.754992
 20
25.41332
 30
0.0
 11
27.8148
 21
25.419406
 31
0.0
  0
LINE
  5
154
330
1F
100
AcDbEntity
  8
1
370
    18
100
AcDbLine
 10
39.812978
 20
24.822261
 30
0.0
 11
39.805465
 21
24.314946
 31
0.0
  0
LINE
  5
155
330
1F
100
AcDbEntity
  8
1
370
    18
100
AcDbLine
 10
28.428844
 20
25.620312
 30
0.0
 11
28.327462
 21
25.633502
 31
0.0
  0
LINE
  5
156
330
1F
100
AcDbEntity
  8
1
370
    18
100
AcDbLine
 10
39.774456
 20
25.623441
 30
0.0
 11
35.942131
 21
29.759867
 31
0.0
  0
LINE
  5
157
330
1F
100
AcDbEntity
  8
1
370
    18
100
AcDbLine
 10
40.006059
 20
24.878701
 30
0.0
 11
40.0
 21
24.375268
 31
0.0
  0
LINE
  5
158
330
1F
100
AcDbEntity
  8
1
370
    18
100
AcDbLine
 10
28.779411
 20
30.598401
 30
0.0
 11
29.317934
 21
30.591505
 31
0.0
  0
LINE
  5
159
330
1F
100
AcDbEntity
  8
1
370
    18
100
AcDbLine
 10
27.720832
 20
26.360116
 30
0.0
 11
27.710417
 21
26.417587
 31
0.0
  0
LINE
  5
15A
330
1F
100
AcDbEntity
  8
1
370
    18
100
AcDbLine
 10
29.323
 20
30.59128
 30
0.0
 11
34.731521
 21
30.31747
 31
0.0
  0
LINE
  5
15B
330
1F
100
AcDbEntity
  8
1
370
    18
100
AcDbLine
 10
28.730512
 20
30.793779
 30
0.0
 11
29.264263
 21
30.788111
 31
0.0
  0
LINE
  5
15C
330
1F
100
AcDbEntity
  8
1
370
    18
100
AcDbLine
 10
39.812066
 20
25.008264
 30
0.0
 11
39.812977
 21
24.824138
 31
0.0
  0
LINE
  5
15D
330
1F
100
AcDbEntity
  8
1
370
    18
100
AcDbLine
 10
27.99758
 20
30.365281
 30
0.0
 11
28.523166
 21
30.584369
 31
0.0
  0
LINE
  5
15E
330
1F
100
AcDbEntity
  8
1
370
    18
100
AcDbLine
 10
28.567252
 20
30.592488
 30
0.0
 11
28.777272
 21
30.598351
 31
0.0
  0
LINE
  5
15F
330
1F
100
AcDbEntity
  8
1
370
    18
100
AcDbLine
 10
34.844858
 20
30.501673
 30
0.0
 11
29.264263
 21
30.788111
 31
0.0
  0
LINE
  5
160
330
1F
100
AcDbEntity
  8
1
370
    18
100
AcDbLine
 10
40.006059
 20
24.878701
 30
0.0
 11
40.003638
 21
25.078993
 31
0.0
  0
LINE
  5
161
330
1F
100
AcDbEntity
  8
1
370
    18
100
AcDbLine
 10
39.585231
 20
25.541396
 30
0.0
 11
39.805117
 21
25.046414
 31
0.0
  0
LINE
  5
162
330
1F
100
AcDbEntity
  8
1
370
    18
100
AcDbLine
 10
27.932102
 20
30.565952
 30
0.0
 11
28.448533
 21
30.782574
 31
0.0
  0
LINE
  5
163
330
1F
100
AcDbEntity
  8
1
370
    18
100
AcDbLine
 10
28.502626
 20
30.786168
 30
0.0
 11
28.448533
 21
30.782574
 31
0.0
  0
LINE
  5
164
330
1F
100
AcDbEntity
  8
1
370
    18
100
AcDbLine
 10
28.730512
 20
30.793779
 30
0.0
 11
28.502626
 21
30.786168
 31
0.0
  0
LINE
  5
165
330
1F
100
AcDbEntity
  8
1
370
    18
100
AcDbLine
 10
39.783723
 20
25.613261
 30
0.0
 11
40.001309
 21
25.126408
 31
0.0
  0
LINE
  5
166
330
1F
100
AcDbEntity
  8
1
370
    18
100
AcDbLine
 10
34.697702
 20
24.983169
 30
0.0
 11
34.733159
 21
25.071558
 31
0.0
  0
LINE
  5
167
330
1F
100
AcDbEntity
  8
1
370
    18
100
AcDbLine
 10
30.929786
 20
27.077504
 30
0.0
 11
31.02095
 21
27.023703
 31
0.0
  0
LINE
  5
168
330
1F
100
AcDbEntity
  8
1
370
    18
100
AcDbLine
 10
31.889363
 20
26.510476
 30
0.0
 11
31.845622
 21
26.553586
 31
0.0
  0
LINE
  5
169
330
1F
100
AcDbEntity
  8
1
370
    18
100
AcDbLine
 10
34.733159
 20
25.071558
 30
0.0
 11
34.754431
 21
25.124592
 31
0.0
  0
LINE
  5
16A
330
1F
100
AcDbEntity
  8
1
370
    18
100
AcDbLine
 10
35.471855
 20
29.951489
 30
0.0
 11
35.843922
 21
29.581007
 31
0.0
  0
LINE
  5
16B
330
1F
100
AcDbEntity
  8
1
370
    18
100
AcDbLine
 10
31.02095
 20
27.023703
 30
0.0
 11
31.075633
 21
26.991384
 31
0.0
  0
LINE
  5
16C
330
1F
100
AcDbEntity
  8
1
370
    18
100
AcDbLine
 10
35.572298
 20
30.126511
 30
0.0
 11
35.942131
 21
29.759867
 31
0.0
  0
LINE
  5
16D
330
1F
100
AcDbEntity
  8
1
370
    18
100
AcDbLine
 10
35.324446
 20
30.085392
 30
0.0
 11
35.470374
 21
29.952846
 31
0.0
  0
LINE
  5
16E
330
1F
100
AcDbEntity
  8
1
370
    18
100
AcDbLine
 10
34.765807
 20
30.310937
 30
0.0
 11
35.289118
 21
30.108156
 31
0.0
  0
LINE
  5
16F
330
1F
100
AcDbEntity
  8
1
370
    18
100
AcDbLine
 10
35.412877
 20
30.26967
 30
0.0
 11
35.373816
 21
30.30234
 31
0.0
  0
LINE
  5
170
330
1F
100
AcDbEntity
  8
1
370
    18
100
AcDbLine
 10
35.572298
 20
30.126511
 30
0.0
 11
35.412877
 21
30.26967
 31
0.0
  0
LINE
  5
171
330
1F
100
AcDbEntity
  8
1
370
    18
100
AcDbLine
 10
34.858475
 20
30.500853
 30
0.0
 11
35.373816
 21
30.30234
 31
0.0
  0
LINE
  5
172
330
1F
100
AcDbEntity
  8
1
370
    18
100
AcDbLine
 10
28.955118
 20
4.746493
 30
0.0
 11
29.652429
 21
4.275611
 31
0.0
  0
LINE
  5
173
330
1F
100
AcDbEntity
  8
1
370
    18
100
AcDbLine
 10
26.91085
 20
4.517921
 30
0.0
 11
26.326861
 21
3.937464
 31
0.0
  0
LINE
  5
174
330
1F
100
AcDbEntity
  8
1
370
    18
100
AcDbLine
 10
28.641905
 20
4.202669
 30
0.0
 11
29.245735
 21
4.255476
 31
0.0
  0
LINE
  5
175
330
1F
100
AcDbEntity
  8
1
370
    18
100
AcDbLine
 10
25.857369
 20
2.582278
 30
0.0
 11
26.014552
 21
3.07636
 31
0.0
  0
LINE
  5
176
330
1F
100
AcDbEntity
  8
1
370
    18
100
AcDbLine
 10
26.541283
 20
0.853379
 30
0.0
 11
27.260731
 21
0.563138
 31
0.0
  0
LINE
  5
177
330
1F
100
AcDbEntity
  8
1
370
    18
100
AcDbLine
 10
25.663526
 20
2.55482
 30
0.0
 11
25.891573
 21
3.309004
 31
0.0
  0
LINE
  5
178
330
1F
100
AcDbEntity
  8
1
370
    18
100
AcDbLine
 10
26.014552
 20
3.07636
 30
0.0
 11
26.441313
 21
3.6102
 31
0.0
  0
LINE
  5
179
330
1F
100
AcDbEntity
  8
1
370
    18
100
AcDbLine
 10
13.593838
 20
-9.573666
 30
0.0
 11
13.216099
 21
-10.006749
 31
0.0
  0
LINE
  5
17A
330
1F
100
AcDbEntity
  8
1
370
    18
100
AcDbLine
 10
25.521798
 20
-3.004993
 30
0.0
 11
23.169449
 21
-3.802585
 31
0.0
  0
LINE
  5
17B
330
1F
100
AcDbEntity
  8
1
370
    18
100
AcDbLine
 10
22.039183
 20
-4.135771
 30
0.0
 11
23.169449
 21
-3.802585
 31
0.0
  0
LINE
  5
17C
330
1F
100
AcDbEntity
  8
1
370
    18
100
AcDbLine
 10
21.697594
 20
-4.260858
 30
0.0
 11
22.039183
 21
-4.135771
 31
0.0
  0
LINE
  5
17D
330
1F
100
AcDbEntity
  8
1
370
    18
100
AcDbLine
 10
21.303216
 20
-4.996534
 30
0.0
 11
21.489961
 21
-4.367983
 31
0.0
  0
LINE
  5
17E
330
1F
100
AcDbEntity
  8
1
370
    18
100
AcDbLine
 10
21.824203
 20
-4.875937
 30
0.0
 11
21.30424
 21
-5.000629
 31
0.0
  0
LINE
  5
17F
330
1F
100
AcDbEntity
  8
1
370
    18
100
AcDbLine
 10
22.41599
 20
-4.706721
 30
0.0
 11
21.824203
 21
-4.875937
 31
0.0
  0
LINE
  5
180
330
1F
100
AcDbEntity
  8
1
370
    18
100
AcDbLine
 10
22.535731
 20
-4.686462
 30
0.0
 11
22.41599
 21
-4.706721
 31
0.0
  0
LINE
  5
181
330
1F
100
AcDbEntity
  8
1
370
    18
100
AcDbLine
 10
26.88005
 20
-2.300023
 30
0.0
 11
27.160049
 21
-2.251933
 31
0.0
  0
LINE
  5
182
330
1F
100
AcDbEntity
  8
1
370
    18
100
AcDbLine
 10
27.15438
 20
-2.206087
 30
0.0
 11
27.253488
 21
0.524583
 31
0.0
  0
LINE
  5
183
330
1F
100
AcDbEntity
  8
1
370
    18
100
AcDbLine
 10
27.28776
 20
0.523558
 30
0.0
 11
27.188657
 21
-2.202566
 31
0.0
  0
LINE
  5
184
330
1F
100
AcDbEntity
  8
1
370
    18
100
AcDbLine
 10
27.166773
 20
-2.248496
 30
0.0
 11
27.188657
 21
-2.202566
 31
0.0
  0
LINE
  5
185
330
1F
100
AcDbEntity
  8
1
370
    18
100
AcDbLine
 10
16.411056
 20
-6.868133
 30
0.0
 11
17.830447
 21
-5.877602
 31
0.0
  0
LINE
  5
186
330
1F
100
AcDbEntity
  8
1
370
    18
100
AcDbLine
 10
26.370346
 20
-2.402656
 30
0.0
 11
27.15439
 21
-2.206088
 31
0.0
  0
LINE
  5
187
330
1F
100
AcDbEntity
  8
1
370
    18
100
AcDbLine
 10
26.443268
 20
23.637338
 30
0.0
 11
17.830447
 21
23.956144
 31
0.0
  0
LINE
  5
188
330
1F
100
AcDbEntity
  8
1
370
    18
100
AcDbLine
 10
29.652436
 20
4.275619
 30
0.0
 11
29.803159
 21
4.297959
 31
0.0
  0
LINE
  5
189
330
1F
100
AcDbEntity
  8
1
370
    18
100
AcDbLine
 10
13.722668
 20
22.88684
 30
0.0
 11
13.131984
 21
22.252481
 31
0.0
  0
LINE
  5
18A
330
1F
100
AcDbEntity
  8
1
370
    18
100
AcDbLine
 10
32.934583
 20
4.746099
 30
0.0
 11
32.942175
 21
4.689391
 31
0.0
  0
LINE
  5
18B
330
1F
100
AcDbEntity
  8
1
370
    18
100
AcDbLine
 10
29.803159
 20
4.297959
 30
0.0
 11
29.809033
 21
4.242624
 31
0.0
  0
LINE
  5
18C
330
1F
100
AcDbEntity
  8
1
370
    18
100
AcDbLine
 10
30.175742
 20
4.059242
 30
0.0
 11
29.836168
 21
4.191722
 31
0.0
  0
LINE
  5
18D
330
1F
100
AcDbEntity
  8
1
370
    18
100
AcDbLine
 10
38.454749
 20
4.979545
 30
0.0
 11
38.365774
 21
4.976809
 31
0.0
  0
LINE
  5
18E
330
1F
100
AcDbEntity
  8
1
370
    18
100
AcDbLine
 10
38.561351
 20
4.980675
 30
0.0
 11
38.454749
 21
4.979545
 31
0.0
  0
LINE
  5
18F
330
1F
100
AcDbEntity
  8
1
370
    18
100
AcDbLine
 10
37.98446
 20
4.130711
 30
0.0
 11
38.283771
 21
4.204772
 31
0.0
  0
LINE
  5
190
330
1F
100
AcDbEntity
  8
1
370
    18
100
AcDbLine
 10
29.661266
 20
4.220758
 30
0.0
 11
29.652346
 21
4.275602
 31
0.0
  0
LINE
  5
191
330
1F
100
AcDbEntity
  8
1
370
    18
100
AcDbLine
 10
29.809033
 20
4.242624
 30
0.0
 11
29.661266
 21
4.220758
 31
0.0
  0
LINE
  5
192
330
1F
100
AcDbEntity
  8
1
370
    18
100
AcDbLine
 10
32.934583
 20
4.746099
 30
0.0
 11
33.487758
 21
4.819229
 31
0.0
  0
LINE
  5
193
330
1F
100
AcDbEntity
  8
1
370
    18
100
AcDbLine
 10
29.632958
 20
4.204393
 30
0.0
 11
29.574395
 21
4.214713
 31
0.0
  0
LINE
  5
194
330
1F
100
AcDbEntity
  8
1
370
    18
100
AcDbLine
 10
32.934583
 20
16.204863
 30
0.0
 11
33.120368
 21
14.414511
 31
0.0
  0
LINE
  5
195
330
1F
100
AcDbEntity
  8
1
370
    18
100
AcDbLine
 10
33.487758
 20
4.819229
 30
0.0
 11
34.636793
 21
4.923848
 31
0.0
  0
LINE
  5
196
330
1F
100
AcDbEntity
  8
1
370
    18
100
AcDbLine
 10
35.128644
 20
4.940276
 30
0.0
 11
38.394061
 21
5.032533
 31
0.0
  0
LINE
  5
197
330
1F
100
AcDbEntity
  8
1
370
    18
100
AcDbLine
 10
35.727762
 20
22.40285
 30
0.0
 11
35.128644
 21
22.146306
 31
0.0
  0
LINE
  5
198
330
1F
100
AcDbEntity
  8
1
370
    18
100
AcDbLine
 10
12.555076
 20
21.355105
 30
0.0
 11
12.47897
 21
21.240551
 31
0.0
  0
LINE
  5
199
330
1F
100
AcDbEntity
  8
1
370
    18
100
AcDbLine
 10
13.131984
 20
22.252481
 30
0.0
 11
12.555076
 21
21.355105
 31
0.0
  0
LINE
  5
19A
330
1F
100
AcDbEntity
  8
1
370
    18
100
AcDbLine
 10
21.522811
 20
-4.316934
 30
0.0
 11
21.336977
 21
-4.945174
 31
0.0
  0
LINE
  5
19B
330
1F
100
AcDbEntity
  8
1
370
    18
100
AcDbLine
 10
32.934583
 20
21.971211
 30
0.0
 11
32.274602
 21
22.076787
 31
0.0
  0
LINE
  5
19C
330
1F
100
AcDbEntity
  8
1
370
    18
100
AcDbLine
 10
38.394061
 20
5.032533
 30
0.0
 11
38.59446
 21
5.035975
 31
0.0
  0
LINE
  5
19D
330
1F
100
AcDbEntity
  8
1
370
    18
100
AcDbLine
 10
38.59446
 20
5.035975
 30
0.0
 11
38.561351
 21
4.980675
 31
0.0
  0
LINE
  5
19E
330
1F
100
AcDbEntity
  8
1
370
    18
100
AcDbLine
 10
38.94636
 20
20.209284
 30
0.0
 11
38.394061
 21
20.706345
 31
0.0
  0
LINE
  5
19F
330
1F
100
AcDbEntity
  8
1
370
    18
100
AcDbLine
 10
39.160685
 20
4.974083
 30
0.0
 11
39.2
 21
4.929558
 31
0.0
  0
LINE
  5
1A0
330
1F
100
AcDbEntity
  8
1
370
    18
100
AcDbLine
 10
12.031898
 20
22.171224
 30
0.0
 11
12.47897
 21
23.210328
 31
0.0
  0
LINE
  5
1A1
330
1F
100
AcDbEntity
  8
1
370
    18
100
AcDbLine
 10
11.780319
 20
-11.934357
 30
0.0
 11
12.031898
 21
-11.353921
 31
0.0
  0
LINE
  5
1A2
330
1F
100
AcDbEntity
  8
1
370
    18
100
AcDbLine
 10
12.564237
 20
-10.79561
 30
0.0
 11
12.47897
 21
-10.770872
 31
0.0
  0
LINE
  5
1A3
330
1F
100
AcDbEntity
  8
1
370
    18
100
AcDbLine
 10
39.156799
 20
4.880277
 30
0.0
 11
39.118783
 21
4.923423
 31
0.0
  0
LINE
  5
1A4
330
1F
100
AcDbEntity
  8
1
370
    18
100
AcDbLine
 10
30.084888
 20
11.455154
 30
0.0
 11
31.05856
 21
11.41049
 31
0.0
  0
LINE
  5
1A5
330
1F
100
AcDbEntity
  8
1
370
    18
100
AcDbLine
 10
4.835683
 20
-4.196979
 30
0.0
 11
4.9
 21
-3.802212
 31
0.0
  0
LINE
  5
1A6
330
1F
100
AcDbEntity
  8
1
370
    18
100
AcDbLine
 10
4.263106
 20
5.031173
 30
0.0
 11
4.1
 21
5.0975
 31
0.0
  0
LINE
  5
1A7
330
1F
100
AcDbEntity
  8
1
370
    18
100
AcDbLine
 10
13.722659
 20
-17.628648
 30
0.0
 11
13.131984
 21
-16.47584
 31
0.0
  0
LINE
  5
1A8
330
1F
100
AcDbEntity
  8
1
370
    18
100
AcDbLine
 10
16.472141
 20
-19.608948
 30
0.0
 11
17.833282
 21
-19.856195
 31
0.0
  0
LINE
  5
1A9
330
1F
100
AcDbEntity
  8
1
370
    18
100
AcDbLine
 10
0.5
 20
-6.976746
 30
0.0
 11
0.0
 21
-6.900396
 31
0.0
  0
LINE
  5
1AA
330
1F
100
AcDbEntity
  8
1
370
    18
100
AcDbLine
 10
0.0
 20
6.900396
 30
0.0
 11
0.5
 21
6.976746
 31
0.0
  0
LINE
  5
1AB
330
1F
100
AcDbEntity
  8
1
370
    18
100
AcDbLine
 10
38.288799
 20
-8.880996
 30
0.0
 11
36.3715
 21
-6.617929
 31
0.0
  0
LINE
  5
1AC
330
1F
100
AcDbEntity
  8
1
370
    18
100
AcDbLine
 10
38.872505
 20
-9.8048
 30
0.0
 11
38.288799
 21
-8.880996
 31
0.0
  0
LINE
  5
1AD
330
1F
100
AcDbEntity
  8
1
370
    18
100
AcDbLine
 10
38.998536
 20
-15.472705
 30
0.0
 11
39.152834
 21
-14.549685
 31
0.0
  0
LINE
  5
1AE
330
1F
100
AcDbEntity
  8
1
370
    18
100
AcDbLine
 10
35.72938
 20
-19.104114
 30
0.0
 11
38.360328
 21
-16.491284
 31
0.0
  0
LINE
  5
1AF
330
1F
100
AcDbEntity
  8
1
370
    18
100
AcDbLine
 10
17.833282
 20
-19.856195
 30
0.0
 11
26.359044
 21
-20.241391
 31
0.0
  0
LINE
  5
1B0
330
1F
100
AcDbEntity
  8
1
370
    18
100
AcDbLine
 10
12.604894
 20
-14.825944
 30
0.0
 11
13.181803
 21
-16.443205
 31
0.0
  0
LINE
  5
1B1
330
1F
100
AcDbEntity
  8
1
370
    18
100
AcDbLine
 10
32.988103
 20
-6.873393
 30
0.0
 11
28.042962
 21
-7.28723
 31
0.0
  0
LINE
  5
1B2
330
1F
100
AcDbEntity
  8
1
370
    18
100
AcDbLine
 10
39.2
 20
4.853051
 30
0.0
 11
39.2
 21
4.652351
 31
0.0
  0
LINE
  5
1B3
330
1F
100
AcDbEntity
  8
1
370
    18
100
AcDbLine
 10
12.106895
 20
-11.368534
 30
0.0
 11
12.031898
 21
-11.353921
 31
0.0
  0
LINE
  5
1B4
330
1F
100
AcDbEntity
  8
1
370
    18
100
AcDbLine
 10
26.361832
 20
-20.297632
 30
0.0
 11
17.830447
 21
-19.911539
 31
0.0
  0
LINE
  5
1B5
330
1F
100
AcDbEntity
  8
1
370
    18
100
AcDbLine
 10
26.359044
 20
-20.241391
 30
0.0
 11
26.361832
 21
-20.297632
 31
0.0
  0
LINE
  5
1B6
330
1F
100
AcDbEntity
  8
1
370
    18
100
AcDbLine
 10
29.652436
 20
-29.402045
 30
0.0
 11
29.803159
 21
-29.397934
 31
0.0
  0
LINE
  5
1B7
330
1F
100
AcDbEntity
  8
1
370
    18
100
AcDbLine
 10
28.955118
 20
-29.311748
 30
0.0
 11
29.652429
 21
-29.402047
 31
0.0
  0
LINE
  5
1B8
330
1F
100
AcDbEntity
  8
1
370
    18
100
AcDbLine
 10
25.68075
 20
-29.64912
 30
0.0
 11
25.891573
 21
-29.563513
 31
0.0
  0
LINE
  5
1B9
330
1F
100
AcDbEntity
  8
1
370
    18
100
AcDbLine
 10
25.661995
 20
-29.700762
 30
0.0
 11
25.68075
 21
-29.64912
 31
0.0
  0
LINE
  5
1BA
330
1F
100
AcDbEntity
  8
1
370
    18
100
AcDbLine
 10
25.765633
 20
-29.754009
 30
0.0
 11
25.661995
 21
-29.700762
 31
0.0
  0
LINE
  5
1BB
330
1F
100
AcDbEntity
  8
1
370
    18
100
AcDbLine
 10
27.222986
 20
-29.9
 30
0.0
 11
27.253488
 21
-29.851755
 31
0.0
  0
LINE
  5
1BC
330
1F
100
AcDbEntity
  8
1
370
    18
100
AcDbLine
 10
12.222609
 20
-13.839975
 30
0.0
 11
12.532723
 21
-14.604938
 31
0.0
  0
LINE
  5
1BD
330
1F
100
AcDbEntity
  8
1
370
    18
100
AcDbLine
 10
12.47897
 20
-14.63482
 30
0.0
 11
12.532723
 21
-14.604938
 31
0.0
  0
LINE
  5
1BE
330
1F
100
AcDbEntity
  8
1
370
    18
100
AcDbLine
 10
35.727761
 20
-19.184157
 30
0.0
 11
35.72938
 21
-19.104114
 31
0.0
  0
LINE
  5
1BF
330
1F
100
AcDbEntity
  8
1
370
    18
100
AcDbLine
 10
35.727762
 20
-19.184157
 30
0.0
 11
35.128644
 21
-20.498236
 31
0.0
  0
LINE
  5
1C0
330
1F
100
AcDbEntity
  8
1
370
    18
100
AcDbLine
 10
12.555076
 20
-14.858144
 30
0.0
 11
12.47897
 21
-14.63482
 31
0.0
  0
LINE
  5
1C1
330
1F
100
AcDbEntity
  8
1
370
    18
100
AcDbLine
 10
13.131984
 20
-16.47584
 30
0.0
 11
12.555076
 21
-14.858144
 31
0.0
  0
LINE
  5
1C2
330
1F
100
AcDbEntity
  8
1
370
    18
100
AcDbLine
 10
12.555076
 20
-14.858144
 30
0.0
 11
12.604894
 21
-14.825944
 31
0.0
  0
LINE
  5
1C3
330
1F
100
AcDbEntity
  8
1
370
    18
100
AcDbLine
 10
12.532723
 20
-14.604938
 30
0.0
 11
12.604894
 21
-14.825944
 31
0.0
  0
LINE
  5
1C4
330
1F
100
AcDbEntity
  8
1
370
    18
100
AcDbLine
 10
26.539677
 20
-6.507959
 30
0.0
 11
26.466984
 21
-6.489617
 31
0.0
  0
LINE
  5
1C5
330
1F
100
AcDbEntity
  8
1
370
    18
100
AcDbLine
 10
32.934583
 20
-22.117684
 30
0.0
 11
32.599662
 21
-22.076038
 31
0.0
  0
LINE
  5
1C6
330
1F
100
AcDbEntity
  8
1
370
    18
100
AcDbLine
 10
32.934583
 20
-29.311827
 30
0.0
 11
33.487758
 21
-29.24503
 31
0.0
  0
LINE
  5
1C7
330
1F
100
AcDbEntity
  8
1
370
    18
100
AcDbLine
 10
32.934583
 20
-24.472348
 30
0.0
 11
33.120368
 21
-25.603353
 31
0.0
  0
LINE
  5
1C8
330
1F
100
AcDbEntity
  8
1
370
    18
100
AcDbLine
 10
38.292764
 20
4.206901
 30
0.0
 11
39.100892
 21
4.470061
 31
0.0
  0
LINE
  5
1C9
330
1F
100
AcDbEntity
  8
1
370
    18
100
AcDbLine
 10
38.394061
 20
-24.72481
 30
0.0
 11
38.59446
 21
-24.480673
 31
0.0
  0
LINE
  5
1CA
330
1F
100
AcDbEntity
  8
1
370
    18
100
AcDbLine
 10
38.94636
 20
-15.744237
 30
0.0
 11
38.394061
 21
-16.535491
 31
0.0
  0
LINE
  5
1CB
330
1F
100
AcDbEntity
  8
1
370
    18
100
AcDbLine
 10
39.152834
 20
-14.549685
 30
0.0
 11
39.2
 21
-14.571732
 31
0.0
  0
LINE
  5
1CC
330
1F
100
AcDbEntity
  8
1
370
    18
100
AcDbLine
 10
21.338073
 20
-4.94881
 30
0.0
 11
21.8109
 21
-4.823825
 31
0.0
  0
LINE
  5
1CD
330
1F
100
AcDbEntity
  8
1
370
    18
100
AcDbLine
 10
21.8109
 20
-4.823825
 30
0.0
 11
21.824203
 21
-4.875937
 31
0.0
  0
LINE
  5
1CE
330
1F
100
AcDbEntity
  8
1
370
    18
100
AcDbLine
 10
22.443547
 20
-4.668897
 30
0.0
 11
22.559587
 21
-4.649589
 31
0.0
  0
LINE
  5
1CF
330
1F
100
AcDbEntity
  8
1
370
    18
100
AcDbLine
 10
22.433873
 20
-4.646213
 30
0.0
 11
22.692094
 21
-4.22098
 31
0.0
  0
LINE
  5
1D0
330
1F
100
AcDbEntity
  8
1
370
    18
100
AcDbLine
 10
21.8109
 20
-4.823825
 30
0.0
 11
22.433873
 21
-4.646213
 31
0.0
  0
LINE
  5
1D1
330
1F
100
AcDbEntity
  8
1
370
    18
100
AcDbLine
 10
25.557006
 20
-6.015688
 30
0.0
 11
26.475731
 21
-6.450726
 31
0.0
  0
LINE
  5
1D2
330
1F
100
AcDbEntity
  8
1
370
    18
100
AcDbLine
 10
39.152834
 20
-11.135057
 30
0.0
 11
39.2
 21
-11.157104
 31
0.0
  0
LINE
  5
1D3
330
1F
100
AcDbEntity
  8
1
370
    18
100
AcDbLine
 10
17.833282
 20
23.958779
 30
0.0
 11
26.472442
 21
23.639525
 31
0.0
  0
LINE
  5
1D4
330
1F
100
AcDbEntity
  8
1
370
    18
100
AcDbLine
 10
39.024271
 20
-10.099345
 30
0.0
 11
39.2
 21
-11.157104
 31
0.0
  0
LINE
  5
1D5
330
1F
100
AcDbEntity
  8
1
370
    18
100
AcDbLine
 10
27.511766
 20
-6.915783
 30
0.0
 11
27.54464
 21
-6.993599
 31
0.0
  0
LINE
  5
1D6
330
1F
100
AcDbEntity
  8
1
370
    18
100
AcDbLine
 10
27.48974
 20
-6.809641
 30
0.0
 11
27.511766
 21
-6.915783
 31
0.0
  0
LINE
  5
1D7
330
1F
100
AcDbEntity
  8
1
370
    18
100
AcDbLine
 10
27.443164
 20
-6.796733
 30
0.0
 11
27.437667
 21
-6.739307
 31
0.0
  0
LINE
  5
1D8
330
1F
100
AcDbEntity
  8
1
370
    18
100
AcDbLine
 10
27.459833
 20
-6.886862
 30
0.0
 11
27.443164
 21
-6.796733
 31
0.0
  0
LINE
  5
1D9
330
1F
100
AcDbEntity
  8
1
370
    18
100
AcDbLine
 10
27.502899
 20
-6.994111
 30
0.0
 11
27.459833
 21
-6.886862
 31
0.0
  0
LINE
  5
1DA
330
1F
100
AcDbEntity
  8
1
370
    18
100
AcDbLine
 10
27.627882
 20
-20.931927
 30
0.0
 11
27.519303
 21
-20.323262
 31
0.0
  0
LINE
  5
1DB
330
1F
100
AcDbEntity
  8
1
370
    18
100
AcDbLine
 10
26.548513
 20
-6.469602
 30
0.0
 11
27.45902
 21
-6.710939
 31
0.0
  0
LINE
  5
1DC
330
1F
100
AcDbEntity
  8
1
370
    18
100
AcDbLine
 10
27.480416
 20
-6.711235
 30
0.0
 11
27.48974
 21
-6.809641
 31
0.0
  0
LINE
  5
1DD
330
1F
100
AcDbEntity
  8
1
370
    18
100
AcDbLine
 10
26.475731
 20
-6.450726
 30
0.0
 11
26.548513
 21
-6.469602
 31
0.0
  0
LINE
  5
1DE
330
1F
100
AcDbEntity
  8
1
370
    18
100
AcDbLine
 10
27.426587
 20
-6.510237
 30
0.0
 11
27.281755
 21
-6.462111
 31
0.0
  0
LINE
  5
1DF
330
1F
100
AcDbEntity
  8
1
370
    18
100
AcDbLine
 10
36.324081
 20
-6.544726
 30
0.0
 11
36.118272
 21
-6.541513
 31
0.0
  0
LINE
  5
1E0
330
1F
100
AcDbEntity
  8
1
370
    18
100
AcDbLine
 10
35.336283
 20
-6.633949
 30
0.0
 11
36.322816
 21
-6.545274
 31
0.0
  0
LINE
  5
1E1
330
1F
100
AcDbEntity
  8
1
370
    18
100
AcDbLine
 10
36.335334
 20
-6.573517
 30
0.0
 11
35.343114
 21
-6.66155
 31
0.0
  0
LINE
  5
1E2
330
1F
100
AcDbEntity
  8
1
370
    18
100
AcDbLine
 10
36.3715
 20
-6.617929
 30
0.0
 11
36.335309
 21
-6.573486
 31
0.0
  0
LINE
  5
1E3
330
1F
100
AcDbEntity
  8
1
370
    18
100
AcDbLine
 10
36.324081
 20
-6.544726
 30
0.0
 11
36.367552
 21
-6.579851
 31
0.0
  0
LINE
  5
1E4
330
1F
100
AcDbEntity
  8
1
370
    18
100
AcDbLine
 10
36.367552
 20
-6.579851
 30
0.0
 11
36.404021
 21
-6.625321
 31
0.0
  0
LINE
  5
1E5
330
1F
100
AcDbEntity
  8
1
370
    18
100
AcDbLine
 10
33.299802
 20
-4.800188
 30
0.0
 11
33.171248
 21
-4.137105
 31
0.0
  0
LINE
  5
1E6
330
1F
100
AcDbEntity
  8
1
370
    18
100
AcDbLine
 10
26.649194
 20
-4.838511
 30
0.0
 11
26.423288
 21
-5.281349
 31
0.0
  0
LINE
  5
1E7
330
1F
100
AcDbEntity
  8
1
370
    18
100
AcDbLine
 10
27.711265
 20
-5.119442
 30
0.0
 11
27.156409
 21
-4.649185
 31
0.0
  0
LINE
  5
1E8
330
1F
100
AcDbEntity
  8
1
370
    18
100
AcDbLine
 10
27.156409
 20
-4.649185
 30
0.0
 11
27.208276
 21
-4.597307
 31
0.0
  0
LINE
  5
1E9
330
1F
100
AcDbEntity
  8
1
370
    18
100
AcDbLine
 10
11.966712
 20
21.082275
 30
0.0
 11
12.260462
 21
21.056651
 31
0.0
  0
LINE
  5
1EA
330
1F
100
AcDbEntity
  8
1
370
    18
100
AcDbLine
 10
12.106895
 20
22.142087
 30
0.0
 11
12.031898
 21
22.171224
 31
0.0
  0
LINE
  5
1EB
330
1F
100
AcDbEntity
  8
1
370
    18
100
AcDbLine
 10
27.421928
 20
-4.834867
 30
0.0
 11
27.736013
 21
-5.076589
 31
0.0
  0
LINE
  5
1EC
330
1F
100
AcDbEntity
  8
1
370
    18
100
AcDbLine
 10
12.564237
 20
23.197584
 30
0.0
 11
12.47897
 21
23.210328
 31
0.0
  0
LINE
  5
1ED
330
1F
100
AcDbEntity
  8
1
370
    18
100
AcDbLine
 10
12.564237
 20
23.197584
 30
0.0
 11
12.106895
 21
22.142087
 31
0.0
  0
LINE
  5
1EE
330
1F
100
AcDbEntity
  8
1
370
    18
100
AcDbLine
 10
13.827294
 20
26.877161
 30
0.0
 11
13.216099
 21
25.431028
 31
0.0
  0
LINE
  5
1EF
330
1F
100
AcDbEntity
  8
1
370
    18
100
AcDbLine
 10
21.063574
 20
29.813763
 30
0.0
 11
17.857036
 21
29.67378
 31
0.0
  0
LINE
  5
1F0
330
1F
100
AcDbEntity
  8
1
370
    18
100
AcDbLine
 10
22.039183
 20
26.726918
 30
0.0
 11
23.169449
 21
26.63818
 31
0.0
  0
LINE
  5
1F1
330
1F
100
AcDbEntity
  8
1
370
    18
100
AcDbLine
 10
21.697594
 20
26.633938
 30
0.0
 11
22.039183
 21
26.726918
 31
0.0
  0
LINE
  5
1F2
330
1F
100
AcDbEntity
  8
1
370
    18
100
AcDbLine
 10
21.424444
 20
23.825893
 30
0.0
 11
21.489961
 21
26.232153
 31
0.0
  0
LINE
  5
1F3
330
1F
100
AcDbEntity
  8
1
370
    18
100
AcDbLine
 10
26.461251
 20
-29.808476
 30
0.0
 11
27.260731
 21
-29.830235
 31
0.0
  0
LINE
  5
1F4
330
1F
100
AcDbEntity
  8
1
370
    18
100
AcDbLine
 10
25.700367
 20
-29.682604
 30
0.0
 11
25.802059
 21
-29.734681
 31
0.0
  0
LINE
  5
1F5
330
1F
100
AcDbEntity
  8
1
370
    18
100
AcDbLine
 10
26.923842
 20
-29.495138
 30
0.0
 11
26.382638
 21
-29.437957
 31
0.0
  0
LINE
  5
1F6
330
1F
100
AcDbEntity
  8
1
370
    18
100
AcDbLine
 10
21.981848
 20
29.873694
 30
0.0
 11
25.510729
 21
29.897905
 31
0.0
  0
LINE
  5
1F7
330
1F
100
AcDbEntity
  8
1
370
    18
100
AcDbLine
 10
21.522811
 20
26.222274
 30
0.0
 11
21.458053
 21
23.824659
 31
0.0
  0
LINE
  5
1F8
330
1F
100
AcDbEntity
  8
1
370
    18
100
AcDbLine
 10
26.999329
 20
-29.479319
 30
0.0
 11
26.869445
 21
-29.362112
 31
0.0
  0
LINE
  5
1F9
330
1F
100
AcDbEntity
  8
1
370
    18
100
AcDbLine
 10
26.923842
 20
-29.495138
 30
0.0
 11
26.999329
 21
-29.479319
 31
0.0
  0
LINE
  5
1FA
330
1F
100
AcDbEntity
  8
1
370
    18
100
AcDbLine
 10
27.260735
 20
-29.830164
 30
0.0
 11
27.287759
 21
-29.765463
 31
0.0
  0
LINE
  5
1FB
330
1F
100
AcDbEntity
  8
1
370
    18
100
AcDbLine
 10
22.039183
 20
26.726918
 30
0.0
 11
22.022165
 21
26.669711
 31
0.0
  0
LINE
  5
1FC
330
1F
100
AcDbEntity
  8
1
370
    18
100
AcDbLine
 10
23.168191
 20
26.579647
 30
0.0
 11
22.022165
 21
26.669711
 31
0.0
  0
LINE
  5
1FD
330
1F
100
AcDbEntity
  8
1
370
    18
100
AcDbLine
 10
23.169449
 20
26.63818
 30
0.0
 11
23.168191
 21
26.579647
 31
0.0
  0
LINE
  5
1FE
330
1F
100
AcDbEntity
  8
1
370
    18
100
AcDbLine
 10
21.563918
 20
24.961558
 30
0.0
 11
21.480605
 21
24.870658
 31
0.0
  0
LINE
  5
1FF
330
1F
100
AcDbEntity
  8
1
370
    18
100
AcDbLine
 10
21.99254
 20
25.279889
 30
0.0
 11
21.563918
 21
24.961558
 31
0.0
  0
LINE
  5
200
330
1F
100
AcDbEntity
  8
1
370
    18
100
AcDbLine
 10
22.955888
 20
25.705377
 30
0.0
 11
21.992563
 21
25.279802
 31
0.0
  0
LINE
  5
201
330
1F
100
AcDbEntity
  8
1
370
    18
100
AcDbLine
 10
38.854718
 20
-4.393992
 30
0.0
 11
38.32132
 21
-4.247793
 31
0.0
  0
LINE
  5
202
330
1F
100
AcDbEntity
  8
1
370
    18
100
AcDbLine
 10
39.077499
 20
-4.455964
 30
0.0
 11
39.141831
 21
-4.503616
 31
0.0
  0
LINE
  5
203
330
1F
100
AcDbEntity
  8
1
370
    18
100
AcDbLine
 10
39.532334
 20
3.069208
 30
0.0
 11
39.585703
 21
3.025901
 31
0.0
  0
LINE
  5
204
330
1F
100
AcDbEntity
  8
1
370
    18
100
AcDbLine
 10
39.822703
 20
2.830839
 30
0.0
 11
39.747199
 21
2.887266
 31
0.0
  0
LINE
  5
205
330
1F
100
AcDbEntity
  8
1
370
    18
100
AcDbLine
 10
39.823254
 20
2.830392
 30
0.0
 11
40.0
 21
2.640361
 31
0.0
  0
LINE
  5
206
330
1F
100
AcDbEntity
  8
1
370
    18
100
AcDbLine
 10
40.006059
 20
2.500988
 30
0.0
 11
40.002909
 21
2.632252
 31
0.0
  0
LINE
  5
207
330
1F
100
AcDbEntity
  8
1
370
    18
100
AcDbLine
 10
40.006059
 20
2.500988
 30
0.0
 11
40.003638
 21
2.385529
 31
0.0
  0
LINE
  5
208
330
1F
100
AcDbEntity
  8
1
370
    18
100
AcDbLine
 10
39.506825
 20
-3.358722
 30
0.0
 11
39.33008
 21
-3.168691
 31
0.0
  0
LINE
  5
209
330
1F
100
AcDbEntity
  8
1
370
    18
100
AcDbLine
 10
39.263704
 20
-3.238345
 30
0.0
 11
39.32277
 21
-3.297411
 31
0.0
  0
LINE
  5
20A
330
1F
100
AcDbEntity
  8
1
370
    18
100
AcDbLine
 10
39.319338
 20
-3.297079
 30
0.0
 11
39.121684
 21
-3.433398
 31
0.0
  0
LINE
  5
20B
330
1F
100
AcDbEntity
  8
1
370
    18
100
AcDbLine
 10
39.495466
 20
-3.370037
 30
0.0
 11
39.314236
 21
-3.491501
 31
0.0
  0
LINE
  5
20C
330
1F
100
AcDbEntity
  8
1
370
    18
100
AcDbLine
 10
39.095417
 20
-3.455533
 30
0.0
 11
38.947354
 21
-3.546188
 31
0.0
  0
LINE
  5
20D
330
1F
100
AcDbEntity
  8
1
370
    18
100
AcDbLine
 10
38.94584
 20
-3.547105
 30
0.0
 11
38.571446
 21
-3.644548
 31
0.0
  0
LINE
  5
20E
330
1F
100
AcDbEntity
  8
1
370
    18
100
AcDbLine
 10
38.567991
 20
-3.644301
 30
0.0
 11
37.461307
 21
-3.559173
 31
0.0
  0
LINE
  5
20F
330
1F
100
AcDbEntity
  8
1
370
    18
100
AcDbLine
 10
39.118223
 20
-3.611979
 30
0.0
 11
39.277644
 21
-3.51526
 31
0.0
  0
LINE
  5
210
330
1F
100
AcDbEntity
  8
1
370
    18
100
AcDbLine
 10
39.118223
 20
-3.611979
 30
0.0
 11
38.748389
 21
-3.706485
 31
0.0
  0
LINE
  5
211
330
1F
100
AcDbEntity
  8
1
370
    18
100
AcDbLine
 10
37.495399
 20
-3.61216
 30
0.0
 11
38.748389
 21
-3.706485
 31
0.0
  0
LINE
  5
212
330
1F
100
AcDbEntity
  8
1
370
    18
100
AcDbLine
 10
39.774456
 20
-25.594137
 30
0.0
 11
35.942131
 21
-29.729268
 31
0.0
  0
LINE
  5
213
330
1F
100
AcDbEntity
  8
1
370
    18
100
AcDbLine
 10
35.572298
 20
-30.10158
 30
0.0
 11
35.942131
 21
-29.729268
 31
0.0
  0
LINE
  5
214
330
1F
100
AcDbEntity
  8
1
370
    18
100
AcDbLine
 10
35.572298
 20
-30.10158
 30
0.0
 11
35.412877
 21
-30.249833
 31
0.0
  0
LINE
  5
215
330
1F
100
AcDbEntity
  8
1
370
    18
100
AcDbLine
 10
34.916065
 20
-29.522146
 30
0.0
 11
38.748389
 21
-25.387015
 31
0.0
  0
LINE
  5
216
330
1F
100
AcDbEntity
  8
1
370
    18
100
AcDbLine
 10
39.118223
 20
-25.014703
 30
0.0
 11
38.748389
 21
-25.387015
 31
0.0
  0
LINE
  5
217
330
1F
100
AcDbEntity
  8
1
370
    18
100
AcDbLine
 10
39.118223
 20
-25.014703
 30
0.0
 11
39.277644
 21
-24.86645
 31
0.0
  0
LINE
  5
218
330
1F
100
AcDbEntity
  8
1
370
    18
100
AcDbLine
 10
38.567991
 20
-25.312717
 30
0.0
 11
34.857794
 21
-29.324982
 31
0.0
  0
LINE
  5
219
330
1F
100
AcDbEntity
  8
1
370
    18
100
AcDbLine
 10
34.844858
 20
-30.487328
 30
0.0
 11
29.264263
 21
-30.736996
 31
0.0
  0
LINE
  5
21A
330
1F
100
AcDbEntity
  8
1
370
    18
100
AcDbLine
 10
28.730512
 20
-30.745006
 30
0.0
 11
29.264263
 21
-30.736996
 31
0.0
  0
LINE
  5
21B
330
1F
100
AcDbEntity
  8
1
370
    18
100
AcDbLine
 10
28.730512
 20
-30.745006
 30
0.0
 11
28.502626
 21
-30.7411
 31
0.0
  0
LINE
  5
21C
330
1F
100
AcDbEntity
  8
1
370
    18
100
AcDbLine
 10
28.005814
 20
-30.013412
 30
0.0
 11
33.586409
 21
-29.763744
 31
0.0
  0
LINE
  5
21D
330
1F
100
AcDbEntity
  8
1
370
    18
100
AcDbLine
 10
34.12016
 20
-29.755734
 30
0.0
 11
33.586409
 21
-29.763744
 31
0.0
  0
LINE
  5
21E
330
1F
100
AcDbEntity
  8
1
370
    18
100
AcDbLine
 10
34.12016
 20
-29.755734
 30
0.0
 11
34.348046
 21
-29.75964
 31
0.0
  0
LINE
  5
21F
330
1F
100
AcDbEntity
  8
1
370
    18
100
AcDbLine
 10
34.061233
 20
-29.576186
 30
0.0
 11
33.522624
 21
-29.582377
 31
0.0
  0
LINE
  5
220
330
1F
100
AcDbEntity
  8
1
370
    18
100
AcDbLine
 10
33.51756
 20
-29.582636
 30
0.0
 11
28.10931
 21
-29.83054
 31
0.0
  0
LINE
  5
221
330
1F
100
AcDbEntity
  8
1
370
    18
100
AcDbLine
 10
38.94584
 20
-24.934791
 30
0.0
 11
38.571446
 21
-25.308943
 31
0.0
  0
LINE
  5
222
330
1F
100
AcDbEntity
  8
1
370
    18
100
AcDbLine
 10
34.273472
 20
-29.58153
 30
0.0
 11
34.063373
 21
-29.576247
 31
0.0
  0
LINE
  5
223
330
1F
100
AcDbEntity
  8
1
370
    18
100
AcDbLine
 10
34.348046
 20
-29.75964
 30
0.0
 11
34.402048
 21
-29.758953
 31
0.0
  0
LINE
  5
224
330
1F
100
AcDbEntity
  8
1
370
    18
100
AcDbLine
 10
35.412877
 20
-30.249833
 30
0.0
 11
35.373816
 21
-30.283727
 31
0.0
  0
LINE
  5
225
330
1F
100
AcDbEntity
  8
1
370
    18
100
AcDbLine
 10
34.858475
 20
-30.486598
 30
0.0
 11
35.373816
 21
-30.283727
 31
0.0
  0
LINE
  5
226
330
1F
100
AcDbEntity
  8
1
370
    18
100
AcDbLine
 10
34.83084
 20
-29.347562
 30
0.0
 11
34.317224
 21
-29.576426
 31
0.0
  0
LINE
  5
227
330
1F
100
AcDbEntity
  8
1
370
    18
100
AcDbLine
 10
39.823254
 20
-18.700806
 30
0.0
 11
40.0
 21
-24.32235
 31
0.0
  0
LINE
  5
228
330
1F
100
AcDbEntity
  8
1
370
    18
100
AcDbLine
 10
40.006059
 20
-24.834028
 30
0.0
 11
40.0
 21
-24.32235
 31
0.0
  0
LINE
  5
229
330
1F
100
AcDbEntity
  8
1
370
    18
100
AcDbLine
 10
40.006059
 20
-24.834028
 30
0.0
 11
40.003638
 21
-25.040491
 31
0.0
  0
LINE
  5
22A
330
1F
100
AcDbEntity
  8
1
370
    18
100
AcDbLine
 10
39.506825
 20
-24.312804
 30
0.0
 11
39.33008
 21
-18.69126
 31
0.0
  0
LINE
  5
22B
330
1F
100
AcDbEntity
  8
1
370
    18
100
AcDbLine
 10
39.324021
 20
-18.179581
 30
0.0
 11
39.33008
 21
-18.69126
 31
0.0
  0
LINE
  5
22C
330
1F
100
AcDbEntity
  8
1
370
    18
100
AcDbLine
 10
39.324021
 20
-18.179581
 30
0.0
 11
39.326442
 21
-17.973118
 31
0.0
  0
LINE
  5
22D
330
1F
100
AcDbEntity
  8
1
370
    18
100
AcDbLine
 10
39.199955
 20
-20.441649
 30
0.0
 11
39.32277
 21
-24.21955
 31
0.0
  0
LINE
  5
22E
330
1F
100
AcDbEntity
  8
1
370
    18
100
AcDbLine
 10
39.095417
 20
-24.798076
 30
0.0
 11
38.947354
 21
-24.933416
 31
0.0
  0
LINE
  5
22F
330
1F
100
AcDbEntity
  8
1
370
    18
100
AcDbLine
 10
39.277644
 20
-24.86645
 30
0.0
 11
39.314236
 21
-24.830252
 31
0.0
  0
LINE
  5
230
330
1F
100
AcDbEntity
  8
1
370
    18
100
AcDbLine
 10
39.783723
 20
-25.58396
 30
0.0
 11
40.001309
 21
-25.089392
 31
0.0
  0
LINE
  5
231
330
1F
100
AcDbEntity
  8
1
370
    18
100
AcDbLine
 10
39.319338
 20
-24.254625
 30
0.0
 11
39.121684
 21
-24.765795
 31
0.0
  0
LINE
  5
232
330
1F
100
AcDbEntity
  8
1
370
    18
100
AcDbLine
 10
27.922152
 20
-30.514013
 30
0.0
 11
27.242579
 21
-29.88236
 31
0.0
  0
LINE
  5
233
330
1F
100
AcDbEntity
  8
1
370
    18
100
AcDbLine
 10
27.257631
 20
-29.625442
 30
0.0
 11
26.95732
 21
-29.340972
 31
0.0
  0
LINE
  5
234
330
1F
100
AcDbEntity
  8
1
370
    18
100
AcDbLine
 10
27.257631
 20
-29.625442
 30
0.0
 11
27.42534
 21
-29.786325
 31
0.0
  0
LINE
  5
235
330
1F
100
AcDbEntity
  8
1
370
    18
100
AcDbLine
 10
27.348812
 20
-29.45456
 30
0.0
 11
27.208606
 21
-29.317362
 31
0.0
  0
LINE
  5
236
330
1F
100
AcDbEntity
  8
1
370
    18
100
AcDbLine
 10
27.503988
 20
-29.605575
 30
0.0
 11
27.350371
 21
-29.456089
 31
0.0
  0
LINE
  5
237
330
1F
100
AcDbEntity
  8
1
370
    18
100
AcDbLine
 10
27.42534
 20
-29.786325
 30
0.0
 11
27.466301
 21
-29.823281
 31
0.0
  0
LINE
  5
238
330
1F
100
AcDbEntity
  8
1
370
    18
100
AcDbLine
 10
27.540669
 20
-29.632209
 30
0.0
 11
28.074777
 21
-29.827626
 31
0.0
  0
LINE
  5
239
330
1F
100
AcDbEntity
  8
1
370
    18
100
AcDbLine
 10
28.502626
 20
-30.7411
 30
0.0
 11
28.448533
 21
-30.738401
 31
0.0
  0
LINE
  5
23A
330
1F
100
AcDbEntity
  8
1
370
    18
100
AcDbLine
 10
27.932102
 20
-30.523099
 30
0.0
 11
28.448533
 21
-30.738401
 31
0.0
  0
LINE
  5
23B
330
1F
100
AcDbEntity
  8
1
370
    18
100
AcDbLine
 10
39.201288
 20
-17.567847
 30
0.0
 11
39.325369
 21
-17.924344
 31
0.0
  0
LINE
  5
23C
330
1F
100
AcDbEntity
  8
1
370
    18
100
AcDbLine
 10
39.822703
 20
-18.687084
 30
0.0
 11
39.690615
 21
-18.284576
 31
0.0
  0
LINE
  5
23D
330
1F
100
AcDbEntity
  8
1
370
    18
100
AcDbLine
 10
34.844858
 20
-2.22691
 30
0.0
 11
29.264263
 21
-3.008504
 31
0.0
  0
LINE
  5
23E
330
1F
100
AcDbEntity
  8
1
370
    18
100
AcDbLine
 10
28.730512
 20
-2.960231
 30
0.0
 11
29.264263
 21
-3.008504
 31
0.0
  0
LINE
  5
23F
330
1F
100
AcDbEntity
  8
1
370
    18
100
AcDbLine
 10
28.730512
 20
-2.960231
 30
0.0
 11
28.502626
 21
-2.882822
 31
0.0
  0
LINE
  5
240
330
1F
100
AcDbEntity
  8
1
370
    18
100
AcDbLine
 10
28.005814
 20
2.861429
 30
0.0
 11
33.586409
 21
3.643024
 31
0.0
  0
LINE
  5
241
330
1F
100
AcDbEntity
  8
1
370
    18
100
AcDbLine
 10
34.12016
 20
3.594751
 30
0.0
 11
33.586409
 21
3.643024
 31
0.0
  0
LINE
  5
242
330
1F
100
AcDbEntity
  8
1
370
    18
100
AcDbLine
 10
34.12016
 20
3.594751
 30
0.0
 11
34.348046
 21
3.517342
 31
0.0
  0
LINE
  5
243
330
1F
100
AcDbEntity
  8
1
370
    18
100
AcDbLine
 10
28.502626
 20
-2.882822
 30
0.0
 11
28.448533
 21
-2.863999
 31
0.0
  0
LINE
  5
244
330
1F
100
AcDbEntity
  8
1
370
    18
100
AcDbLine
 10
27.932102
 20
-2.822897
 30
0.0
 11
28.448533
 21
-2.863999
 31
0.0
  0
LINE
  5
245
330
1F
100
AcDbEntity
  8
1
370
    18
100
AcDbLine
 10
27.992191
 20
2.859484
 30
0.0
 11
27.466301
 21
2.901933
 31
0.0
  0
LINE
  5
246
330
1F
100
AcDbEntity
  8
1
370
    18
100
AcDbLine
 10
27.922152
 20
-2.825366
 30
0.0
 11
23.8782
 21
-3.825776
 31
0.0
  0
LINE
  5
247
330
1F
100
AcDbEntity
  8
1
370
    18
100
AcDbLine
 10
23.488525
 20
-3.798019
 30
0.0
 11
23.8782
 21
-3.825776
 31
0.0
  0
LINE
  5
248
330
1F
100
AcDbEntity
  8
1
370
    18
100
AcDbLine
 10
23.488525
 20
-3.798019
 30
0.0
 11
23.320817
 21
-3.729179
 31
0.0
  0
LINE
  5
249
330
1F
100
AcDbEntity
  8
1
370
    18
100
AcDbLine
 10
25.898734
 20
2.775712
 30
0.0
 11
26.867956
 21
3.015482
 31
0.0
  0
LINE
  5
24A
330
1F
100
AcDbEntity
  8
1
370
    18
100
AcDbLine
 10
27.257631
 20
2.987726
 30
0.0
 11
26.867956
 21
3.015482
 31
0.0
  0
LINE
  5
24B
330
1F
100
AcDbEntity
  8
1
370
    18
100
AcDbLine
 10
27.257631
 20
2.987726
 30
0.0
 11
27.42534
 21
2.918886
 31
0.0
  0
LINE
  5
24C
330
1F
100
AcDbEntity
  8
1
370
    18
100
AcDbLine
 10
35.043101
 20
-2.206808
 30
0.0
 11
35.289118
 21
-2.291609
 31
0.0
  0
LINE
  5
24D
330
1F
100
AcDbEntity
  8
1
370
    18
100
AcDbLine
 10
34.858475
 20
-2.224985
 30
0.0
 11
35.373816
 21
-2.302922
 31
0.0
  0
LINE
  5
24E
330
1F
100
AcDbEntity
  8
1
370
    18
100
AcDbLine
 10
34.348046
 20
3.517342
 30
0.0
 11
34.402048
 21
3.498213
 31
0.0
  0
LINE
  5
24F
330
1F
100
AcDbEntity
  8
1
370
    18
100
AcDbLine
 10
34.906627
 20
3.417242
 30
0.0
 11
34.402048
 21
3.498213
 31
0.0
  0
LINE
  5
250
330
1F
100
AcDbEntity
  8
1
370
    18
100
AcDbLine
 10
35.324446
 20
-2.312214
 30
0.0
 11
35.470374
 21
-2.40323
 31
0.0
  0
LINE
  5
251
330
1F
100
AcDbEntity
  8
1
370
    18
100
AcDbLine
 10
35.572298
 20
-2.422983
 30
0.0
 11
35.412877
 21
-2.326264
 31
0.0
  0
LINE
  5
252
330
1F
100
AcDbEntity
  8
1
370
    18
100
AcDbLine
 10
39.774456
 20
-2.228992
 30
0.0
 11
35.942131
 21
-2.517489
 31
0.0
  0
LINE
  5
253
330
1F
100
AcDbEntity
  8
1
370
    18
100
AcDbLine
 10
35.572298
 20
-2.422983
 30
0.0
 11
35.942131
 21
-2.517489
 31
0.0
  0
LINE
  5
254
330
1F
100
AcDbEntity
  8
1
370
    18
100
AcDbLine
 10
34.916065
 20
3.417987
 30
0.0
 11
38.748389
 21
3.706485
 31
0.0
  0
LINE
  5
255
330
1F
100
AcDbEntity
  8
1
370
    18
100
AcDbLine
 10
39.118223
 20
3.611979
 30
0.0
 11
38.748389
 21
3.706485
 31
0.0
  0
LINE
  5
256
330
1F
100
AcDbEntity
  8
1
370
    18
100
AcDbLine
 10
39.118223
 20
3.611979
 30
0.0
 11
39.277644
 21
3.51526
 31
0.0
  0
LINE
  5
257
330
1F
100
AcDbEntity
  8
1
370
    18
100
AcDbLine
 10
35.471855
 20
-2.404153
 30
0.0
 11
35.710234
 21
-2.495735
 31
0.0
  0
LINE
  5
258
330
1F
100
AcDbEntity
  8
1
370
    18
100
AcDbLine
 10
34.990208
 20
-2.293365
 30
0.0
 11
34.895981
 21
-2.298101
 31
0.0
  0
LINE
  5
259
330
1F
100
AcDbEntity
  8
1
370
    18
100
AcDbLine
 10
35.732938
 20
-2.523295
 30
0.0
 11
35.630695
 21
-2.522605
 31
0.0
  0
LINE
  5
25A
330
1F
100
AcDbEntity
  8
1
370
    18
100
AcDbLine
 10
35.119104
 20
-2.851265
 30
0.0
 11
35.288525
 21
-2.859984
 31
0.0
  0
LINE
  5
25B
330
1F
100
AcDbEntity
  8
1
370
    18
100
AcDbLine
 10
31.642322
 20
-3.191232
 30
0.0
 11
31.786089
 21
-3.195407
 31
0.0
  0
LINE
  5
25C
330
1F
100
AcDbEntity
  8
1
370
    18
100
AcDbLine
 10
23.126894
 20
-4.429437
 30
0.0
 11
23.21869
 21
-3.782487
 31
0.0
  0
LINE
  5
25D
330
1F
100
AcDbEntity
  8
1
370
    18
100
AcDbLine
 10
23.036355
 20
-3.841829
 30
0.0
 11
22.939025
 21
-4.490557
 31
0.0
  0
LINE
  5
25E
330
1F
100
AcDbEntity
  8
1
370
    18
100
AcDbLine
 10
22.917023
 20
-4.445582
 30
0.0
 11
22.933715
 21
-4.503214
 31
0.0
  0
LINE
  5
25F
330
1F
100
AcDbEntity
  8
1
370
    18
100
AcDbLine
 10
22.917023
 20
-4.445582
 30
0.0
 11
22.902882
 21
-4.36955
 31
0.0
  0
LINE
  5
260
330
1F
100
AcDbEntity
  8
1
370
    18
100
AcDbLine
 10
39.495466
 20
3.370037
 30
0.0
 11
39.314236
 21
3.491501
 31
0.0
  0
LINE
  5
261
330
1F
100
AcDbEntity
  8
1
370
    18
100
AcDbLine
 10
39.703935
 20
-2.233022
 30
0.0
 11
39.805117
 21
-2.345979
 31
0.0
  0
LINE
  5
262
330
1F
100
AcDbEntity
  8
1
370
    18
100
AcDbLine
 10
34.733159
 20
-2.248109
 30
0.0
 11
34.854991
 21
-2.243885
 31
0.0
  0
LINE
  5
263
330
1F
100
AcDbEntity
  8
1
370
    18
100
AcDbLine
 10
39.812066
 20
-2.370419
 30
0.0
 11
39.812977
 21
-2.478639
 31
0.0
  0
LINE
  5
264
330
1F
100
AcDbEntity
  8
1
370
    18
100
AcDbLine
 10
40.006059
 20
-2.500988
 30
0.0
 11
40.003638
 21
-2.385529
 31
0.0
  0
LINE
  5
265
330
1F
100
AcDbEntity
  8
1
370
    18
100
AcDbLine
 10
34.697702
 20
-2.303134
 30
0.0
 11
34.733159
 21
-2.248109
 31
0.0
  0
LINE
  5
266
330
1F
100
AcDbEntity
  8
1
370
    18
100
AcDbLine
 10
39.812978
 20
-2.479737
 30
0.0
 11
39.807289
 21
-2.614084
 31
0.0
  0
LINE
  5
267
330
1F
100
AcDbEntity
  8
1
370
    18
100
AcDbLine
 10
40.006059
 20
-2.500988
 30
0.0
 11
40.002909
 21
-2.632252
 31
0.0
  0
LINE
  5
268
330
1F
100
AcDbEntity
  8
1
370
    18
100
AcDbLine
 10
39.805339
 20
-2.622945
 30
0.0
 11
39.638509
 21
-2.799875
 31
0.0
  0
LINE
  5
269
330
1F
100
AcDbEntity
  8
1
370
    18
100
AcDbLine
 10
39.823254
 20
-2.830392
 30
0.0
 11
40.0
 21
-2.640361
 31
0.0
  0
LINE
  5
26A
330
1F
100
AcDbEntity
  8
1
370
    18
100
AcDbLine
 10
23.99736
 20
-3.830309
 30
0.0
 11
23.931753
 21
-3.871039
 31
0.0
  0
LINE
  5
26B
330
1F
100
AcDbEntity
  8
1
370
    18
100
AcDbLine
 10
27.084808
 20
-4.55065
 30
0.0
 11
23.430807
 21
-4.227008
 31
0.0
  0
LINE
  5
26C
330
1F
100
AcDbEntity
  8
1
370
    18
100
AcDbLine
 10
39.632698
 20
-2.800315
 30
0.0
 11
39.425753
 21
-2.970417
 31
0.0
  0
LINE
  5
26D
330
1F
100
AcDbEntity
  8
1
370
    18
100
AcDbLine
 10
23.334265
 20
-4.294679
 30
0.0
 11
26.996894
 21
-4.613429
 31
0.0
  0
LINE
  5
26E
330
1F
100
AcDbEntity
  8
1
370
    18
100
AcDbLine
 10
39.822703
 20
-2.830839
 30
0.0
 11
39.747199
 21
-2.887266
 31
0.0
  0
LINE
  5
26F
330
1F
100
AcDbEntity
  8
1
370
    18
100
AcDbLine
 10
39.401326
 20
-2.996784
 30
0.0
 11
39.261242
 21
-3.111499
 31
0.0
  0
LINE
  5
270
330
1F
100
AcDbEntity
  8
1
370
    18
100
AcDbLine
 10
38.878249
 20
-3.273267
 30
0.0
 11
34.909021
 21
-3.62864
 31
0.0
  0
LINE
  5
271
330
1F
100
AcDbEntity
  8
1
370
    18
100
AcDbLine
 10
39.259809
 20
-3.112662
 30
0.0
 11
38.881944
 21
-3.272917
 31
0.0
  0
LINE
  5
272
330
1F
100
AcDbEntity
  8
1
370
    18
100
AcDbLine
 10
39.434556
 20
-3.148552
 30
0.0
 11
39.585703
 21
-3.025901
 31
0.0
  0
LINE
  5
273
330
1F
100
AcDbEntity
  8
1
370
    18
100
AcDbLine
 10
39.434556
 20
-3.148552
 30
0.0
 11
39.060825
 21
-3.305143
 31
0.0
  0
LINE
  5
274
330
1F
100
AcDbEntity
  8
1
370
    18
100
AcDbLine
 10
34.962667
 20
-3.678819
 30
0.0
 11
39.060825
 21
-3.305143
 31
0.0
  0
LINE
  5
275
330
1F
100
AcDbEntity
  8
1
370
    18
100
AcDbLine
 10
31.561812
 20
-3.271005
 30
0.0
 11
31.516697
 21
-3.244761
 31
0.0
  0
LINE
  5
276
330
1F
100
AcDbEntity
  8
1
370
    18
100
AcDbLine
 10
27.443943
 20
-4.458203
 30
0.0
 11
27.088358
 21
-4.550942
 31
0.0
  0
LINE
  5
277
330
1F
100
AcDbEntity
  8
1
370
    18
100
AcDbLine
 10
27.575637
 20
-4.368442
 30
0.0
 11
27.445266
 21
-4.457304
 31
0.0
  0
LINE
  5
278
330
1F
100
AcDbEntity
  8
1
370
    18
100
AcDbLine
 10
27.607301
 20
-4.346681
 30
0.0
 11
28.112176
 21
-4.214889
 31
0.0
  0
LINE
  5
279
330
1F
100
AcDbEntity
  8
1
370
    18
100
AcDbLine
 10
33.609232
 20
-4.071748
 30
0.0
 11
28.146992
 21
-4.215468
 31
0.0
  0
LINE
  5
27A
330
1F
100
AcDbEntity
  8
1
370
    18
100
AcDbLine
 10
34.880403
 20
-3.629809
 30
0.0
 11
34.373252
 21
-3.799135
 31
0.0
  0
LINE
  5
27B
330
1F
100
AcDbEntity
  8
1
370
    18
100
AcDbLine
 10
27.350783
 20
-4.523587
 30
0.0
 11
26.996894
 21
-4.613429
 31
0.0
  0
LINE
  5
27C
330
1F
100
AcDbEntity
  8
1
370
    18
100
AcDbLine
 10
34.136387
 20
-3.93217
 30
0.0
 11
33.614346
 21
-4.071594
 31
0.0
  0
LINE
  5
27D
330
1F
100
AcDbEntity
  8
1
370
    18
100
AcDbLine
 10
34.332831
 20
-3.824392
 30
0.0
 11
34.138368
 21
-3.931089
 31
0.0
  0
LINE
  5
27E
330
1F
100
AcDbEntity
  8
1
370
    18
100
AcDbLine
 10
27.350783
 20
-4.523587
 30
0.0
 11
27.493642
 21
-4.428815
 31
0.0
  0
LINE
  5
27F
330
1F
100
AcDbEntity
  8
1
370
    18
100
AcDbLine
 10
28.026208
 20
-4.277615
 30
0.0
 11
27.52867
 21
-4.405518
 31
0.0
  0
LINE
  5
280
330
1F
100
AcDbEntity
  8
1
370
    18
100
AcDbLine
 10
34.952581
 20
-3.679703
 30
0.0
 11
34.453953
 21
-3.84444
 31
0.0
  0
LINE
  5
281
330
1F
100
AcDbEntity
  8
1
370
    18
100
AcDbLine
 10
28.039962
 20
-4.277275
 30
0.0
 11
33.674762
 21
-4.122415
 31
0.0
  0
LINE
  5
282
330
1F
100
AcDbEntity
  8
1
370
    18
100
AcDbLine
 10
34.192569
 20
-3.986339
 30
0.0
 11
33.674762
 21
-4.122415
 31
0.0
  0
LINE
  5
283
330
1F
100
AcDbEntity
  8
1
370
    18
100
AcDbLine
 10
34.192569
 20
-3.986339
 30
0.0
 11
34.403893
 21
-3.872257
 31
0.0
  0
LINE
  5
284
330
1F
100
AcDbEntity
  8
1
370
    18
100
AcDbLine
 10
34.403893
 20
-3.872257
 30
0.0
 11
34.453953
 21
-3.84444
 31
0.0
  0
LINE
  5
285
330
1F
100
AcDbEntity
  8
1
370
    18
100
AcDbLine
 10
39.141596
 20
4.503686
 30
0.0
 11
39.184112
 21
4.551306
 31
0.0
  0
LINE
  5
286
330
1F
100
AcDbEntity
  8
1
370
    18
100
AcDbLine
 10
27.253161
 20
-29.883728
 30
0.0
 11
27.28744
 21
-29.797372
 31
0.0
  0
LINE
  5
287
330
1F
100
AcDbEntity
  8
1
370
    18
100
AcDbLine
 10
37.984486
 20
-4.127804
 30
0.0
 11
37.394331
 21
-3.45931
 31
0.0
  0
LINE
  5
288
330
1F
100
AcDbEntity
  8
1
370
    18
100
AcDbLine
 10
39.184112
 20
-4.551306
 30
0.0
 11
39.141596
 21
-4.503686
 31
0.0
  0
LINE
  5
289
330
1F
100
AcDbEntity
  8
1
370
    18
100
AcDbLine
 10
35.709048
 20
-2.495541
 30
0.0
 11
35.805854
 21
-2.511357
 31
0.0
  0
LINE
  5
28A
330
1F
100
AcDbEntity
  8
1
370
    18
100
AcDbLine
 10
27.932303
 20
-2.935157
 30
0.0
 11
28.028113
 21
-2.91496
 31
0.0
  0
LINE
  5
28B
330
1F
100
AcDbEntity
  8
1
370
    18
100
AcDbLine
 10
27.970339
 20
-2.884158
 30
0.0
 11
27.928313
 21
-2.936377
 31
0.0
  0
LINE
  5
28C
330
1F
100
AcDbEntity
  8
1
370
    18
100
AcDbLine
 10
28.184173
 20
-2.825586
 30
0.0
 11
28.247619
 21
-2.817532
 31
0.0
  0
LINE
  5
28D
330
1F
100
AcDbEntity
  8
1
370
    18
100
AcDbLine
 10
27.27766
 20
-3.015449
 30
0.0
 11
27.352366
 21
-3.014658
 31
0.0
  0
LINE
  5
28E
330
1F
100
AcDbEntity
  8
1
370
    18
100
AcDbLine
 10
26.540641
 20
-3.240021
 30
0.0
 11
26.631512
 21
-3.200592
 31
0.0
  0
LINE
  5
28F
330
1F
100
AcDbEntity
  8
1
370
    18
100
AcDbLine
 10
26.28234
 20
-3.435608
 30
0.0
 11
26.332431
 21
-3.428684
 31
0.0
  0
LINE
  5
290
330
1F
100
AcDbEntity
  8
1
370
    18
100
AcDbLine
 10
23.124414
 20
-4.441499
 30
0.0
 11
24.013135
 21
-3.818933
 31
0.0
  0
LINE
  5
291
330
1F
100
AcDbEntity
  8
1
370
    18
100
AcDbLine
 10
36.412427
 20
-2.579328
 30
0.0
 11
36.487132
 21
-2.578537
 31
0.0
  0
LINE
  5
292
330
1F
100
AcDbEntity
  8
1
370
    18
100
AcDbLine
 10
22.934575
 20
-4.503205
 30
0.0
 11
23.123804
 21
-4.441856
 31
0.0
  0
LINE
  5
293
330
1F
100
AcDbEntity
  8
1
370
    18
100
AcDbLine
 10
27.888074
 20
-3.367315
 30
0.0
 11
28.06247
 21
-3.354394
 31
0.0
  0
LINE
  5
294
330
1F
100
AcDbEntity
  8
1
370
    18
100
AcDbLine
 10
34.695765
 20
-2.78875
 30
0.0
 11
34.801925
 21
-2.783378
 31
0.0
  0
LINE
  5
295
330
1F
100
AcDbEntity
  8
1
370
    18
100
AcDbLine
 10
34.60184
 20
-2.800095
 30
0.0
 11
34.695765
 21
-2.78875
 31
0.0
  0
LINE
  5
296
330
1F
100
AcDbEntity
  8
1
370
    18
100
AcDbLine
 10
34.853611
 20
-2.784364
 30
0.0
 11
35.119097
 21
-2.853954
 31
0.0
  0
LINE
  5
297
330
1F
100
AcDbEntity
  8
1
370
    18
100
AcDbLine
 10
27.728603
 20
-3.381604
 30
0.0
 11
27.834722
 21
-3.416088
 31
0.0
  0
LINE
  5
298
330
1F
100
AcDbEntity
  8
1
370
    18
100
AcDbLine
 10
27.030297
 20
-3.492568
 30
0.0
 11
27.153441
 21
-3.485586
 31
0.0
  0
LINE
  5
299
330
1F
100
AcDbEntity
  8
1
370
    18
100
AcDbLine
 10
26.936375
 20
-3.505393
 30
0.0
 11
27.030297
 21
-3.492568
 31
0.0
  0
LINE
  5
29A
330
1F
100
AcDbEntity
  8
1
370
    18
100
AcDbLine
 10
27.731363
 20
-3.462537
 30
0.0
 11
27.801564
 21
-3.415662
 31
0.0
  0
LINE
  5
29B
330
1F
100
AcDbEntity
  8
1
370
    18
100
AcDbLine
 10
27.342442
 20
-3.510269
 30
0.0
 11
27.473293
 21
-3.504315
 31
0.0
  0
LINE
  5
29C
330
1F
100
AcDbEntity
  8
1
370
    18
100
AcDbLine
 10
30.626583
 20
-3.305743
 30
0.0
 11
30.769886
 21
-3.271912
 31
0.0
  0
LINE
  5
29D
330
1F
100
AcDbEntity
  8
1
370
    18
100
AcDbLine
 10
30.923898
 20
-3.249021
 30
0.0
 11
31.032338
 21
-3.282793
 31
0.0
  0
LINE
  5
29E
330
1F
100
AcDbEntity
  8
1
370
    18
100
AcDbLine
 10
31.657053
 20
-3.238522
 30
0.0
 11
31.748723
 21
-3.241976
 31
0.0
  0
LINE
  5
29F
330
1F
100
AcDbEntity
  8
1
370
    18
100
AcDbLine
 10
31.121136
 20
-3.337952
 30
0.0
 11
31.319757
 21
-3.316143
 31
0.0
  0
LINE
  5
2A0
330
1F
100
AcDbEntity
  8
1
370
    18
100
AcDbLine
 10
31.329498
 20
-3.312899
 30
0.0
 11
31.458348
 21
-3.250321
 31
0.0
  0
LINE
  5
2A1
330
1F
100
AcDbEntity
  8
1
370
    18
100
AcDbLine
 10
35.597756
 20
-2.620286
 30
0.0
 11
35.681646
 21
-2.614218
 31
0.0
  0
LINE
  5
2A2
330
1F
100
AcDbEntity
  8
1
370
    18
100
AcDbLine
 10
35.473338
 20
-2.636058
 30
0.0
 11
35.597756
 21
-2.620286
 31
0.0
  0
LINE
  5
2A3
330
1F
100
AcDbEntity
  8
1
370
    18
100
AcDbLine
 10
29.574846
 20
-3.344586
 30
0.0
 11
29.708674
 21
-3.338074
 31
0.0
  0
LINE
  5
2A4
330
1F
100
AcDbEntity
  8
1
370
    18
100
AcDbLine
 10
29.450608
 20
-3.359692
 30
0.0
 11
29.574846
 21
-3.344586
 31
0.0
  0
LINE
  5
2A5
330
1F
100
AcDbEntity
  8
1
370
    18
100
AcDbLine
 10
33.080667
 20
-3.049394
 30
0.0
 11
33.21564
 21
-3.042559
 31
0.0
  0
LINE
  5
2A6
330
1F
100
AcDbEntity
  8
1
370
    18
100
AcDbLine
 10
32.995144
 20
-3.058533
 30
0.0
 11
33.080667
 21
-3.049394
 31
0.0
  0
LINE
  5
2A7
330
1F
100
AcDbEntity
  8
1
370
    18
100
AcDbLine
 10
32.942675
 20
-3.067011
 30
0.0
 11
32.995144
 21
-3.058533
 31
0.0
  0
LINE
  5
2A8
330
1F
100
AcDbEntity
  8
CUT
370
    18
100
AcDbLine
 10
33.674762
 20
14.163571
 30
0.0
 11
34.192569
 21
14.099584
 31
0.0
  0
LINE
  5
2A9
330
1F
100
AcDbEntity
  8
CUT
370
    18
100
AcDbLine
 10
35.942131
 20
29.759966
 30
0.0
 11
35.572298
 21
30.127198
 31
0.0
  0
LINE
  5
2AA
330
1F
100
AcDbEntity
  8
CUT
370
    18
100
AcDbLine
 10
40.001309
 20
25.126972
 30
0.0
 11
39.783723
 21
25.613261
 31
0.0
  0
LINE
  5
2AB
330
1F
100
AcDbEntity
  8
CUT
370
    18
100
AcDbLine
 10
34.403893
 20
14.052485
 30
0.0
 11
34.453953
 21
14.042807
 31
0.0
  0
LINE
  5
2AC
330
1F
100
AcDbEntity
  8
CUT
370
    18
100
AcDbLine
 10
28.502626
 20
30.78682
 30
0.0
 11
28.448533
 21
30.783111
 31
0.0
  0
LINE
  5
2AD
330
1F
100
AcDbEntity
  8
CUT
370
    18
100
AcDbLine
 10
26.996894
 20
15.253954
 30
0.0
 11
27.350783
 21
14.852757
 31
0.0
  0
LINE
  5
2AE
330
1F
100
AcDbEntity
  8
CUT
370
    18
100
AcDbLine
 10
34.31089
 20
14.073116
 30
0.0
 11
34.403893
 21
14.052485
 31
0.0
  0
LINE
  5
2AF
330
1F
100
AcDbEntity
  8
CUT
370
    18
100
AcDbLine
 10
34.192569
 20
14.099584
 30
0.0
 11
34.31089
 21
14.073116
 31
0.0
  0
LINE
  5
2B0
330
1F
100
AcDbEntity
  8
CUT
370
    18
100
AcDbLine
 10
39.519267
 20
18.259159
 30
0.0
 11
39.585703
 21
18.311502
 31
0.0
  0
LINE
  5
2B1
330
1F
100
AcDbEntity
  8
CUT
370
    18
100
AcDbLine
 10
39.434556
 20
18.192739
 30
0.0
 11
39.519267
 21
18.259159
 31
0.0
  0
LINE
  5
2B2
330
1F
100
AcDbEntity
  8
CUT
370
    18
100
AcDbLine
 10
35.412877
 20
30.27129
 30
0.0
 11
35.373816
 21
30.30424
 31
0.0
  0
LINE
  5
2B3
330
1F
100
AcDbEntity
  8
CUT
370
    18
100
AcDbLine
 10
22.902882
 20
19.684996
 30
0.0
 11
22.901177
 21
19.628063
 31
0.0
  0
LINE
  5
2B4
330
1F
100
AcDbEntity
  8
CUT
370
    18
100
AcDbLine
 10
40.0
 20
24.380769
 30
0.0
 11
40.006059
 21
24.880942
 31
0.0
  0
LINE
  5
2B5
330
1F
100
AcDbEntity
  8
CUT
370
    18
100
AcDbLine
 10
35.482999
 20
30.207863
 30
0.0
 11
35.412877
 21
30.27129
 31
0.0
  0
LINE
  5
2B6
330
1F
100
AcDbEntity
  8
CUT
370
    18
100
AcDbLine
 10
35.572298
 20
30.127198
 30
0.0
 11
35.482999
 21
30.207863
 31
0.0
  0
LINE
  5
2B7
330
1F
100
AcDbEntity
  8
CUT
370
    18
100
AcDbLine
 10
35.373816
 20
30.30424
 30
0.0
 11
34.858475
 21
30.503955
 31
0.0
  0
LINE
  5
2B8
330
1F
100
AcDbEntity
  8
CUT
370
    18
100
AcDbLine
 10
27.493642
 20
14.663048
 30
0.0
 11
27.52867
 21
14.618916
 31
0.0
  0
LINE
  5
2B9
330
1F
100
AcDbEntity
  8
CUT
370
    18
100
AcDbLine
 10
39.620289
 20
18.340875
 30
0.0
 11
39.822703
 21
18.804577
 31
0.0
  0
LINE
  5
2BA
330
1F
100
AcDbEntity
  8
CUT
370
    18
100
AcDbLine
 10
22.939025
 20
20.454511
 30
0.0
 11
22.917023
 21
19.924113
 31
0.0
  0
LINE
  5
2BB
330
1F
100
AcDbEntity
  8
CUT
370
    18
100
AcDbLine
 10
39.060825
 20
17.875538
 30
0.0
 11
39.434556
 21
18.192739
 31
0.0
  0
LINE
  5
2BC
330
1F
100
AcDbEntity
  8
CUT
370
    18
100
AcDbLine
 10
23.320817
 20
26.365294
 30
0.0
 11
23.282197
 21
26.324485
 31
0.0
  0
LINE
  5
2BD
330
1F
100
AcDbEntity
  8
CUT
370
    18
100
AcDbLine
 10
29.264263
 20
30.789841
 30
0.0
 11
28.730512
 21
30.795029
 31
0.0
  0
LINE
  5
2BE
330
1F
100
AcDbEntity
  8
CUT
370
    18
100
AcDbLine
 10
28.448533
 20
30.783111
 30
0.0
 11
27.932102
 21
30.566368
 31
0.0
  0
LINE
  5
2BF
330
1F
100
AcDbEntity
  8
CUT
370
    18
100
AcDbLine
 10
23.8782
 20
26.899004
 30
0.0
 11
23.488525
 21
26.531781
 31
0.0
  0
LINE
  5
2C0
330
1F
100
AcDbEntity
  8
CUT
370
    18
100
AcDbLine
 10
23.282197
 20
26.324485
 30
0.0
 11
23.06198
 21
25.810133
 31
0.0
  0
LINE
  5
2C1
330
1F
100
AcDbEntity
  8
1
370
    13
100
AcDbLine
 10
39.2
 20
19.507274
 30
0.0
 11
39.2
 21
4.929548
 31
0.0
  0
LINE
  5
2C2
330
1F
100
AcDbEntity
  8
1
370
    13
100
AcDbLine
 10
0.5
 20
-23.5
 30
0.0
 11
0.5
 21
-6.976746
 31
0.0
  0
LINE
  5
2C3
330
1F
100
AcDbEntity
  8
1
370
    13
100
AcDbLine
 10
4.1
 20
-5.0975
 30
0.0
 11
1.0
 21
-5.0975
 31
0.0
  0
LINE
  5
2C4
102
{ACAD_REACTORS
330
4B3
102
}
330
1F
100
AcDbEntity
  8
1
370
    13
100
AcDbLine
 10
4.9
 20
-3.802212
 30
0.0
 11
4.9
 21
3.802212
 31
0.0
  0
LINE
  5
2C5
330
1F
100
AcDbEntity
  8
SK3
370
    18
100
AcDbLine
 10
5.4
 20
-9.625
 30
0.0
 11
6.505858
 21
-9.52825
 31
0.0
  0
LINE
  5
2C6
330
1F
100
AcDbEntity
  8
SK3
370
    18
100
AcDbLine
 10
6.505858
 20
-9.52825
 30
0.0
 11
16.1
 21
-9.52825
 31
0.0
  0
LINE
  5
2C7
330
1F
100
AcDbEntity
  8
SK3
370
    18
100
AcDbLine
 10
16.1
 20
-9.52825
 30
0.0
 11
18.088128
 21
-10.676096
 31
0.0
  0
LINE
  5
2C8
330
1F
100
AcDbEntity
  8
SK3
370
    18
100
AcDbLine
 10
18.594546
 20
-10.586801
 30
0.0
 11
20.406418
 21
-8.427497
 31
0.0
  0
LINE
  5
2C9
330
1F
100
AcDbEntity
  8
SK3
370
    18
100
AcDbLine
 10
20.5
 20
-8.170382
 30
0.0
 11
20.5
 21
-6.0
 31
0.0
  0
LINE
  5
2CA
330
1F
100
AcDbEntity
  8
SK3
370
    18
100
AcDbLine
 10
21.0
 20
-5.5
 30
0.0
 11
20.5
 21
-6.0
 31
0.0
  0
LINE
  5
2CB
330
1F
100
AcDbEntity
  8
SK3
370
    18
100
AcDbLine
 10
21.0
 20
-5.5
 30
0.0
 11
25.5
 21
-5.5
 31
0.0
  0
LINE
  5
2CC
330
1F
100
AcDbEntity
  8
SK3
370
    18
100
AcDbLine
 10
26.0
 20
-6.0
 30
0.0
 11
25.5
 21
-5.5
 31
0.0
  0
LINE
  5
2CD
330
1F
100
AcDbEntity
  8
SK3
370
    18
100
AcDbLine
 10
26.0
 20
-6.0
 30
0.0
 11
26.0
 21
-7.6
 31
0.0
  0
LINE
  5
2CE
330
1F
100
AcDbEntity
  8
SK3
370
    18
100
AcDbLine
 10
26.4
 20
-8.0
 30
0.0
 11
35.4
 21
-8.0
 31
0.0
  0
LINE
  5
2CF
330
1F
100
AcDbEntity
  8
SK3
370
    18
100
AcDbLine
 10
26.4
 20
-8.0
 30
0.0
 11
35.4
 21
-8.0
 31
0.0
  0
LINE
  5
2D0
102
{ACAD_REACTORS
330
44F
102
}
330
1F
100
AcDbEntity
  8
SK3
370
    18
100
AcDbLine
 10
1.0
 20
9.625
 30
0.0
 11
5.4
 21
9.625
 31
0.0
  0
LINE
  5
2D1
102
{ACAD_REACTORS
330
44F
102
}
330
1F
100
AcDbEntity
  8
SK3
370
    18
100
AcDbLine
 10
1.0
 20
-9.625
 30
0.0
 11
5.4
 21
-9.625
 31
0.0
  0
LINE
  5
2D2
330
1F
100
AcDbEntity
  8
CUT
370
    18
100
AcDbLine
 10
40.006059
 20
24.880942
 30
0.0
 11
40.003638
 21
25.079795
 31
0.0
  0
LINE
  5
2D3
102
{ACAD_REACTORS
330
4D3
102
}
330
1F
100
AcDbEntity
  8
2
370
    13
100
AcDbLine
 10
52.375125
 20
25.38
 30
0.0
 11
52.375125
 21
-10.85283
 31
0.0
  0
LINE
  5
2D4
102
{ACAD_REACTORS
330
4D3
102
}
330
1F
100
AcDbEntity
  8
2
370
    13
100
AcDbLine
 10
42.0875
 20
25.38
 30
0.0
 11
55.550125
 21
25.38
 31
0.0
  0
LINE
  5
2D5
330
1F
100
AcDbEntity
  8
2
 60
     1
370
    18
100
AcDbLine
 10
52.375125
 20
25.38
 30
0.0
 11
52.793122
 21
22.205002
 31
0.0
  0
LINE
  5
2D6
330
1F
100
AcDbEntity
  8
2
 60
     1
370
    18
100
AcDbLine
 10
52.793122
 20
22.205002
 30
0.0
 11
51.957128
 21
22.204998
 31
0.0
  0
LINE
  5
2D7
330
1F
100
AcDbEntity
  8
2
 60
     1
370
    18
100
AcDbLine
 10
51.957128
 20
22.204998
 30
0.0
 11
52.375125
 21
25.38
 31
0.0
  0
LINE
  5
2D8
102
{ACAD_REACTORS
330
4D4
102
}
330
1F
100
AcDbEntity
  8
2
370
    13
100
AcDbLine
 10
38.886367
 20
26.580511
 30
0.0
 11
23.219061
 21
43.470074
 31
0.0
  0
LINE
  5
2D9
102
{ACAD_REACTORS
330
4D4
102
}
330
1F
100
AcDbEntity
  8
2
370
    13
100
AcDbLine
 10
40.0
 20
27.0175
 30
0.0
 11
40.0
 21
50.0549
 31
0.0
  0
LINE
  5
2DA
330
1F
100
AcDbEntity
  8
2
 60
     1
370
    18
100
AcDbLine
 10
25.378319
 20
41.142365
 30
0.0
 11
23.427116
 21
38.603046
 31
0.0
  0
LINE
  5
2DB
330
1F
100
AcDbEntity
  8
2
 60
     1
370
    18
100
AcDbLine
 10
23.427116
 20
38.603046
 30
0.0
 11
22.836375
 21
39.194578
 31
0.0
  0
LINE
  5
2DC
330
1F
100
AcDbEntity
  8
2
 60
     1
370
    18
100
AcDbLine
 10
22.836375
 20
39.194578
 30
0.0
 11
25.378319
 21
41.142365
 31
0.0
  0
LINE
  5
2DD
330
1F
100
AcDbEntity
  8
2
 60
     1
370
    18
100
AcDbLine
 10
40.0
 20
46.8799
 30
0.0
 11
43.188243
 21
47.180635
 31
0.0
  0
LINE
  5
2DE
330
1F
100
AcDbEntity
  8
2
 60
     1
370
    18
100
AcDbLine
 10
43.188243
 20
47.180635
 30
0.0
 11
43.157445
 21
46.345209
 31
0.0
  0
LINE
  5
2DF
330
1F
100
AcDbEntity
  8
2
 60
     1
370
    18
100
AcDbLine
 10
43.157445
 20
46.345209
 30
0.0
 11
40.0
 21
46.8799
 31
0.0
  0
ARC
  5
2E0
330
1F
100
AcDbEntity
  8
SK3
370
    18
100
AcDbCircle
 10
18.288128
 20
-10.329686
 30
0.0
 40
0.4
100
AcDbArc
 50
240.0
 51
320.0
  0
ARC
  5
2E1
330
1F
100
AcDbEntity
  8
SK3
370
    18
100
AcDbCircle
 10
20.1
 20
-8.170382
 30
0.0
 40
0.4
100
AcDbArc
 50
320.0
 51
0.0
  0
ARC
  5
2E2
330
1F
100
AcDbEntity
  8
SK3
370
    18
100
AcDbCircle
 10
26.4
 20
-7.6
 30
0.0
 40
0.4
100
AcDbArc
 50
180.0
 51
270.0
  0
ARC
  5
2E3
330
1F
100
AcDbEntity
  8
SK3
370
    18
100
AcDbCircle
 10
18.288128
 20
10.329686
 30
0.0
 40
0.4
100
AcDbArc
 50
40.0
 51
120.0
  0
ARC
  5
2E4
330
1F
100
AcDbEntity
  8
SK3
370
    18
100
AcDbCircle
 10
20.1
 20
8.170382
 30
0.0
 40
0.4
100
AcDbArc
 50
0.0
 51
40.0
  0
ARC
  5
2E5
330
1F
100
AcDbEntity
  8
SK3
370
    18
100
AcDbCircle
 10
26.4
 20
7.6
 30
0.0
 40
0.4
100
AcDbArc
 50
90.0
 51
180.0
  0
ARC
  5
2E6
330
1F
100
AcDbEntity
  8
1
370
    18
100
AcDbCircle
 10
31.25283
 20
22.108204
 30
0.0
 40
3.19314173532284
100
AcDbArc
 50
119.144131
 51
153.578448
  0
ARC
  5
2E7
330
1F
100
AcDbEntity
  8
1
370
    18
100
AcDbCircle
 10
31.300674
 20
22.016109
 30
0.0
 40
3.296879549619053
100
AcDbArc
 50
79.376469
 51
119.09088
  0
ARC
  5
2E8
330
1F
100
AcDbEntity
  8
1
370
    18
100
AcDbCircle
 10
31.295444
 20
21.954143
 30
0.0
 40
3.358752935242201
100
AcDbArc
 50
40.268481
 51
79.483657
  0
ARC
  5
2E9
330
1F
100
AcDbEntity
  8
1
370
    18
100
AcDbCircle
 10
31.363719
 20
22.005446
 30
0.0
 40
3.273500702662192
100
AcDbArc
 50
0.448542
 51
40.355744
  0
ARC
  5
2EA
330
1F
100
AcDbEntity
  8
1
370
    18
100
AcDbCircle
 10
31.339775
 20
22.132835
 30
0.0
 40
2.212647840691867
100
AcDbArc
 50
91.833288
 51
140.480905
  0
ARC
  5
2EB
330
1F
100
AcDbEntity
  8
1
370
    18
100
AcDbCircle
 10
31.347031
 20
22.057067
 30
0.0
 40
2.288614914346029
100
AcDbArc
 50
44.421994
 51
91.954152
  0
ARC
  5
2EC
330
1F
100
AcDbEntity
  8
1
370
    18
100
AcDbCircle
 10
31.392212
 20
22.09203
 30
0.0
 40
2.231883691556828
100
AcDbArc
 50
356.233755
 51
44.592797
  0
ARC
  5
2ED
330
1F
100
AcDbEntity
  8
1
370
    18
100
AcDbCircle
 10
33.365943
 20
23.175184
 30
0.0
 40
0.7290506977156762
100
AcDbArc
 50
173.435526
 51
243.672435
  0
ARC
  5
2EE
330
1F
100
AcDbEntity
  8
1
370
    18
100
AcDbCircle
 10
32.017424
 20
23.138535
 30
0.0
 40
0.7398876237253126
100
AcDbArc
 50
23.369622
 51
92.91947
  0
ARC
  5
2EF
330
1F
100
AcDbEntity
  8
1
370
    18
100
AcDbCircle
 10
31.451839
 20
24.368734
 30
0.0
 40
0.7326622196941394
100
AcDbArc
 50
232.586425
 51
302.679204
  0
ARC
  5
2F0
330
1F
100
AcDbEntity
  8
1
370
    18
100
AcDbCircle
 10
30.780109
 20
23.21533
 30
0.0
 40
0.7147548185749978
100
AcDbArc
 50
81.848883
 51
153.198078
  0
ARC
  5
2F1
330
1F
100
AcDbEntity
  8
1
370
    18
100
AcDbCircle
 10
29.485178
 20
23.311256
 30
0.0
 40
0.7041098300789754
100
AcDbArc
 50
291.90033
 51
3.967905
  0
ARC
  5
2F2
330
1F
100
AcDbEntity
  8
1
370
    18
100
AcDbCircle
 10
30.289037
 20
-20.498135
 30
0.0
 40
1.987975028960432
100
AcDbArc
 50
233.527875
 51
284.888222
  0
ARC
  5
2F3
330
1F
100
AcDbEntity
  8
1
370
    18
100
AcDbCircle
 10
30.274046
 20
-20.525772
 30
0.0
 40
1.956844492713798
100
AcDbArc
 50
181.476977
 51
233.39983
  0
ARC
  5
2F4
330
1F
100
AcDbEntity
  8
1
370
    18
100
AcDbCircle
 10
30.30642
 20
-20.523677
 30
0.0
 40
1.989262403478067
100
AcDbArc
 50
148.986216
 51
181.51328
  0
ARC
  5
2F5
330
1F
100
AcDbEntity
  8
1
370
    18
100
AcDbCircle
 10
30.334872
 20
-20.538457
 30
0.0
 40
2.021263507675355
100
AcDbArc
 50
98.267384
 51
149.042697
  0
ARC
  5
2F6
330
1F
100
AcDbEntity
  8
1
370
    18
100
AcDbCircle
 10
30.332381
 20
-20.497684
 30
0.0
 40
1.980559016035552
100
AcDbArc
 50
46.872708
 51
98.365682
  0
ARC
  5
2F7
330
1F
100
AcDbEntity
  8
1
370
    18
100
AcDbCircle
 10
30.310211
 20
-20.594079
 30
0.0
 40
2.448243389120284
100
AcDbArc
 50
181.489605
 51
214.31375
  0
ARC
  5
2F8
330
1F
100
AcDbEntity
  8
1
370
    18
100
AcDbCircle
 10
31.974067
 20
2.620344
 30
0.0
 40
5.292785891913042
100
AcDbArc
 50
275.263303
 51
287.527068
  0
ARC
  5
2F9
330
1F
100
AcDbEntity
  8
1
370
    18
100
AcDbCircle
 10
29.274658
 20
21.732343
 30
0.0
 40
24.58960282421117
100
AcDbArc
 50
273.153153
 51
277.442059
  0
ARC
  5
2FA
330
1F
100
AcDbEntity
  8
1
370
    18
100
AcDbCircle
 10
31.33525
 20
22.053043
 30
0.0
 40
3.493946121325965
100
AcDbArc
 50
38.296675
 51
76.746758
  0
ARC
  5
2FB
330
1F
100
AcDbEntity
  8
1
370
    18
100
AcDbCircle
 10
31.410836
 20
22.106947
 30
0.0
 40
3.401221817936065
100
AcDbArc
 50
359.213475
 51
38.373132
  0
ARC
  5
2FC
330
1F
100
AcDbEntity
  8
1
370
    18
100
AcDbCircle
 10
31.283732
 20
22.217036
 30
0.0
 40
3.314749695076057
100
AcDbArc
 50
126.717496
 51
153.601848
  0
ARC
  5
2FD
330
1F
100
AcDbEntity
  8
1
370
    18
100
AcDbCircle
 10
31.334249
 20
22.141346
 30
0.0
 40
3.405628181042546
100
AcDbArc
 50
87.512232
 51
126.63743
  0
ARC
  5
2FE
330
1F
100
AcDbEntity
  8
1
370
    18
100
AcDbCircle
 10
-276.493229
 20
-14.548833
 30
0.0
 40
304.9508767630886
100
AcDbArc
 50
6.431283
 51
6.941046
  0
ARC
  5
2FF
330
1F
100
AcDbEntity
  8
1
370
    18
100
AcDbCircle
 10
-468.193609
 20
-36.14346
 30
0.0
 40
497.8637155757336
100
AcDbArc
 50
5.771407
 51
6.429681
  0
ARC
  5
300
330
1F
100
AcDbEntity
  8
1
370
    18
100
AcDbCircle
 10
-373.019927
 20
-26.412419
 30
0.0
 40
408.1853701925829
100
AcDbArc
 50
5.992984
 51
6.744623
  0
ARC
  5
301
330
1F
100
AcDbEntity
  8
1
370
    18
100
AcDbCircle
 10
32.685387
 20
-18.107318
 30
0.0
 40
1.890976967232982
100
AcDbArc
 50
94.980727
 51
139.756833
  0
ARC
  5
302
330
1F
100
AcDbEntity
  8
1
370
    18
100
AcDbCircle
 10
32.477125
 20
-18.560304
 30
0.0
 40
2.337238641639583
100
AcDbArc
 50
44.052909
 51
88.919191
  0
ARC
  5
303
330
1F
100
AcDbEntity
  8
1
370
    18
100
AcDbCircle
 10
28.818432
 20
-22.460061
 30
0.0
 40
7.68268117036546
100
AcDbArc
 50
25.901147
 51
45.983176
  0
ARC
  5
304
330
1F
100
AcDbEntity
  8
1
370
    18
100
AcDbCircle
 10
29.187353
 20
-19.262935
 30
0.0
 40
2.826596121735975
100
AcDbArc
 50
133.961702
 51
176.717743
  0
ARC
  5
305
330
1F
100
AcDbEntity
  8
1
370
    18
100
AcDbCircle
 10
29.442382
 20
-19.512594
 30
0.0
 40
3.183353781001071
100
AcDbArc
 50
94.717749
 51
134.146426
  0
ARC
  5
306
330
1F
100
AcDbEntity
  8
1
370
    18
100
AcDbCircle
 10
29.461388
 20
-19.445821
 30
0.0
 40
3.118465185876933
100
AcDbArc
 50
55.181036
 51
95.166672
  0
ARC
  5
307
330
1F
100
AcDbEntity
  8
1
370
    18
100
AcDbCircle
 10
128.155531
 20
-9.029601
 30
0.0
 40
102.4154559717689
100
AcDbArc
 50
186.316628
 51
188.852077
  0
ARC
  5
308
330
1F
100
AcDbEntity
  8
1
370
    18
100
AcDbCircle
 10
29.499926
 20
27.773516
 30
0.0
 40
5.206957637934714
100
AcDbArc
 50
255.230327
 51
277.635277
  0
ARC
  5
309
330
1F
100
AcDbEntity
  8
1
370
    18
100
AcDbCircle
 10
29.003902
 20
26.361961
 30
0.0
 40
3.717519838562999
100
AcDbArc
 50
227.081756
 51
257.076767
  0
ARC
  5
30A
330
1F
100
AcDbEntity
  8
1
370
    18
100
AcDbCircle
 10
33.283376
 20
12.191674
 30
0.0
 40
15.24960918000713
100
AcDbArc
 50
278.018768
 51
285.15492
  0
ARC
  5
30B
330
1F
100
AcDbEntity
  8
1
370
    18
100
AcDbCircle
 10
27.194324
 20
50.599886
 30
0.0
 40
54.13585693093439
100
AcDbArc
 50
275.689004
 51
278.729659
  0
ARC
  5
30C
330
1F
100
AcDbEntity
  8
1
370
    18
100
AcDbCircle
 10
25.313565
 20
67.666149
 30
0.0
 40
71.30472562510377
100
AcDbArc
 50
273.305617
 51
275.833429
  0
ARC
  5
30D
330
1F
100
AcDbEntity
  8
1
370
    18
100
AcDbCircle
 10
26.847016
 20
38.618545
 30
0.0
 40
42.21727587358127
100
AcDbArc
 50
269.908041
 51
273.501104
  0
ARC
  5
30E
330
1F
100
AcDbEntity
  8
1
370
    18
100
AcDbCircle
 10
26.581481
 20
3.834846
 30
0.0
 40
7.436153598639926
100
AcDbArc
 50
259.900219
 51
271.524049
  0
ARC
  5
30F
330
1F
100
AcDbEntity
  8
1
370
    18
100
AcDbCircle
 10
34.45434
 20
6.5955
 30
0.0
 40
9.538685087930457
100
AcDbArc
 50
278.300484
 51
288.092688
  0
ARC
  5
310
330
1F
100
AcDbEntity
  8
1
370
    18
100
AcDbCircle
 10
28.230898
 20
42.457695
 30
0.0
 40
45.93412985184282
100
AcDbArc
 50
276.135459
 51
279.524247
  0
ARC
  5
311
330
1F
100
AcDbEntity
  8
1
370
    18
100
AcDbCircle
 10
25.326201
 20
67.441567
 30
0.0
 40
71.08568017270822
100
AcDbArc
 50
273.782716
 51
276.311006
  0
ARC
  5
312
330
1F
100
AcDbEntity
  8
1
370
    18
100
AcDbCircle
 10
26.629311
 20
45.631982
 30
0.0
 40
49.23783400849747
100
AcDbArc
 50
270.709556
 51
273.943963
  0
ARC
  5
313
330
1F
100
AcDbEntity
  8
1
370
    18
100
AcDbCircle
 10
26.896659
 20
8.055262
 30
0.0
 40
11.66236565058142
100
AcDbArc
 50
263.140092
 51
271.682423
  0
ARC
  5
314
330
1F
100
AcDbEntity
  8
1
370
    18
100
AcDbCircle
 10
33.086516
 20
2.675397
 30
0.0
 40
5.592709499058821
100
AcDbArc
 50
276.572787
 51
289.422891
  0
ARC
  5
315
330
1F
100
AcDbEntity
  8
1
370
    18
100
AcDbCircle
 10
28.669873
 20
30.178398
 30
0.0
 40
33.44346944513344
100
AcDbArc
 50
274.888934
 51
278.696755
  0
ARC
  5
316
330
1F
100
AcDbEntity
  8
1
370
    18
100
AcDbCircle
 10
28.333582
 20
31.870654
 30
0.0
 40
35.15874721444051
100
AcDbArc
 50
271.518274
 51
275.199943
  0
ARC
  5
317
330
1F
100
AcDbEntity
  8
1
370
    18
100
AcDbCircle
 10
28.876376
 20
3.744579
 30
0.0
 40
7.031084633110019
100
AcDbArc
 50
262.191461
 51
273.169628
  0
ARC
  5
318
330
1F
100
AcDbEntity
  8
1
370
    18
100
AcDbCircle
 10
34.12094
 20
-6.331015
 30
0.0
 40
3.946463207396924
100
AcDbArc
 50
77.442346
 51
93.800836
  0
ARC
  5
319
330
1F
100
AcDbEntity
  8
1
370
    18
100
AcDbCircle
 10
30.630997
 20
22.954386
 30
0.0
 40
0.6950271699898027
100
AcDbArc
 50
80.860517
 51
134.693862
  0
ARC
  5
31A
330
1F
100
AcDbEntity
  8
1
370
    18
100
AcDbCircle
 10
33.169497
 20
22.854739
 30
0.0
 40
0.6821039679257411
100
AcDbArc
 50
170.612058
 51
246.495902
  0
ARC
  5
31B
330
1F
100
AcDbEntity
  8
1
370
    18
100
AcDbCircle
 10
31.304272
 20
24.017603
 30
0.0
 40
0.6854714790153282
100
AcDbArc
 50
229.77003
 51
305.495599
  0
ARC
  5
31C
330
1F
100
AcDbEntity
  8
1
370
    18
100
AcDbCircle
 10
31.894697
 20
22.884151
 30
0.0
 40
0.7131623882359762
100
AcDbArc
 50
21.864837
 51
94.424256
  0
ARC
  5
31D
330
1F
100
AcDbEntity
  8
1
370
    18
100
AcDbCircle
 10
28.097471
 20
2.69767
 30
0.0
 40
2.221087962355848
100
AcDbArc
 50
67.285562
 51
107.818208
  0
ARC
  5
31E
330
1F
100
AcDbEntity
  8
1
370
    18
100
AcDbCircle
 10
28.068311
 20
2.776757
 30
0.0
 40
2.13687488027192
100
AcDbArc
 50
107.722744
 51
146.256744
  0
ARC
  5
31F
330
1F
100
AcDbEntity
  8
1
370
    18
100
AcDbCircle
 10
28.097961
 20
2.705632
 30
0.0
 40
2.166478108127818
100
AcDbArc
 50
82.535855
 51
123.226157
  0
ARC
  5
320
330
1F
100
AcDbEntity
  8
1
370
    18
100
AcDbCircle
 10
28.110419
 20
2.737828
 30
0.0
 40
2.132951882877641
100
AcDbArc
 50
44.873541
 51
82.755304
  0
ARC
  5
321
330
1F
100
AcDbEntity
  8
1
370
    18
100
AcDbCircle
 10
30.0006
 20
-11.635415
 30
0.0
 40
15.89625567498008
100
AcDbArc
 50
94.903204
 51
99.359934
  0
ARC
  5
322
330
1F
100
AcDbEntity
  8
1
370
    18
100
AcDbCircle
 10
27.703233
 20
2.110414
 30
0.0
 40
1.960051324182621
100
AcDbArc
 50
98.447499
 51
130.077267
  0
ARC
  5
323
330
1F
100
AcDbEntity
  8
1
370
    18
100
AcDbCircle
 10
26.986227
 20
2.483428
 30
0.0
 40
1.133177867538671
100
AcDbArc
 50
174.995612
 51
208.810601
  0
ARC
  5
324
330
1F
100
AcDbEntity
  8
1
370
    18
100
AcDbCircle
 10
28.359307
 20
3.266731
 30
0.0
 40
2.713857431676996
100
AcDbArc
 50
209.330853
 51
238.066188
  0
ARC
  5
325
330
1F
100
AcDbEntity
  8
1
370
    18
100
AcDbCircle
 10
27.568456
 20
2.422257
 30
0.0
 40
1.875223870961784
100
AcDbArc
 50
192.696522
 51
236.786516
  0
ARC
  5
326
330
1F
100
AcDbEntity
  8
1
370
    18
100
AcDbCircle
 10
27.517809
 20
2.403386
 30
0.0
 40
1.821681738889625
100
AcDbArc
 50
150.935394
 51
192.467607
  0
ARC
  5
327
330
1F
100
AcDbEntity
  8
1
370
    18
100
AcDbCircle
 10
27.541451
 20
2.408713
 30
0.0
 40
1.883600364563552
100
AcDbArc
 50
175.551228
 51
220.324182
  0
ARC
  5
328
330
1F
100
AcDbEntity
  8
1
370
    18
100
AcDbCircle
 10
27.61211
 20
2.466823
 30
0.0
 40
1.975074530087925
100
AcDbArc
 50
220.28293
 51
259.538089
  0
ARC
  5
329
330
1F
100
AcDbEntity
  8
1
370
    18
100
AcDbCircle
 10
39.174717
 20
-32.566667
 30
0.0
 40
34.38063156169315
100
AcDbArc
 50
141.327757
 51
141.933771
  0
ARC
  5
32A
330
1F
100
AcDbEntity
  8
1
370
    18
100
AcDbCircle
 10
77.040098
 20
-62.919104
 30
0.0
 40
82.9095603642068
100
AcDbArc
 50
141.047277
 51
141.302586
  0
ARC
  5
32B
330
1F
100
AcDbEntity
  8
1
370
    18
100
AcDbCircle
 10
44.531979
 20
-36.545375
 30
0.0
 40
41.04859218310001
100
AcDbArc
 50
140.524437
 51
141.14883
  0
ARC
  5
32C
330
1F
100
AcDbEntity
  8
1
370
    18
100
AcDbCircle
 10
44.16522
 20
-36.243358
 30
0.0
 40
40.57348586597896
100
AcDbArc
 50
139.710936
 51
140.524378
  0
ARC
  5
32D
330
1F
100
AcDbEntity
  8
1
370
    18
100
AcDbCircle
 10
30.575784
 20
-24.778903
 30
0.0
 40
22.79442359495422
100
AcDbArc
 50
134.193483
 51
138.15948
  0
ARC
  5
32E
330
1F
100
AcDbEntity
  8
1
370
    18
100
AcDbCircle
 10
28.658298
 20
-22.72488
 30
0.0
 40
19.98514249130251
100
AcDbArc
 50
122.715269
 51
134.356917
  0
ARC
  5
32F
330
1F
100
AcDbEntity
  8
1
370
    18
100
AcDbCircle
 10
28.745143
 20
-23.005963
 30
0.0
 40
20.26872657959625
100
AcDbArc
 50
112.270904
 51
122.492384
  0
ARC
  5
330
330
1F
100
AcDbEntity
  8
1
370
    18
100
AcDbCircle
 10
28.648332
 20
-22.770034
 30
0.0
 40
20.01370733487443
100
AcDbArc
 50
99.060795
 51
112.270402
  0
ARC
  5
331
330
1F
100
AcDbEntity
  8
1
370
    18
100
AcDbCircle
 10
21.902915
 20
-4.913601
 30
0.0
 40
0.6842734896630296
100
AcDbArc
 50
107.461014
 51
127.120483
  0
ARC
  5
332
330
1F
100
AcDbEntity
  8
1
370
    18
100
AcDbCircle
 10
25.288954
 20
-20.737238
 30
0.0
 40
16.28519733890955
100
AcDbArc
 50
98.57706
 51
99.733341
  0
ARC
  5
333
330
1F
100
AcDbEntity
  8
1
370
    18
100
AcDbCircle
 10
25.267663
 20
-20.592957
 30
0.0
 40
16.13935441952996
100
AcDbArc
 50
97.095628
 51
98.57871
  0
ARC
  5
334
330
1F
100
AcDbEntity
  8
1
370
    18
100
AcDbCircle
 10
28.628173
 20
-22.665169
 30
0.0
 40
19.95186130726498
100
AcDbArc
 50
98.989202
 51
109.45814
  0
ARC
  5
335
330
1F
100
AcDbEntity
  8
1
370
    18
100
AcDbCircle
 10
28.713995
 20
-22.92423
 30
0.0
 40
20.22471591870339
100
AcDbArc
 50
109.442905
 51
122.556503
  0
ARC
  5
336
330
1F
100
AcDbEntity
  8
1
370
    18
100
AcDbCircle
 10
27.419813
 20
-4.975546
 30
0.0
 40
2.735971671119634
100
AcDbArc
 50
95.448162
 51
133.925715
  0
ARC
  5
337
330
1F
100
AcDbEntity
  8
1
370
    18
100
AcDbCircle
 10
29.569736
 20
-23.965529
 30
0.0
 40
21.57479618930096
100
AcDbArc
 50
127.582983
 51
134.926316
  0
ARC
  5
338
330
1F
100
AcDbEntity
  8
1
370
    18
100
AcDbCircle
 10
30.936573
 20
-25.367987
 30
0.0
 40
23.53302566001578
100
AcDbArc
 50
134.871124
 51
139.163517
  0
ARC
  5
339
330
1F
100
AcDbEntity
  8
1
370
    18
100
AcDbCircle
 10
35.165727
 20
-1.929146
 30
0.0
 40
10.65266386271032
100
AcDbArc
 50
146.414306
 51
148.229599
  0
ARC
  5
33A
330
1F
100
AcDbEntity
  8
1
370
    18
100
AcDbCircle
 10
33.789447
 20
-1.079098
 30
0.0
 40
9.035034574504904
100
AcDbArc
 50
148.217214
 51
150.94321
  0
ARC
  5
33B
330
1F
100
AcDbEntity
  8
1
370
    18
100
AcDbCircle
 10
33.617927
 20
-1.040754
 30
0.0
 40
8.826900160921827
100
AcDbArc
 50
148.449087
 51
150.630199
  0
ARC
  5
33C
330
1F
100
AcDbEntity
  8
1
370
    18
100
AcDbCircle
 10
34.99052
 20
-1.883659
 30
0.0
 40
10.43764521041109
100
AcDbArc
 50
146.102801
 51
148.448617
  0
ARC
  5
33D
330
1F
100
AcDbEntity
  8
1
370
    18
100
AcDbCircle
 10
27.280072
 20
-4.752672
 30
0.0
 40
2.519955333880453
100
AcDbArc
 50
111.162167
 51
134.598427
  0
ARC
  5
33E
330
1F
100
AcDbEntity
  8
1
370
    18
100
AcDbCircle
 10
28.431724
 20
22.623403
 30
0.0
 40
2.232044280080479
100
AcDbArc
 50
152.982485
 51
188.230561
  0
ARC
  5
33F
330
1F
100
AcDbEntity
  8
1
370
    18
100
AcDbCircle
 10
30.255014
 20
14.197015
 30
0.0
 40
2.893298757466809
100
AcDbArc
 50
299.108001
 51
337.839242
  0
ARC
  5
340
330
1F
100
AcDbEntity
  8
1
370
    18
100
AcDbCircle
 10
30.162566
 20
14.351897
 30
0.0
 40
3.073596447563577
100
AcDbArc
 50
260.934746
 51
299.209216
  0
ARC
  5
341
330
1F
100
AcDbEntity
  8
1
370
    18
100
AcDbCircle
 10
30.152731
 20
14.350343
 30
0.0
 40
3.070527865699276
100
AcDbArc
 50
223.451189
 51
261.111401
  0
ARC
  5
342
330
1F
100
AcDbEntity
  8
1
370
    18
100
AcDbCircle
 10
30.01274
 20
14.224326
 30
0.0
 40
2.882236996347018
100
AcDbArc
 50
186.028678
 51
223.546461
  0
ARC
  5
343
330
1F
100
AcDbEntity
  8
1
370
    18
100
AcDbCircle
 10
-10.863256
 20
283.157075
 30
0.0
 40
281.8349201306903
100
AcDbArc
 50
278.657169
 51
278.940138
  0
ARC
  5
344
330
1F
100
AcDbEntity
  8
1
370
    18
100
AcDbCircle
 10
24.006688
 20
54.237479
 30
0.0
 40
50.27479176128955
100
AcDbArc
 50
276.620685
 51
278.639778
  0
ARC
  5
345
330
1F
100
AcDbEntity
  8
1
370
    18
100
AcDbCircle
 10
16.669328
 20
18.898153
 30
0.0
 40
4.959075359250781
100
AcDbArc
 50
102.897502
 51
126.455293
  0
ARC
  5
346
330
1F
100
AcDbEntity
  8
1
370
    18
100
AcDbCircle
 10
17.49404
 20
15.769329
 30
0.0
 40
8.19372334984681
100
AcDbArc
 50
87.646964
 51
103.635446
  0
ARC
  5
347
330
1F
100
AcDbEntity
  8
1
370
    18
100
AcDbCircle
 10
23.547145
 20
57.887801
 30
0.0
 40
54.00940834820747
100
AcDbArc
 50
276.657886
 51
278.135416
  0
ARC
  5
348
330
1F
100
AcDbEntity
  8
1
370
    18
100
AcDbCircle
 10
8.895441
 20
156.330202
 30
0.0
 40
153.5356014477798
100
AcDbArc
 50
278.34938
 51
279.010759
  0
ARC
  5
349
330
1F
100
AcDbEntity
  8
1
370
    18
100
AcDbCircle
 10
29.43922
 20
3.229668
 30
0.0
 40
1.109349397134194
100
AcDbArc
 50
359.634891
 51
48.400321
  0
ARC
  5
34A
330
1F
100
AcDbEntity
  8
1
370
    18
100
AcDbCircle
 10
35.297089
 20
-10.94861
 30
0.0
 40
15.81431897360932
100
AcDbArc
 50
97.684583
 51
98.563778
  0
ARC
  5
34B
330
1F
100
AcDbEntity
  8
1
370
    18
100
AcDbCircle
 10
35.764296
 20
-14.409807
 30
0.0
 40
19.30690629442905
100
AcDbArc
 50
96.777957
 51
97.685122
  0
ARC
  5
34C
330
1F
100
AcDbEntity
  8
1
370
    18
100
AcDbCircle
 10
36.25426
 20
-18.501578
 30
0.0
 40
23.42790721026911
100
AcDbArc
 50
95.505402
 51
96.786812
  0
ARC
  5
34D
330
1F
100
AcDbEntity
  8
1
370
    18
100
AcDbCircle
 10
35.861885
 20
-14.215527
 30
0.0
 40
19.12399317775976
100
AcDbArc
 50
93.736386
 51
95.567233
  0
ARC
  5
34E
330
1F
100
AcDbEntity
  8
1
370
    18
100
AcDbCircle
 10
35.293711
 20
-5.766164
 30
0.0
 40
10.6555770295537
100
AcDbArc
 50
92.441593
 51
93.648441
  0
ARC
  5
34F
330
1F
100
AcDbEntity
  8
1
370
    18
100
AcDbCircle
 10
35.123524
 20
-1.670813
 30
0.0
 40
6.556695567263644
100
AcDbArc
 50
90.199755
 51
92.480332
  0
ARC
  5
350
330
1F
100
AcDbEntity
  8
1
370
    18
100
AcDbCircle
 10
35.841634
 20
61.286624
 30
0.0
 40
56.40564829325205
100
AcDbArc
 50
269.247315
 51
270.717487
  0
ARC
  5
351
330
1F
100
AcDbEntity
  8
1
370
    18
100
AcDbCircle
 10
34.820911
 20
57.350533
 30
0.0
 40
52.49355250748882
100
AcDbArc
 50
271.885379
 51
273.872102
  0
ARC
  5
352
330
1F
100
AcDbEntity
  8
1
370
    18
100
AcDbCircle
 10
33.156419
 20
4.701583
 30
0.0
 40
6.002044886596036
100
AcDbArc
 50
0.331763
 51
1.34971
  0
ARC
  5
353
330
1F
100
AcDbEntity
  8
1
370
    18
100
AcDbCircle
 10
34.849109
 20
4.720288
 30
0.0
 40
4.309284755186564
100
AcDbArc
 50
358.441289
 51
0.213384
  0
ARC
  5
354
330
1F
100
AcDbEntity
  8
1
370
    18
100
AcDbCircle
 10
30.383443
 20
14.13538
 30
0.0
 40
2.751121285914348
100
AcDbArc
 50
338.019132
 51
5.823295
  0
ARC
  5
355
330
1F
100
AcDbEntity
  8
1
370
    18
100
AcDbCircle
 10
33.559295
 20
28.697306
 30
0.0
 40
6.7550435989339
100
AcDbArc
 50
264.69365
 51
274.923522
  0
ARC
  5
356
330
1F
100
AcDbEntity
  8
1
370
    18
100
AcDbCircle
 10
33.682556
 20
27.312426
 30
0.0
 40
5.364696352154478
100
AcDbArc
 50
274.881364
 51
285.637864
  0
ARC
  5
357
330
1F
100
AcDbEntity
  8
1
370
    18
100
AcDbCircle
 10
35.119095
 20
-1.112977
 30
0.0
 40
6.053260088813047
100
AcDbArc
 50
89.909617
 51
91.851995
  0
ARC
  5
358
330
1F
100
AcDbEntity
  8
1
370
    18
100
AcDbCircle
 10
35.237165
 20
-4.940602
 30
0.0
 40
9.882703250378887
100
AcDbArc
 50
91.818994
 51
93.482846
  0
ARC
  5
359
330
1F
100
AcDbEntity
  8
1
370
    18
100
AcDbCircle
 10
-302.053549
 20
-511.586691
 30
0.0
 40
631.855239744353
100
AcDbArc
 50
57.557894
 51
57.684124
  0
ARC
  5
35A
330
1F
100
AcDbEntity
  8
1
370
    18
100
AcDbCircle
 10
-247.133505
 20
-425.192058
 30
0.0
 40
529.4821780654981
100
AcDbArc
 50
57.36685
 51
57.55819
  0
ARC
  5
35B
330
1F
100
AcDbEntity
  8
1
370
    18
100
AcDbCircle
 10
43.991651
 20
-36.112178
 30
0.0
 40
40.43793181954918
100
AcDbArc
 50
139.741503
 51
140.385205
  0
ARC
  5
35C
330
1F
100
AcDbEntity
  8
1
370
    18
100
AcDbCircle
 10
44.37376
 20
-36.42908
 30
0.0
 40
40.93435264327337
100
AcDbArc
 50
140.384527
 51
141.184577
  0
ARC
  5
35D
330
1F
100
AcDbEntity
  8
1
370
    18
100
AcDbCircle
 10
38.033435
 20
19.482614
 30
0.0
 40
1.16682517209299
100
AcDbArc
 50
1.211018
 51
38.519124
  0
ARC
  5
35E
330
1F
100
AcDbEntity
  8
1
370
    18
100
AcDbCircle
 10
38.733399
 20
3.686032
 30
0.0
 40
1.357074377592433
100
AcDbArc
 50
71.647736
 51
95.876312
  0
ARC
  5
35F
330
1F
100
AcDbEntity
  8
1
370
    18
100
AcDbCircle
 10
13.275322
 20
21.2613
 30
0.0
 40
1.540800410444531
100
AcDbArc
 50
143.803756
 51
176.169445
  0
ARC
  5
360
330
1F
100
AcDbEntity
  8
1
370
    18
100
AcDbCircle
 10
12.087662
 20
21.3733
 30
0.0
 40
0.3498158826895613
100
AcDbArc
 50
181.484999
 51
273.806163
  0
ARC
  5
361
330
1F
100
AcDbEntity
  8
1
370
    18
100
AcDbCircle
 10
12.073614
 20
21.50903
 30
0.0
 40
0.4862046569698065
100
AcDbArc
 50
274.39629
 51
326.48235
  0
ARC
  5
362
330
1F
100
AcDbEntity
  8
1
370
    18
100
AcDbCircle
 10
-23.825387
 20
16.952301
 30
0.0
 40
45.67910572488991
100
AcDbArc
 50
322.279667
 51
322.633485
  0
ARC
  5
363
330
1F
100
AcDbEntity
  8
1
370
    18
100
AcDbCircle
 10
53.187115
 20
-42.581247
 30
0.0
 40
51.66137585697866
100
AcDbArc
 50
142.307867
 51
142.80988
  0
ARC
  5
364
330
1F
100
AcDbEntity
  8
1
370
    18
100
AcDbCircle
 10
14.189733
 20
-12.370681
 30
0.0
 40
2.448602181740573
100
AcDbArc
 50
169.735469
 51
202.625768
  0
ARC
  5
365
330
1F
100
AcDbEntity
  8
1
370
    18
100
AcDbCircle
 10
-24.970544
 20
-29.421056
 30
0.0
 40
40.26287203015942
100
AcDbArc
 50
21.545653
 51
23.583183
  0
ARC
  5
366
330
1F
100
AcDbEntity
  8
1
370
    18
100
AcDbCircle
 10
38.662195
 20
3.220199
 30
0.0
 40
1.763361965299229
100
AcDbArc
 50
74.993415
 51
93.27845
  0
ARC
  5
367
330
1F
100
AcDbEntity
  8
1
370
    18
100
AcDbCircle
 10
31.32609
 20
28.403299
 30
0.0
 40
16.993533907731
100
AcDbArc
 50
261.417784
 51
265.811405
  0
ARC
  5
368
330
1F
100
AcDbEntity
  8
1
370
    18
100
AcDbCircle
 10
3.036417
 20
-3.582806
 30
0.0
 40
1.901200665882515
100
AcDbArc
 50
317.083413
 51
341.152846
  0
ARC
  5
369
330
1F
100
AcDbEntity
  8
1
370
    18
100
AcDbCircle
 10
3.936164
 20
-4.49722
 30
0.0
 40
0.6222370530966
100
AcDbArc
 50
285.266074
 51
322.339355
  0
ARC
  5
36A
330
1F
100
AcDbEntity
  8
1
370
    18
100
AcDbCircle
 10
3.156631
 20
3.673181
 30
0.0
 40
1.751693255223443
100
AcDbArc
 50
30.379907
 51
50.827282
  0
ARC
  5
36B
330
1F
100
AcDbEntity
  8
1
370
    18
100
AcDbCircle
 10
3.430604
 20
3.765456
 30
0.0
 40
1.469855790879158
100
AcDbArc
 50
1.432894
 51
32.678493
  0
ARC
  5
36C
330
1F
100
AcDbEntity
  8
1
370
    18
100
AcDbCircle
 10
18.04932
 20
-14.663018
 30
0.0
 40
5.245470329429651
100
AcDbArc
 50
214.427968
 51
241.699037
  0
ARC
  5
36D
330
1F
100
AcDbEntity
  8
1
370
    18
100
AcDbCircle
 10
18.077052
 20
-14.62661
 30
0.0
 40
5.290679443883091
100
AcDbArc
 50
241.621541
 51
267.328404
  0
ARC
  5
36E
330
1F
100
AcDbEntity
  8
1
370
    18
100
AcDbCircle
 10
18.081938
 20
-14.62542
 30
0.0
 40
5.237078793756117
100
AcDbArc
 50
224.601057
 51
252.09832
  0
ARC
  5
36F
330
1F
100
AcDbEntity
  8
1
370
    18
100
AcDbCircle
 10
17.999442
 20
-14.707318
 30
0.0
 40
5.120834348668494
100
AcDbArc
 50
199.815051
 51
224.596736
  0
ARC
  5
370
330
1F
100
AcDbEntity
  8
1
370
    18
100
AcDbCircle
 10
35.814986
 20
-11.143786
 30
0.0
 40
3.337859901178177
100
AcDbArc
 50
0.149829
 51
23.650149
  0
ARC
  5
371
330
1F
100
AcDbEntity
  8
1
370
    18
100
AcDbCircle
 10
36.466698
 20
-14.595566
 30
0.0
 40
2.679474224411269
100
AcDbArc
 50
314.968433
 51
340.891674
  0
ARC
  5
372
330
1F
100
AcDbEntity
  8
1
370
    18
100
AcDbCircle
 10
27.995729
 20
-6.731096
 30
0.0
 40
0.5581481766189796
100
AcDbArc
 50
208.111751
 51
274.854645
  0
ARC
  5
373
330
1F
100
AcDbEntity
  8
1
370
    18
100
AcDbCircle
 10
31.347082
 20
-24.937726
 30
0.0
 40
2.117814884599285
100
AcDbArc
 50
284.279507
 51
318.555203
  0
ARC
  5
374
330
1F
100
AcDbEntity
  8
1
370
    18
100
AcDbCircle
 10
30.171155
 20
-21.095242
 30
0.0
 40
6.134627144936475
100
AcDbArc
 50
265.391824
 51
286.071507
  0
ARC
  5
375
330
1F
100
AcDbEntity
  8
1
370
    18
100
AcDbCircle
 10
29.886561
 20
-22.575501
 30
0.0
 40
4.639214901439407
100
AcDbArc
 50
244.968717
 51
267.426944
  0
ARC
  5
376
330
1F
100
AcDbEntity
  8
1
370
    18
100
AcDbCircle
 10
28.41997
 20
-25.559227
 30
0.0
 40
1.316870601250001
100
AcDbArc
 50
194.741073
 51
247.858547
  0
ARC
  5
377
330
1F
100
AcDbEntity
  8
1
370
    18
100
AcDbCircle
 10
12.703665
 20
614.150944
 30
0.0
 40
643.7807287498485
100
AcDbArc
 50
271.678349
 51
271.800826
  0
ARC
  5
378
330
1F
100
AcDbEntity
  8
1
370
    18
100
AcDbCircle
 10
25.051273
 20
193.611743
 30
0.0
 40
223.0602981757647
100
AcDbArc
 50
271.220673
 51
271.671841
  0
ARC
  5
379
330
1F
100
AcDbEntity
  8
1
370
    18
100
AcDbCircle
 10
28.095778
 20
-39.855544
 30
0.0
 40
10.57875748228281
100
AcDbArc
 50
85.340578
 51
93.674402
  0
ARC
  5
37A
330
1F
100
AcDbEntity
  8
1
370
    18
100
AcDbCircle
 10
27.747754
 20
-35.700882
 30
0.0
 40
6.410844499173932
100
AcDbArc
 50
92.950006
 51
103.130308
  0
ARC
  5
37B
330
1F
100
AcDbEntity
  8
1
370
    18
100
AcDbCircle
 10
42.701849
 20
-92.473604
 30
0.0
 40
65.1176884879255
100
AcDbArc
 50
104.59659
 51
104.76233
  0
ARC
  5
37C
330
1F
100
AcDbEntity
  8
1
370
    18
100
AcDbCircle
 10
34.224563
 20
-60.322234
 30
0.0
 40
31.86750152560338
100
AcDbArc
 50
104.753398
 51
105.158411
  0
ARC
  5
37D
330
1F
100
AcDbEntity
  8
1
370
    18
100
AcDbCircle
 10
26.36888
 20
-27.067099
 30
0.0
 40
2.753796287609723
100
AcDbArc
 50
257.346157
 51
267.531553
  0
ARC
  5
37E
330
1F
100
AcDbEntity
  8
1
370
    18
100
AcDbCircle
 10
27.34876
 20
-11.914811
 30
0.0
 40
17.93719711618059
100
AcDbArc
 50
266.488978
 51
269.695627
  0
ARC
  5
37F
330
1F
100
AcDbEntity
  8
1
370
    18
100
AcDbCircle
 10
15.412648
 20
-12.132372
 30
0.0
 40
3.618321964667306
100
AcDbArc
 50
184.696389
 51
208.159788
  0
ARC
  5
380
330
1F
100
AcDbEntity
  8
1
370
    18
100
AcDbCircle
 10
13.465214
 20
-12.326084
 30
0.0
 40
1.661906552225872
100
AcDbArc
 50
144.818024
 51
183.537448
  0
ARC
  5
381
330
1F
100
AcDbEntity
  8
1
370
    18
100
AcDbCircle
 10
-387.933784
 20
410.100572
 30
0.0
 40
603.1372024546595
100
AcDbArc
 50
314.622274
 51
314.779394
  0
ARC
  5
382
330
1F
100
AcDbEntity
  8
1
370
    18
100
AcDbCircle
 10
-324.233085
 20
345.924147
 30
0.0
 40
512.7137958995652
100
AcDbArc
 50
314.778079
 51
315.013236
  0
ARC
  5
383
330
1F
100
AcDbEntity
  8
1
370
    18
100
AcDbCircle
 10
-884.174454
 20
808.920267
 30
0.0
 40
1243.421400273455
100
AcDbArc
 50
317.800348
 51
317.898617
  0
ARC
  5
384
330
1F
100
AcDbEntity
  8
1
370
    18
100
AcDbCircle
 10
-251.904032
 20
236.853851
 30
0.0
 40
390.764839595435
100
AcDbArc
 50
317.268419
 51
317.666266
  0
ARC
  5
385
330
1F
100
AcDbEntity
  8
1
370
    18
100
AcDbCircle
 10
29.54336
 20
-19.356442
 30
0.0
 40
2.974891511859621
100
AcDbArc
 50
1.757669
 51
25.565665
  0
ARC
  5
386
330
1F
100
AcDbEntity
  8
1
370
    18
100
AcDbCircle
 10
29.33657
 20
-19.469076
 30
0.0
 40
3.210065625987894
100
AcDbArc
 50
25.786403
 51
53.588852
  0
ARC
  5
387
330
1F
100
AcDbEntity
  8
1
370
    18
100
AcDbCircle
 10
23.492924
 20
-5.824763
 30
0.0
 40
1.26661115054834
100
AcDbArc
 50
59.470959
 51
99.951427
  0
ARC
  5
388
330
1F
100
AcDbEntity
  8
1
370
    18
100
AcDbCircle
 10
21.013974
 20
-8.798011
 30
0.0
 40
5.125174287036268
100
AcDbArc
 50
38.502378
 51
52.4669
  0
ARC
  5
389
330
1F
100
AcDbEntity
  8
1
370
    18
100
AcDbCircle
 10
27.249919
 20
-3.590068
 30
0.0
 40
3.003393741417701
100
AcDbArc
 50
222.195847
 51
254.889376
  0
ARC
  5
38A
330
1F
100
AcDbEntity
  8
1
370
    18
100
AcDbCircle
 10
33.061243
 20
-20.379182
 30
0.0
 40
1.743109298474183
100
AcDbArc
 50
265.833009
 51
308.152028
  0
ARC
  5
38B
330
1F
100
AcDbEntity
  8
1
370
    18
100
AcDbCircle
 10
31.926443
 20
-18.981807
 30
0.0
 40
3.543112829444765
100
AcDbArc
 50
308.623402
 51
334.659711
  0
ARC
  5
38C
330
1F
100
AcDbEntity
  8
1
370
    18
100
AcDbCircle
 10
32.243152
 20
24.719445
 30
0.0
 40
2.940491841497615
100
AcDbArc
 50
225.762317
 51
248.228244
  0
ARC
  5
38D
330
1F
100
AcDbEntity
  8
1
370
    18
100
AcDbCircle
 10
31.837608
 20
23.531902
 30
0.0
 40
1.688445884875272
100
AcDbArc
 50
246.060826
 51
278.575532
  0
ARC
  5
38E
330
1F
100
AcDbEntity
  8
1
370
    18
100
AcDbCircle
 10
32.081343
 20
22.056563
 30
0.0
 40
0.1943961862359912
100
AcDbArc
 50
272.368701
 51
343.483743
  0
ARC
  5
38F
330
1F
100
AcDbEntity
  8
1
370
    18
100
AcDbCircle
 10
32.810566
 20
-26.172573
 30
0.0
 40
3.149957723043304
100
AcDbArc
 50
312.126616
 51
317.383962
  0
ARC
  5
390
330
1F
100
AcDbEntity
  8
1
370
    18
100
AcDbCircle
 10
32.817834
 20
-26.180492
 30
0.0
 40
3.139208753787413
100
AcDbArc
 50
305.41063
 51
312.125183
  0
ARC
  5
391
330
1F
100
AcDbEntity
  8
1
370
    18
100
AcDbCircle
 10
32.835639
 20
-26.206653
 30
0.0
 40
3.107570968691392
100
AcDbArc
 50
282.113486
 51
305.422566
  0
ARC
  5
392
330
1F
100
AcDbEntity
  8
1
370
    18
100
AcDbCircle
 10
32.205022
 20
-25.763863
 30
0.0
 40
0.9293124000368467
100
AcDbArc
 50
321.725721
 51
9.945942
  0
ARC
  5
393
330
1F
100
AcDbEntity
  8
1
370
    18
100
AcDbCircle
 10
36.14256
 20
-22.65415
 30
0.0
 40
3.057449532320484
100
AcDbArc
 50
323.316034
 51
359.854285
  0
ARC
  5
394
330
1F
100
AcDbEntity
  8
1
370
    18
100
AcDbCircle
 10
36.397088
 20
-14.579085
 30
0.0
 40
2.802921833998596
100
AcDbArc
 50
335.437097
 51
0.150292
  0
ARC
  5
395
330
1F
100
AcDbEntity
  8
1
370
    18
100
AcDbCircle
 10
35.981807
 20
5.877265
 30
0.0
 40
15.81514465885787
100
AcDbArc
 50
222.708172
 51
228.763725
  0
ARC
  5
396
330
1F
100
AcDbEntity
  8
1
370
    18
100
AcDbCircle
 10
23.517644
 20
-5.780053
 30
0.0
 40
1.255495727815494
100
AcDbArc
 50
47.826503
 51
100.026452
  0
ARC
  5
397
330
1F
100
AcDbEntity
  8
1
370
    18
100
AcDbCircle
 10
25.283375
 20
-21.032631
 30
0.0
 40
16.60786792117145
100
AcDbArc
 50
96.862121
 51
97.995245
  0
ARC
  5
398
330
1F
100
AcDbEntity
  8
1
370
    18
100
AcDbCircle
 10
25.308457
 20
-21.21043
 30
0.0
 40
16.78742744880599
100
AcDbArc
 50
97.995616
 51
99.424383
  0
ARC
  5
399
330
1F
100
AcDbEntity
  8
1
370
    18
100
AcDbCircle
 10
27.313788
 20
-5.434309
 30
0.0
 40
0.9055476724132552
100
AcDbArc
 50
136.289682
 51
201.886447
  0
ARC
  5
39A
330
1F
100
AcDbEntity
  8
1
370
    18
100
AcDbCircle
 10
27.648498
 20
-5.214336
 30
0.0
 40
1.300555632311958
100
AcDbArc
 50
205.38431
 51
253.620989
  0
ARC
  5
39B
330
1F
100
AcDbEntity
  8
1
370
    18
100
AcDbCircle
 10
17.49871
 20
15.829023
 30
0.0
 40
8.136637504843073
100
AcDbArc
 50
87.643381
 51
104.305699
  0
ARC
  5
39C
330
1F
100
AcDbEntity
  8
1
370
    18
100
AcDbCircle
 10
35.667558
 20
-11.232776
 30
0.0
 40
3.542906665841792
100
AcDbArc
 50
18.657821
 51
41.493123
  0
ARC
  5
39D
330
1F
100
AcDbEntity
  8
1
370
    18
100
AcDbCircle
 10
110.714535
 20
54.593099
 30
0.0
 40
96.28244527992592
100
AcDbArc
 50
220.469246
 51
221.246174
  0
ARC
  5
39E
330
1F
100
AcDbEntity
  8
1
370
    18
100
AcDbCircle
 10
97.486531
 20
43.321833
 30
0.0
 40
78.90368293410097
100
AcDbArc
 50
219.272859
 51
220.477114
  0
ARC
  5
39F
330
1F
100
AcDbEntity
  8
1
370
    18
100
AcDbCircle
 10
27.994061
 20
-6.750294
 30
0.0
 40
0.5110594981339449
100
AcDbArc
 50
208.434616
 51
274.689569
  0
ARC
  5
3A0
330
1F
100
AcDbEntity
  8
1
370
    18
100
AcDbCircle
 10
-2.608195
 20
389.756659
 30
0.0
 40
398.1960742734631
100
AcDbArc
 50
274.813607
 51
275.127753
  0
ARC
  5
3A1
330
1F
100
AcDbEntity
  8
1
370
    18
100
AcDbCircle
 10
-6.911223
 20
440.840515
 30
0.0
 40
449.4608420390741
100
AcDbArc
 50
274.459437
 51
274.813757
  0
ARC
  5
3A2
330
1F
100
AcDbEntity
  8
1
370
    18
100
AcDbCircle
 10
1.844437
 20
-104.26922
 30
0.0
 40
100.8321330645175
100
AcDbArc
 50
75.591401
 51
75.823225
  0
ARC
  5
3A3
330
1F
100
AcDbEntity
  8
1
370
    18
100
AcDbCircle
 10
3.969203
 20
-96.010343
 30
0.0
 40
92.30431569989223
100
AcDbArc
 50
75.270792
 51
75.59316
  0
ARC
  5
3A4
330
1F
100
AcDbEntity
  8
1
370
    18
100
AcDbCircle
 10
30.083098
 20
-20.112611
 30
0.0
 40
2.58831358172765
100
AcDbArc
 50
198.45408
 51
224.272229
  0
ARC
  5
3A5
330
1F
100
AcDbEntity
  8
1
370
    18
100
AcDbCircle
 10
30.004088
 20
-20.212621
 30
0.0
 40
2.461980081352579
100
AcDbArc
 50
223.889265
 51
251.349918
  0
ARC
  5
3A6
330
1F
100
AcDbEntity
  8
1
370
    18
100
AcDbCircle
 10
29.895002
 20
-20.535774
 30
0.0
 40
2.120912528034881
100
AcDbArc
 50
251.350386
 51
284.883671
  0
ARC
  5
3A7
330
1F
100
AcDbEntity
  8
1
370
    18
100
AcDbCircle
 10
29.881204
 20
-20.551769
 30
0.0
 40
2.10907060187702
100
AcDbArc
 50
285.357551
 51
318.467999
  0
ARC
  5
3A8
330
1F
100
AcDbEntity
  8
1
370
    18
100
AcDbCircle
 10
29.611267
 20
-20.324983
 30
0.0
 40
2.461526175753724
100
AcDbArc
 50
318.68237
 51
1.531954
  0
ARC
  5
3A9
330
1F
100
AcDbEntity
  8
1
370
    18
100
AcDbCircle
 10
29.840346
 20
-20.324927
 30
0.0
 40
2.23253605196545
100
AcDbArc
 50
1.687691
 51
47.263117
  0
ARC
  5
3AA
330
1F
100
AcDbEntity
  8
1
370
    18
100
AcDbCircle
 10
29.775396
 20
-20.391205
 30
0.0
 40
2.325294821943012
100
AcDbArc
 50
47.19594
 51
91.038181
  0
ARC
  5
3AB
330
1F
100
AcDbEntity
  8
1
370
    18
100
AcDbCircle
 10
29.765687
 20
-20.349726
 30
0.0
 40
2.283664328416518
100
AcDbArc
 50
90.813488
 51
134.995228
  0
ARC
  5
3AC
330
1F
100
AcDbEntity
  8
1
370
    18
100
AcDbCircle
 10
29.686849
 20
-20.265434
 30
0.0
 40
2.168317939775641
100
AcDbArc
 50
135.096871
 51
181.528209
  0
ARC
  5
3AD
330
1F
100
AcDbEntity
  8
1
370
    18
100
AcDbCircle
 10
27.7999
 20
-6.512457
 30
0.0
 40
0.4273590516745935
100
AcDbArc
 50
222.61556
 51
289.427584
  0
ARC
  5
3AE
330
1F
100
AcDbEntity
  8
1
370
    18
100
AcDbCircle
 10
34.763389
 20
-4.367535
 30
0.0
 40
1.526196594168754
100
AcDbArc
 50
196.468281
 51
226.813999
  0
ARC
  5
3AF
330
1F
100
AcDbEntity
  8
1
370
    18
100
AcDbCircle
 10
36.745945
 20
-2.166
 30
0.0
 40
4.488630269197817
100
AcDbArc
 50
227.594061
 51
243.84061
  0
ARC
  5
3B0
330
1F
100
AcDbEntity
  8
1
370
    18
100
AcDbCircle
 10
36.229076
 20
-3.30274
 30
0.0
 40
3.24066793881081
100
AcDbArc
 50
243.182398
 51
268.040567
  0
ARC
  5
3B1
330
1F
100
AcDbEntity
  8
1
370
    18
100
AcDbCircle
 10
27.898282
 20
-6.06649
 30
0.0
 40
0.8501203982325476
100
AcDbArc
 50
272.950887
 51
316.499685
  0
ARC
  5
3B2
330
1F
100
AcDbEntity
  8
1
370
    18
100
AcDbCircle
 10
27.821485
 20
-6.295385
 30
0.0
 40
0.7796258177597009
100
AcDbArc
 50
332.805977
 51
34.133713
  0
ARC
  5
3B3
330
1F
100
AcDbEntity
  8
1
370
    18
100
AcDbCircle
 10
26.655512
 20
-6.819631
 30
0.0
 40
2.050774434346079
100
AcDbArc
 50
27.966274
 51
58.205486
  0
ARC
  5
3B4
330
1F
100
AcDbEntity
  8
1
370
    18
100
AcDbCircle
 10
26.647991
 20
-6.84914
 30
0.0
 40
2.030370992770892
100
AcDbArc
 50
28.616961
 51
58.420265
  0
ARC
  5
3B5
330
1F
100
AcDbEntity
  8
1
370
    18
100
AcDbCircle
 10
27.797548
 20
-6.318135
 30
0.0
 40
0.7715514266634645
100
AcDbArc
 50
334.613192
 51
34.900476
  0
ARC
  5
3B6
330
1F
100
AcDbEntity
  8
1
370
    18
100
AcDbCircle
 10
27.896975
 20
-6.101505
 30
0.0
 40
0.8104392949291428
100
AcDbArc
 50
272.796443
 51
317.510539
  0
ARC
  5
3B7
330
1F
100
AcDbEntity
  8
1
370
    18
100
AcDbCircle
 10
27.779943
 20
-5.980607
 30
0.0
 40
0.9434548441167219
100
AcDbArc
 50
269.800565
 51
279.55275
  0
ARC
  5
3B8
330
1F
100
AcDbEntity
  8
1
370
    18
100
AcDbCircle
 10
27.776933
 20
-6.388564
 30
0.0
 40
0.5354929423579046
100
AcDbArc
 50
251.48091
 51
269.97068
  0
ARC
  5
3B9
330
1F
100
AcDbEntity
  8
1
370
    18
100
AcDbCircle
 10
27.305482
 20
-5.422355
 30
0.0
 40
0.8783999373453232
100
AcDbArc
 50
126.916782
 51
138.3432
  0
ARC
  5
3BA
330
1F
100
AcDbEntity
  8
1
370
    18
100
AcDbCircle
 10
27.389584
 20
-5.536395
 30
0.0
 40
1.020093444536888
100
AcDbArc
 50
113.962146
 51
126.846141
  0
ARC
  5
3BB
330
1F
100
AcDbEntity
  8
1
370
    18
100
AcDbCircle
 10
36.920289
 20
-2.07402
 30
0.0
 40
4.660132310622687
100
AcDbArc
 50
229.906194
 51
231.978388
  0
ARC
  5
3BC
330
1F
100
AcDbEntity
  8
1
370
    18
100
AcDbCircle
 10
36.995672
 20
-1.984633
 30
0.0
 40
4.777062936182442
100
AcDbArc
 50
227.287222
 51
229.905017
  0
ARC
  5
3BD
330
1F
100
AcDbEntity
  8
1
370
    18
100
AcDbCircle
 10
27.379308
 20
-5.46952
 30
0.0
 40
0.97937639704121
100
AcDbArc
 50
118.00308
 51
126.655894
  0
ARC
  5
3BE
330
1F
100
AcDbEntity
  8
1
370
    18
100
AcDbCircle
 10
27.321003
 20
-5.391051
 30
0.0
 40
0.8816173018355651
100
AcDbArc
 50
126.660584
 51
138.646481
  0
ARC
  5
3BF
330
1F
100
AcDbEntity
  8
1
370
    18
100
AcDbCircle
 10
12.163734
 20
21.387622
 30
0.0
 40
0.3633934510385143
100
AcDbArc
 50
165.586706
 51
237.168329
  0
ARC
  5
3C0
330
1F
100
AcDbEntity
  8
1
370
    18
100
AcDbCircle
 10
13.758494
 20
21.010454
 30
0.0
 40
2.002092048754731
100
AcDbArc
 50
145.582061
 51
166.492848
  0
ARC
  5
3C1
330
1F
100
AcDbEntity
  8
1
370
    18
100
AcDbCircle
 10
35.217566
 20
-4.131287
 30
0.0
 40
1.999256553376637
100
AcDbArc
 50
180.124565
 51
222.994774
  0
ARC
  5
3C2
330
1F
100
AcDbEntity
  8
1
370
    18
100
AcDbCircle
 10
27.704749
 20
-4.365654
 30
0.0
 40
0.5478582521074378
100
AcDbArc
 50
205.013652
 51
238.920312
  0
ARC
  5
3C3
330
1F
100
AcDbEntity
  8
1
370
    18
100
AcDbCircle
 10
148.255355
 20
-15.225352
 30
0.0
 40
141.0262439992025
100
AcDbArc
 50
163.773808
 51
164.18975
  0
ARC
  5
3C4
330
1F
100
AcDbEntity
  8
1
370
    18
100
AcDbCircle
 10
160.523488
 20
-18.796014
 30
0.0
 40
153.8034396572257
100
AcDbArc
 50
163.288329
 51
163.77368
  0
ARC
  5
3C5
330
1F
100
AcDbEntity
  8
1
370
    18
100
AcDbCircle
 10
18.974235
 20
24.078354
 30
0.0
 40
5.858696303217522
100
AcDbArc
 50
125.264495
 51
151.463503
  0
ARC
  5
3C6
330
1F
100
AcDbEntity
  8
1
370
    18
100
AcDbCircle
 10
18.209516
 20
25.123707
 30
0.0
 40
4.563705787181999
100
AcDbArc
 50
94.429667
 51
125.00269
  0
ARC
  5
3C7
330
1F
100
AcDbEntity
  8
1
370
    18
100
AcDbCircle
 10
25.421634
 20
-190.446774
 30
0.0
 40
220.3036476488368
100
AcDbArc
 50
89.980522
 51
91.133502
  0
ARC
  5
3C8
330
1F
100
AcDbEntity
  8
1
370
    18
100
AcDbCircle
 10
34.815452
 20
20.508369
 30
0.0
 40
13.16069844587022
100
AcDbArc
 50
134.923922
 51
152.240167
  0
ARC
  5
3C9
330
1F
100
AcDbEntity
  8
1
370
    18
100
AcDbCircle
 10
21.999963
 20
26.223138
 30
0.0
 40
0.5100819374494584
100
AcDbArc
 50
126.35488
 51
178.987282
  0
ARC
  5
3CA
330
1F
100
AcDbEntity
  8
1
370
    18
100
AcDbCircle
 10
161.930432
 20
-19.307424
 30
0.0
 40
155.3822654832944
100
AcDbArc
 50
163.261315
 51
163.638842
  0
ARC
  5
3CB
330
1F
100
AcDbEntity
  8
1
370
    18
100
AcDbCircle
 10
149.477735
 20
-15.653443
 30
0.0
 40
142.4045443042777
100
AcDbArc
 50
163.638118
 51
164.162436
  0
ARC
  5
3CC
330
1F
100
AcDbEntity
  8
1
370
    18
100
AcDbCircle
 10
18.165049
 20
25.174023
 30
0.0
 40
4.555603070743838
100
AcDbArc
 50
94.212081
 51
118.643117
  0
ARC
  5
3CD
330
1F
100
AcDbEntity
  8
1
370
    18
100
AcDbCircle
 10
18.583304
 20
24.446445
 30
0.0
 40
5.394663800314353
100
AcDbArc
 50
118.837516
 51
141.975301
  0
ARC
  5
3CE
330
1F
100
AcDbEntity
  8
1
370
    18
100
AcDbCircle
 10
19.817444
 20
23.462843
 30
0.0
 40
6.972767734630446
100
AcDbArc
 50
141.855364
 51
163.495171
  0
ARC
  5
3CF
330
1F
100
AcDbEntity
  8
1
370
    18
100
AcDbCircle
 10
26.527503
 20
-26.235556
 30
0.0
 40
3.573533627744445
100
AcDbArc
 50
258.287272
 51
268.937699
  0
ARC
  5
3D0
330
1F
100
AcDbEntity
  8
1
370
    18
100
AcDbCircle
 10
25.999038
 20
-30.021222
 30
0.0
 40
0.4788114648124129
100
AcDbArc
 50
98.831502
 51
126.948276
  0
ARC
  5
3D1
330
1F
100
AcDbEntity
  8
1
370
    18
100
AcDbCircle
 10
22.715502
 20
-44.787615
 30
0.0
 40
74.66491302991415
100
AcDbArc
 50
90.562995
 51
93.751335
  0
ARC
  5
3D2
330
1F
100
AcDbEntity
  8
1
370
    18
100
AcDbCircle
 10
28.226817
 20
605.370882
 30
0.0
 40
575.4745727228932
100
AcDbArc
 50
269.815164
 51
269.893226
  0
ARC
  5
3D3
330
1F
100
AcDbEntity
  8
1
370
    18
100
AcDbCircle
 10
26.055518
 20
-40.767533
 30
0.0
 40
70.66753786556055
100
AcDbArc
 50
89.744744
 51
90.44171
  0
ARC
  5
3D4
330
1F
100
AcDbEntity
  8
1
370
    18
100
AcDbCircle
 10
21.97671
 20
26.218074
 30
0.0
 40
0.4539187730167581
100
AcDbArc
 50
84.252846
 51
179.469834
  0
ARC
  5
3D5
330
1F
100
AcDbEntity
  8
1
370
    18
100
AcDbCircle
 10
24.007173
 20
29.037932
 30
0.0
 40
2.603657500269515
100
AcDbArc
 50
254.997202
 51
258.927937
  0
ARC
  5
3D6
330
1F
100
AcDbEntity
  8
1
370
    18
100
AcDbCircle
 10
23.629333
 20
27.654636
 30
0.0
 40
1.169723954191519
100
AcDbArc
 50
246.781976
 51
255.333837
  0
ARC
  5
3D7
330
1F
100
AcDbEntity
  8
1
370
    18
100
AcDbCircle
 10
26.569743
 20
-4.0538
 30
0.0
 40
33.89673963021099
100
AcDbArc
 50
90.664837
 51
91.771623
  0
ARC
  5
3D8
330
1F
100
AcDbEntity
  8
1
370
    18
100
AcDbCircle
 10
40.095483
 20
-919.173972
 30
0.0
 40
949.116698476045
100
AcDbArc
 50
90.780904
 51
90.840288
  0
ARC
  5
3D9
330
1F
100
AcDbEntity
  8
1
370
    18
100
AcDbCircle
 10
29.544865
 20
-32.972855
 30
0.0
 40
30.00825412648012
100
AcDbArc
 50
75.88076
 51
78.109397
  0
ARC
  5
3DA
330
1F
100
AcDbEntity
  8
1
370
    18
100
AcDbCircle
 10
70.803965
 20
124.293244
 30
0.0
 40
132.5818893280735
100
AcDbArc
 50
255.16809
 51
255.814122
  0
ARC
  5
3DB
330
1F
100
AcDbEntity
  8
1
370
    18
100
AcDbCircle
 10
38.620326
 20
-5.308513
 30
0.0
 40
0.9440805318027359
100
AcDbArc
 50
53.329133
 51
75.624477
  0
ARC
  5
3DC
330
1F
100
AcDbEntity
  8
1
370
    18
100
AcDbCircle
 10
49.580904
 20
41.577976
 30
0.0
 40
47.15596695045049
100
AcDbArc
 50
254.782394
 51
256.138865
  0
ARC
  5
3DD
330
1F
100
AcDbEntity
  8
1
370
    18
100
AcDbCircle
 10
29.929216
 20
-31.145358
 30
0.0
 40
28.17595735439933
100
AcDbArc
 50
75.039055
 51
77.927218
  0
ARC
  5
3DE
330
1F
100
AcDbEntity
  8
1
370
    18
100
AcDbCircle
 10
37.798457
 20
-7.125119
 30
0.0
 40
2.959786133247318
100
AcDbArc
 50
64.396551
 51
80.386119
  0
ARC
  5
3DF
330
1F
100
AcDbEntity
  8
1
370
    18
100
AcDbCircle
 10
41.442763
 20
4.991068
 30
0.0
 40
2.702020888069052
100
AcDbArc
 50
227.585779
 51
231.132841
  0
ARC
  5
3E0
330
1F
100
AcDbEntity
  8
1
370
    18
100
AcDbCircle
 10
34.373987
 20
-29.021813
 30
0.0
 40
0.737674116299602
100
AcDbArc
 50
272.18009
 51
316.224286
  0
ARC
  5
3E1
330
1F
100
AcDbEntity
  8
1
370
    18
100
AcDbCircle
 10
38.798083
 20
-24.343787
 30
0.0
 40
0.7092689163608346
100
AcDbArc
 50
316.696032
 51
1.393852
  0
ARC
  5
3E2
330
1F
100
AcDbEntity
  8
1
370
    18
100
AcDbCircle
 10
27.977825
 20
-29.232828
 30
0.0
 40
0.7812119140715369
100
AcDbArc
 50
229.096815
 51
271.053693
  0
ARC
  5
3E3
330
1F
100
AcDbEntity
  8
1
370
    18
100
AcDbCircle
 10
34.871325
 20
-0.758817
 30
0.0
 40
1.539145876153749
100
AcDbArc
 50
274.429927
 51
278.943124
  0
ARC
  5
3E4
330
1F
100
AcDbEntity
  8
1
370
    18
100
AcDbCircle
 10
31.835011
 20
-9.928933
 30
0.0
 40
6.740456902355859
100
AcDbArc
 50
91.638123
 51
95.138129
  0
ARC
  5
3E5
330
1F
100
AcDbEntity
  8
1
370
    18
100
AcDbCircle
 10
31.657905
 20
-8.698388
 30
0.0
 40
5.499393529428989
100
AcDbArc
 50
94.448506
 51
99.629092
  0
ARC
  5
3E6
330
1F
100
AcDbEntity
  8
1
370
    18
100
AcDbCircle
 10
30.792203
 20
-1.082685
 30
0.0
 40
2.308294945888445
100
AcDbArc
 50
265.782288
 51
275.298932
  0
ARC
  5
3E7
330
1F
100
AcDbEntity
  8
1
370
    18
100
AcDbCircle
 10
30.578437
 20
3.7214
 30
0.0
 40
7.115335583601251
100
AcDbArc
 50
273.439984
 51
278.552518
  0
ARC
  5
3E8
330
1F
100
AcDbEntity
  8
1
370
    18
100
AcDbCircle
 10
31.715019
 20
-7.580058
 30
0.0
 40
4.343011079426117
100
AcDbArc
 50
90.579078
 51
94.073229
  0
ARC
  5
3E9
330
1F
100
AcDbEntity
  8
1
370
    18
100
AcDbCircle
 10
31.815363
 20
-9.739444
 30
0.0
 40
6.504289122597171
100
AcDbArc
 50
93.603761
 51
96.913821
  0
ARC
  5
3EA
330
1F
100
AcDbEntity
  8
1
370
    18
100
AcDbCircle
 10
39.839837
 20
-2.381554
 30
0.0
 40
0.1632273631803209
100
AcDbArc
 50
8.410109
 51
110.107086
  0
ARC
  5
3EB
330
1F
100
AcDbEntity
  8
1
370
    18
100
AcDbCircle
 10
41.442763
 20
-4.991068
 30
0.0
 40
2.702020888169907
100
AcDbArc
 50
128.867159
 51
132.414221
  0
ARC
  5
3EC
330
1F
100
AcDbEntity
  8
1
370
    18
100
AcDbCircle
 10
39.158572
 20
2.504594
 30
0.0
 40
2.00230733519769
100
AcDbArc
 50
121.858267
 51
146.273652
  0
ARC
  5
3ED
330
1F
100
AcDbEntity
  8
1
370
    18
100
AcDbCircle
 10
27.885966
 20
-2.86063
 30
0.0
 40
0.0875914568993666
100
AcDbArc
 50
344.418224
 51
52.432945
  0
ARC
  5
3EE
330
1F
100
AcDbEntity
  8
1
370
    18
100
AcDbCircle
 10
37.272946
 20
-5.666073
 30
0.0
 40
3.805749517631312
100
AcDbArc
 50
58.182028
 51
62.608636
  0
ARC
  5
3EF
330
1F
100
AcDbEntity
  8
1
370
    18
100
AcDbCircle
 10
27.290641
 20
-5.072482
 30
0.0
 40
1.746452111864575
100
AcDbArc
 50
90.903103
 51
97.120287
  0
ARC
  5
3F0
330
1F
100
AcDbEntity
  8
1
370
    18
100
AcDbCircle
 10
27.952898
 20
-4.988564
 30
0.0
 40
1.575051113536404
100
AcDbArc
 50
85.430546
 51
93.184528
  0
ARC
  5
3F1
330
1F
100
AcDbEntity
  8
1
370
    18
100
AcDbCircle
 10
27.389023
 20
-2.159377
 30
0.0
 40
1.34737641277616
100
AcDbArc
 50
273.587885
 51
284.719006
  0
ARC
  5
3F2
330
1F
100
AcDbEntity
  8
1
370
    18
100
AcDbCircle
 10
27.321105
 20
-3.202632
 30
0.0
 40
0.3083761608343971
100
AcDbArc
 50
246.713556
 51
273.967431
  0
ARC
  5
3F3
330
1F
100
AcDbEntity
  8
1
370
    18
100
AcDbCircle
 10
31.063307
 20
-3.031764
 30
0.0
 40
0.311600580207275
100
AcDbArc
 50
239.695271
 51
280.695352
  0
ARC
  5
3F4
330
1F
100
AcDbEntity
  8
CUT
370
    18
100
AcDbCircle
 10
743.42081
 20
553.936974
 30
0.0
 40
896.3080254810851
100
AcDbArc
 50
216.982299
 51
216.988978
  0
ARC
  5
3F5
330
1F
100
AcDbEntity
  8
CUT
370
    18
100
AcDbCircle
 10
757.166927
 20
564.288711
 30
0.0
 40
913.5159949927845
100
AcDbArc
 50
216.973955
 51
216.982296
  0
ARC
  5
3F6
330
1F
100
AcDbEntity
  8
CUT
370
    18
100
AcDbCircle
 10
1654.716135
 20
45170.726485
 30
0.0
 40
45185.64981704246
100
AcDbArc
 50
267.940919
 51
267.944065
  0
ARC
  5
3F7
330
1F
100
AcDbEntity
  8
CUT
370
    18
100
AcDbCircle
 10
1688.284013
 20
46104.35339
 30
0.0
 40
46119.87998086608
100
AcDbArc
 50
267.936995
 51
267.940918
  0
ARC
  5
3F8
330
1F
100
AcDbEntity
  8
CUT
370
    18
100
AcDbCircle
 10
34.549374
 20
14.644993
 30
0.0
 40
0.6096990335271336
100
AcDbArc
 50
260.995873
 51
311.400679
  0
ARC
  5
3F9
330
1F
100
AcDbEntity
  8
CUT
370
    18
100
AcDbCircle
 10
244622.960063
 20
226625.769019
 30
0.0
 40
333419.4965195514
100
AcDbArc
 50
222.813358
 51
222.813785
  0
ARC
  5
3FA
330
1F
100
AcDbEntity
  8
CUT
370
    18
100
AcDbCircle
 10
197334.079028
 20
182814.621449
 30
0.0
 40
268955.1271294407
100
AcDbArc
 50
222.813781
 51
222.814454
  0
ARC
  5
3FB
330
1F
100
AcDbEntity
  8
CUT
370
    18
100
AcDbCircle
 10
-328.509787
 20
422.69848
 30
0.0
 40
546.7995692895449
100
AcDbArc
 50
311.984863
 51
312.23878
  0
ARC
  5
3FC
330
1F
100
AcDbEntity
  8
CUT
370
    18
100
AcDbCircle
 10
-221.504678
 20
303.740729
 30
0.0
 40
386.7963247805197
100
AcDbArc
 50
311.533304
 51
311.990153
  0
ARC
  5
3FD
330
1F
100
AcDbEntity
  8
CUT
370
    18
100
AcDbCircle
 10
117.375463
 20
1700.543324
 30
0.0
 40
1672.076635411452
100
AcDbArc
 50
266.979361
 51
267.063611
  0
ARC
  5
3FE
330
1F
100
AcDbEntity
  8
CUT
370
    18
100
AcDbCircle
 10
116.212919
 20
1677.866247
 30
0.0
 40
1649.369779932437
100
AcDbArc
 50
267.063587
 51
267.17229
  0
ARC
  5
3FF
330
1F
100
AcDbEntity
  8
CUT
370
    18
100
AcDbCircle
 10
28.060761
 20
15.051964
 30
0.0
 40
0.6860408601049389
100
AcDbArc
 50
219.140822
 51
267.113034
  0
ARC
  5
400
330
1F
100
AcDbEntity
  8
CUT
370
    18
100
AcDbCircle
 10
23.635177
 20
19.609699
 30
0.0
 40
0.7342293541828301
100
AcDbArc
 50
178.566832
 51
223.31541
  0
ARC
  5
401
330
1F
100
AcDbEntity
  8
CUT
370
    18
100
AcDbCircle
 10
241.029605
 20
235.265587
 30
0.0
 40
306.9448162130747
100
AcDbArc
 50
225.340309
 51
225.789194
  0
ARC
  5
402
330
1F
100
AcDbEntity
  8
CUT
370
    18
100
AcDbCircle
 10
330.138479
 20
325.452058
 30
0.0
 40
433.7280594801182
100
AcDbArc
 50
224.937183
 51
225.341491
  0
ARC
  5
403
330
1F
100
AcDbEntity
  8
CUT
370
    18
100
AcDbCircle
 10
18.885699
 20
300.927417
 30
0.0
 40
270.3117222910246
100
AcDbArc
 50
272.038852
 51
272.060119
  0
ARC
  5
404
330
1F
100
AcDbEntity
  8
CUT
370
    18
100
AcDbCircle
 10
18.881545
 20
301.04288
 30
0.0
 40
270.4272601595402
100
AcDbArc
 50
272.06012
 51
272.087175
  0
ARC
  5
405
330
1F
100
AcDbEntity
  8
CUT
370
    18
100
AcDbCircle
 10
-7159.790114
 20
187.61224
 30
0.0
 40
7184.673937824661
100
AcDbArc
 50
358.666843
 51
358.685594
  0
ARC
  5
406
330
1F
100
AcDbEntity
  8
CUT
370
    18
100
AcDbCircle
 10
-10414.208195
 20
262.29729
 30
0.0
 40
10439.94887257988
100
AcDbArc
 50
358.685521
 51
358.701945
  0
ARC
  5
407
330
1F
100
AcDbEntity
  8
CUT
370
    18
100
AcDbCircle
 10
-308.633623
 20
398.287402
 30
0.0
 40
498.4911785175984
100
AcDbArc
 50
311.838752
 51
312.114539
  0
ARC
  5
408
330
1F
100
AcDbEntity
  8
CUT
370
    18
100
AcDbCircle
 10
-381.353868
 20
478.724413
 30
0.0
 40
606.9270894568064
100
AcDbArc
 50
312.114731
 51
312.403022
  0
ARC
  5
409
330
1F
100
AcDbEntity
  8
CUT
370
    18
100
AcDbCircle
 10
-31953.127589
 20
1037.762767
 30
0.0
 40
32009.17299761813
100
AcDbArc
 50
358.18138
 51
358.185763
  0
ARC
  5
40A
330
1F
100
AcDbEntity
  8
CUT
370
    18
100
AcDbCircle
 10
-21827.648442
 20
716.221425
 30
0.0
 40
21878.58975713529
100
AcDbArc
 50
358.173327
 51
358.181489
  0
ARC
  5
40B
330
1F
100
AcDbEntity
  8
CUT
370
    18
100
AcDbCircle
 10
-677.466931
 20
732.461795
 30
0.0
 40
994.8244755048134
100
AcDbArc
 50
314.7838
 51
314.789789
  0
ARC
  5
40C
330
1F
100
AcDbEntity
  8
CUT
370
    18
100
AcDbCircle
 10
-684.088435
 20
739.132037
 30
0.0
 40
1004.223221518707
100
AcDbArc
 50
314.78979
 51
314.79734
  0
ARC
  5
40D
330
1F
100
AcDbEntity
  8
1
370
    13
100
AcDbCircle
 10
-21.940477
 20
0.0
 30
0.0
 40
23.49999999637892
100
AcDbArc
 50
342.729527
 51
347.472106
  0
ARC
  5
40E
330
1F
100
AcDbEntity
  8
1
370
    13
100
AcDbCircle
 10
4.1
 20
-3.2975
 30
0.0
 40
0.8
100
AcDbArc
 50
270.0
 51
360.0
  0
ARC
  5
40F
330
1F
100
AcDbEntity
  8
1
370
    13
100
AcDbCircle
 10
4.1
 20
3.2975
 30
0.0
 40
0.8
100
AcDbArc
 50
0.0
 51
90.0
  0
ARC
  5
410
330
1F
100
AcDbEntity
  8
1
370
    13
100
AcDbCircle
 10
30.723767
 20
5.049077
 30
0.0
 40
7.999999999999998
100
AcDbArc
 50
290.519583
 51
291.475262
  0
ARC
  5
411
330
1F
100
AcDbEntity
  8
1
370
    13
100
AcDbCircle
 10
10.599585
 20
-25.5
 30
0.0
 40
2.0
100
AcDbArc
 50
20.0
 51
90.0
  0
ARC
  5
412
330
1F
100
AcDbEntity
  8
1
370
    13
100
AcDbCircle
 10
10.599585
 20
25.5
 30
0.0
 40
2.0
100
AcDbArc
 50
270.0
 51
340.0
  0
ARC
  5
413
330
1F
100
AcDbEntity
  8
1
370
    13
100
AcDbCircle
 10
17.830447
 20
-24.9
 30
0.0
 40
5.000000000000004
100
AcDbArc
 50
200.0
 51
270.0
  0
ARC
  5
414
330
1F
100
AcDbEntity
  8
1
370
    13
100
AcDbCircle
 10
17.830447
 20
24.9
 30
0.0
 40
5.000000000000004
100
AcDbArc
 50
90.0
 51
160.0
  0
ARC
  5
415
330
1F
100
AcDbEntity
  8
NOCUT
370
    18
100
AcDbCircle
 10
10.599585
 20
25.5
 30
0.0
 40
2.0
100
AcDbArc
 50
270.0
 51
340.0
  0
ARC
  5
416
330
1F
100
AcDbEntity
  8
NOCUT
370
    18
100
AcDbCircle
 10
34.4
 20
8.447915
 30
0.0
 40
1.0
100
AcDbArc
 50
0.0
 51
45.0
  0
ARC
  5
417
330
1F
100
AcDbEntity
  8
NOCUT
370
    18
100
AcDbCircle
 10
36.2
 20
20.022641
 30
0.0
 40
3.0
100
AcDbArc
 50
315.0
 51
0.0
  0
ARC
  5
418
330
1F
100
AcDbEntity
  8
NOCUT
370
    18
100
AcDbCircle
 10
20.1
 20
8.170382
 30
0.0
 40
0.4
100
AcDbArc
 50
0.0
 51
40.0
  0
ARC
  5
419
330
1F
100
AcDbEntity
  8
NOCUT
370
    18
100
AcDbCircle
 10
35.169491
 20
11.921064
 30
0.0
 40
2.0
100
AcDbArc
 50
135.0
 51
225.0
  0
ARC
  5
41A
330
1F
100
AcDbEntity
  8
NOCUT
370
    18
100
AcDbCircle
 10
18.288128
 20
10.329686
 30
0.0
 40
0.4
100
AcDbArc
 50
40.0
 51
120.0
  0
ARC
  5
41B
330
1F
100
AcDbEntity
  8
NOCUT
370
    18
100
AcDbCircle
 10
26.4
 20
7.6
 30
0.0
 40
0.4
100
AcDbArc
 50
90.0
 51
180.0
  0
ARC
  5
41C
330
1F
100
AcDbEntity
  8
NOCUT
370
    18
100
AcDbCircle
 10
36.2
 20
23.398269
 30
0.0
 40
3.0
100
AcDbArc
 50
0.0
 51
43.0
  0
ARC
  5
41D
330
1F
100
AcDbEntity
  8
NOCUT
370
    18
100
AcDbCircle
 10
17.830447
 20
24.9
 30
0.0
 40
5.000000000000004
100
AcDbArc
 50
90.0
 51
160.0
  0
ARC
  5
41E
330
1F
100
AcDbEntity
  8
NOCUT
370
    18
100
AcDbCircle
 10
32.934583
 20
26.9
 30
0.0
 40
3.0
100
AcDbArc
 50
43.0
 51
90.0
  0
ARC
  5
41F
102
{ACAD_REACTORS
330
4D4
102
}
330
1F
100
AcDbEntity
  8
2
370
    13
100
AcDbCircle
 10
40.0
 20
25.38
 30
0.0
 40
21.49989999999999
100
AcDbArc
 50
67.854155
 51
154.995845
  0
MTEXT
  5
420
102
{ACAD_REACTORS
330
4D3
102
}
330
1F
100
AcDbEntity
  8
2
370
    18
100
AcDbMText
 10
50.810447
 20
-7.330431
 30
0.0
 40
3.5001
 41
0.0
 71
     7
 72
     5
  1
%%c
  7
iso_b_vert
 11
7.273661547324616E-16
 21
1.0
 31
0.0
 73
     2
 44
1.084337
  0
MTEXT
  5
423
102
{ACAD_REACTORS
330
4D3
102
}
330
1F
100
AcDbEntity
  8
2
370
    18
100
AcDbMText
 10
50.810447
 20
1.392474
 30
0.0
 40
3.5001
 41
0.0
 71
     7
 72
     5
  1
\W0.7485;50,8
  7
iso_b_vert
 11
7.273661547324616E-16
 21
1.0
 31
0.0
 73
     2
 44
1.084337
  0
LINE
  5
424
102
{ACAD_REACTORS
330
427
102
}
330
1F
100
AcDbEntity
  8
2
 60
     1
370
    18
100
AcDbLine
 10
52.375125
 20
25.38
 30
0.0
 11
52.793122
 21
22.205002
 31
0.0
  0
LINE
  5
425
102
{ACAD_REACTORS
330
427
102
}
330
1F
100
AcDbEntity
  8
2
 60
     1
370
    18
100
AcDbLine
 10
52.793122
 20
22.205002
 30
0.0
 11
51.957128
 21
22.204998
 31
0.0
  0
LINE
  5
426
102
{ACAD_REACTORS
330
427
102
}
330
1F
100
AcDbEntity
  8
2
 60
     1
370
    18
100
AcDbLine
 10
51.957128
 20
22.204998
 30
0.0
 11
52.375125
 21
25.38
 31
0.0
  0
HATCH
  5
427
102
{ACAD_REACTORS
330
4D3
102
}
330
1F
100
AcDbEntity
  8
2
370
    13
100
AcDbHatch
 10
0.0
 20
0.0
 30
0.0
210
0.0
220
0.0
230
1.0
  2
ANSI31
 70
     0
 71
     1
 91
        1
 92
        0
 93
        3
 72
     1
 10
52.375125
 20
25.38
 11
52.79312167983716
 21
22.20500153538753
 72
     1
 10
52.79312167983716
 20
22.20500153538753
 11
51.95712832016284
 21
22.20499846461246
 72
     1
 10
51.95712832016284
 20
22.20499846461246
 11
52.375125
 21
25.38
 97
        3
330
424
330
425
330
426
 75
     0
 76
     1
 52
0.0
 41
0.0062
 77
     0
 78
     1
 53
44.99999999999992
 43
0.0
 44
0.0
 45
-0.0139193969876572
 46
0.0139193969876572
 79
     0
 98
        0
  0
MTEXT
  5
428
102
{ACAD_REACTORS
330
4D4
102
}
330
1F
100
AcDbEntity
  8
2
370
    13
100
AcDbMText
 10
25.850327
 20
43.948425
 30
0.0
 40
3.5001
 41
0.0
 71
     7
 72
     5
  1
\W0.8447;42,85%%d
  7
iso_b_vert
 11
0.9308965197063792
 21
0.3652829993286724
 31
0.0
 73
     2
 44
1.084337
  0
LINE
  5
429
102
{ACAD_REACTORS
330
42C
102
}
330
1F
100
AcDbEntity
  8
2
 60
     1
370
    18
100
AcDbLine
 10
25.378319
 20
41.142365
 30
0.0
 11
23.427116
 21
38.603046
 31
0.0
  0
LINE
  5
42A
102
{ACAD_REACTORS
330
42C
102
}
330
1F
100
AcDbEntity
  8
2
 60
     1
370
    18
100
AcDbLine
 10
23.427116
 20
38.603046
 30
0.0
 11
22.836375
 21
39.194578
 31
0.0
  0
LINE
  5
42B
102
{ACAD_REACTORS
330
42C
102
}
330
1F
100
AcDbEntity
  8
2
 60
     1
370
    18
100
AcDbLine
 10
22.836375
 20
39.194578
 30
0.0
 11
25.378319
 21
41.142365
 31
0.0
  0
HATCH
  5
42C
102
{ACAD_REACTORS
330
4D4
102
}
330
1F
100
AcDbEntity
  8
2
370
    13
100
AcDbHatch
 10
0.0
 20
0.0
 30
0.0
210
0.0
220
0.0
230
1.0
  2
ANSI31
 70
     0
 71
     1
 91
        1
 92
        0
 93
        3
 72
     1
 10
25.37831907846692
 20
41.14236489359622
 11
23.42711583655437
 21
38.60304561800358
 72
     1
 10
23.42711583655437
 20
38.60304561800358
 11
22.83637486803499
 21
39.19457753222442
 72
     1
 10
22.83637486803499
 20
39.19457753222442
 11
25.37831907846692
 21
41.14236489359622
 97
        3
330
429
330
42A
330
42B
 75
     0
 76
     1
 52
0.0
 41
0.0062
 77
     0
 78
     1
 53
44.99999999999992
 43
0.0
 44
0.0
 45
-0.0139193969876572
 46
0.0139193969876572
 79
     0
 98
        0
  0
LINE
  5
42D
102
{ACAD_REACTORS
330
430
102
}
330
1F
100
AcDbEntity
  8
2
 60
     1
370
    18
100
AcDbLine
 10
40.0
 20
46.8799
 30
0.0
 11
43.188243
 21
47.180635
 31
0.0
  0
LINE
  5
42E
102
{ACAD_REACTORS
330
430
102
}
330
1F
100
AcDbEntity
  8
2
 60
     1
370
    18
100
AcDbLine
 10
43.188243
 20
47.180635
 30
0.0
 11
43.157445
 21
46.345209
 31
0.0
  0
LINE
  5
42F
102
{ACAD_REACTORS
330
430
102
}
330
1F
100
AcDbEntity
  8
2
 60
     1
370
    18
100
AcDbLine
 10
43.157445
 20
46.345209
 30
0.0
 11
40.0
 21
46.8799
 31
0.0
  0
HATCH
  5
430
102
{ACAD_REACTORS
330
4D4
102
}
330
1F
100
AcDbEntity
  8
2
370
    13
100
AcDbHatch
 10
0.0
 20
0.0
 30
0.0
210
0.0
220
0.0
230
1.0
  2
ANSI31
 70
     0
 71
     1
 91
        1
 92
        0
 93
        3
 72
     1
 10
40.0
 20
46.87989999999998
 11
43.18824327129122
 21
47.18063463005213
 72
     1
 10
43.18824327129122
 20
47.18063463005213
 11
43.15744536778028
 21
46.34520875867376
 72
     1
 10
43.15744536778028
 20
46.34520875867376
 11
40.0
 21
46.87989999999998
 97
        3
330
42D
330
42E
330
42F
 75
     0
 76
     1
 52
0.0
 41
0.0062
 77
     0
 78
     1
 53
44.99999999999991
 43
0.0
 44
0.0
 45
-0.0139193969876572
 46
0.0139193969876572
 79
     0
 98
        0
  0
MTEXT
  5
431
330
1F
100
AcDbEntity
  8
SK6
370
    13
100
AcDbMText
 10
0.168275
 20
64.729246
 30
0.0
 40
3.175
 41
0.0
 71
     7
 72
     5
  1
\W0.7868;200A04R-IS45ON06-C
  7
iso_b_vert
 73
     2
 44
1.084337
  0
DIMENSION
  5
433
102
{ACAD_REACTORS
330
435
102
}
102
{ACAD_XDICTIONARY
360
434
102
}
330
1F
100
AcDbEntity
  8
SK2
370
    13
100
AcDbDimension
  2
_U0
 10
-45.624875
 20
23.5
 30
0.0
 11
-45.624875
 21
0.0
 31
0.0
 70
   160
  1
%%c\C95;46
 71
     1
 42
47.0
 52
90.0
  3
Standard
100
AcDbAlignedDimension
 13
0.5
 23
-23.5
 33
0.0
 14
0.5
 24
23.5
 34
0.0
 50
90.0
100
AcDbRotatedDimension
1001
ACAD
1000
DSTYLE
1002
{
1070
   371
1070
    13
1070
   372
1070
    13
1070
     3
1000

1070
   170
1070
     0
1070
   144
1040
1.0
1070
   277
1070
     2
1070
   284
1070
     8
1070
   278
1070
    44
1070
   146
1040
0.907117
1070
   345
1005
16
1070
   347
1005
16
1070
   346
1005
16
1070
   344
1005
0
1070
   343
1005
0
1070
   172
1070
     1
1070
    76
1070
     0
1070
    75
1070
     0
1070
   282
1070
     0
1070
   281
1070
     0
1070
    71
1070
     0
1070
    74
1070
     0
1070
   279
1070
     0
1070
   173
1070
     1
1070
   340
1005
421
1070
   271
1070
     1
1070
   272
1070
     2
1070
    77
1070
     1
1070
    73
1070
     0
1070
   171
1070
     3
1070
   274
1070
     4
1070
   177
1070
    95
1070
   176
1070
    95
1070
   178
1070
    95
1070
    78
1070
     8
1070
    48
1040
-0.1
1070
    41
1040
3.175
1070
   147
1040
1.75005
1070
    42
1040
1.5875
1070
    44
1040
3.175
1070
   140
1040
3.5001
1002
}
1001
ACAD_DSTYLE_DIM_LINETYPE
1070
   380
1005
16
1001
ACAD_DSTYLE_DIM_EXT1_LINETYPE
1070
   381
1005
16
1001
ACAD_DSTYLE_DIM_EXT2_LINETYPE
1070
   382
1005
16
  0
DIMENSION
  5
44D
102
{ACAD_REACTORS
330
44F
102
}
102
{ACAD_XDICTIONARY
360
44E
102
}
330
1F
100
AcDbEntity
  8
SK2
370
    13
100
AcDbDimension
  2
_U1
 10
-35.624875
 20
-9.625
 30
0.0
 11
-35.624875
 21
0.0
 31
0.0
 70
   160
  1
%%c\C95;19,1
 71
     1
 42
19.25
 52
90.0
  3
Standard
100
AcDbAlignedDimension
 13
1.0
 23
9.625
 33
0.0
 14
1.0
 24
-9.625
 34
0.0
 50
-90.0
100
AcDbRotatedDimension
1001
ACAD
1000
DSTYLE
1002
{
1070
   371
1070
    13
1070
   372
1070
    13
1070
     3
1000

1070
   170
1070
     0
1070
   144
1040
1.0
1070
   277
1070
     2
1070
   284
1070
     8
1070
   278
1070
    44
1070
   146
1040
0.907117
1070
   345
1005
16
1070
   347
1005
16
1070
   346
1005
16
1070
   344
1005
0
1070
   343
1005
0
1070
   172
1070
     1
1070
    76
1070
     0
1070
    75
1070
     0
1070
   282
1070
     0
1070
   281
1070
     0
1070
    71
1070
     0
1070
    74
1070
     0
1070
   279
1070
     0
1070
   173
1070
     1
1070
   340
1005
421
1070
   271
1070
     1
1070
   272
1070
     2
1070
    77
1070
     1
1070
    73
1070
     0
1070
   171
1070
     3
1070
   274
1070
     4
1070
   177
1070
    95
1070
   176
1070
    95
1070
   178
1070
    95
1070
    78
1070
     8
1070
    48
1040
-0.1
1070
    41
1040
3.175
1070
   147
1040
1.75005
1070
    42
1040
1.5875
1070
    44
1040
3.175
1070
   140
1040
3.5001
1002
}
1001
ACAD_DSTYLE_DIM_LINETYPE
1070
   380
1005
16
1001
ACAD_DSTYLE_DIM_EXT1_LINETYPE
1070
   381
1005
16
1001
ACAD_DSTYLE_DIM_EXT2_LINETYPE
1070
   382
1005
16
  0
DIMENSION
  5
466
102
{ACAD_REACTORS
330
468
102
}
102
{ACAD_XDICTIONARY
360
467
102
}
330
1F
100
AcDbEntity
  8
SK2
370
    13
100
AcDbDimension
  2
_U2
 10
-11.4999
 20
-4.0975
 30
0.0
 11
-11.4999
 21
0.0
 31
0.0
 70
   160
  1
\C95;8,2
 71
     1
 42
8.195
 52
90.0
  3
Standard
100
AcDbAlignedDimension
 13
1.0
 23
4.0975
 33
0.0
 14
1.0
 24
-4.0975
 34
0.0
 50
90.0
100
AcDbRotatedDimension
1001
ACAD
1000
DSTYLE
1002
{
1070
   371
1070
    13
1070
   372
1070
    13
1070
     3
1000

1070
   170
1070
     0
1070
   144
1040
1.0
1070
   277
1070
     2
1070
   284
1070
     8
1070
   278
1070
    44
1070
   146
1040
0.907117
1070
   345
1005
16
1070
   347
1005
16
1070
   346
1005
16
1070
   344
1005
0
1070
   343
1005
0
1070
   172
1070
     1
1070
    76
1070
     0
1070
    75
1070
     0
1070
   282
1070
     0
1070
   281
1070
     0
1070
    71
1070
     0
1070
    74
1070
     0
1070
   279
1070
     0
1070
   173
1070
     1
1070
   340
1005
421
1070
   271
1070
     1
1070
   272
1070
     2
1070
    77
1070
     1
1070
    73
1070
     0
1070
   171
1070
     3
1070
   274
1070
     4
1070
   177
1070
    95
1070
   176
1070
    95
1070
   178
1070
    95
1070
    78
1070
     8
1070
    48
1040
-0.1
1070
    41
1040
3.175
1070
   147
1040
1.75005
1070
    42
1040
1.5875
1070
    44
1040
3.175
1070
   140
1040
3.5001
1002
}
1001
ACAD_DSTYLE_DIM_LINETYPE
1070
   380
1005
16
1001
ACAD_DSTYLE_DIM_EXT1_LINETYPE
1070
   381
1005
16
1001
ACAD_DSTYLE_DIM_EXT2_LINETYPE
1070
   382
1005
16
1001
ACAD_DSTYLE_DIM_LINETYPE
1070
   385
1070
     0
1001
ACAD_DSTYLE_DIM_LINETYPE
1070
   386
1070
     3
  0
DIMENSION
  5
47F
102
{ACAD_REACTORS
330
481
102
}
102
{ACAD_XDICTIONARY
360
480
102
}
330
1F
100
AcDbEntity
  8
2
370
    13
100
AcDbDimension
  2
_U3
 10
40.0
 20
34.259866
 30
0.0
 11
54.823159
 21
34.259866
 31
0.0
 70
   160
  1
\C254;4,1
 71
     1
 42
4.057869
 52
90.0
  3
Standard
100
AcDbAlignedDimension
 13
35.942131
 23
29.759966
 33
0.0
 14
40.0
 24
25.88
 34
0.0
100
AcDbRotatedDimension
1001
ACAD
1000
DSTYLE
1002
{
1070
   371
1070
    13
1070
   372
1070
    13
1070
     3
1000

1070
   170
1070
     0
1070
   144
1040
1.0
1070
   277
1070
     2
1070
   284
1070
     8
1070
   278
1070
    44
1070
   146
1040
0.907117
1070
   345
1005
16
1070
   347
1005
16
1070
   346
1005
16
1070
   344
1005
0
1070
   343
1005
0
1070
   172
1070
     1
1070
    76
1070
     0
1070
    75
1070
     0
1070
   282
1070
     0
1070
   281
1070
     0
1070
    71
1070
     0
1070
    74
1070
     0
1070
   279
1070
     0
1070
   173
1070
     1
1070
   340
1005
421
1070
   271
1070
     1
1070
   272
1070
     2
1070
    77
1070
     1
1070
    73
1070
     1
1070
   171
1070
     3
1070
   274
1070
     4
1070
   177
1070
   254
1070
   176
1070
   254
1070
   178
1070
   254
1070
    78
1070
     8
1070
    48
1040
-0.1
1070
    41
1040
3.175
1070
   147
1040
1.75005
1070
    42
1040
1.5875
1070
    44
1040
3.175
1070
   140
1040
3.5001
1002
}
1001
ACAD_DSTYLE_DIM_LINETYPE
1070
   380
1005
16
1001
ACAD_DSTYLE_DIM_EXT1_LINETYPE
1070
   381
1005
16
1001
ACAD_DSTYLE_DIM_EXT2_LINETYPE
1070
   382
1005
16
  0
DIMENSION
  5
499
102
{ACAD_REACTORS
330
49B
102
}
102
{ACAD_XDICTIONARY
360
49A
102
}
330
1F
100
AcDbEntity
  8
2
370
    13
100
AcDbDimension
  2
_U4
 10
40.0
 20
53.8799
 30
0.0
 11
20.0
 21
53.8799
 31
0.0
 70
   160
 71
     1
 42
40.0
 52
90.0
  3
Standard
100
AcDbAlignedDimension
 13
0.0
 23
5.0975
 33
0.0
 14
40.0
 24
25.88
 34
0.0
100
AcDbRotatedDimension
1001
ACAD
1000
DSTYLE
1002
{
1070
   371
1070
    13
1070
   372
1070
    13
1070
   170
1070
     0
1070
   144
1040
1.0
1070
   277
1070
     2
1070
   284
1070
     8
1070
   278
1070
    44
1070
   146
1040
0.907117
1070
   345
1005
16
1070
   347
1005
16
1070
   346
1005
16
1070
   344
1005
0
1070
   343
1005
0
1070
   172
1070
     1
1070
    76
1070
     0
1070
    75
1070
     0
1070
   282
1070
     0
1070
   281
1070
     0
1070
    71
1070
     0
1070
    74
1070
     0
1070
   279
1070
     0
1070
   173
1070
     1
1070
   340
1005
421
1070
   271
1070
     1
1070
   272
1070
     2
1070
    77
1070
     1
1070
    73
1070
     1
1070
   171
1070
     3
1070
   274
1070
     4
1070
   177
1070
   254
1070
   176
1070
   254
1070
   178
1070
   254
1070
    78
1070
     8
1070
    48
1040
-0.1
1070
    41
1040
3.175
1070
   147
1040
1.75005
1070
    42
1040
1.5875
1070
    44
1040
3.175
1070
   140
1040
3.5001
1002
}
1001
ACAD_DSTYLE_DIM_LINETYPE
1070
   380
1005
16
1001
ACAD_DSTYLE_DIM_EXT1_LINETYPE
1070
   381
1005
16
1001
ACAD_DSTYLE_DIM_EXT2_LINETYPE
1070
   382
1005
16
  0
DIMENSION
  5
4B1
102
{ACAD_REACTORS
330
4B3
102
}
102
{ACAD_XDICTIONARY
360
4B2
102
}
330
1F
100
AcDbEntity
  8
SK2
370
    13
100
AcDbDimension
  2
_U5
 10
4.9
 20
-43.0001
 30
0.0
 11
-15.489844
 21
-43.0001
 31
0.0
 70
   160
  1
\C95;4,9
 71
     1
 42
4.9
 52
90.0
  3
Standard
100
AcDbAlignedDimension
 13
0.0
 23
-6.900396
 33
0.0
 14
4.9
 24
3.802212
 34
0.0
100
AcDbRotatedDimension
1001
ACAD
1000
DSTYLE
1002
{
1070
   371
1070
    13
1070
   372
1070
    13
1070
     3
1000

1070
   170
1070
     0
1070
   144
1040
1.0
1070
   277
1070
     2
1070
   284
1070
     8
1070
   278
1070
    44
1070
   146
1040
0.907117
1070
   345
1005
16
1070
   347
1005
16
1070
   346
1005
16
1070
   344
1005
0
1070
   343
1005
0
1070
   172
1070
     1
1070
    76
1070
     0
1070
    75
1070
     0
1070
   282
1070
     0
1070
   281
1070
     0
1070
    71
1070
     0
1070
    74
1070
     0
1070
   279
1070
     0
1070
   173
1070
     1
1070
   340
1005
421
1070
   271
1070
     1
1070
   272
1070
     2
1070
    77
1070
     1
1070
    73
1070
     1
1070
   171
1070
     3
1070
   274
1070
     4
1070
   177
1070
    95
1070
   176
1070
    95
1070
   178
1070
    95
1070
    78
1070
     8
1070
    48
1040
-0.1
1070
    41
1040
3.175
1070
   147
1040
1.75005
1070
    42
1040
1.5875
1070
    44
1040
3.175
1070
   140
1040
3.5001
1002
}
1001
ACAD_DSTYLE_DIM_LINETYPE
1070
   380
1005
16
1001
ACAD_DSTYLE_DIM_EXT1_LINETYPE
1070
   381
1005
16
1001
ACAD_DSTYLE_DIM_EXT2_LINETYPE
1070
   382
1005
16
  0
ENDSEC
  0
SECTION
  2
OBJECTS
  0
DICTIONARY
  5
C
330
0
100
AcDbDictionary
281
     1
  3
ACAD_DETAILVIEWSTYLE
350
52E
  3
ACAD_GROUP
350
D
  3
ACAD_LAYOUT
350
1A
  3
ACAD_MATERIAL
350
43
  3
ACAD_MLEADERSTYLE
350
6B
  3
ACAD_MLINESTYLE
350
17
  3
ACAD_PLOTSETTINGS
350
19
  3
ACAD_PLOTSTYLENAME
350
E
  3
ACAD_SCALELIST
350
47
  3
ACAD_SECTIONVIEWSTYLE
350
52F
  3
ACAD_TABLESTYLE
350
69
  3
ACAD_VISUALSTYLE
350
2A
  3
ACDB_RECOMPOSE_DATA
350
52B
  3
AcDbVariableDictionary
350
4EB
  0
DICTIONARY
  5
4E9
330
8
100
AcDbDictionary
280
     1
281
     1
  3
ACAD_XREC_ROUNDTRIP
360
4EA
  0
DICTIONARY
  5
434
330
433
100
AcDbDictionary
280
     1
281
     1
  3
ACAD_DIMASSOC
360
435
  0
DICTIONARY
  5
44E
330
44D
100
AcDbDictionary
280
     1
281
     1
  3
ACAD_DIMASSOC
360
44F
  0
DICTIONARY
  5
467
330
466
100
AcDbDictionary
280
     1
281
     1
  3
ACAD_DIMASSOC
360
468
  0
DICTIONARY
  5
480
330
47F
100
AcDbDictionary
280
     1
281
     1
  3
ACAD_DIMASSOC
360
481
  0
DICTIONARY
  5
49A
330
499
100
AcDbDictionary
280
     1
281
     1
  3
ACAD_DIMASSOC
360
49B
  0
DICTIONARY
  5
4B2
330
4B1
100
AcDbDictionary
280
     1
281
     1
  3
ACAD_DIMASSOC
360
4B3
  0
DICTIONARY
  5
52E
102
{ACAD_REACTORS
330
C
102
}
330
C
100
AcDbDictionary
281
     1
  0
DICTIONARY
  5
D
102
{ACAD_REACTORS
330
C
102
}
330
C
100
AcDbDictionary
281
     1
  3
ANNOTATION
350
4D3
  3
ANNOTATION2
350
4D4
  0
DICTIONARY
  5
1A
102
{ACAD_REACTORS
330
C
102
}
330
C
100
AcDbDictionary
281
     1
  3
Layout1
350
1E
  3
Layout2
350
26
  3
Model
350
22
  0
DICTIONARY
  5
43
102
{ACAD_REACTORS
330
C
102
}
330
C
100
AcDbDictionary
281
     1
  3
ByBlock
350
45
  3
ByLayer
350
44
  3
Global
350
46
  0
DICTIONARY
  5
6B
102
{ACAD_REACTORS
330
C
102
}
330
C
100
AcDbDictionary
281
     1
  3
Standard
350
6C
  0
DICTIONARY
  5
17
102
{ACAD_REACTORS
330
C
102
}
330
C
100
AcDbDictionary
281
     1
  3
Standard
350
18
  0
DICTIONARY
  5
19
102
{ACAD_REACTORS
330
C
102
}
330
C
100
AcDbDictionary
281
     1
  0
ACDBDICTIONARYWDFLT
  5
E
102
{ACAD_REACTORS
330
C
102
}
330
C
100
AcDbDictionary
281
     1
  3
Normal
350
F
100
AcDbDictionaryWithDefault
340
F
  0
DICTIONARY
  5
47
102
{ACAD_REACTORS
330
C
102
}
330
C
100
AcDbDictionary
281
     1
  3
A0
350
48
  3
A1
350
49
  3
A2
350
4A
  3
A3
350
4B
  3
A4
350
4C
  3
A5
350
4D
  3
A6
350
4E
  3
A7
350
4F
  3
A8
350
50
  3
A9
350
51
  3
B0
350
52
  3
B1
350
53
  3
B2
350
54
  3
B3
350
55
  3
B4
350
56
  3
B5
350
57
  3
B6
350
58
  3
B7
350
59
  3
B8
350
5A
  3
B9
350
5B
  3
C0
350
5C
  3
C1
350
5D
  3
C2
350
5E
  3
C3
350
5F
  3
C4
350
60
  3
C5
350
61
  3
C6
350
62
  3
C7
350
63
  3
C8
350
64
  3
C9
350
65
  3
D0
350
66
  3
D1
350
67
  3
D2
350
68
  0
DICTIONARY
  5
52F
102
{ACAD_REACTORS
330
C
102
}
330
C
100
AcDbDictionary
281
     1
  0
DICTIONARY
  5
69
102
{ACAD_REACTORS
330
C
102
}
330
C
100
AcDbDictionary
281
     1
  3
Standard
350
6A
  0
DICTIONARY
  5
2A
102
{ACAD_REACTORS
330
C
102
}
330
C
100
AcDbDictionary
281
     1
  3
2dWireframe
350
2F
  3
Basic
350
32
  3
Brighten
350
36
  3
ColorChange
350
3A
  3
Conceptual
350
34
  3
Dim
350
35
  3
EdgeColorOff
350
3D
  3
Facepattern
350
39
  3
Flat
350
2B
  3
FlatWithEdges
350
2C
  3
Gouraud
350
2D
  3
GouraudWithEdges
350
2E
  3
Hidden
350
31
  3
JitterOff
350
3B
  3
Linepattern
350
38
  3
OverhangOff
350
3C
  3
Realistic
350
33
  3
Shaded
350
42
  3
Shaded with edges
350
41
  3
Shades of Gray
350
3E
  3
Sketchy
350
3F
  3
Thicken
350
37
  3
Wireframe
350
30
  3
X-Ray
350
40
  0
XRECORD
  5
52B
102
{ACAD_REACTORS
330
C
102
}
330
C
100
AcDbXrecord
280
     1
 90
        1
330
6A
  0
DICTIONARY
  5
4EB
102
{ACAD_REACTORS
330
C
102
}
330
C
100
AcDbDictionary
281
     1
  3
CANNOSCALE
350
4EC
  3
CMLEADERSTYLE
350
52D
  3
CTABLESTYLE
350
52C
  3
MSLTSCALE
350
4ED
  3
XCLIPFRAME
350
4EE
  0
XRECORD
  5
4EA
102
{ACAD_REACTORS
330
4E9
102
}
330
4E9
100
AcDbXrecord
280
     1
102
VTR_0.000_0.000_1.000_1.000_VISUALSTYLE
340
2F
102
VTR_0.000_0.000_1.000_1.000_GRIDDISPLAY
 70
     3
102
VTR_0.000_0.000_1.000_1.000_GRIDMAJOR
 70
     5
102
VTR_0.000_0.000_1.000_1.000_DEFAULTLIGHTING
280
     1
102
VTR_0.000_0.000_1.000_1.000_DEFAULTLIGHTINGTYPE
 70
     1
102
VTR_0.000_0.000_1.000_1.000_BRIGHTNESS
141
0.0
102
VTR_0.000_0.000_1.000_1.000_CONTRAST
142
0.0
102
VTR_0.000_0.000_0.500_1.000_VISUALSTYLE
340
2F
102
VTR_0.000_0.000_0.500_1.000_GRIDDISPLAY
 70
     3
102
VTR_0.000_0.000_0.500_1.000_GRIDMAJOR
 70
     5
102
VTR_0.000_0.000_0.500_1.000_DEFAULTLIGHTING
280
     1
102
VTR_0.000_0.000_0.500_1.000_DEFAULTLIGHTINGTYPE
 70
     1
102
VTR_0.000_0.000_0.500_1.000_BRIGHTNESS
141
0.0
102
VTR_0.000_0.000_0.500_1.000_CONTRAST
142
0.0
102
VTR_0.500_0.000_1.000_1.000_VISUALSTYLE
340
2F
102
VTR_0.500_0.000_1.000_1.000_GRIDDISPLAY
 70
     3
102
VTR_0.500_0.000_1.000_1.000_GRIDMAJOR
 70
     5
102
VTR_0.500_0.000_1.000_1.000_DEFAULTLIGHTING
280
     1
102
VTR_0.500_0.000_1.000_1.000_DEFAULTLIGHTINGTYPE
 70
     1
102
VTR_0.500_0.000_1.000_1.000_BRIGHTNESS
141
0.0
102
VTR_0.500_0.000_1.000_1.000_CONTRAST
142
0.0
102
VTR_0.000_0.500_1.000_1.000_VISUALSTYLE
340
2F
102
VTR_0.000_0.500_1.000_1.000_GRIDDISPLAY
 70
     3
102
VTR_0.000_0.500_1.000_1.000_GRIDMAJOR
 70
     5
102
VTR_0.000_0.500_1.000_1.000_DEFAULTLIGHTING
280
     1
102
VTR_0.000_0.500_1.000_1.000_DEFAULTLIGHTINGTYPE
 70
     1
102
VTR_0.000_0.500_1.000_1.000_BRIGHTNESS
141
0.0
102
VTR_0.000_0.500_1.000_1.000_CONTRAST
142
0.0
102
VTR_0.000_0.000_1.000_0.500_VISUALSTYLE
340
2F
102
VTR_0.000_0.000_1.000_0.500_GRIDDISPLAY
 70
     3
102
VTR_0.000_0.000_1.000_0.500_GRIDMAJOR
 70
     5
102
VTR_0.000_0.000_1.000_0.500_DEFAULTLIGHTING
280
     1
102
VTR_0.000_0.000_1.000_0.500_DEFAULTLIGHTINGTYPE
 70
     1
102
VTR_0.000_0.000_1.000_0.500_BRIGHTNESS
141
0.0
102
VTR_0.000_0.000_1.000_0.500_CONTRAST
142
0.0
102
VTR_0.000_0.500_0.500_1.000_VISUALSTYLE
340
2F
102
VTR_0.000_0.500_0.500_1.000_GRIDDISPLAY
 70
     3
102
VTR_0.000_0.500_0.500_1.000_GRIDMAJOR
 70
     5
102
VTR_0.000_0.500_0.500_1.000_DEFAULTLIGHTING
280
     1
102
VTR_0.000_0.500_0.500_1.000_DEFAULTLIGHTINGTYPE
 70
     1
102
VTR_0.000_0.500_0.500_1.000_BRIGHTNESS
141
0.0
102
VTR_0.000_0.500_0.500_1.000_CONTRAST
142
0.0
102
VTR_0.000_0.000_0.500_0.500_VISUALSTYLE
340
2F
102
VTR_0.000_0.000_0.500_0.500_GRIDDISPLAY
 70
     3
102
VTR_0.000_0.000_0.500_0.500_GRIDMAJOR
 70
     5
102
VTR_0.000_0.000_0.500_0.500_DEFAULTLIGHTING
280
     1
102
VTR_0.000_0.000_0.500_0.500_DEFAULTLIGHTINGTYPE
 70
     1
102
VTR_0.000_0.000_0.500_0.500_BRIGHTNESS
141
0.0
102
VTR_0.000_0.000_0.500_0.500_CONTRAST
142
0.0
102
VTR_0.500_0.000_1.000_0.500_VISUALSTYLE
340
2F
102
VTR_0.500_0.000_1.000_0.500_GRIDDISPLAY
 70
     3
102
VTR_0.500_0.000_1.000_0.500_GRIDMAJOR
 70
     5
102
VTR_0.500_0.000_1.000_0.500_DEFAULTLIGHTING
280
     1
102
VTR_0.500_0.000_1.000_0.500_DEFAULTLIGHTINGTYPE
 70
     1
102
VTR_0.500_0.000_1.000_0.500_BRIGHTNESS
141
0.0
102
VTR_0.500_0.000_1.000_0.500_CONTRAST
142
0.0
102
VTR_0.500_0.500_1.000_1.000_VISUALSTYLE
340
2F
102
VTR_0.500_0.500_1.000_1.000_GRIDDISPLAY
 70
     3
102
VTR_0.500_0.500_1.000_1.000_GRIDMAJOR
 70
     5
102
VTR_0.500_0.500_1.000_1.000_DEFAULTLIGHTING
280
     1
102
VTR_0.500_0.500_1.000_1.000_DEFAULTLIGHTINGTYPE
 70
     1
102
VTR_0.500_0.500_1.000_1.000_BRIGHTNESS
141
0.0
102
VTR_0.500_0.500_1.000_1.000_CONTRAST
142
0.0
102
VTR_0.000_0.500_0.333_1.000_VISUALSTYLE
340
2F
102
VTR_0.000_0.500_0.333_1.000_GRIDDISPLAY
 70
     3
102
VTR_0.000_0.500_0.333_1.000_GRIDMAJOR
 70
     5
102
VTR_0.000_0.500_0.333_1.000_DEFAULTLIGHTING
280
     1
102
VTR_0.000_0.500_0.333_1.000_DEFAULTLIGHTINGTYPE
 70
     1
102
VTR_0.000_0.500_0.333_1.000_BRIGHTNESS
141
0.0
102
VTR_0.000_0.500_0.333_1.000_CONTRAST
142
0.0
102
VTR_0.000_0.000_0.333_0.500_VISUALSTYLE
340
2F
102
VTR_0.000_0.000_0.333_0.500_GRIDDISPLAY
 70
     3
102
VTR_0.000_0.000_0.333_0.500_GRIDMAJOR
 70
     5
102
VTR_0.000_0.000_0.333_0.500_DEFAULTLIGHTING
280
     1
102
VTR_0.000_0.000_0.333_0.500_DEFAULTLIGHTINGTYPE
 70
     1
102
VTR_0.000_0.000_0.333_0.500_BRIGHTNESS
141
0.0
102
VTR_0.000_0.000_0.333_0.500_CONTRAST
142
0.0
102
VTR_0.333_0.500_0.667_1.000_VISUALSTYLE
340
2F
102
VTR_0.333_0.500_0.667_1.000_GRIDDISPLAY
 70
     3
102
VTR_0.333_0.500_0.667_1.000_GRIDMAJOR
 70
     5
102
VTR_0.333_0.500_0.667_1.000_DEFAULTLIGHTING
280
     1
102
VTR_0.333_0.500_0.667_1.000_DEFAULTLIGHTINGTYPE
 70
     1
102
VTR_0.333_0.500_0.667_1.000_BRIGHTNESS
141
0.0
102
VTR_0.333_0.500_0.667_1.000_CONTRAST
142
0.0
102
VTR_0.333_0.000_0.667_0.500_VISUALSTYLE
340
2F
102
VTR_0.333_0.000_0.667_0.500_GRIDDISPLAY
 70
     3
102
VTR_0.333_0.000_0.667_0.500_GRIDMAJOR
 70
     5
102
VTR_0.333_0.000_0.667_0.500_DEFAULTLIGHTING
280
     1
102
VTR_0.333_0.000_0.667_0.500_DEFAULTLIGHTINGTYPE
 70
     1
102
VTR_0.333_0.000_0.667_0.500_BRIGHTNESS
141
0.0
102
VTR_0.333_0.000_0.667_0.500_CONTRAST
142
0.0
102
VTR_0.667_0.500_1.000_1.000_VISUALSTYLE
340
2F
102
VTR_0.667_0.500_1.000_1.000_GRIDDISPLAY
 70
     3
102
VTR_0.667_0.500_1.000_1.000_GRIDMAJOR
 70
     5
102
VTR_0.667_0.500_1.000_1.000_DEFAULTLIGHTING
280
     1
102
VTR_0.667_0.500_1.000_1.000_DEFAULTLIGHTINGTYPE
 70
     1
102
VTR_0.667_0.500_1.000_1.000_BRIGHTNESS
141
0.0
102
VTR_0.667_0.500_1.000_1.000_CONTRAST
142
0.0
102
VTR_0.667_0.000_1.000_0.500_VISUALSTYLE
340
2F
102
VTR_0.667_0.000_1.000_0.500_GRIDDISPLAY
 70
     3
102
VTR_0.667_0.000_1.000_0.500_GRIDMAJOR
 70
     5
102
VTR_0.667_0.000_1.000_0.500_DEFAULTLIGHTING
280
     1
102
VTR_0.667_0.000_1.000_0.500_DEFAULTLIGHTINGTYPE
 70
     1
102
VTR_0.667_0.000_1.000_0.500_BRIGHTNESS
141
0.0
102
VTR_0.667_0.000_1.000_0.500_CONTRAST
142
0.0
  0
DIMASSOC
  5
435
102
{ACAD_REACTORS
330
434
102
}
330
434
100
AcDbDimAssoc
330
433
 90
        3
 70
     0
 71
     1
  1
AcDbOsnapPointRef
 72
    13
331
AE
 73
     2
 91
        1
 40
0.0
 10
0.5
 20
-23.5
 30
0.0
 75
     0
  1
AcDbOsnapPointRef
 72
     1
331
AF
 73
     2
 91
        2
 40
1.0
 10
0.5
 20
23.5
 30
0.0
 75
     0
  0
DIMASSOC
  5
44F
102
{ACAD_REACTORS
330
44E
102
}
330
44E
100
AcDbDimAssoc
330
44D
 90
        3
 70
     0
 71
     1
  1
AcDbOsnapPointRef
 72
    13
331
2D0
 73
     2
 91
        1
 40
0.0
 10
1.0
 20
9.625
 30
0.0
 75
     0
  1
AcDbOsnapPointRef
 72
    13
331
2D1
 73
     2
 91
        2
 40
0.0
 10
1.0
 20
-9.625
 30
0.0
 75
     0
  0
DIMASSOC
  5
468
102
{ACAD_REACTORS
330
467
102
}
330
467
100
AcDbDimAssoc
330
466
 90
        3
 70
     0
 71
     1
  1
AcDbOsnapPointRef
 72
    13
331
94
 73
     2
 91
        1
 40
0.0
 10
1.0
 20
4.0975
 30
0.0
 75
     0
  1
AcDbOsnapPointRef
 72
    13
331
CC
 73
     2
 91
        2
 40
0.0
 10
1.0
 20
-4.0975
 30
0.0
 75
     0
  0
DIMASSOC
  5
481
102
{ACAD_REACTORS
330
480
102
}
330
480
100
AcDbDimAssoc
330
47F
 90
        3
 70
     0
 71
     1
  1
AcDbOsnapPointRef
 72
     4
331
73
 73
     3
 91
        1
 40
0.0
 10
35.942131
 20
29.759966
 30
0.0
 75
     0
  1
AcDbOsnapPointRef
 72
     1
331
CA
 73
     2
 91
        2
 40
1.0
 10
40.0
 20
25.88
 30
0.0
 75
     0
  0
DIMASSOC
  5
49B
102
{ACAD_REACTORS
330
49A
102
}
330
49A
100
AcDbDimAssoc
330
499
 90
        3
 70
     0
 71
     1
  1
AcDbOsnapPointRef
 72
     1
331
93
 73
     2
 91
        1
 40
1.0
 10
0.0
 20
5.0975
 30
0.0
 75
     0
  1
AcDbOsnapPointRef
 72
     1
331
CA
 73
     2
 91
        2
 40
1.0
 10
40.0
 20
25.88
 30
0.0
 75
     0
  0
DIMASSOC
  5
4B3
102
{ACAD_REACTORS
330
4B2
102
}
330
4B2
100
AcDbDimAssoc
330
4B1
 90
        3
 70
     0
 71
     1
  1
AcDbOsnapPointRef
 72
     1
331
CE
 73
     2
 91
        1
 40
1.0
 10
0.0
 20
-6.900396
 30
0.0
 75
     0
  1
AcDbOsnapPointRef
 72
     1
331
2C4
 73
     2
 91
        2
 40
1.0
 10
4.9
 20
3.802212
 30
0.0
 75
     0
  0
GROUP
  5
4D3
102
{ACAD_REACTORS
330
D
102
}
330
D
100
AcDbGroup
300

 70
     0
 71
     1
340
420
340
423
340
2D3
340
2D4
340
427
  0
GROUP
  5
4D4
102
{ACAD_REACTORS
330
D
102
}
330
D
100
AcDbGroup
300

 70
     0
 71
     1
340
428
340
2D8
340
2D9
340
41F
340
42C
340
430
  0
LAYOUT
  5
1E
102
{ACAD_REACTORS
330
1A
102
}
330
1A
100
AcDbPlotSettings
  1

  2
none_device
  4

  6

 40
0.0
 41
0.0
 42
0.0
 43
0.0
 44
0.0
 45
0.0
 46
0.0
 47
0.0
 48
0.0
 49
0.0
140
0.0
141
0.0
142
1.0
143
1.0
 70
   688
 72
     0
 73
     0
 74
     5
  7

 75
    16
 76
     0
 77
     2
 78
   300
147
1.0
148
0.0
149
0.0
100
AcDbLayout
  1
Layout1
 70
     1
 71
     1
 10
-0.5
 20
-0.5
 11
5.0
 21
5.0
 12
0.0
 22
0.0
 32
0.0
 14
-0.5
 24
-0.5
 34
-0.5
 15
5.0
 25
5.0
 35
5.0
146
0.0
 13
0.0
 23
0.0
 33
0.0
 16
1.0
 26
0.0
 36
0.0
 17
0.0
 27
1.0
 37
0.0
 76
     0
330
1B
  0
LAYOUT
  5
26
102
{ACAD_REACTORS
330
1A
102
}
330
1A
100
AcDbPlotSettings
  1

  2
none_device
  4

  6

 40
0.0
 41
0.0
 42
0.0
 43
0.0
 44
0.0
 45
0.0
 46
0.0
 47
0.0
 48
0.0
 49
0.0
140
0.0
141
0.0
142
1.0
143
1.0
 70
   688
 72
     0
 73
     0
 74
     5
  7

 75
    16
 76
     0
 77
     2
 78
   300
147
1.0
148
0.0
149
0.0
100
AcDbLayout
  1
Layout2
 70
     1
 71
     2
 10
0.0
 20
0.0
 11
0.0
 21
0.0
 12
0.0
 22
0.0
 32
0.0
 14
0.0
 24
0.0
 34
0.0
 15
0.0
 25
0.0
 35
0.0
146
0.0
 13
0.0
 23
0.0
 33
0.0
 16
1.0
 26
0.0
 36
0.0
 17
0.0
 27
1.0
 37
0.0
 76
     0
330
23
  0
LAYOUT
  5
22
102
{ACAD_REACTORS
330
1A
102
}
330
1A
100
AcDbPlotSettings
  1

  2
none_device
  4
Letter_(8.50_x_11.00_Inches)
  6

 40
6.35
 41
6.35
 42
6.350005
 43
6.350005
 44
215.9
 45
279.4
 46
0.0
 47
0.0
 48
0.0
 49
0.0
140
0.0
141
0.0
142
1.0
143
1.0
 70
  1712
 72
     0
 73
     0
 74
     0
  7

 75
     0
 76
     0
 77
     2
 78
   300
147
1.0
148
0.0
149
0.0
100
AcDbLayout
  1
Model
 70
     1
 71
     0
 10
-0.5
 20
-0.5
 11
5.0
 21
5.0
 12
0.0
 22
0.0
 32
0.0
 14
-0.5
 24
-0.5
 34
-0.5
 15
5.0
 25
5.0
 35
5.0
146
0.0
 13
0.0
 23
0.0
 33
0.0
 16
1.0
 26
0.0
 36
0.0
 17
0.0
 27
1.0
 37
0.0
 76
     0
330
1F
331
29
  0
MATERIAL
  5
45
102
{ACAD_REACTORS
330
43
102
}
102
{ACAD_XDICTIONARY
360
521
102
}
330
43
100
AcDbMaterial
  1
ByBlock
  0
MATERIAL
  5
44
102
{ACAD_REACTORS
330
43
102
}
102
{ACAD_XDICTIONARY
360
51F
102
}
330
43
100
AcDbMaterial
  1
ByLayer
  0
MATERIAL
  5
46
102
{ACAD_REACTORS
330
43
102
}
102
{ACAD_XDICTIONARY
360
523
102
}
330
43
100
AcDbMaterial
  1
Global
  0
MLEADERSTYLE
  5
6C
102
{ACAD_REACTORS
330
6B
102
}
102
{ACAD_XDICTIONARY
360
529
102
}
330
6B
100
AcDbMLeaderStyle
170
     2
171
     1
172
     0
 90
        2
 40
0.0
 41
0.0
173
     1
 91
-1056964608
340
14
 92
       -2
290
     1
 42
0.09
291
     1
 43
0.36
  3
Standard
341
0
 44
0.18
300

342
11
174
     1
178
     6
175
     1
176
     0
 93
-1056964608
 45
0.18
292
     0
297
     0
 46
0.18
343
0
 94
-1056964608
 47
1.0
 49
1.0
140
1.0
293
     1
141
0.0
294
     1
177
     0
142
1.0
295
     0
296
     0
143
0.125
1001
ACAD_MLEADERVER
1070
     2
  0
MLINESTYLE
  5
18
102
{ACAD_REACTORS
330
17
102
}
330
17
100
AcDbMlineStyle
  2
Standard
 70
     0
  3

 62
   256
 51
90.0
 52
90.0
 71
     2
 49
0.5
 62
   256
  6
BYLAYER
 49
-0.5
 62
   256
  6
BYLAYER
  0
ACDBPLACEHOLDER
  5
F
102
{ACAD_REACTORS
330
E
102
}
330
E
  0
SCALE
  5
48
102
{ACAD_REACTORS
330
47
102
}
330
47
100
AcDbScale
 70
     0
300
1:1
140
1.0
141
1.0
290
     1
  0
SCALE
  5
49
102
{ACAD_REACTORS
330
47
102
}
330
47
100
AcDbScale
 70
     0
300
1:2
140
1.0
141
2.0
290
     0
  0
SCALE
  5
4A
102
{ACAD_REACTORS
330
47
102
}
330
47
100
AcDbScale
 70
     0
300
1:4
140
1.0
141
4.0
290
     0
  0
SCALE
  5
4B
102
{ACAD_REACTORS
330
47
102
}
330
47
100
AcDbScale
 70
     0
300
1:5
140
1.0
141
5.0
290
     0
  0
SCALE
  5
4C
102
{ACAD_REACTORS
330
47
102
}
330
47
100
AcDbScale
 70
     0
300
1:8
140
1.0
141
8.0
290
     0
  0
SCALE
  5
4D
102
{ACAD_REACTORS
330
47
102
}
330
47
100
AcDbScale
 70
     0
300
1:10
140
1.0
141
10.0
290
     0
  0
SCALE
  5
4E
102
{ACAD_REACTORS
330
47
102
}
330
47
100
AcDbScale
 70
     0
300
1:16
140
1.0
141
16.0
290
     0
  0
SCALE
  5
4F
102
{ACAD_REACTORS
330
47
102
}
330
47
100
AcDbScale
 70
     0
300
1:20
140
1.0
141
20.0
290
     0
  0
SCALE
  5
50
102
{ACAD_REACTORS
330
47
102
}
330
47
100
AcDbScale
 70
     0
300
1:30
140
1.0
141
30.0
290
     0
  0
SCALE
  5
51
102
{ACAD_REACTORS
330
47
102
}
330
47
100
AcDbScale
 70
     0
300
1:40
140
1.0
141
40.0
290
     0
  0
SCALE
  5
52
102
{ACAD_REACTORS
330
47
102
}
330
47
100
AcDbScale
 70
     0
300
1:50
140
1.0
141
50.0
290
     0
  0
SCALE
  5
53
102
{ACAD_REACTORS
330
47
102
}
330
47
100
AcDbScale
 70
     0
300
1:100
140
1.0
141
100.0
290
     0
  0
SCALE
  5
54
102
{ACAD_REACTORS
330
47
102
}
330
47
100
AcDbScale
 70
     0
300
2:1
140
2.0
141
1.0
290
     0
  0
SCALE
  5
55
102
{ACAD_REACTORS
330
47
102
}
330
47
100
AcDbScale
 70
     0
300
4:1
140
4.0
141
1.0
290
     0
  0
SCALE
  5
56
102
{ACAD_REACTORS
330
47
102
}
330
47
100
AcDbScale
 70
     0
300
8:1
140
8.0
141
1.0
290
     0
  0
SCALE
  5
57
102
{ACAD_REACTORS
330
47
102
}
330
47
100
AcDbScale
 70
     0
300
10:1
140
10.0
141
1.0
290
     0
  0
SCALE
  5
58
102
{ACAD_REACTORS
330
47
102
}
330
47
100
AcDbScale
 70
     0
300
100:1
140
100.0
141
1.0
290
     0
  0
SCALE
  5
59
102
{ACAD_REACTORS
330
47
102
}
330
47
100
AcDbScale
 70
     0
300
1/128" = 1'-0"
140
0.007812
141
12.0
290
     0
  0
SCALE
  5
5A
102
{ACAD_REACTORS
330
47
102
}
330
47
100
AcDbScale
 70
     0
300
1/64" = 1'-0"
140
0.015625
141
12.0
290
     0
  0
SCALE
  5
5B
102
{ACAD_REACTORS
330
47
102
}
330
47
100
AcDbScale
 70
     0
300
1/32" = 1'-0"
140
0.03125
141
12.0
290
     0
  0
SCALE
  5
5C
102
{ACAD_REACTORS
330
47
102
}
330
47
100
AcDbScale
 70
     0
300
1/16" = 1'-0"
140
0.0625
141
12.0
290
     0
  0
SCALE
  5
5D
102
{ACAD_REACTORS
330
47
102
}
330
47
100
AcDbScale
 70
     0
300
3/32" = 1'-0"
140
0.09375
141
12.0
290
     0
  0
SCALE
  5
5E
102
{ACAD_REACTORS
330
47
102
}
330
47
100
AcDbScale
 70
     0
300
1/8" = 1'-0"
140
0.125
141
12.0
290
     0
  0
SCALE
  5
5F
102
{ACAD_REACTORS
330
47
102
}
330
47
100
AcDbScale
 70
     0
300
3/16" = 1'-0"
140
0.1875
141
12.0
290
     0
  0
SCALE
  5
60
102
{ACAD_REACTORS
330
47
102
}
330
47
100
AcDbScale
 70
     0
300
1/4" = 1'-0"
140
0.25
141
12.0
290
     0
  0
SCALE
  5
61
102
{ACAD_REACTORS
330
47
102
}
330
47
100
AcDbScale
 70
     0
300
3/8" = 1'-0"
140
0.375
141
12.0
290
     0
  0
SCALE
  5
62
102
{ACAD_REACTORS
330
47
102
}
330
47
100
AcDbScale
 70
     0
300
1/2" = 1'-0"
140
0.5
141
12.0
290
     0
  0
SCALE
  5
63
102
{ACAD_REACTORS
330
47
102
}
330
47
100
AcDbScale
 70
     0
300
3/4" = 1'-0"
140
0.75
141
12.0
290
     0
  0
SCALE
  5
64
102
{ACAD_REACTORS
330
47
102
}
330
47
100
AcDbScale
 70
     0
300
1" = 1'-0"
140
1.0
141
12.0
290
     0
  0
SCALE
  5
65
102
{ACAD_REACTORS
330
47
102
}
330
47
100
AcDbScale
 70
     0
300
1-1/2" = 1'-0"
140
1.5
141
12.0
290
     0
  0
SCALE
  5
66
102
{ACAD_REACTORS
330
47
102
}
330
47
100
AcDbScale
 70
     0
300
3" = 1'-0"
140
3.0
141
12.0
290
     0
  0
SCALE
  5
67
102
{ACAD_REACTORS
330
47
102
}
330
47
100
AcDbScale
 70
     0
300
6" = 1'-0"
140
6.0
141
12.0
290
     0
  0
SCALE
  5
68
102
{ACAD_REACTORS
330
47
102
}
330
47
100
AcDbScale
 70
     0
300
1'-0" = 1'-0"
140
12.0
141
12.0
290
     0
  0
TABLESTYLE
  5
6A
102
{ACAD_REACTORS
330
69
102
}
102
{ACAD_XDICTIONARY
360
525
102
}
330
69
100
AcDbTableStyle
  3
Standard
 70
     0
 71
     0
 40
0.06
 41
0.06
280
     0
281
     0
  7
Standard
140
0.18
170
     2
 62
     0
 63
   257
283
     0
274
    -2
284
     1
 64
     0
275
    -2
285
     1
 65
     0
276
    -2
286
     1
 66
     0
277
    -2
287
     1
 67
     0
278
    -2
288
     1
 68
     0
279
    -2
289
     1
 69
     0
  7
Standard
140
0.25
170
     5
 62
     0
 63
   257
283
     0
274
    -2
284
     1
 64
     0
275
    -2
285
     1
 65
     0
276
    -2
286
     1
 66
     0
277
    -2
287
     1
 67
     0
278
    -2
288
     1
 68
     0
279
    -2
289
     1
 69
     0
  7
Standard
140
0.18
170
     5
 62
     0
 63
   257
283
     0
274
    -2
284
     1
 64
     0
275
    -2
285
     1
 65
     0
276
    -2
286
     1
 66
     0
277
    -2
287
     1
 67
     0
278
    -2
288
     1
 68
     0
279
    -2
289
     1
 69
     0
  0
VISUALSTYLE
  5
2F
102
{ACAD_REACTORS
330
2A
102
}
102
{ACAD_XDICTIONARY
360
4F7
102
}
330
2A
100
AcDbVisualStyle
  2
2dWireframe
 70
     4
 71
     0
 72
     2
 73
     0
 90
        0
 40
0.6
 41
30.0
 62
     5
 63
     7
421
 16777215
 74
     1
 91
        4
 64
     7
 65
   257
 75
     1
175
     1
 42
1.0
 92
        0
 66
   257
 43
1.0
 76
     1
 77
     6
 78
     2
 67
     7
 79
     5
170
     0
171
     0
290
     0
174
     0
 93
        1
 44
0.0
173
     0
291
     0
 45
0.0
1001
ACAD
1000
AcDbSavedByObjectVersion
1070
     0
  0
VISUALSTYLE
  5
32
102
{ACAD_REACTORS
330
2A
102
}
102
{ACAD_XDICTIONARY
360
4FD
102
}
330
2A
100
AcDbVisualStyle
  2
Basic
 70
     7
 71
     1
 72
     0
 73
     1
 90
        0
 40
0.6
 41
30.0
 62
     5
 63
     7
421
 16777215
 74
     0
 91
        4
 64
     7
 65
   257
 75
     1
175
     1
 42
1.0
 92
        8
 66
     7
 43
1.0
 76
     1
 77
     6
 78
     2
 67
     7
 79
     5
170
     0
171
     0
290
     0
174
     0
 93
        1
 44
0.0
173
     0
291
     1
 45
0.0
1001
ACAD
1000
AcDbSavedByObjectVersion
1070
     0
  0
VISUALSTYLE
  5
36
102
{ACAD_REACTORS
330
2A
102
}
102
{ACAD_XDICTIONARY
360
505
102
}
330
2A
100
AcDbVisualStyle
  2
Brighten
 70
    12
 71
     2
 72
     2
 73
     0
 90
        0
 40
0.6
 41
30.0
 62
     5
 63
     7
421
 16777215
 74
     1
 91
        4
 64
     7
 65
   257
 75
     1
175
     1
 42
1.0
 92
        8
 66
     7
 43
1.0
 76
     1
 77
     6
 78
     2
 67
     7
 79
     5
170
     0
171
     0
290
     0
174
     0
 93
        1
 44
50.0
173
     0
291
     1
 45
0.0
1001
ACAD
1000
AcDbSavedByObjectVersion
1070
     0
  0
VISUALSTYLE
  5
3A
102
{ACAD_REACTORS
330
2A
102
}
102
{ACAD_XDICTIONARY
360
50D
102
}
330
2A
100
AcDbVisualStyle
  2
ColorChange
 70
    16
 71
     2
 72
     2
 73
     3
 90
        0
 40
0.6
 41
30.0
 62
     5
 63
     8
421
  8421504
 74
     1
 91
        4
 64
     7
 65
   257
 75
     1
175
     1
 42
1.0
 92
        8
 66
     8
424
  8421504
 43
1.0
 76
     1
 77
     6
 78
     2
 67
     7
 79
     5
170
     0
171
     0
290
     0
174
     0
 93
        1
 44
0.0
173
     0
291
     1
 45
0.0
1001
ACAD
1000
AcDbSavedByObjectVersion
1070
     0
  0
VISUALSTYLE
  5
34
102
{ACAD_REACTORS
330
2A
102
}
102
{ACAD_XDICTIONARY
360
501
102
}
330
2A
100
AcDbVisualStyle
  2
Conceptual
 70
     9
 71
     3
 72
     2
 73
     0
 90
        0
 40
0.6
 41
30.0
 62
     5
 63
     7
421
 16777215
 74
     2
 91
        2
 64
     7
 65
   257
 75
     1
175
     1
 42
179.0
 92
        8
 66
     7
 43
1.0
 76
     1
 77
     6
 78
     2
 67
     7
 79
     3
170
     0
171
     0
290
     0
174
     0
 93
        1
 44
0.0
173
     0
291
     0
 45
0.0
1001
ACAD
1000
AcDbSavedByObjectVersion
1070
     0
  0
VISUALSTYLE
  5
35
102
{ACAD_REACTORS
330
2A
102
}
102
{ACAD_XDICTIONARY
360
503
102
}
330
2A
100
AcDbVisualStyle
  2
Dim
 70
    11
 71
     2
 72
     2
 73
     0
 90
        0
 40
0.6
 41
30.0
 62
     5
 63
     7
421
 16777215
 74
     1
 91
        4
 64
     7
 65
   257
 75
     1
175
     1
 42
1.0
 92
        8
 66
     7
 43
1.0
 76
     1
 77
     6
 78
     2
 67
     7
 79
     5
170
     0
171
     0
290
     0
174
     0
 93
        1
 44
-50.0
173
     0
291
     1
 45
0.0
1001
ACAD
1000
AcDbSavedByObjectVersion
1070
     0
  0
VISUALSTYLE
  5
3D
102
{ACAD_REACTORS
330
2A
102
}
102
{ACAD_XDICTIONARY
360
513
102
}
330
2A
100
AcDbVisualStyle
  2
EdgeColorOff
 70
    22
 71
     2
 72
     2
 73
     0
 90
        0
 40
0.6
 41
30.0
 62
     5
 63
     7
421
 16777215
 74
     1
 91
        4
 64
     7
 65
   257
 75
     1
175
     1
 42
1.0
 92
        8
 66
     7
 43
1.0
 76
     1
 77
     6
 78
     2
 67
     7
 79
     5
170
     0
171
     0
290
     0
174
     0
 93
        1
 44
0.0
173
     0
291
     1
 45
0.0
1001
ACAD
1000
AcDbSavedByObjectVersion
1070
     0
  0
VISUALSTYLE
  5
39
102
{ACAD_REACTORS
330
2A
102
}
102
{ACAD_XDICTIONARY
360
50B
102
}
330
2A
100
AcDbVisualStyle
  2
Facepattern
 70
    15
 71
     2
 72
     2
 73
     0
 90
        0
 40
0.6
 41
30.0
 62
     5
 63
     7
421
 16777215
 74
     1
 91
        4
 64
     7
 65
   257
 75
     1
175
     1
 42
1.0
 92
        8
 66
     7
 43
1.0
 76
     1
 77
     6
 78
     2
 67
     7
 79
     5
170
     0
171
     0
290
     0
174
     0
 93
        1
 44
0.0
173
     0
291
     1
 45
0.0
1001
ACAD
1000
AcDbSavedByObjectVersion
1070
     0
  0
VISUALSTYLE
  5
2B
102
{ACAD_REACTORS
330
2A
102
}
102
{ACAD_XDICTIONARY
360
4EF
102
}
330
2A
100
AcDbVisualStyle
  2
Flat
 70
     0
 71
     2
 72
     1
 73
     1
 90
        2
 40
0.6
 41
30.0
 62
     5
 63
     7
421
 16777215
 74
     0
 91
        0
 64
     7
 65
   257
 75
     1
175
     1
 42
1.0
 92
        8
 66
     7
 43
1.0
 76
     1
 77
     6
 78
     2
 67
     7
 79
     5
170
     0
171
     0
290
     0
174
     0
 93
       13
 44
0.0
173
     0
291
     1
 45
0.0
1001
ACAD
1000
AcDbSavedByObjectVersion
1070
     0
  0
VISUALSTYLE
  5
2C
102
{ACAD_REACTORS
330
2A
102
}
102
{ACAD_XDICTIONARY
360
4F1
102
}
330
2A
100
AcDbVisualStyle
  2
FlatWithEdges
 70
     1
 71
     2
 72
     1
 73
     1
 90
        2
 40
0.6
 41
30.0
 62
     5
 63
     7
421
 16777215
 74
     1
 91
        0
 64
     7
 65
   257
 75
     1
175
     1
 42
1.0
 92
        0
 66
   257
 43
1.0
 76
     1
 77
     6
 78
     2
 67
     7
 79
     5
170
     0
171
     0
290
     0
174
     0
 93
       13
 44
0.0
173
     0
291
     1
 45
0.0
1001
ACAD
1000
AcDbSavedByObjectVersion
1070
     0
  0
VISUALSTYLE
  5
2D
102
{ACAD_REACTORS
330
2A
102
}
102
{ACAD_XDICTIONARY
360
4F3
102
}
330
2A
100
AcDbVisualStyle
  2
Gouraud
 70
     2
 71
     2
 72
     2
 73
     1
 90
        2
 40
0.6
 41
30.0
 62
     5
 63
     7
421
 16777215
 74
     0
 91
        0
 64
     7
 65
   257
 75
     1
175
     1
 42
1.0
 92
        0
 66
     7
 43
1.0
 76
     1
 77
     6
 78
     2
 67
     7
 79
     5
170
     0
171
     0
290
     0
174
     0
 93
       13
 44
0.0
173
     0
291
     1
 45
0.0
1001
ACAD
1000
AcDbSavedByObjectVersion
1070
     0
  0
VISUALSTYLE
  5
2E
102
{ACAD_REACTORS
330
2A
102
}
102
{ACAD_XDICTIONARY
360
4F5
102
}
330
2A
100
AcDbVisualStyle
  2
GouraudWithEdges
 70
     3
 71
     2
 72
     2
 73
     1
 90
        2
 40
0.6
 41
30.0
 62
     5
 63
     7
421
 16777215
 74
     1
 91
        0
 64
     7
 65
   257
 75
     1
175
     1
 42
1.0
 92
        0
 66
   257
 43
1.0
 76
     1
 77
     6
 78
     2
 67
     7
 79
     5
170
     0
171
     0
290
     0
174
     0
 93
       13
 44
0.0
173
     0
291
     1
 45
0.0
1001
ACAD
1000
AcDbSavedByObjectVersion
1070
     0
  0
VISUALSTYLE
  5
31
102
{ACAD_REACTORS
330
2A
102
}
102
{ACAD_XDICTIONARY
360
4FB
102
}
330
2A
100
AcDbVisualStyle
  2
Hidden
 70
     6
 71
     1
 72
     2
 73
     2
 90
        0
 40
0.6
 41
30.0
 62
     5
 63
     7
421
 16777215
 74
     2
 91
        2
 64
     7
 65
   257
 75
     2
175
     1
 42
40.0
 92
        0
 66
   257
 43
1.0
 76
     1
 77
     6
 78
     2
 67
     7
 79
     3
170
     0
171
     0
290
     0
174
     0
 93
        1
 44
0.0
173
     0
291
     0
 45
0.0
1001
ACAD
1000
AcDbSavedByObjectVersion
1070
     0
  0
VISUALSTYLE
  5
3B
102
{ACAD_REACTORS
330
2A
102
}
102
{ACAD_XDICTIONARY
360
50F
102
}
330
2A
100
AcDbVisualStyle
  2
JitterOff
 70
    20
 71
     2
 72
     2
 73
     0
 90
        0
 40
0.6
 41
30.0
 62
     5
 63
     7
421
 16777215
 74
     1
 91
        4
 64
     7
 65
   257
 75
     1
175
     1
 42
1.0
 92
       10
 66
     7
 43
1.0
 76
     1
 77
     6
 78
     2
 67
     7
 79
     5
170
     0
171
     0
290
     0
174
     0
 93
        1
 44
0.0
173
     0
291
     1
 45
0.0
1001
ACAD
1000
AcDbSavedByObjectVersion
1070
     0
  0
VISUALSTYLE
  5
38
102
{ACAD_REACTORS
330
2A
102
}
102
{ACAD_XDICTIONARY
360
509
102
}
330
2A
100
AcDbVisualStyle
  2
Linepattern
 70
    14
 71
     2
 72
     2
 73
     0
 90
        0
 40
0.6
 41
30.0
 62
     5
 63
     7
421
 16777215
 74
     1
 91
        4
 64
     7
 65
   257
 75
     7
175
     7
 42
1.0
 92
        8
 66
     7
 43
1.0
 76
     1
 77
     6
 78
     2
 67
     7
 79
     5
170
     0
171
     0
290
     0
174
     0
 93
        1
 44
0.0
173
     0
291
     1
 45
0.0
1001
ACAD
1000
AcDbSavedByObjectVersion
1070
     0
  0
VISUALSTYLE
  5
3C
102
{ACAD_REACTORS
330
2A
102
}
102
{ACAD_XDICTIONARY
360
511
102
}
330
2A
100
AcDbVisualStyle
  2
OverhangOff
 70
    21
 71
     2
 72
     2
 73
     0
 90
        0
 40
0.6
 41
30.0
 62
     5
 63
     7
421
 16777215
 74
     1
 91
        4
 64
     7
 65
   257
 75
     1
175
     1
 42
1.0
 92
        9
 66
     7
 43
1.0
 76
     1
 77
     6
 78
     2
 67
     7
 79
     5
170
     0
171
     0
290
     0
174
     0
 93
        1
 44
0.0
173
     0
291
     1
 45
0.0
1001
ACAD
1000
AcDbSavedByObjectVersion
1070
     0
  0
VISUALSTYLE
  5
33
102
{ACAD_REACTORS
330
2A
102
}
102
{ACAD_XDICTIONARY
360
4FF
102
}
330
2A
100
AcDbVisualStyle
  2
Realistic
 70
     8
 71
     2
 72
     3
 73
     0
 90
        2
 40
0.6
 41
30.0
 62
     5
 63
     7
421
 16777215
 74
     0
 91
        0
 64
     7
 65
   257
 75
     1
175
     1
 42
1.0
 92
        8
 66
   257
 43
1.0
 76
     1
 77
     6
 78
     2
 67
     7
 79
     3
170
     0
171
     0
290
     0
174
     0
 93
       13
 44
0.0
173
     0
291
     0
 45
0.0
1001
ACAD
1000
AcDbSavedByObjectVersion
1070
     0
  0
VISUALSTYLE
  5
42
102
{ACAD_REACTORS
330
2A
102
}
102
{ACAD_XDICTIONARY
360
51D
102
}
330
2A
100
AcDbVisualStyle
  2
Shaded
 70
    27
 71
     2
 72
     2
 73
     1
 90
        2
 40
0.6
 41
30.0
 62
     5
 63
     7
421
 16777215
 74
     0
 91
        4
 64
     7
 65
   257
 75
     1
175
     1
 42
1.0
 92
        8
 66
   257
 43
1.0
 76
     1
 77
     6
 78
     2
 67
     8
425
  7895160
 79
     3
170
     0
171
     0
290
     0
174
     0
 93
        5
 44
0.0
173
     0
291
     0
 45
0.0
1001
ACAD
1000
AcDbSavedByObjectVersion
1070
     0
  0
VISUALSTYLE
  5
41
102
{ACAD_REACTORS
330
2A
102
}
102
{ACAD_XDICTIONARY
360
51B
102
}
330
2A
100
AcDbVisualStyle
  2
Shaded with edges
 70
    26
 71
     2
 72
     2
 73
     1
 90
        2
 40
0.6
 41
30.0
 62
     5
 63
     7
421
 16777215
 74
     1
 91
       10
 64
     7
 65
   257
 75
     2
175
     1
 42
1.0
 92
        8
 66
   257
 43
1.0
 76
     1
 77
     6
 78
     2
 67
     7
 79
     3
170
     0
171
     0
290
     0
174
     0
 93
        5
 44
0.0
173
     0
291
     0
 45
0.0
1001
ACAD
1000
AcDbSavedByObjectVersion
1070
     0
  0
VISUALSTYLE
  5
3E
102
{ACAD_REACTORS
330
2A
102
}
102
{ACAD_XDICTIONARY
360
515
102
}
330
2A
100
AcDbVisualStyle
  2
Shades of Gray
 70
    23
 71
     2
 72
     2
 73
     3
 90
        0
 40
0.6
 41
30.0
 62
     5
 63
     7
421
 16777215
 74
     2
 91
        2
 64
     7
 65
     7
 75
     1
175
     1
 42
40.0
 92
        8
 66
     7
 43
1.0
 76
     1
 77
     6
 78
     2
 67
     7
 79
     3
170
     0
171
     0
290
     0
174
     0
 93
        1
 44
0.0
173
     0
291
     0
 45
0.0
1001
ACAD
1000
AcDbSavedByObjectVersion
1070
     0
  0
VISUALSTYLE
  5
3F
102
{ACAD_REACTORS
330
2A
102
}
102
{ACAD_XDICTIONARY
360
517
102
}
330
2A
100
AcDbVisualStyle
  2
Sketchy
 70
    24
 71
     1
 72
     2
 73
     2
 90
        0
 40
0.6
 41
30.0
 62
     5
 63
     7
421
 16777215
 74
     2
 91
        2
 64
     7
 65
     7
 75
     1
175
     1
 42
40.0
 92
       11
 66
     7
 43
1.0
 76
     1
 77
     6
 78
     2
 67
     7
 79
     6
170
     0
171
     0
290
     0
174
     0
 93
        1
 44
0.0
173
     0
291
     0
 45
0.0
1001
ACAD
1000
AcDbSavedByObjectVersion
1070
     0
  0
VISUALSTYLE
  5
37
102
{ACAD_REACTORS
330
2A
102
}
102
{ACAD_XDICTIONARY
360
507
102
}
330
2A
100
AcDbVisualStyle
  2
Thicken
 70
    13
 71
     2
 72
     2
 73
     0
 90
        0
 40
0.6
 41
30.0
 62
     5
 63
     7
421
 16777215
 74
     1
 91
        4
 64
     7
 65
   257
 75
     1
175
     1
 42
1.0
 92
       12
 66
     7
 43
1.0
 76
     1
 77
     6
 78
     2
 67
     7
 79
     5
170
     0
171
     0
290
     0
174
     0
 93
        1
 44
0.0
173
     0
291
     1
 45
0.0
1001
ACAD
1000
AcDbSavedByObjectVersion
1070
     0
  0
VISUALSTYLE
  5
30
102
{ACAD_REACTORS
330
2A
102
}
102
{ACAD_XDICTIONARY
360
4F9
102
}
330
2A
100
AcDbVisualStyle
  2
Wireframe
 70
     5
 71
     0
 72
     2
 73
     0
 90
        0
 40
0.6
 41
30.0
 62
     5
 63
     7
421
 16777215
 74
     1
 91
        4
 64
     7
 65
   257
 75
     1
175
     1
 42
1.0
 92
        0
 66
   257
 43
1.0
 76
     1
 77
     6
 78
     2
 67
     7
 79
     3
170
     0
171
     0
290
     0
174
     0
 93
        1
 44
0.0
173
     0
291
     0
 45
0.0
1001
ACAD
1000
AcDbSavedByObjectVersion
1070
     0
  0
VISUALSTYLE
  5
40
102
{ACAD_REACTORS
330
2A
102
}
102
{ACAD_XDICTIONARY
360
519
102
}
330
2A
100
AcDbVisualStyle
  2
X-Ray
 70
    25
 71
     2
 72
     2
 73
     1
 90
        1
 40
0.5
 41
30.0
 62
     5
 63
     7
421
 16777215
 74
     1
 91
        0
 64
     7
 65
   257
 75
     1
175
     1
 42
1.0
 92
        8
 66
     7
 43
1.0
 76
     1
 77
     6
 78
     2
 67
     7
 79
     3
170
     0
171
     0
290
     0
174
     0
 93
       13
 44
0.0
173
     0
291
     0
 45
0.0
1001
ACAD
1000
AcDbSavedByObjectVersion
1070
     0
  0
DICTIONARYVAR
  5
4EC
102
{ACAD_REACTORS
330
4EB
102
}
330
4EB
100
DictionaryVariables
280
     0
  1
1:1
  0
DICTIONARYVAR
  5
52D
102
{ACAD_REACTORS
330
4EB
102
}
330
4EB
100
DictionaryVariables
280
     0
  1
Standard
  0
DICTIONARYVAR
  5
52C
102
{ACAD_REACTORS
330
4EB
102
}
330
4EB
100
DictionaryVariables
280
     0
  1
Standard
  0
DICTIONARYVAR
  5
4ED
102
{ACAD_REACTORS
330
4EB
102
}
330
4EB
100
DictionaryVariables
280
     0
  1
1
  0
DICTIONARYVAR
  5
4EE
102
{ACAD_REACTORS
330
4EB
102
}
330
4EB
100
DictionaryVariables
280
     0
  1
2
  0
DICTIONARY
  5
521
330
45
100
AcDbDictionary
280
     1
281
     1
  3
ACAD_XREC_ROUNDTRIP
360
522
  0
DICTIONARY
  5
51F
330
44
100
AcDbDictionary
280
     1
281
     1
  3
ACAD_XREC_ROUNDTRIP
360
520
  0
DICTIONARY
  5
523
330
46
100
AcDbDictionary
280
     1
281
     1
  3
ACAD_XREC_ROUNDTRIP
360
524
  0
DICTIONARY
  5
529
330
6C
100
AcDbDictionary
280
     1
281
     1
  3
ACAD_XREC_ROUNDTRIP
360
52A
  0
DICTIONARY
  5
525
330
6A
100
AcDbDictionary
280
     1
281
     1
  3
ACAD_ROUNDTRIP_2008_TABLESTYLE_CELLSTYLEMAP
360
527
  3
ACAD_XREC_ROUNDTRIP
360
526
  0
DICTIONARY
  5
4F7
330
2F
100
AcDbDictionary
280
     1
281
     1
  3
ACAD_XREC_ROUNDTRIP
360
4F8
  0
DICTIONARY
  5
4FD
330
32
100
AcDbDictionary
280
     1
281
     1
  3
ACAD_XREC_ROUNDTRIP
360
4FE
  0
DICTIONARY
  5
505
330
36
100
AcDbDictionary
280
     1
281
     1
  3
ACAD_XREC_ROUNDTRIP
360
506
  0
DICTIONARY
  5
50D
330
3A
100
AcDbDictionary
280
     1
281
     1
  3
ACAD_XREC_ROUNDTRIP
360
50E
  0
DICTIONARY
  5
501
330
34
100
AcDbDictionary
280
     1
281
     1
  3
ACAD_XREC_ROUNDTRIP
360
502
  0
DICTIONARY
  5
503
330
35
100
AcDbDictionary
280
     1
281
     1
  3
ACAD_XREC_ROUNDTRIP
360
504
  0
DICTIONARY
  5
513
330
3D
100
AcDbDictionary
280
     1
281
     1
  3
ACAD_XREC_ROUNDTRIP
360
514
  0
DICTIONARY
  5
50B
330
39
100
AcDbDictionary
280
     1
281
     1
  3
ACAD_XREC_ROUNDTRIP
360
50C
  0
DICTIONARY
  5
4EF
330
2B
100
AcDbDictionary
280
     1
281
     1
  3
ACAD_XREC_ROUNDTRIP
360
4F0
  0
DICTIONARY
  5
4F1
330
2C
100
AcDbDictionary
280
     1
281
     1
  3
ACAD_XREC_ROUNDTRIP
360
4F2
  0
DICTIONARY
  5
4F3
330
2D
100
AcDbDictionary
280
     1
281
     1
  3
ACAD_XREC_ROUNDTRIP
360
4F4
  0
DICTIONARY
  5
4F5
330
2E
100
AcDbDictionary
280
     1
281
     1
  3
ACAD_XREC_ROUNDTRIP
360
4F6
  0
DICTIONARY
  5
4FB
330
31
100
AcDbDictionary
280
     1
281
     1
  3
ACAD_XREC_ROUNDTRIP
360
4FC
  0
DICTIONARY
  5
50F
330
3B
100
AcDbDictionary
280
     1
281
     1
  3
ACAD_XREC_ROUNDTRIP
360
510
  0
DICTIONARY
  5
509
330
38
100
AcDbDictionary
280
     1
281
     1
  3
ACAD_XREC_ROUNDTRIP
360
50A
  0
DICTIONARY
  5
511
330
3C
100
AcDbDictionary
280
     1
281
     1
  3
ACAD_XREC_ROUNDTRIP
360
512
  0
DICTIONARY
  5
4FF
330
33
100
AcDbDictionary
280
     1
281
     1
  3
ACAD_XREC_ROUNDTRIP
360
500
  0
DICTIONARY
  5
51D
330
42
100
AcDbDictionary
280
     1
281
     1
  3
ACAD_XREC_ROUNDTRIP
360
51E
  0
DICTIONARY
  5
51B
330
41
100
AcDbDictionary
280
     1
281
     1
  3
ACAD_XREC_ROUNDTRIP
360
51C
  0
DICTIONARY
  5
515
330
3E
100
AcDbDictionary
280
     1
281
     1
  3
ACAD_XREC_ROUNDTRIP
360
516
  0
DICTIONARY
  5
517
330
3F
100
AcDbDictionary
280
     1
281
     1
  3
ACAD_XREC_ROUNDTRIP
360
518
  0
DICTIONARY
  5
507
330
37
100
AcDbDictionary
280
     1
281
     1
  3
ACAD_XREC_ROUNDTRIP
360
508
  0
DICTIONARY
  5
4F9
330
30
100
AcDbDictionary
280
     1
281
     1
  3
ACAD_XREC_ROUNDTRIP
360
4FA
  0
DICTIONARY
  5
519
330
40
100
AcDbDictionary
280
     1
281
     1
  3
ACAD_XREC_ROUNDTRIP
360
51A
  0
XRECORD
  5
522
102
{ACAD_REACTORS
330
521
102
}
330
521
100
AcDbXrecord
280
     1
102
MATERIAL
148
0.0
149
0.0
149
0.0
 93
        0
 94
      127
282
     0
 72
     1
 77
     1
171
     1
175
     1
179
     1
273
     0
  0
XRECORD
  5
520
102
{ACAD_REACTORS
330
51F
102
}
330
51F
100
AcDbXrecord
280
     1
102
MATERIAL
148
0.0
149
0.0
149
0.0
 93
        0
 94
      127
282
     0
 72
     1
 77
     1
171
     1
175
     1
179
     1
273
     0
  0
XRECORD
  5
524
102
{ACAD_REACTORS
330
523
102
}
330
523
100
AcDbXrecord
280
     1
102
MATERIAL
148
0.0
149
0.0
149
0.0
 93
        0
 94
      127
282
     0
 72
     1
 77
     1
171
     1
175
     1
179
     1
273
     0
  0
XRECORD
  5
52A
102
{ACAD_REACTORS
330
529
102
}
330
529
100
AcDbXrecord
280
     1
102
ACAD_ROUNDTRIP_2010_MLEADER_STYLE
  0
CELLSTYLEMAP
  5
527
102
{ACAD_REACTORS
330
525
102
}
330
525
100
AcDbCellStyleMap
 90
        3
300
CELLSTYLE
  1
TABLEFORMAT_BEGIN
 90
        5
170
     1
 91
        0
 92
    32768
 62
   257
 93
        1
300
CONTENTFORMAT
  1
CONTENTFORMAT_BEGIN
 90
        0
 91
        0
 92
        4
 93
        0
300

 40
0.0
140
1.0
 94
        5
 62
     0
340
11
144
0.25
309
CONTENTFORMAT_END
171
     1
301
MARGIN
  1
CELLMARGIN_BEGIN
 40
0.06
 40
0.06
 40
0.06
 40
0.06
 40
0.06
 40
0.06
309
CELLMARGIN_END
 94
        6
 95
        1
302
GRIDFORMAT
  1
GRIDFORMAT_BEGIN
 90
        0
 91
        1
 62
     0
 92
       -2
340
14
 93
        0
 40
0.045
309
GRIDFORMAT_END
 95
        2
302
GRIDFORMAT
  1
GRIDFORMAT_BEGIN
 90
        0
 91
        1
 62
     0
 92
       -2
340
14
 93
        0
 40
0.045
309
GRIDFORMAT_END
 95
        4
302
GRIDFORMAT
  1
GRIDFORMAT_BEGIN
 90
        0
 91
        1
 62
     0
 92
       -2
340
14
 93
        0
 40
0.045
309
GRIDFORMAT_END
 95
        8
302
GRIDFORMAT
  1
GRIDFORMAT_BEGIN
 90
        0
 91
        1
 62
     0
 92
       -2
340
14
 93
        0
 40
0.045
309
GRIDFORMAT_END
 95
       16
302
GRIDFORMAT
  1
GRIDFORMAT_BEGIN
 90
        0
 91
        1
 62
     0
 92
       -2
340
14
 93
        0
 40
0.045
309
GRIDFORMAT_END
 95
       32
302
GRIDFORMAT
  1
GRIDFORMAT_BEGIN
 90
        0
 91
        1
 62
     0
 92
       -2
340
14
 93
        0
 40
0.045
309
GRIDFORMAT_END
309
TABLEFORMAT_END
  1
CELLSTYLE_BEGIN
 90
        1
 91
        1
300
_TITLE
309
CELLSTYLE_END
300
CELLSTYLE
  1
TABLEFORMAT_BEGIN
 90
        5
170
     1
 91
        0
 92
        0
 62
   257
 93
        1
300
CONTENTFORMAT
  1
CONTENTFORMAT_BEGIN
 90
        0
 91
        0
 92
        4
 93
        0
300

 40
0.0
140
1.0
 94
        5
 62
     0
340
11
144
0.18
309
CONTENTFORMAT_END
171
     1
301
MARGIN
  1
CELLMARGIN_BEGIN
 40
0.06
 40
0.06
 40
0.06
 40
0.06
 40
0.06
 40
0.06
309
CELLMARGIN_END
 94
        6
 95
        1
302
GRIDFORMAT
  1
GRIDFORMAT_BEGIN
 90
        0
 91
        1
 62
     0
 92
       -2
340
14
 93
        0
 40
0.045
309
GRIDFORMAT_END
 95
        2
302
GRIDFORMAT
  1
GRIDFORMAT_BEGIN
 90
        0
 91
        1
 62
     0
 92
       -2
340
14
 93
        0
 40
0.045
309
GRIDFORMAT_END
 95
        4
302
GRIDFORMAT
  1
GRIDFORMAT_BEGIN
 90
        0
 91
        1
 62
     0
 92
       -2
340
14
 93
        0
 40
0.045
309
GRIDFORMAT_END
 95
        8
302
GRIDFORMAT
  1
GRIDFORMAT_BEGIN
 90
        0
 91
        1
 62
     0
 92
       -2
340
14
 93
        0
 40
0.045
309
GRIDFORMAT_END
 95
       16
302
GRIDFORMAT
  1
GRIDFORMAT_BEGIN
 90
        0
 91
        1
 62
     0
 92
       -2
340
14
 93
        0
 40
0.045
309
GRIDFORMAT_END
 95
       32
302
GRIDFORMAT
  1
GRIDFORMAT_BEGIN
 90
        0
 91
        1
 62
     0
 92
       -2
340
14
 93
        0
 40
0.045
309
GRIDFORMAT_END
309
TABLEFORMAT_END
  1
CELLSTYLE_BEGIN
 90
        2
 91
        1
300
_HEADER
309
CELLSTYLE_END
300
CELLSTYLE
  1
TABLEFORMAT_BEGIN
 90
        5
170
     1
 91
        0
 92
        0
 62
   257
 93
        1
300
CONTENTFORMAT
  1
CONTENTFORMAT_BEGIN
 90
        0
 91
        0
 92
        4
 93
        0
300

 40
0.0
140
1.0
 94
        2
 62
     0
340
11
144
0.18
309
CONTENTFORMAT_END
171
     1
301
MARGIN
  1
CELLMARGIN_BEGIN
 40
0.06
 40
0.06
 40
0.06
 40
0.06
 40
0.06
 40
0.06
309
CELLMARGIN_END
 94
        6
 95
        1
302
GRIDFORMAT
  1
GRIDFORMAT_BEGIN
 90
        0
 91
        1
 62
     0
 92
       -2
340
14
 93
        0
 40
0.045
309
GRIDFORMAT_END
 95
        2
302
GRIDFORMAT
  1
GRIDFORMAT_BEGIN
 90
        0
 91
        1
 62
     0
 92
       -2
340
14
 93
        0
 40
0.045
309
GRIDFORMAT_END
 95
        4
302
GRIDFORMAT
  1
GRIDFORMAT_BEGIN
 90
        0
 91
        1
 62
     0
 92
       -2
340
14
 93
        0
 40
0.045
309
GRIDFORMAT_END
 95
        8
302
GRIDFORMAT
  1
GRIDFORMAT_BEGIN
 90
        0
 91
        1
 62
     0
 92
       -2
340
14
 93
        0
 40
0.045
309
GRIDFORMAT_END
 95
       16
302
GRIDFORMAT
  1
GRIDFORMAT_BEGIN
 90
        0
 91
        1
 62
     0
 92
       -2
340
14
 93
        0
 40
0.045
309
GRIDFORMAT_END
 95
       32
302
GRIDFORMAT
  1
GRIDFORMAT_BEGIN
 90
        0
 91
        1
 62
     0
 92
       -2
340
14
 93
        0
 40
0.045
309
GRIDFORMAT_END
309
TABLEFORMAT_END
  1
CELLSTYLE_BEGIN
 90
        3
 91
        2
300
_DATA
309
CELLSTYLE_END
  0
XRECORD
  5
526
102
{ACAD_REACTORS
330
525
102
}
330
525
100
AcDbXrecord
280
     1
102
ACAD_ROUNDTRIP_PRE2007_TABLESTYLE
 90
        4
 91
        0
  1

 92
        4
 93
        0
  2

 94
        4
 95
        0
  3

  0
XRECORD
  5
4F8
102
{ACAD_REACTORS
330
4F7
102
}
330
4F7
100
AcDbXrecord
280
     1
102
RTVSPropertyOp0
 70
     1
102
RTVSPropertyOp1
 70
     1
102
RTVSPropertyOp2
 70
     1
102
RTVSPropertyOp3
 70
     1
102
RTVSPropertyOp4
 70
     1
102
RTVSPropertyOp5
 70
     1
102
RTVSPropertyOp6
 70
     1
102
RTVSPropertyOp7
 70
     1
102
RTVSPropertyOp8
 70
     1
102
RTVSPropertyOp9
 70
     1
102
RTVSPropertyOp10
 70
     1
102
RTVSPropertyOp11
 70
     1
102
RTVSPropertyOp12
 70
     1
102
RTVSPropertyOp13
 70
     1
102
RTVSPropertyOp14
 70
     1
102
RTVSPropertyOp15
 70
     1
102
RTVSPropertyOp16
 70
     1
102
RTVSPropertyOp17
 70
     1
102
RTVSPropertyOp18
 70
     1
102
RTVSPropertyOp19
 70
     1
102
RTVSPropertyOp20
 70
     1
102
RTVSPropertyOp21
 70
     1
102
RTVSPropertyOp22
 70
     1
102
RTVSPropertyOp23
 70
     1
102
RTVSPropertyOp24
 70
     1
102
RTVSPropertyOp25
 70
     1
102
RTVSPropertyOp26
 70
     1
102
RTVSPropertyOp27
 70
     1
102
RTVSPropertyOp28
 70
     1
102
RTVSPropertyOp29
 70
     1
102
RTVSPropertyOp30
 70
     1
102
RTVSPropertyOp31
 70
     1
102
RTVSPropertyOp32
 70
     1
102
RTVSPropertyOp33
 70
     1
102
RTVSPropertyOp34
 70
     1
102
RTVSPropertyOp35
 70
     1
102
RTVSPropertyOp36
 70
     1
102
RTVSPropertyOp37
 70
     1
102
RTVSPropertyOp38
 70
     1
102
RTVSPropertyOp39
 70
     1
102
RTVSPropertyOp40
 70
     1
102
RTVSPropertyOp41
 70
     1
102
RTVSPropertyOp42
 70
     1
102
RTVSPropertyOp43
 70
     1
102
RTVSPropertyOp44
 70
     1
102
RTVSPropertyOp45
 70
     1
102
RTVSPropertyOp46
 70
     1
102
RTVSPropertyOp47
 70
     1
102
RTVSPropertyOp48
 70
     1
102
RTVSPropertyOp49
 70
     1
102
RTVSPropertyOp50
 70
     1
102
RTVSPropertyOp51
 70
     0
102
RTVSPropertyOp52
 70
     0
102
RTVSPropertyOp53
 70
     1
102
RTVSPropertyOp54
 70
     1
102
RTVSPropertyOp55
 70
     1
102
RTVSPropertyOp56
 70
     1
102
RTVSPropertyOp57
 70
     1
102
RTVSPost2010Prop28
280
     1
102
RTVSPost2010PropOp28
 70
     1
102
RTVSPost2010Prop29
280
     1
102
RTVSPost2010PropOp29
 70
     1
102
RTVSPost2010Prop30
280
     0
102
RTVSPost2010PropOp30
 70
     1
102
RTVSPost2010Prop31
280
     0
102
RTVSPost2010PropOp31
 70
     1
102
RTVSPost2010Prop32
280
     0
102
RTVSPost2010PropOp32
 70
     1
102
RTVSPost2010Prop33
280
     0
102
RTVSPost2010PropOp33
 70
     1
102
RTVSPost2010Prop34
280
     0
102
RTVSPost2010PropOp34
 70
     1
102
RTVSPost2010Prop35
280
     0
102
RTVSPost2010PropOp35
 70
     1
102
RTVSPost2010Prop36
280
     0
102
RTVSPost2010PropOp36
 70
     1
102
RTVSPost2010Prop37
 90
       50
102
RTVSPost2010PropOp37
 70
     1
102
RTVSPost2010Prop38
140
0.0
102
RTVSPost2010PropOp38
 70
     1
102
RTVSPost2010Prop39
140
1.0
102
RTVSPost2010PropOp39
 70
     1
102
RTVSPost2010Prop40
 90
        0
102
RTVSPost2010PropOp40
 70
     1
102
RTVSPost2010Prop41ColorIndex
 90
       18
102
RTVSPost2010Prop41ColorRGB
 90
        0
102
RTVSPost2010PropOp41
 70
     1
102
RTVSPost2010Prop42
 90
       50
102
RTVSPost2010PropOp42
 70
     1
102
RTVSPost2010Prop43
 90
        3
102
RTVSPost2010PropOp43
 70
     1
102
RTVSPost2010Prop44ColorIndex
 90
        5
102
RTVSPost2010Prop44ColorRGB
 90
      255
102
RTVSPost2010PropOp44
 70
     1
102
RTVSPost2010Prop45
280
     0
102
RTVSPost2010PropOp45
 70
     1
102
RTVSPost2010Prop46
 90
       50
102
RTVSPost2010PropOp46
 70
     1
102
RTVSPost2010Prop47
 90
       50
102
RTVSPost2010PropOp47
 70
     1
102
RTVSPost2010Prop48
 90
       50
102
RTVSPost2010PropOp48
 70
     1
102
RTVSPost2010Prop49
280
     0
102
RTVSPost2010PropOp49
 70
     1
102
RTVSPost2010Prop50
 90
       50
102
RTVSPost2010PropOp50
 70
     1
102
RTVSPost2010Prop51ColorIndex
 90
      256
102
RTVSPost2010Prop51ColorRGB
 90
-16777216
102
RTVSPost2010PropOp51
 70
     0
102
RTVSPost2010Prop52
140
1.0
102
RTVSPost2010PropOp52
 70
     0
102
RTVSPost2010Prop53
 90
        2
102
RTVSPost2010PropOp53
 70
     1
102
RTVSPost2010Prop54
  1
strokes_ogs.tif
102
RTVSPost2010PropOp54
 70
     1
102
RTVSPost2010Prop55
280
     0
102
RTVSPost2010PropOp55
 70
     1
102
RTVSPost2010Prop56
140
1.0
102
RTVSPost2010PropOp56
 70
     1
102
RTVSPost2010Prop57
140
1.0
102
RTVSPost2010PropOp57
 70
     1
  0
XRECORD
  5
4FE
102
{ACAD_REACTORS
330
4FD
102
}
330
4FD
100
AcDbXrecord
280
     1
102
RTVSPropertyOp0
 70
     1
102
RTVSPropertyOp1
 70
     1
102
RTVSPropertyOp2
 70
     1
102
RTVSPropertyOp3
 70
     1
102
RTVSPropertyOp4
 70
     1
102
RTVSPropertyOp5
 70
     1
102
RTVSPropertyOp6
 70
     1
102
RTVSPropertyOp7
 70
     1
102
RTVSPropertyOp8
 70
     1
102
RTVSPropertyOp9
 70
     1
102
RTVSPropertyOp10
 70
     1
102
RTVSPropertyOp11
 70
     1
102
RTVSPropertyOp12
 70
     1
102
RTVSPropertyOp13
 70
     1
102
RTVSPropertyOp14
 70
     1
102
RTVSPropertyOp15
 70
     1
102
RTVSPropertyOp16
 70
     1
102
RTVSPropertyOp17
 70
     1
102
RTVSPropertyOp18
 70
     1
102
RTVSPropertyOp19
 70
     1
102
RTVSPropertyOp20
 70
     1
102
RTVSPropertyOp21
 70
     1
102
RTVSPropertyOp22
 70
     1
102
RTVSPropertyOp23
 70
     1
102
RTVSPropertyOp24
 70
     1
102
RTVSPropertyOp25
 70
     1
102
RTVSPropertyOp26
 70
     1
102
RTVSPropertyOp27
 70
     1
102
RTVSPropertyOp28
 70
     1
102
RTVSPropertyOp29
 70
     1
102
RTVSPropertyOp30
 70
     1
102
RTVSPropertyOp31
 70
     1
102
RTVSPropertyOp32
 70
     1
102
RTVSPropertyOp33
 70
     1
102
RTVSPropertyOp34
 70
     1
102
RTVSPropertyOp35
 70
     1
102
RTVSPropertyOp36
 70
     1
102
RTVSPropertyOp37
 70
     1
102
RTVSPropertyOp38
 70
     1
102
RTVSPropertyOp39
 70
     1
102
RTVSPropertyOp40
 70
     1
102
RTVSPropertyOp41
 70
     1
102
RTVSPropertyOp42
 70
     1
102
RTVSPropertyOp43
 70
     1
102
RTVSPropertyOp44
 70
     1
102
RTVSPropertyOp45
 70
     1
102
RTVSPropertyOp46
 70
     1
102
RTVSPropertyOp47
 70
     1
102
RTVSPropertyOp48
 70
     1
102
RTVSPropertyOp49
 70
     1
102
RTVSPropertyOp50
 70
     1
102
RTVSPropertyOp51
 70
     0
102
RTVSPropertyOp52
 70
     0
102
RTVSPropertyOp53
 70
     1
102
RTVSPropertyOp54
 70
     1
102
RTVSPropertyOp55
 70
     1
102
RTVSPropertyOp56
 70
     1
102
RTVSPropertyOp57
 70
     1
102
RTVSPost2010Prop28
280
     0
102
RTVSPost2010PropOp28
 70
     1
102
RTVSPost2010Prop29
280
     1
102
RTVSPost2010PropOp29
 70
     1
102
RTVSPost2010Prop30
280
     1
102
RTVSPost2010PropOp30
 70
     1
102
RTVSPost2010Prop31
280
     0
102
RTVSPost2010PropOp31
 70
     1
102
RTVSPost2010Prop32
280
     0
102
RTVSPost2010PropOp32
 70
     1
102
RTVSPost2010Prop33
280
     0
102
RTVSPost2010PropOp33
 70
     1
102
RTVSPost2010Prop34
280
     0
102
RTVSPost2010PropOp34
 70
     1
102
RTVSPost2010Prop35
280
     0
102
RTVSPost2010PropOp35
 70
     1
102
RTVSPost2010Prop36
280
     0
102
RTVSPost2010PropOp36
 70
     1
102
RTVSPost2010Prop37
 90
       50
102
RTVSPost2010PropOp37
 70
     1
102
RTVSPost2010Prop38
140
0.0
102
RTVSPost2010PropOp38
 70
     1
102
RTVSPost2010Prop39
140
1.0
102
RTVSPost2010PropOp39
 70
     1
102
RTVSPost2010Prop40
 90
        0
102
RTVSPost2010PropOp40
 70
     1
102
RTVSPost2010Prop41ColorIndex
 90
       18
102
RTVSPost2010Prop41ColorRGB
 90
        0
102
RTVSPost2010PropOp41
 70
     1
102
RTVSPost2010Prop42
 90
       50
102
RTVSPost2010PropOp42
 70
     1
102
RTVSPost2010Prop43
 90
        3
102
RTVSPost2010PropOp43
 70
     1
102
RTVSPost2010Prop44ColorIndex
 90
        5
102
RTVSPost2010Prop44ColorRGB
 90
      255
102
RTVSPost2010PropOp44
 70
     1
102
RTVSPost2010Prop45
280
     0
102
RTVSPost2010PropOp45
 70
     1
102
RTVSPost2010Prop46
 90
       50
102
RTVSPost2010PropOp46
 70
     1
102
RTVSPost2010Prop47
 90
       50
102
RTVSPost2010PropOp47
 70
     1
102
RTVSPost2010Prop48
 90
       50
102
RTVSPost2010PropOp48
 70
     1
102
RTVSPost2010Prop49
280
     0
102
RTVSPost2010PropOp49
 70
     1
102
RTVSPost2010Prop50
 90
       50
102
RTVSPost2010PropOp50
 70
     1
102
RTVSPost2010Prop51ColorIndex
 90
      256
102
RTVSPost2010Prop51ColorRGB
 90
-16777216
102
RTVSPost2010PropOp51
 70
     0
102
RTVSPost2010Prop52
140
1.0
102
RTVSPost2010PropOp52
 70
     0
102
RTVSPost2010Prop53
 90
        2
102
RTVSPost2010PropOp53
 70
     1
102
RTVSPost2010Prop54
  1
strokes_ogs.tif
102
RTVSPost2010PropOp54
 70
     1
102
RTVSPost2010Prop55
280
     0
102
RTVSPost2010PropOp55
 70
     1
102
RTVSPost2010Prop56
140
1.0
102
RTVSPost2010PropOp56
 70
     1
102
RTVSPost2010Prop57
140
1.0
102
RTVSPost2010PropOp57
 70
     1
  0
XRECORD
  5
506
102
{ACAD_REACTORS
330
505
102
}
330
505
100
AcDbXrecord
280
     1
102
RTVSPropertyOp0
 70
     1
102
RTVSPropertyOp1
 70
     1
102
RTVSPropertyOp2
 70
     1
102
RTVSPropertyOp3
 70
     1
102
RTVSPropertyOp4
 70
     1
102
RTVSPropertyOp5
 70
     1
102
RTVSPropertyOp6
 70
     1
102
RTVSPropertyOp7
 70
     1
102
RTVSPropertyOp8
 70
     1
102
RTVSPropertyOp9
 70
     1
102
RTVSPropertyOp10
 70
     1
102
RTVSPropertyOp11
 70
     1
102
RTVSPropertyOp12
 70
     1
102
RTVSPropertyOp13
 70
     1
102
RTVSPropertyOp14
 70
     1
102
RTVSPropertyOp15
 70
     1
102
RTVSPropertyOp16
 70
     1
102
RTVSPropertyOp17
 70
     1
102
RTVSPropertyOp18
 70
     1
102
RTVSPropertyOp19
 70
     1
102
RTVSPropertyOp20
 70
     1
102
RTVSPropertyOp21
 70
     1
102
RTVSPropertyOp22
 70
     1
102
RTVSPropertyOp23
 70
     1
102
RTVSPropertyOp24
 70
     1
102
RTVSPropertyOp25
 70
     1
102
RTVSPropertyOp26
 70
     1
102
RTVSPropertyOp27
 70
     1
102
RTVSPropertyOp28
 70
     1
102
RTVSPropertyOp29
 70
     1
102
RTVSPropertyOp30
 70
     1
102
RTVSPropertyOp31
 70
     1
102
RTVSPropertyOp32
 70
     1
102
RTVSPropertyOp33
 70
     1
102
RTVSPropertyOp34
 70
     1
102
RTVSPropertyOp35
 70
     1
102
RTVSPropertyOp36
 70
     1
102
RTVSPropertyOp37
 70
     1
102
RTVSPropertyOp38
 70
     1
102
RTVSPropertyOp39
 70
     1
102
RTVSPropertyOp40
 70
     1
102
RTVSPropertyOp41
 70
     1
102
RTVSPropertyOp42
 70
     1
102
RTVSPropertyOp43
 70
     1
102
RTVSPropertyOp44
 70
     1
102
RTVSPropertyOp45
 70
     1
102
RTVSPropertyOp46
 70
     1
102
RTVSPropertyOp47
 70
     1
102
RTVSPropertyOp48
 70
     1
102
RTVSPropertyOp49
 70
     1
102
RTVSPropertyOp50
 70
     1
102
RTVSPropertyOp51
 70
     0
102
RTVSPropertyOp52
 70
     0
102
RTVSPropertyOp53
 70
     1
102
RTVSPropertyOp54
 70
     1
102
RTVSPropertyOp55
 70
     1
102
RTVSPropertyOp56
 70
     1
102
RTVSPropertyOp57
 70
     1
102
RTVSPost2010Prop28
280
     0
102
RTVSPost2010PropOp28
 70
     1
102
RTVSPost2010Prop29
280
     1
102
RTVSPost2010PropOp29
 70
     1
102
RTVSPost2010Prop30
280
     1
102
RTVSPost2010PropOp30
 70
     1
102
RTVSPost2010Prop31
280
     0
102
RTVSPost2010PropOp31
 70
     1
102
RTVSPost2010Prop32
280
     0
102
RTVSPost2010PropOp32
 70
     1
102
RTVSPost2010Prop33
280
     0
102
RTVSPost2010PropOp33
 70
     1
102
RTVSPost2010Prop34
280
     0
102
RTVSPost2010PropOp34
 70
     1
102
RTVSPost2010Prop35
280
     0
102
RTVSPost2010PropOp35
 70
     1
102
RTVSPost2010Prop36
280
     0
102
RTVSPost2010PropOp36
 70
     1
102
RTVSPost2010Prop37
 90
       50
102
RTVSPost2010PropOp37
 70
     1
102
RTVSPost2010Prop38
140
0.0
102
RTVSPost2010PropOp38
 70
     1
102
RTVSPost2010Prop39
140
1.0
102
RTVSPost2010PropOp39
 70
     1
102
RTVSPost2010Prop40
 90
        0
102
RTVSPost2010PropOp40
 70
     1
102
RTVSPost2010Prop41ColorIndex
 90
       18
102
RTVSPost2010Prop41ColorRGB
 90
        0
102
RTVSPost2010PropOp41
 70
     1
102
RTVSPost2010Prop42
 90
       50
102
RTVSPost2010PropOp42
 70
     1
102
RTVSPost2010Prop43
 90
        3
102
RTVSPost2010PropOp43
 70
     1
102
RTVSPost2010Prop44ColorIndex
 90
        5
102
RTVSPost2010Prop44ColorRGB
 90
      255
102
RTVSPost2010PropOp44
 70
     1
102
RTVSPost2010Prop45
280
     0
102
RTVSPost2010PropOp45
 70
     1
102
RTVSPost2010Prop46
 90
       50
102
RTVSPost2010PropOp46
 70
     1
102
RTVSPost2010Prop47
 90
       50
102
RTVSPost2010PropOp47
 70
     1
102
RTVSPost2010Prop48
 90
       50
102
RTVSPost2010PropOp48
 70
     1
102
RTVSPost2010Prop49
280
     0
102
RTVSPost2010PropOp49
 70
     1
102
RTVSPost2010Prop50
 90
       50
102
RTVSPost2010PropOp50
 70
     1
102
RTVSPost2010Prop51ColorIndex
 90
      256
102
RTVSPost2010Prop51ColorRGB
 90
-16777216
102
RTVSPost2010PropOp51
 70
     0
102
RTVSPost2010Prop52
140
1.0
102
RTVSPost2010PropOp52
 70
     0
102
RTVSPost2010Prop53
 90
        2
102
RTVSPost2010PropOp53
 70
     1
102
RTVSPost2010Prop54
  1
strokes_ogs.tif
102
RTVSPost2010PropOp54
 70
     1
102
RTVSPost2010Prop55
280
     0
102
RTVSPost2010PropOp55
 70
     1
102
RTVSPost2010Prop56
140
1.0
102
RTVSPost2010PropOp56
 70
     1
102
RTVSPost2010Prop57
140
1.0
102
RTVSPost2010PropOp57
 70
     1
  0
XRECORD
  5
50E
102
{ACAD_REACTORS
330
50D
102
}
330
50D
100
AcDbXrecord
280
     1
102
RTVSPropertyOp0
 70
     1
102
RTVSPropertyOp1
 70
     1
102
RTVSPropertyOp2
 70
     1
102
RTVSPropertyOp3
 70
     1
102
RTVSPropertyOp4
 70
     1
102
RTVSPropertyOp5
 70
     1
102
RTVSPropertyOp6
 70
     1
102
RTVSPropertyOp7
 70
     1
102
RTVSPropertyOp8
 70
     1
102
RTVSPropertyOp9
 70
     1
102
RTVSPropertyOp10
 70
     1
102
RTVSPropertyOp11
 70
     1
102
RTVSPropertyOp12
 70
     1
102
RTVSPropertyOp13
 70
     1
102
RTVSPropertyOp14
 70
     1
102
RTVSPropertyOp15
 70
     1
102
RTVSPropertyOp16
 70
     1
102
RTVSPropertyOp17
 70
     1
102
RTVSPropertyOp18
 70
     1
102
RTVSPropertyOp19
 70
     1
102
RTVSPropertyOp20
 70
     1
102
RTVSPropertyOp21
 70
     1
102
RTVSPropertyOp22
 70
     1
102
RTVSPropertyOp23
 70
     1
102
RTVSPropertyOp24
 70
     1
102
RTVSPropertyOp25
 70
     1
102
RTVSPropertyOp26
 70
     1
102
RTVSPropertyOp27
 70
     1
102
RTVSPropertyOp28
 70
     1
102
RTVSPropertyOp29
 70
     1
102
RTVSPropertyOp30
 70
     1
102
RTVSPropertyOp31
 70
     1
102
RTVSPropertyOp32
 70
     1
102
RTVSPropertyOp33
 70
     1
102
RTVSPropertyOp34
 70
     1
102
RTVSPropertyOp35
 70
     1
102
RTVSPropertyOp36
 70
     1
102
RTVSPropertyOp37
 70
     1
102
RTVSPropertyOp38
 70
     1
102
RTVSPropertyOp39
 70
     1
102
RTVSPropertyOp40
 70
     1
102
RTVSPropertyOp41
 70
     1
102
RTVSPropertyOp42
 70
     1
102
RTVSPropertyOp43
 70
     1
102
RTVSPropertyOp44
 70
     1
102
RTVSPropertyOp45
 70
     1
102
RTVSPropertyOp46
 70
     1
102
RTVSPropertyOp47
 70
     1
102
RTVSPropertyOp48
 70
     1
102
RTVSPropertyOp49
 70
     1
102
RTVSPropertyOp50
 70
     1
102
RTVSPropertyOp51
 70
     0
102
RTVSPropertyOp52
 70
     0
102
RTVSPropertyOp53
 70
     1
102
RTVSPropertyOp54
 70
     1
102
RTVSPropertyOp55
 70
     1
102
RTVSPropertyOp56
 70
     1
102
RTVSPropertyOp57
 70
     1
102
RTVSPost2010Prop28
280
     0
102
RTVSPost2010PropOp28
 70
     1
102
RTVSPost2010Prop29
280
     1
102
RTVSPost2010PropOp29
 70
     1
102
RTVSPost2010Prop30
280
     1
102
RTVSPost2010PropOp30
 70
     1
102
RTVSPost2010Prop31
280
     0
102
RTVSPost2010PropOp31
 70
     1
102
RTVSPost2010Prop32
280
     0
102
RTVSPost2010PropOp32
 70
     1
102
RTVSPost2010Prop33
280
     0
102
RTVSPost2010PropOp33
 70
     1
102
RTVSPost2010Prop34
280
     0
102
RTVSPost2010PropOp34
 70
     1
102
RTVSPost2010Prop35
280
     0
102
RTVSPost2010PropOp35
 70
     1
102
RTVSPost2010Prop36
280
     0
102
RTVSPost2010PropOp36
 70
     1
102
RTVSPost2010Prop37
 90
       50
102
RTVSPost2010PropOp37
 70
     1
102
RTVSPost2010Prop38
140
0.0
102
RTVSPost2010PropOp38
 70
     1
102
RTVSPost2010Prop39
140
1.0
102
RTVSPost2010PropOp39
 70
     1
102
RTVSPost2010Prop40
 90
        0
102
RTVSPost2010PropOp40
 70
     1
102
RTVSPost2010Prop41ColorIndex
 90
       18
102
RTVSPost2010Prop41ColorRGB
 90
        0
102
RTVSPost2010PropOp41
 70
     1
102
RTVSPost2010Prop42
 90
       50
102
RTVSPost2010PropOp42
 70
     1
102
RTVSPost2010Prop43
 90
        3
102
RTVSPost2010PropOp43
 70
     1
102
RTVSPost2010Prop44ColorIndex
 90
        5
102
RTVSPost2010Prop44ColorRGB
 90
      255
102
RTVSPost2010PropOp44
 70
     1
102
RTVSPost2010Prop45
280
     0
102
RTVSPost2010PropOp45
 70
     1
102
RTVSPost2010Prop46
 90
       50
102
RTVSPost2010PropOp46
 70
     1
102
RTVSPost2010Prop47
 90
       50
102
RTVSPost2010PropOp47
 70
     1
102
RTVSPost2010Prop48
 90
       50
102
RTVSPost2010PropOp48
 70
     1
102
RTVSPost2010Prop49
280
     0
102
RTVSPost2010PropOp49
 70
     1
102
RTVSPost2010Prop50
 90
       50
102
RTVSPost2010PropOp50
 70
     1
102
RTVSPost2010Prop51ColorIndex
 90
      256
102
RTVSPost2010Prop51ColorRGB
 90
-16777216
102
RTVSPost2010PropOp51
 70
     0
102
RTVSPost2010Prop52
140
1.0
102
RTVSPost2010PropOp52
 70
     0
102
RTVSPost2010Prop53
 90
        2
102
RTVSPost2010PropOp53
 70
     1
102
RTVSPost2010Prop54
  1
strokes_ogs.tif
102
RTVSPost2010PropOp54
 70
     1
102
RTVSPost2010Prop55
280
     0
102
RTVSPost2010PropOp55
 70
     1
102
RTVSPost2010Prop56
140
1.0
102
RTVSPost2010PropOp56
 70
     1
102
RTVSPost2010Prop57
140
1.0
102
RTVSPost2010PropOp57
 70
     1
  0
XRECORD
  5
502
102
{ACAD_REACTORS
330
501
102
}
330
501
100
AcDbXrecord
280
     1
102
RTVSPropertyOp0
 70
     1
102
RTVSPropertyOp1
 70
     1
102
RTVSPropertyOp2
 70
     1
102
RTVSPropertyOp3
 70
     1
102
RTVSPropertyOp4
 70
     1
102
RTVSPropertyOp5
 70
     1
102
RTVSPropertyOp6
 70
     1
102
RTVSPropertyOp7
 70
     1
102
RTVSPropertyOp8
 70
     1
102
RTVSPropertyOp9
 70
     1
102
RTVSPropertyOp10
 70
     1
102
RTVSPropertyOp11
 70
     1
102
RTVSPropertyOp12
 70
     1
102
RTVSPropertyOp13
 70
     1
102
RTVSPropertyOp14
 70
     1
102
RTVSPropertyOp15
 70
     1
102
RTVSPropertyOp16
 70
     1
102
RTVSPropertyOp17
 70
     1
102
RTVSPropertyOp18
 70
     1
102
RTVSPropertyOp19
 70
     1
102
RTVSPropertyOp20
 70
     1
102
RTVSPropertyOp21
 70
     1
102
RTVSPropertyOp22
 70
     1
102
RTVSPropertyOp23
 70
     1
102
RTVSPropertyOp24
 70
     1
102
RTVSPropertyOp25
 70
     1
102
RTVSPropertyOp26
 70
     1
102
RTVSPropertyOp27
 70
     1
102
RTVSPropertyOp28
 70
     1
102
RTVSPropertyOp29
 70
     1
102
RTVSPropertyOp30
 70
     1
102
RTVSPropertyOp31
 70
     1
102
RTVSPropertyOp32
 70
     1
102
RTVSPropertyOp33
 70
     1
102
RTVSPropertyOp34
 70
     1
102
RTVSPropertyOp35
 70
     1
102
RTVSPropertyOp36
 70
     1
102
RTVSPropertyOp37
 70
     1
102
RTVSPropertyOp38
 70
     1
102
RTVSPropertyOp39
 70
     1
102
RTVSPropertyOp40
 70
     1
102
RTVSPropertyOp41
 70
     1
102
RTVSPropertyOp42
 70
     1
102
RTVSPropertyOp43
 70
     1
102
RTVSPropertyOp44
 70
     1
102
RTVSPropertyOp45
 70
     1
102
RTVSPropertyOp46
 70
     1
102
RTVSPropertyOp47
 70
     1
102
RTVSPropertyOp48
 70
     1
102
RTVSPropertyOp49
 70
     1
102
RTVSPropertyOp50
 70
     1
102
RTVSPropertyOp51
 70
     0
102
RTVSPropertyOp52
 70
     0
102
RTVSPropertyOp53
 70
     1
102
RTVSPropertyOp54
 70
     1
102
RTVSPropertyOp55
 70
     1
102
RTVSPropertyOp56
 70
     1
102
RTVSPropertyOp57
 70
     1
102
RTVSPost2010Prop28
280
     0
102
RTVSPost2010PropOp28
 70
     1
102
RTVSPost2010Prop29
280
     1
102
RTVSPost2010PropOp29
 70
     1
102
RTVSPost2010Prop30
280
     1
102
RTVSPost2010PropOp30
 70
     1
102
RTVSPost2010Prop31
280
     0
102
RTVSPost2010PropOp31
 70
     1
102
RTVSPost2010Prop32
280
     0
102
RTVSPost2010PropOp32
 70
     1
102
RTVSPost2010Prop33
280
     0
102
RTVSPost2010PropOp33
 70
     1
102
RTVSPost2010Prop34
280
     0
102
RTVSPost2010PropOp34
 70
     1
102
RTVSPost2010Prop35
280
     0
102
RTVSPost2010PropOp35
 70
     1
102
RTVSPost2010Prop36
280
     0
102
RTVSPost2010PropOp36
 70
     1
102
RTVSPost2010Prop37
 90
       50
102
RTVSPost2010PropOp37
 70
     1
102
RTVSPost2010Prop38
140
0.0
102
RTVSPost2010PropOp38
 70
     1
102
RTVSPost2010Prop39
140
1.0
102
RTVSPost2010PropOp39
 70
     1
102
RTVSPost2010Prop40
 90
        0
102
RTVSPost2010PropOp40
 70
     1
102
RTVSPost2010Prop41ColorIndex
 90
       18
102
RTVSPost2010Prop41ColorRGB
 90
        0
102
RTVSPost2010PropOp41
 70
     1
102
RTVSPost2010Prop42
 90
       50
102
RTVSPost2010PropOp42
 70
     1
102
RTVSPost2010Prop43
 90
        3
102
RTVSPost2010PropOp43
 70
     1
102
RTVSPost2010Prop44ColorIndex
 90
        5
102
RTVSPost2010Prop44ColorRGB
 90
      255
102
RTVSPost2010PropOp44
 70
     1
102
RTVSPost2010Prop45
280
     0
102
RTVSPost2010PropOp45
 70
     1
102
RTVSPost2010Prop46
 90
       50
102
RTVSPost2010PropOp46
 70
     1
102
RTVSPost2010Prop47
 90
       50
102
RTVSPost2010PropOp47
 70
     1
102
RTVSPost2010Prop48
 90
       50
102
RTVSPost2010PropOp48
 70
     1
102
RTVSPost2010Prop49
280
     0
102
RTVSPost2010PropOp49
 70
     1
102
RTVSPost2010Prop50
 90
       50
102
RTVSPost2010PropOp50
 70
     1
102
RTVSPost2010Prop51ColorIndex
 90
      256
102
RTVSPost2010Prop51ColorRGB
 90
-16777216
102
RTVSPost2010PropOp51
 70
     0
102
RTVSPost2010Prop52
140
1.0
102
RTVSPost2010PropOp52
 70
     0
102
RTVSPost2010Prop53
 90
        2
102
RTVSPost2010PropOp53
 70
     1
102
RTVSPost2010Prop54
  1
strokes_ogs.tif
102
RTVSPost2010PropOp54
 70
     1
102
RTVSPost2010Prop55
280
     0
102
RTVSPost2010PropOp55
 70
     1
102
RTVSPost2010Prop56
140
1.0
102
RTVSPost2010PropOp56
 70
     1
102
RTVSPost2010Prop57
140
1.0
102
RTVSPost2010PropOp57
 70
     1
  0
XRECORD
  5
504
102
{ACAD_REACTORS
330
503
102
}
330
503
100
AcDbXrecord
280
     1
102
RTVSPropertyOp0
 70
     1
102
RTVSPropertyOp1
 70
     1
102
RTVSPropertyOp2
 70
     1
102
RTVSPropertyOp3
 70
     1
102
RTVSPropertyOp4
 70
     1
102
RTVSPropertyOp5
 70
     1
102
RTVSPropertyOp6
 70
     1
102
RTVSPropertyOp7
 70
     1
102
RTVSPropertyOp8
 70
     1
102
RTVSPropertyOp9
 70
     1
102
RTVSPropertyOp10
 70
     1
102
RTVSPropertyOp11
 70
     1
102
RTVSPropertyOp12
 70
     1
102
RTVSPropertyOp13
 70
     1
102
RTVSPropertyOp14
 70
     1
102
RTVSPropertyOp15
 70
     1
102
RTVSPropertyOp16
 70
     1
102
RTVSPropertyOp17
 70
     1
102
RTVSPropertyOp18
 70
     1
102
RTVSPropertyOp19
 70
     1
102
RTVSPropertyOp20
 70
     1
102
RTVSPropertyOp21
 70
     1
102
RTVSPropertyOp22
 70
     1
102
RTVSPropertyOp23
 70
     1
102
RTVSPropertyOp24
 70
     1
102
RTVSPropertyOp25
 70
     1
102
RTVSPropertyOp26
 70
     1
102
RTVSPropertyOp27
 70
     1
102
RTVSPropertyOp28
 70
     1
102
RTVSPropertyOp29
 70
     1
102
RTVSPropertyOp30
 70
     1
102
RTVSPropertyOp31
 70
     1
102
RTVSPropertyOp32
 70
     1
102
RTVSPropertyOp33
 70
     1
102
RTVSPropertyOp34
 70
     1
102
RTVSPropertyOp35
 70
     1
102
RTVSPropertyOp36
 70
     1
102
RTVSPropertyOp37
 70
     1
102
RTVSPropertyOp38
 70
     1
102
RTVSPropertyOp39
 70
     1
102
RTVSPropertyOp40
 70
     1
102
RTVSPropertyOp41
 70
     1
102
RTVSPropertyOp42
 70
     1
102
RTVSPropertyOp43
 70
     1
102
RTVSPropertyOp44
 70
     1
102
RTVSPropertyOp45
 70
     1
102
RTVSPropertyOp46
 70
     1
102
RTVSPropertyOp47
 70
     1
102
RTVSPropertyOp48
 70
     1
102
RTVSPropertyOp49
 70
     1
102
RTVSPropertyOp50
 70
     1
102
RTVSPropertyOp51
 70
     0
102
RTVSPropertyOp52
 70
     0
102
RTVSPropertyOp53
 70
     1
102
RTVSPropertyOp54
 70
     1
102
RTVSPropertyOp55
 70
     1
102
RTVSPropertyOp56
 70
     1
102
RTVSPropertyOp57
 70
     1
102
RTVSPost2010Prop28
280
     0
102
RTVSPost2010PropOp28
 70
     1
102
RTVSPost2010Prop29
280
     1
102
RTVSPost2010PropOp29
 70
     1
102
RTVSPost2010Prop30
280
     1
102
RTVSPost2010PropOp30
 70
     1
102
RTVSPost2010Prop31
280
     0
102
RTVSPost2010PropOp31
 70
     1
102
RTVSPost2010Prop32
280
     0
102
RTVSPost2010PropOp32
 70
     1
102
RTVSPost2010Prop33
280
     0
102
RTVSPost2010PropOp33
 70
     1
102
RTVSPost2010Prop34
280
     0
102
RTVSPost2010PropOp34
 70
     1
102
RTVSPost2010Prop35
280
     0
102
RTVSPost2010PropOp35
 70
     1
102
RTVSPost2010Prop36
280
     0
102
RTVSPost2010PropOp36
 70
     1
102
RTVSPost2010Prop37
 90
       50
102
RTVSPost2010PropOp37
 70
     1
102
RTVSPost2010Prop38
140
0.0
102
RTVSPost2010PropOp38
 70
     1
102
RTVSPost2010Prop39
140
1.0
102
RTVSPost2010PropOp39
 70
     1
102
RTVSPost2010Prop40
 90
        0
102
RTVSPost2010PropOp40
 70
     1
102
RTVSPost2010Prop41ColorIndex
 90
       18
102
RTVSPost2010Prop41ColorRGB
 90
        0
102
RTVSPost2010PropOp41
 70
     1
102
RTVSPost2010Prop42
 90
       50
102
RTVSPost2010PropOp42
 70
     1
102
RTVSPost2010Prop43
 90
        3
102
RTVSPost2010PropOp43
 70
     1
102
RTVSPost2010Prop44ColorIndex
 90
        5
102
RTVSPost2010Prop44ColorRGB
 90
      255
102
RTVSPost2010PropOp44
 70
     1
102
RTVSPost2010Prop45
280
     0
102
RTVSPost2010PropOp45
 70
     1
102
RTVSPost2010Prop46
 90
       50
102
RTVSPost2010PropOp46
 70
     1
102
RTVSPost2010Prop47
 90
       50
102
RTVSPost2010PropOp47
 70
     1
102
RTVSPost2010Prop48
 90
       50
102
RTVSPost2010PropOp48
 70
     1
102
RTVSPost2010Prop49
280
     0
102
RTVSPost2010PropOp49
 70
     1
102
RTVSPost2010Prop50
 90
       50
102
RTVSPost2010PropOp50
 70
     1
102
RTVSPost2010Prop51ColorIndex
 90
      256
102
RTVSPost2010Prop51ColorRGB
 90
-16777216
102
RTVSPost2010PropOp51
 70
     0
102
RTVSPost2010Prop52
140
1.0
102
RTVSPost2010PropOp52
 70
     0
102
RTVSPost2010Prop53
 90
        2
102
RTVSPost2010PropOp53
 70
     1
102
RTVSPost2010Prop54
  1
strokes_ogs.tif
102
RTVSPost2010PropOp54
 70
     1
102
RTVSPost2010Prop55
280
     0
102
RTVSPost2010PropOp55
 70
     1
102
RTVSPost2010Prop56
140
1.0
102
RTVSPost2010PropOp56
 70
     1
102
RTVSPost2010Prop57
140
1.0
102
RTVSPost2010PropOp57
 70
     1
  0
XRECORD
  5
514
102
{ACAD_REACTORS
330
513
102
}
330
513
100
AcDbXrecord
280
     1
102
RTVSPropertyOp0
 70
     0
102
RTVSPropertyOp1
 70
     0
102
RTVSPropertyOp2
 70
     0
102
RTVSPropertyOp3
 70
     0
102
RTVSPropertyOp4
 70
     0
102
RTVSPropertyOp5
 70
     0
102
RTVSPropertyOp6
 70
     0
102
RTVSPropertyOp7
 70
     0
102
RTVSPropertyOp8
 70
     0
102
RTVSPropertyOp9
 70
     0
102
RTVSPropertyOp10
 70
     0
102
RTVSPropertyOp11
 70
     0
102
RTVSPropertyOp12
 70
     0
102
RTVSPropertyOp13
 70
     0
102
RTVSPropertyOp14
 70
     2
102
RTVSPropertyOp15
 70
     0
102
RTVSPropertyOp16
 70
     0
102
RTVSPropertyOp17
 70
     0
102
RTVSPropertyOp18
 70
     0
102
RTVSPropertyOp19
 70
     0
102
RTVSPropertyOp20
 70
     0
102
RTVSPropertyOp21
 70
     0
102
RTVSPropertyOp22
 70
     0
102
RTVSPropertyOp23
 70
     0
102
RTVSPropertyOp24
 70
     0
102
RTVSPropertyOp25
 70
     0
102
RTVSPropertyOp26
 70
     0
102
RTVSPropertyOp27
 70
     0
102
RTVSPropertyOp28
 70
     0
102
RTVSPropertyOp29
 70
     0
102
RTVSPropertyOp30
 70
     0
102
RTVSPropertyOp31
 70
     0
102
RTVSPropertyOp32
 70
     0
102
RTVSPropertyOp33
 70
     0
102
RTVSPropertyOp34
 70
     0
102
RTVSPropertyOp35
 70
     0
102
RTVSPropertyOp36
 70
     0
102
RTVSPropertyOp37
 70
     0
102
RTVSPropertyOp38
 70
     0
102
RTVSPropertyOp39
 70
     0
102
RTVSPropertyOp40
 70
     0
102
RTVSPropertyOp41
 70
     0
102
RTVSPropertyOp42
 70
     0
102
RTVSPropertyOp43
 70
     0
102
RTVSPropertyOp44
 70
     0
102
RTVSPropertyOp45
 70
     0
102
RTVSPropertyOp46
 70
     0
102
RTVSPropertyOp47
 70
     0
102
RTVSPropertyOp48
 70
     0
102
RTVSPropertyOp49
 70
     0
102
RTVSPropertyOp50
 70
     0
102
RTVSPropertyOp51
 70
     0
102
RTVSPropertyOp52
 70
     0
102
RTVSPropertyOp53
 70
     0
102
RTVSPropertyOp54
 70
     0
102
RTVSPropertyOp55
 70
     0
102
RTVSPropertyOp56
 70
     0
102
RTVSPropertyOp57
 70
     0
102
RTVSPost2010Prop28
280
     0
102
RTVSPost2010PropOp28
 70
     0
102
RTVSPost2010Prop29
280
     1
102
RTVSPost2010PropOp29
 70
     0
102
RTVSPost2010Prop30
280
     1
102
RTVSPost2010PropOp30
 70
     0
102
RTVSPost2010Prop31
280
     0
102
RTVSPost2010PropOp31
 70
     0
102
RTVSPost2010Prop32
280
     0
102
RTVSPost2010PropOp32
 70
     0
102
RTVSPost2010Prop33
280
     0
102
RTVSPost2010PropOp33
 70
     0
102
RTVSPost2010Prop34
280
     0
102
RTVSPost2010PropOp34
 70
     0
102
RTVSPost2010Prop35
280
     0
102
RTVSPost2010PropOp35
 70
     0
102
RTVSPost2010Prop36
280
     0
102
RTVSPost2010PropOp36
 70
     0
102
RTVSPost2010Prop37
 90
       50
102
RTVSPost2010PropOp37
 70
     0
102
RTVSPost2010Prop38
140
0.0
102
RTVSPost2010PropOp38
 70
     0
102
RTVSPost2010Prop39
140
1.0
102
RTVSPost2010PropOp39
 70
     0
102
RTVSPost2010Prop40
 90
        0
102
RTVSPost2010PropOp40
 70
     0
102
RTVSPost2010Prop41ColorIndex
 90
       18
102
RTVSPost2010Prop41ColorRGB
 90
        0
102
RTVSPost2010PropOp41
 70
     0
102
RTVSPost2010Prop42
 90
       50
102
RTVSPost2010PropOp42
 70
     0
102
RTVSPost2010Prop43
 90
        3
102
RTVSPost2010PropOp43
 70
     0
102
RTVSPost2010Prop44ColorIndex
 90
        5
102
RTVSPost2010Prop44ColorRGB
 90
      255
102
RTVSPost2010PropOp44
 70
     0
102
RTVSPost2010Prop45
280
     0
102
RTVSPost2010PropOp45
 70
     0
102
RTVSPost2010Prop46
 90
       50
102
RTVSPost2010PropOp46
 70
     0
102
RTVSPost2010Prop47
 90
       50
102
RTVSPost2010PropOp47
 70
     0
102
RTVSPost2010Prop48
 90
       50
102
RTVSPost2010PropOp48
 70
     0
102
RTVSPost2010Prop49
280
     0
102
RTVSPost2010PropOp49
 70
     0
102
RTVSPost2010Prop50
 90
       50
102
RTVSPost2010PropOp50
 70
     0
102
RTVSPost2010Prop51ColorIndex
 90
      256
102
RTVSPost2010Prop51ColorRGB
 90
-16777216
102
RTVSPost2010PropOp51
 70
     0
102
RTVSPost2010Prop52
140
1.0
102
RTVSPost2010PropOp52
 70
     0
102
RTVSPost2010Prop53
 90
        2
102
RTVSPost2010PropOp53
 70
     0
102
RTVSPost2010Prop54
  1
strokes_ogs.tif
102
RTVSPost2010PropOp54
 70
     0
102
RTVSPost2010Prop55
280
     0
102
RTVSPost2010PropOp55
 70
     0
102
RTVSPost2010Prop56
140
1.0
102
RTVSPost2010PropOp56
 70
     0
102
RTVSPost2010Prop57
140
1.0
102
RTVSPost2010PropOp57
 70
     0
  0
XRECORD
  5
50C
102
{ACAD_REACTORS
330
50B
102
}
330
50B
100
AcDbXrecord
280
     1
102
RTVSPropertyOp0
 70
     1
102
RTVSPropertyOp1
 70
     1
102
RTVSPropertyOp2
 70
     1
102
RTVSPropertyOp3
 70
     1
102
RTVSPropertyOp4
 70
     1
102
RTVSPropertyOp5
 70
     1
102
RTVSPropertyOp6
 70
     1
102
RTVSPropertyOp7
 70
     1
102
RTVSPropertyOp8
 70
     1
102
RTVSPropertyOp9
 70
     1
102
RTVSPropertyOp10
 70
     1
102
RTVSPropertyOp11
 70
     1
102
RTVSPropertyOp12
 70
     1
102
RTVSPropertyOp13
 70
     1
102
RTVSPropertyOp14
 70
     1
102
RTVSPropertyOp15
 70
     1
102
RTVSPropertyOp16
 70
     1
102
RTVSPropertyOp17
 70
     1
102
RTVSPropertyOp18
 70
     1
102
RTVSPropertyOp19
 70
     1
102
RTVSPropertyOp20
 70
     1
102
RTVSPropertyOp21
 70
     1
102
RTVSPropertyOp22
 70
     1
102
RTVSPropertyOp23
 70
     1
102
RTVSPropertyOp24
 70
     1
102
RTVSPropertyOp25
 70
     1
102
RTVSPropertyOp26
 70
     1
102
RTVSPropertyOp27
 70
     1
102
RTVSPropertyOp28
 70
     1
102
RTVSPropertyOp29
 70
     1
102
RTVSPropertyOp30
 70
     1
102
RTVSPropertyOp31
 70
     1
102
RTVSPropertyOp32
 70
     1
102
RTVSPropertyOp33
 70
     1
102
RTVSPropertyOp34
 70
     1
102
RTVSPropertyOp35
 70
     1
102
RTVSPropertyOp36
 70
     1
102
RTVSPropertyOp37
 70
     1
102
RTVSPropertyOp38
 70
     1
102
RTVSPropertyOp39
 70
     1
102
RTVSPropertyOp40
 70
     1
102
RTVSPropertyOp41
 70
     1
102
RTVSPropertyOp42
 70
     1
102
RTVSPropertyOp43
 70
     1
102
RTVSPropertyOp44
 70
     1
102
RTVSPropertyOp45
 70
     1
102
RTVSPropertyOp46
 70
     1
102
RTVSPropertyOp47
 70
     1
102
RTVSPropertyOp48
 70
     1
102
RTVSPropertyOp49
 70
     1
102
RTVSPropertyOp50
 70
     1
102
RTVSPropertyOp51
 70
     0
102
RTVSPropertyOp52
 70
     0
102
RTVSPropertyOp53
 70
     1
102
RTVSPropertyOp54
 70
     1
102
RTVSPropertyOp55
 70
     1
102
RTVSPropertyOp56
 70
     1
102
RTVSPropertyOp57
 70
     1
102
RTVSPost2010Prop28
280
     0
102
RTVSPost2010PropOp28
 70
     1
102
RTVSPost2010Prop29
280
     1
102
RTVSPost2010PropOp29
 70
     1
102
RTVSPost2010Prop30
280
     1
102
RTVSPost2010PropOp30
 70
     1
102
RTVSPost2010Prop31
280
     0
102
RTVSPost2010PropOp31
 70
     1
102
RTVSPost2010Prop32
280
     0
102
RTVSPost2010PropOp32
 70
     1
102
RTVSPost2010Prop33
280
     0
102
RTVSPost2010PropOp33
 70
     1
102
RTVSPost2010Prop34
280
     0
102
RTVSPost2010PropOp34
 70
     1
102
RTVSPost2010Prop35
280
     0
102
RTVSPost2010PropOp35
 70
     1
102
RTVSPost2010Prop36
280
     0
102
RTVSPost2010PropOp36
 70
     1
102
RTVSPost2010Prop37
 90
       50
102
RTVSPost2010PropOp37
 70
     1
102
RTVSPost2010Prop38
140
0.0
102
RTVSPost2010PropOp38
 70
     1
102
RTVSPost2010Prop39
140
1.0
102
RTVSPost2010PropOp39
 70
     1
102
RTVSPost2010Prop40
 90
        0
102
RTVSPost2010PropOp40
 70
     1
102
RTVSPost2010Prop41ColorIndex
 90
       18
102
RTVSPost2010Prop41ColorRGB
 90
        0
102
RTVSPost2010PropOp41
 70
     1
102
RTVSPost2010Prop42
 90
       50
102
RTVSPost2010PropOp42
 70
     1
102
RTVSPost2010Prop43
 90
        3
102
RTVSPost2010PropOp43
 70
     1
102
RTVSPost2010Prop44ColorIndex
 90
        5
102
RTVSPost2010Prop44ColorRGB
 90
      255
102
RTVSPost2010PropOp44
 70
     1
102
RTVSPost2010Prop45
280
     0
102
RTVSPost2010PropOp45
 70
     1
102
RTVSPost2010Prop46
 90
       50
102
RTVSPost2010PropOp46
 70
     1
102
RTVSPost2010Prop47
 90
       50
102
RTVSPost2010PropOp47
 70
     1
102
RTVSPost2010Prop48
 90
       50
102
RTVSPost2010PropOp48
 70
     1
102
RTVSPost2010Prop49
280
     0
102
RTVSPost2010PropOp49
 70
     1
102
RTVSPost2010Prop50
 90
       50
102
RTVSPost2010PropOp50
 70
     1
102
RTVSPost2010Prop51ColorIndex
 90
      256
102
RTVSPost2010Prop51ColorRGB
 90
-16777216
102
RTVSPost2010PropOp51
 70
     0
102
RTVSPost2010Prop52
140
1.0
102
RTVSPost2010PropOp52
 70
     0
102
RTVSPost2010Prop53
 90
        2
102
RTVSPost2010PropOp53
 70
     1
102
RTVSPost2010Prop54
  1
strokes_ogs.tif
102
RTVSPost2010PropOp54
 70
     1
102
RTVSPost2010Prop55
280
     0
102
RTVSPost2010PropOp55
 70
     1
102
RTVSPost2010Prop56
140
1.0
102
RTVSPost2010PropOp56
 70
     1
102
RTVSPost2010Prop57
140
1.0
102
RTVSPost2010PropOp57
 70
     1
  0
XRECORD
  5
4F0
102
{ACAD_REACTORS
330
4EF
102
}
330
4EF
100
AcDbXrecord
280
     1
102
RTVSPropertyOp0
 70
     1
102
RTVSPropertyOp1
 70
     1
102
RTVSPropertyOp2
 70
     1
102
RTVSPropertyOp3
 70
     1
102
RTVSPropertyOp4
 70
     1
102
RTVSPropertyOp5
 70
     1
102
RTVSPropertyOp6
 70
     1
102
RTVSPropertyOp7
 70
     1
102
RTVSPropertyOp8
 70
     1
102
RTVSPropertyOp9
 70
     1
102
RTVSPropertyOp10
 70
     1
102
RTVSPropertyOp11
 70
     1
102
RTVSPropertyOp12
 70
     1
102
RTVSPropertyOp13
 70
     1
102
RTVSPropertyOp14
 70
     1
102
RTVSPropertyOp15
 70
     1
102
RTVSPropertyOp16
 70
     1
102
RTVSPropertyOp17
 70
     1
102
RTVSPropertyOp18
 70
     1
102
RTVSPropertyOp19
 70
     1
102
RTVSPropertyOp20
 70
     1
102
RTVSPropertyOp21
 70
     1
102
RTVSPropertyOp22
 70
     1
102
RTVSPropertyOp23
 70
     1
102
RTVSPropertyOp24
 70
     1
102
RTVSPropertyOp25
 70
     1
102
RTVSPropertyOp26
 70
     1
102
RTVSPropertyOp27
 70
     1
102
RTVSPropertyOp28
 70
     1
102
RTVSPropertyOp29
 70
     1
102
RTVSPropertyOp30
 70
     1
102
RTVSPropertyOp31
 70
     1
102
RTVSPropertyOp32
 70
     1
102
RTVSPropertyOp33
 70
     1
102
RTVSPropertyOp34
 70
     1
102
RTVSPropertyOp35
 70
     1
102
RTVSPropertyOp36
 70
     1
102
RTVSPropertyOp37
 70
     1
102
RTVSPropertyOp38
 70
     1
102
RTVSPropertyOp39
 70
     1
102
RTVSPropertyOp40
 70
     1
102
RTVSPropertyOp41
 70
     1
102
RTVSPropertyOp42
 70
     1
102
RTVSPropertyOp43
 70
     1
102
RTVSPropertyOp44
 70
     1
102
RTVSPropertyOp45
 70
     1
102
RTVSPropertyOp46
 70
     1
102
RTVSPropertyOp47
 70
     1
102
RTVSPropertyOp48
 70
     1
102
RTVSPropertyOp49
 70
     1
102
RTVSPropertyOp50
 70
     1
102
RTVSPropertyOp51
 70
     0
102
RTVSPropertyOp52
 70
     0
102
RTVSPropertyOp53
 70
     1
102
RTVSPropertyOp54
 70
     1
102
RTVSPropertyOp55
 70
     1
102
RTVSPropertyOp56
 70
     1
102
RTVSPropertyOp57
 70
     1
102
RTVSPost2010Prop28
280
     0
102
RTVSPost2010PropOp28
 70
     1
102
RTVSPost2010Prop29
280
     1
102
RTVSPost2010PropOp29
 70
     1
102
RTVSPost2010Prop30
280
     1
102
RTVSPost2010PropOp30
 70
     1
102
RTVSPost2010Prop31
280
     0
102
RTVSPost2010PropOp31
 70
     1
102
RTVSPost2010Prop32
280
     0
102
RTVSPost2010PropOp32
 70
     1
102
RTVSPost2010Prop33
280
     0
102
RTVSPost2010PropOp33
 70
     1
102
RTVSPost2010Prop34
280
     0
102
RTVSPost2010PropOp34
 70
     1
102
RTVSPost2010Prop35
280
     0
102
RTVSPost2010PropOp35
 70
     1
102
RTVSPost2010Prop36
280
     0
102
RTVSPost2010PropOp36
 70
     1
102
RTVSPost2010Prop37
 90
       50
102
RTVSPost2010PropOp37
 70
     1
102
RTVSPost2010Prop38
140
0.0
102
RTVSPost2010PropOp38
 70
     1
102
RTVSPost2010Prop39
140
1.0
102
RTVSPost2010PropOp39
 70
     1
102
RTVSPost2010Prop40
 90
        0
102
RTVSPost2010PropOp40
 70
     1
102
RTVSPost2010Prop41ColorIndex
 90
       18
102
RTVSPost2010Prop41ColorRGB
 90
        0
102
RTVSPost2010PropOp41
 70
     1
102
RTVSPost2010Prop42
 90
       50
102
RTVSPost2010PropOp42
 70
     1
102
RTVSPost2010Prop43
 90
        3
102
RTVSPost2010PropOp43
 70
     1
102
RTVSPost2010Prop44ColorIndex
 90
        5
102
RTVSPost2010Prop44ColorRGB
 90
      255
102
RTVSPost2010PropOp44
 70
     1
102
RTVSPost2010Prop45
280
     0
102
RTVSPost2010PropOp45
 70
     1
102
RTVSPost2010Prop46
 90
       50
102
RTVSPost2010PropOp46
 70
     1
102
RTVSPost2010Prop47
 90
       50
102
RTVSPost2010PropOp47
 70
     1
102
RTVSPost2010Prop48
 90
       50
102
RTVSPost2010PropOp48
 70
     1
102
RTVSPost2010Prop49
280
     0
102
RTVSPost2010PropOp49
 70
     1
102
RTVSPost2010Prop50
 90
       50
102
RTVSPost2010PropOp50
 70
     1
102
RTVSPost2010Prop51ColorIndex
 90
      256
102
RTVSPost2010Prop51ColorRGB
 90
-16777216
102
RTVSPost2010PropOp51
 70
     0
102
RTVSPost2010Prop52
140
1.0
102
RTVSPost2010PropOp52
 70
     0
102
RTVSPost2010Prop53
 90
        2
102
RTVSPost2010PropOp53
 70
     1
102
RTVSPost2010Prop54
  1
strokes_ogs.tif
102
RTVSPost2010PropOp54
 70
     1
102
RTVSPost2010Prop55
280
     0
102
RTVSPost2010PropOp55
 70
     1
102
RTVSPost2010Prop56
140
1.0
102
RTVSPost2010PropOp56
 70
     1
102
RTVSPost2010Prop57
140
1.0
102
RTVSPost2010PropOp57
 70
     1
  0
XRECORD
  5
4F2
102
{ACAD_REACTORS
330
4F1
102
}
330
4F1
100
AcDbXrecord
280
     1
102
RTVSPropertyOp0
 70
     1
102
RTVSPropertyOp1
 70
     1
102
RTVSPropertyOp2
 70
     1
102
RTVSPropertyOp3
 70
     1
102
RTVSPropertyOp4
 70
     1
102
RTVSPropertyOp5
 70
     1
102
RTVSPropertyOp6
 70
     1
102
RTVSPropertyOp7
 70
     1
102
RTVSPropertyOp8
 70
     1
102
RTVSPropertyOp9
 70
     1
102
RTVSPropertyOp10
 70
     1
102
RTVSPropertyOp11
 70
     1
102
RTVSPropertyOp12
 70
     1
102
RTVSPropertyOp13
 70
     1
102
RTVSPropertyOp14
 70
     1
102
RTVSPropertyOp15
 70
     1
102
RTVSPropertyOp16
 70
     1
102
RTVSPropertyOp17
 70
     1
102
RTVSPropertyOp18
 70
     1
102
RTVSPropertyOp19
 70
     1
102
RTVSPropertyOp20
 70
     1
102
RTVSPropertyOp21
 70
     1
102
RTVSPropertyOp22
 70
     1
102
RTVSPropertyOp23
 70
     1
102
RTVSPropertyOp24
 70
     1
102
RTVSPropertyOp25
 70
     1
102
RTVSPropertyOp26
 70
     1
102
RTVSPropertyOp27
 70
     1
102
RTVSPropertyOp28
 70
     1
102
RTVSPropertyOp29
 70
     1
102
RTVSPropertyOp30
 70
     1
102
RTVSPropertyOp31
 70
     1
102
RTVSPropertyOp32
 70
     1
102
RTVSPropertyOp33
 70
     1
102
RTVSPropertyOp34
 70
     1
102
RTVSPropertyOp35
 70
     1
102
RTVSPropertyOp36
 70
     1
102
RTVSPropertyOp37
 70
     1
102
RTVSPropertyOp38
 70
     1
102
RTVSPropertyOp39
 70
     1
102
RTVSPropertyOp40
 70
     1
102
RTVSPropertyOp41
 70
     1
102
RTVSPropertyOp42
 70
     1
102
RTVSPropertyOp43
 70
     1
102
RTVSPropertyOp44
 70
     1
102
RTVSPropertyOp45
 70
     1
102
RTVSPropertyOp46
 70
     1
102
RTVSPropertyOp47
 70
     1
102
RTVSPropertyOp48
 70
     1
102
RTVSPropertyOp49
 70
     1
102
RTVSPropertyOp50
 70
     1
102
RTVSPropertyOp51
 70
     0
102
RTVSPropertyOp52
 70
     0
102
RTVSPropertyOp53
 70
     1
102
RTVSPropertyOp54
 70
     1
102
RTVSPropertyOp55
 70
     1
102
RTVSPropertyOp56
 70
     1
102
RTVSPropertyOp57
 70
     1
102
RTVSPost2010Prop28
280
     0
102
RTVSPost2010PropOp28
 70
     1
102
RTVSPost2010Prop29
280
     1
102
RTVSPost2010PropOp29
 70
     1
102
RTVSPost2010Prop30
280
     1
102
RTVSPost2010PropOp30
 70
     1
102
RTVSPost2010Prop31
280
     0
102
RTVSPost2010PropOp31
 70
     1
102
RTVSPost2010Prop32
280
     0
102
RTVSPost2010PropOp32
 70
     1
102
RTVSPost2010Prop33
280
     0
102
RTVSPost2010PropOp33
 70
     1
102
RTVSPost2010Prop34
280
     0
102
RTVSPost2010PropOp34
 70
     1
102
RTVSPost2010Prop35
280
     0
102
RTVSPost2010PropOp35
 70
     1
102
RTVSPost2010Prop36
280
     0
102
RTVSPost2010PropOp36
 70
     1
102
RTVSPost2010Prop37
 90
       50
102
RTVSPost2010PropOp37
 70
     1
102
RTVSPost2010Prop38
140
0.0
102
RTVSPost2010PropOp38
 70
     1
102
RTVSPost2010Prop39
140
1.0
102
RTVSPost2010PropOp39
 70
     1
102
RTVSPost2010Prop40
 90
        0
102
RTVSPost2010PropOp40
 70
     1
102
RTVSPost2010Prop41ColorIndex
 90
       18
102
RTVSPost2010Prop41ColorRGB
 90
        0
102
RTVSPost2010PropOp41
 70
     1
102
RTVSPost2010Prop42
 90
       50
102
RTVSPost2010PropOp42
 70
     1
102
RTVSPost2010Prop43
 90
        3
102
RTVSPost2010PropOp43
 70
     1
102
RTVSPost2010Prop44ColorIndex
 90
        5
102
RTVSPost2010Prop44ColorRGB
 90
      255
102
RTVSPost2010PropOp44
 70
     1
102
RTVSPost2010Prop45
280
     0
102
RTVSPost2010PropOp45
 70
     1
102
RTVSPost2010Prop46
 90
       50
102
RTVSPost2010PropOp46
 70
     1
102
RTVSPost2010Prop47
 90
       50
102
RTVSPost2010PropOp47
 70
     1
102
RTVSPost2010Prop48
 90
       50
102
RTVSPost2010PropOp48
 70
     1
102
RTVSPost2010Prop49
280
     0
102
RTVSPost2010PropOp49
 70
     1
102
RTVSPost2010Prop50
 90
       50
102
RTVSPost2010PropOp50
 70
     1
102
RTVSPost2010Prop51ColorIndex
 90
      256
102
RTVSPost2010Prop51ColorRGB
 90
-16777216
102
RTVSPost2010PropOp51
 70
     0
102
RTVSPost2010Prop52
140
1.0
102
RTVSPost2010PropOp52
 70
     0
102
RTVSPost2010Prop53
 90
        2
102
RTVSPost2010PropOp53
 70
     1
102
RTVSPost2010Prop54
  1
strokes_ogs.tif
102
RTVSPost2010PropOp54
 70
     1
102
RTVSPost2010Prop55
280
     0
102
RTVSPost2010PropOp55
 70
     1
102
RTVSPost2010Prop56
140
1.0
102
RTVSPost2010PropOp56
 70
     1
102
RTVSPost2010Prop57
140
1.0
102
RTVSPost2010PropOp57
 70
     1
  0
XRECORD
  5
4F4
102
{ACAD_REACTORS
330
4F3
102
}
330
4F3
100
AcDbXrecord
280
     1
102
RTVSPropertyOp0
 70
     1
102
RTVSPropertyOp1
 70
     1
102
RTVSPropertyOp2
 70
     1
102
RTVSPropertyOp3
 70
     1
102
RTVSPropertyOp4
 70
     1
102
RTVSPropertyOp5
 70
     1
102
RTVSPropertyOp6
 70
     1
102
RTVSPropertyOp7
 70
     1
102
RTVSPropertyOp8
 70
     1
102
RTVSPropertyOp9
 70
     1
102
RTVSPropertyOp10
 70
     1
102
RTVSPropertyOp11
 70
     1
102
RTVSPropertyOp12
 70
     1
102
RTVSPropertyOp13
 70
     1
102
RTVSPropertyOp14
 70
     1
102
RTVSPropertyOp15
 70
     1
102
RTVSPropertyOp16
 70
     1
102
RTVSPropertyOp17
 70
     1
102
RTVSPropertyOp18
 70
     1
102
RTVSPropertyOp19
 70
     1
102
RTVSPropertyOp20
 70
     1
102
RTVSPropertyOp21
 70
     1
102
RTVSPropertyOp22
 70
     1
102
RTVSPropertyOp23
 70
     1
102
RTVSPropertyOp24
 70
     1
102
RTVSPropertyOp25
 70
     1
102
RTVSPropertyOp26
 70
     1
102
RTVSPropertyOp27
 70
     1
102
RTVSPropertyOp28
 70
     1
102
RTVSPropertyOp29
 70
     1
102
RTVSPropertyOp30
 70
     1
102
RTVSPropertyOp31
 70
     1
102
RTVSPropertyOp32
 70
     1
102
RTVSPropertyOp33
 70
     1
102
RTVSPropertyOp34
 70
     1
102
RTVSPropertyOp35
 70
     1
102
RTVSPropertyOp36
 70
     1
102
RTVSPropertyOp37
 70
     1
102
RTVSPropertyOp38
 70
     1
102
RTVSPropertyOp39
 70
     1
102
RTVSPropertyOp40
 70
     1
102
RTVSPropertyOp41
 70
     1
102
RTVSPropertyOp42
 70
     1
102
RTVSPropertyOp43
 70
     1
102
RTVSPropertyOp44
 70
     1
102
RTVSPropertyOp45
 70
     1
102
RTVSPropertyOp46
 70
     1
102
RTVSPropertyOp47
 70
     1
102
RTVSPropertyOp48
 70
     1
102
RTVSPropertyOp49
 70
     1
102
RTVSPropertyOp50
 70
     1
102
RTVSPropertyOp51
 70
     0
102
RTVSPropertyOp52
 70
     0
102
RTVSPropertyOp53
 70
     1
102
RTVSPropertyOp54
 70
     1
102
RTVSPropertyOp55
 70
     1
102
RTVSPropertyOp56
 70
     1
102
RTVSPropertyOp57
 70
     1
102
RTVSPost2010Prop28
280
     0
102
RTVSPost2010PropOp28
 70
     1
102
RTVSPost2010Prop29
280
     1
102
RTVSPost2010PropOp29
 70
     1
102
RTVSPost2010Prop30
280
     1
102
RTVSPost2010PropOp30
 70
     1
102
RTVSPost2010Prop31
280
     0
102
RTVSPost2010PropOp31
 70
     1
102
RTVSPost2010Prop32
280
     0
102
RTVSPost2010PropOp32
 70
     1
102
RTVSPost2010Prop33
280
     0
102
RTVSPost2010PropOp33
 70
     1
102
RTVSPost2010Prop34
280
     0
102
RTVSPost2010PropOp34
 70
     1
102
RTVSPost2010Prop35
280
     0
102
RTVSPost2010PropOp35
 70
     1
102
RTVSPost2010Prop36
280
     0
102
RTVSPost2010PropOp36
 70
     1
102
RTVSPost2010Prop37
 90
       50
102
RTVSPost2010PropOp37
 70
     1
102
RTVSPost2010Prop38
140
0.0
102
RTVSPost2010PropOp38
 70
     1
102
RTVSPost2010Prop39
140
1.0
102
RTVSPost2010PropOp39
 70
     1
102
RTVSPost2010Prop40
 90
        0
102
RTVSPost2010PropOp40
 70
     1
102
RTVSPost2010Prop41ColorIndex
 90
       18
102
RTVSPost2010Prop41ColorRGB
 90
        0
102
RTVSPost2010PropOp41
 70
     1
102
RTVSPost2010Prop42
 90
       50
102
RTVSPost2010PropOp42
 70
     1
102
RTVSPost2010Prop43
 90
        3
102
RTVSPost2010PropOp43
 70
     1
102
RTVSPost2010Prop44ColorIndex
 90
        5
102
RTVSPost2010Prop44ColorRGB
 90
      255
102
RTVSPost2010PropOp44
 70
     1
102
RTVSPost2010Prop45
280
     0
102
RTVSPost2010PropOp45
 70
     1
102
RTVSPost2010Prop46
 90
       50
102
RTVSPost2010PropOp46
 70
     1
102
RTVSPost2010Prop47
 90
       50
102
RTVSPost2010PropOp47
 70
     1
102
RTVSPost2010Prop48
 90
       50
102
RTVSPost2010PropOp48
 70
     1
102
RTVSPost2010Prop49
280
     0
102
RTVSPost2010PropOp49
 70
     1
102
RTVSPost2010Prop50
 90
       50
102
RTVSPost2010PropOp50
 70
     1
102
RTVSPost2010Prop51ColorIndex
 90
      256
102
RTVSPost2010Prop51ColorRGB
 90
-16777216
102
RTVSPost2010PropOp51
 70
     0
102
RTVSPost2010Prop52
140
1.0
102
RTVSPost2010PropOp52
 70
     0
102
RTVSPost2010Prop53
 90
        2
102
RTVSPost2010PropOp53
 70
     1
102
RTVSPost2010Prop54
  1
strokes_ogs.tif
102
RTVSPost2010PropOp54
 70
     1
102
RTVSPost2010Prop55
280
     0
102
RTVSPost2010PropOp55
 70
     1
102
RTVSPost2010Prop56
140
1.0
102
RTVSPost2010PropOp56
 70
     1
102
RTVSPost2010Prop57
140
1.0
102
RTVSPost2010PropOp57
 70
     1
  0
XRECORD
  5
4F6
102
{ACAD_REACTORS
330
4F5
102
}
330
4F5
100
AcDbXrecord
280
     1
102
RTVSPropertyOp0
 70
     1
102
RTVSPropertyOp1
 70
     1
102
RTVSPropertyOp2
 70
     1
102
RTVSPropertyOp3
 70
     1
102
RTVSPropertyOp4
 70
     1
102
RTVSPropertyOp5
 70
     1
102
RTVSPropertyOp6
 70
     1
102
RTVSPropertyOp7
 70
     1
102
RTVSPropertyOp8
 70
     1
102
RTVSPropertyOp9
 70
     1
102
RTVSPropertyOp10
 70
     1
102
RTVSPropertyOp11
 70
     1
102
RTVSPropertyOp12
 70
     1
102
RTVSPropertyOp13
 70
     1
102
RTVSPropertyOp14
 70
     1
102
RTVSPropertyOp15
 70
     1
102
RTVSPropertyOp16
 70
     1
102
RTVSPropertyOp17
 70
     1
102
RTVSPropertyOp18
 70
     1
102
RTVSPropertyOp19
 70
     1
102
RTVSPropertyOp20
 70
     1
102
RTVSPropertyOp21
 70
     1
102
RTVSPropertyOp22
 70
     1
102
RTVSPropertyOp23
 70
     1
102
RTVSPropertyOp24
 70
     1
102
RTVSPropertyOp25
 70
     1
102
RTVSPropertyOp26
 70
     1
102
RTVSPropertyOp27
 70
     1
102
RTVSPropertyOp28
 70
     1
102
RTVSPropertyOp29
 70
     1
102
RTVSPropertyOp30
 70
     1
102
RTVSPropertyOp31
 70
     1
102
RTVSPropertyOp32
 70
     1
102
RTVSPropertyOp33
 70
     1
102
RTVSPropertyOp34
 70
     1
102
RTVSPropertyOp35
 70
     1
102
RTVSPropertyOp36
 70
     1
102
RTVSPropertyOp37
 70
     1
102
RTVSPropertyOp38
 70
     1
102
RTVSPropertyOp39
 70
     1
102
RTVSPropertyOp40
 70
     1
102
RTVSPropertyOp41
 70
     1
102
RTVSPropertyOp42
 70
     1
102
RTVSPropertyOp43
 70
     1
102
RTVSPropertyOp44
 70
     1
102
RTVSPropertyOp45
 70
     1
102
RTVSPropertyOp46
 70
     1
102
RTVSPropertyOp47
 70
     1
102
RTVSPropertyOp48
 70
     1
102
RTVSPropertyOp49
 70
     1
102
RTVSPropertyOp50
 70
     1
102
RTVSPropertyOp51
 70
     0
102
RTVSPropertyOp52
 70
     0
102
RTVSPropertyOp53
 70
     1
102
RTVSPropertyOp54
 70
     1
102
RTVSPropertyOp55
 70
     1
102
RTVSPropertyOp56
 70
     1
102
RTVSPropertyOp57
 70
     1
102
RTVSPost2010Prop28
280
     0
102
RTVSPost2010PropOp28
 70
     1
102
RTVSPost2010Prop29
280
     1
102
RTVSPost2010PropOp29
 70
     1
102
RTVSPost2010Prop30
280
     1
102
RTVSPost2010PropOp30
 70
     1
102
RTVSPost2010Prop31
280
     0
102
RTVSPost2010PropOp31
 70
     1
102
RTVSPost2010Prop32
280
     0
102
RTVSPost2010PropOp32
 70
     1
102
RTVSPost2010Prop33
280
     0
102
RTVSPost2010PropOp33
 70
     1
102
RTVSPost2010Prop34
280
     0
102
RTVSPost2010PropOp34
 70
     1
102
RTVSPost2010Prop35
280
     0
102
RTVSPost2010PropOp35
 70
     1
102
RTVSPost2010Prop36
280
     0
102
RTVSPost2010PropOp36
 70
     1
102
RTVSPost2010Prop37
 90
       50
102
RTVSPost2010PropOp37
 70
     1
102
RTVSPost2010Prop38
140
0.0
102
RTVSPost2010PropOp38
 70
     1
102
RTVSPost2010Prop39
140
1.0
102
RTVSPost2010PropOp39
 70
     1
102
RTVSPost2010Prop40
 90
        0
102
RTVSPost2010PropOp40
 70
     1
102
RTVSPost2010Prop41ColorIndex
 90
       18
102
RTVSPost2010Prop41ColorRGB
 90
        0
102
RTVSPost2010PropOp41
 70
     1
102
RTVSPost2010Prop42
 90
       50
102
RTVSPost2010PropOp42
 70
     1
102
RTVSPost2010Prop43
 90
        3
102
RTVSPost2010PropOp43
 70
     1
102
RTVSPost2010Prop44ColorIndex
 90
        5
102
RTVSPost2010Prop44ColorRGB
 90
      255
102
RTVSPost2010PropOp44
 70
     1
102
RTVSPost2010Prop45
280
     0
102
RTVSPost2010PropOp45
 70
     1
102
RTVSPost2010Prop46
 90
       50
102
RTVSPost2010PropOp46
 70
     1
102
RTVSPost2010Prop47
 90
       50
102
RTVSPost2010PropOp47
 70
     1
102
RTVSPost2010Prop48
 90
       50
102
RTVSPost2010PropOp48
 70
     1
102
RTVSPost2010Prop49
280
     0
102
RTVSPost2010PropOp49
 70
     1
102
RTVSPost2010Prop50
 90
       50
102
RTVSPost2010PropOp50
 70
     1
102
RTVSPost2010Prop51ColorIndex
 90
      256
102
RTVSPost2010Prop51ColorRGB
 90
-16777216
102
RTVSPost2010PropOp51
 70
     0
102
RTVSPost2010Prop52
140
1.0
102
RTVSPost2010PropOp52
 70
     0
102
RTVSPost2010Prop53
 90
        2
102
RTVSPost2010PropOp53
 70
     1
102
RTVSPost2010Prop54
  1
strokes_ogs.tif
102
RTVSPost2010PropOp54
 70
     1
102
RTVSPost2010Prop55
280
     0
102
RTVSPost2010PropOp55
 70
     1
102
RTVSPost2010Prop56
140
1.0
102
RTVSPost2010PropOp56
 70
     1
102
RTVSPost2010Prop57
140
1.0
102
RTVSPost2010PropOp57
 70
     1
  0
XRECORD
  5
4FC
102
{ACAD_REACTORS
330
4FB
102
}
330
4FB
100
AcDbXrecord
280
     1
102
RTVSPropertyOp0
 70
     1
102
RTVSPropertyOp1
 70
     1
102
RTVSPropertyOp2
 70
     1
102
RTVSPropertyOp3
 70
     1
102
RTVSPropertyOp4
 70
     1
102
RTVSPropertyOp5
 70
     1
102
RTVSPropertyOp6
 70
     1
102
RTVSPropertyOp7
 70
     1
102
RTVSPropertyOp8
 70
     1
102
RTVSPropertyOp9
 70
     1
102
RTVSPropertyOp10
 70
     1
102
RTVSPropertyOp11
 70
     1
102
RTVSPropertyOp12
 70
     1
102
RTVSPropertyOp13
 70
     1
102
RTVSPropertyOp14
 70
     1
102
RTVSPropertyOp15
 70
     1
102
RTVSPropertyOp16
 70
     1
102
RTVSPropertyOp17
 70
     1
102
RTVSPropertyOp18
 70
     1
102
RTVSPropertyOp19
 70
     1
102
RTVSPropertyOp20
 70
     1
102
RTVSPropertyOp21
 70
     1
102
RTVSPropertyOp22
 70
     1
102
RTVSPropertyOp23
 70
     1
102
RTVSPropertyOp24
 70
     1
102
RTVSPropertyOp25
 70
     1
102
RTVSPropertyOp26
 70
     1
102
RTVSPropertyOp27
 70
     1
102
RTVSPropertyOp28
 70
     1
102
RTVSPropertyOp29
 70
     1
102
RTVSPropertyOp30
 70
     1
102
RTVSPropertyOp31
 70
     1
102
RTVSPropertyOp32
 70
     1
102
RTVSPropertyOp33
 70
     1
102
RTVSPropertyOp34
 70
     1
102
RTVSPropertyOp35
 70
     1
102
RTVSPropertyOp36
 70
     1
102
RTVSPropertyOp37
 70
     1
102
RTVSPropertyOp38
 70
     1
102
RTVSPropertyOp39
 70
     1
102
RTVSPropertyOp40
 70
     1
102
RTVSPropertyOp41
 70
     1
102
RTVSPropertyOp42
 70
     1
102
RTVSPropertyOp43
 70
     1
102
RTVSPropertyOp44
 70
     1
102
RTVSPropertyOp45
 70
     1
102
RTVSPropertyOp46
 70
     1
102
RTVSPropertyOp47
 70
     1
102
RTVSPropertyOp48
 70
     1
102
RTVSPropertyOp49
 70
     1
102
RTVSPropertyOp50
 70
     1
102
RTVSPropertyOp51
 70
     0
102
RTVSPropertyOp52
 70
     0
102
RTVSPropertyOp53
 70
     1
102
RTVSPropertyOp54
 70
     1
102
RTVSPropertyOp55
 70
     1
102
RTVSPropertyOp56
 70
     1
102
RTVSPropertyOp57
 70
     1
102
RTVSPost2010Prop28
280
     0
102
RTVSPost2010PropOp28
 70
     1
102
RTVSPost2010Prop29
280
     1
102
RTVSPost2010PropOp29
 70
     1
102
RTVSPost2010Prop30
280
     1
102
RTVSPost2010PropOp30
 70
     1
102
RTVSPost2010Prop31
280
     0
102
RTVSPost2010PropOp31
 70
     1
102
RTVSPost2010Prop32
280
     0
102
RTVSPost2010PropOp32
 70
     1
102
RTVSPost2010Prop33
280
     0
102
RTVSPost2010PropOp33
 70
     1
102
RTVSPost2010Prop34
280
     0
102
RTVSPost2010PropOp34
 70
     1
102
RTVSPost2010Prop35
280
     0
102
RTVSPost2010PropOp35
 70
     1
102
RTVSPost2010Prop36
280
     0
102
RTVSPost2010PropOp36
 70
     1
102
RTVSPost2010Prop37
 90
       50
102
RTVSPost2010PropOp37
 70
     1
102
RTVSPost2010Prop38
140
0.0
102
RTVSPost2010PropOp38
 70
     1
102
RTVSPost2010Prop39
140
1.0
102
RTVSPost2010PropOp39
 70
     1
102
RTVSPost2010Prop40
 90
        0
102
RTVSPost2010PropOp40
 70
     1
102
RTVSPost2010Prop41ColorIndex
 90
       18
102
RTVSPost2010Prop41ColorRGB
 90
        0
102
RTVSPost2010PropOp41
 70
     1
102
RTVSPost2010Prop42
 90
       50
102
RTVSPost2010PropOp42
 70
     1
102
RTVSPost2010Prop43
 90
        3
102
RTVSPost2010PropOp43
 70
     1
102
RTVSPost2010Prop44ColorIndex
 90
        5
102
RTVSPost2010Prop44ColorRGB
 90
      255
102
RTVSPost2010PropOp44
 70
     1
102
RTVSPost2010Prop45
280
     0
102
RTVSPost2010PropOp45
 70
     1
102
RTVSPost2010Prop46
 90
       50
102
RTVSPost2010PropOp46
 70
     1
102
RTVSPost2010Prop47
 90
       50
102
RTVSPost2010PropOp47
 70
     1
102
RTVSPost2010Prop48
 90
       50
102
RTVSPost2010PropOp48
 70
     1
102
RTVSPost2010Prop49
280
     0
102
RTVSPost2010PropOp49
 70
     1
102
RTVSPost2010Prop50
 90
       50
102
RTVSPost2010PropOp50
 70
     1
102
RTVSPost2010Prop51ColorIndex
 90
      256
102
RTVSPost2010Prop51ColorRGB
 90
-16777216
102
RTVSPost2010PropOp51
 70
     0
102
RTVSPost2010Prop52
140
1.0
102
RTVSPost2010PropOp52
 70
     0
102
RTVSPost2010Prop53
 90
        2
102
RTVSPost2010PropOp53
 70
     1
102
RTVSPost2010Prop54
  1
strokes_ogs.tif
102
RTVSPost2010PropOp54
 70
     1
102
RTVSPost2010Prop55
280
     0
102
RTVSPost2010PropOp55
 70
     1
102
RTVSPost2010Prop56
140
1.0
102
RTVSPost2010PropOp56
 70
     1
102
RTVSPost2010Prop57
140
1.0
102
RTVSPost2010PropOp57
 70
     1
  0
XRECORD
  5
510
102
{ACAD_REACTORS
330
50F
102
}
330
50F
100
AcDbXrecord
280
     1
102
RTVSPropertyOp0
 70
     0
102
RTVSPropertyOp1
 70
     0
102
RTVSPropertyOp2
 70
     0
102
RTVSPropertyOp3
 70
     0
102
RTVSPropertyOp4
 70
     0
102
RTVSPropertyOp5
 70
     0
102
RTVSPropertyOp6
 70
     0
102
RTVSPropertyOp7
 70
     0
102
RTVSPropertyOp8
 70
     0
102
RTVSPropertyOp9
 70
     0
102
RTVSPropertyOp10
 70
     0
102
RTVSPropertyOp11
 70
     0
102
RTVSPropertyOp12
 70
     0
102
RTVSPropertyOp13
 70
     0
102
RTVSPropertyOp14
 70
     2
102
RTVSPropertyOp15
 70
     0
102
RTVSPropertyOp16
 70
     0
102
RTVSPropertyOp17
 70
     0
102
RTVSPropertyOp18
 70
     0
102
RTVSPropertyOp19
 70
     0
102
RTVSPropertyOp20
 70
     0
102
RTVSPropertyOp21
 70
     0
102
RTVSPropertyOp22
 70
     0
102
RTVSPropertyOp23
 70
     0
102
RTVSPropertyOp24
 70
     0
102
RTVSPropertyOp25
 70
     0
102
RTVSPropertyOp26
 70
     0
102
RTVSPropertyOp27
 70
     0
102
RTVSPropertyOp28
 70
     0
102
RTVSPropertyOp29
 70
     0
102
RTVSPropertyOp30
 70
     0
102
RTVSPropertyOp31
 70
     0
102
RTVSPropertyOp32
 70
     0
102
RTVSPropertyOp33
 70
     0
102
RTVSPropertyOp34
 70
     0
102
RTVSPropertyOp35
 70
     0
102
RTVSPropertyOp36
 70
     0
102
RTVSPropertyOp37
 70
     0
102
RTVSPropertyOp38
 70
     0
102
RTVSPropertyOp39
 70
     0
102
RTVSPropertyOp40
 70
     0
102
RTVSPropertyOp41
 70
     0
102
RTVSPropertyOp42
 70
     0
102
RTVSPropertyOp43
 70
     0
102
RTVSPropertyOp44
 70
     0
102
RTVSPropertyOp45
 70
     0
102
RTVSPropertyOp46
 70
     0
102
RTVSPropertyOp47
 70
     0
102
RTVSPropertyOp48
 70
     0
102
RTVSPropertyOp49
 70
     0
102
RTVSPropertyOp50
 70
     0
102
RTVSPropertyOp51
 70
     0
102
RTVSPropertyOp52
 70
     0
102
RTVSPropertyOp53
 70
     0
102
RTVSPropertyOp54
 70
     0
102
RTVSPropertyOp55
 70
     0
102
RTVSPropertyOp56
 70
     0
102
RTVSPropertyOp57
 70
     0
102
RTVSPost2010Prop28
280
     0
102
RTVSPost2010PropOp28
 70
     0
102
RTVSPost2010Prop29
280
     1
102
RTVSPost2010PropOp29
 70
     0
102
RTVSPost2010Prop30
280
     1
102
RTVSPost2010PropOp30
 70
     0
102
RTVSPost2010Prop31
280
     0
102
RTVSPost2010PropOp31
 70
     0
102
RTVSPost2010Prop32
280
     0
102
RTVSPost2010PropOp32
 70
     0
102
RTVSPost2010Prop33
280
     0
102
RTVSPost2010PropOp33
 70
     0
102
RTVSPost2010Prop34
280
     0
102
RTVSPost2010PropOp34
 70
     0
102
RTVSPost2010Prop35
280
     0
102
RTVSPost2010PropOp35
 70
     0
102
RTVSPost2010Prop36
280
     0
102
RTVSPost2010PropOp36
 70
     0
102
RTVSPost2010Prop37
 90
       50
102
RTVSPost2010PropOp37
 70
     0
102
RTVSPost2010Prop38
140
0.0
102
RTVSPost2010PropOp38
 70
     0
102
RTVSPost2010Prop39
140
1.0
102
RTVSPost2010PropOp39
 70
     0
102
RTVSPost2010Prop40
 90
        0
102
RTVSPost2010PropOp40
 70
     0
102
RTVSPost2010Prop41ColorIndex
 90
       18
102
RTVSPost2010Prop41ColorRGB
 90
        0
102
RTVSPost2010PropOp41
 70
     0
102
RTVSPost2010Prop42
 90
       50
102
RTVSPost2010PropOp42
 70
     0
102
RTVSPost2010Prop43
 90
        3
102
RTVSPost2010PropOp43
 70
     0
102
RTVSPost2010Prop44ColorIndex
 90
        5
102
RTVSPost2010Prop44ColorRGB
 90
      255
102
RTVSPost2010PropOp44
 70
     0
102
RTVSPost2010Prop45
280
     0
102
RTVSPost2010PropOp45
 70
     0
102
RTVSPost2010Prop46
 90
       50
102
RTVSPost2010PropOp46
 70
     0
102
RTVSPost2010Prop47
 90
       50
102
RTVSPost2010PropOp47
 70
     0
102
RTVSPost2010Prop48
 90
       50
102
RTVSPost2010PropOp48
 70
     0
102
RTVSPost2010Prop49
280
     0
102
RTVSPost2010PropOp49
 70
     0
102
RTVSPost2010Prop50
 90
       50
102
RTVSPost2010PropOp50
 70
     0
102
RTVSPost2010Prop51ColorIndex
 90
      256
102
RTVSPost2010Prop51ColorRGB
 90
-16777216
102
RTVSPost2010PropOp51
 70
     0
102
RTVSPost2010Prop52
140
1.0
102
RTVSPost2010PropOp52
 70
     0
102
RTVSPost2010Prop53
 90
        2
102
RTVSPost2010PropOp53
 70
     0
102
RTVSPost2010Prop54
  1
strokes_ogs.tif
102
RTVSPost2010PropOp54
 70
     0
102
RTVSPost2010Prop55
280
     0
102
RTVSPost2010PropOp55
 70
     0
102
RTVSPost2010Prop56
140
1.0
102
RTVSPost2010PropOp56
 70
     0
102
RTVSPost2010Prop57
140
1.0
102
RTVSPost2010PropOp57
 70
     0
  0
XRECORD
  5
50A
102
{ACAD_REACTORS
330
509
102
}
330
509
100
AcDbXrecord
280
     1
102
RTVSPropertyOp0
 70
     1
102
RTVSPropertyOp1
 70
     1
102
RTVSPropertyOp2
 70
     1
102
RTVSPropertyOp3
 70
     1
102
RTVSPropertyOp4
 70
     1
102
RTVSPropertyOp5
 70
     1
102
RTVSPropertyOp6
 70
     1
102
RTVSPropertyOp7
 70
     1
102
RTVSPropertyOp8
 70
     1
102
RTVSPropertyOp9
 70
     1
102
RTVSPropertyOp10
 70
     1
102
RTVSPropertyOp11
 70
     1
102
RTVSPropertyOp12
 70
     1
102
RTVSPropertyOp13
 70
     1
102
RTVSPropertyOp14
 70
     1
102
RTVSPropertyOp15
 70
     1
102
RTVSPropertyOp16
 70
     1
102
RTVSPropertyOp17
 70
     1
102
RTVSPropertyOp18
 70
     1
102
RTVSPropertyOp19
 70
     1
102
RTVSPropertyOp20
 70
     1
102
RTVSPropertyOp21
 70
     1
102
RTVSPropertyOp22
 70
     1
102
RTVSPropertyOp23
 70
     1
102
RTVSPropertyOp24
 70
     1
102
RTVSPropertyOp25
 70
     1
102
RTVSPropertyOp26
 70
     1
102
RTVSPropertyOp27
 70
     1
102
RTVSPropertyOp28
 70
     1
102
RTVSPropertyOp29
 70
     1
102
RTVSPropertyOp30
 70
     1
102
RTVSPropertyOp31
 70
     1
102
RTVSPropertyOp32
 70
     1
102
RTVSPropertyOp33
 70
     1
102
RTVSPropertyOp34
 70
     1
102
RTVSPropertyOp35
 70
     1
102
RTVSPropertyOp36
 70
     1
102
RTVSPropertyOp37
 70
     1
102
RTVSPropertyOp38
 70
     1
102
RTVSPropertyOp39
 70
     1
102
RTVSPropertyOp40
 70
     1
102
RTVSPropertyOp41
 70
     1
102
RTVSPropertyOp42
 70
     1
102
RTVSPropertyOp43
 70
     1
102
RTVSPropertyOp44
 70
     1
102
RTVSPropertyOp45
 70
     1
102
RTVSPropertyOp46
 70
     1
102
RTVSPropertyOp47
 70
     1
102
RTVSPropertyOp48
 70
     1
102
RTVSPropertyOp49
 70
     1
102
RTVSPropertyOp50
 70
     1
102
RTVSPropertyOp51
 70
     0
102
RTVSPropertyOp52
 70
     0
102
RTVSPropertyOp53
 70
     1
102
RTVSPropertyOp54
 70
     1
102
RTVSPropertyOp55
 70
     1
102
RTVSPropertyOp56
 70
     1
102
RTVSPropertyOp57
 70
     1
102
RTVSPost2010Prop28
280
     0
102
RTVSPost2010PropOp28
 70
     1
102
RTVSPost2010Prop29
280
     1
102
RTVSPost2010PropOp29
 70
     1
102
RTVSPost2010Prop30
280
     1
102
RTVSPost2010PropOp30
 70
     1
102
RTVSPost2010Prop31
280
     0
102
RTVSPost2010PropOp31
 70
     1
102
RTVSPost2010Prop32
280
     0
102
RTVSPost2010PropOp32
 70
     1
102
RTVSPost2010Prop33
280
     0
102
RTVSPost2010PropOp33
 70
     1
102
RTVSPost2010Prop34
280
     0
102
RTVSPost2010PropOp34
 70
     1
102
RTVSPost2010Prop35
280
     0
102
RTVSPost2010PropOp35
 70
     1
102
RTVSPost2010Prop36
280
     0
102
RTVSPost2010PropOp36
 70
     1
102
RTVSPost2010Prop37
 90
       50
102
RTVSPost2010PropOp37
 70
     1
102
RTVSPost2010Prop38
140
0.0
102
RTVSPost2010PropOp38
 70
     1
102
RTVSPost2010Prop39
140
1.0
102
RTVSPost2010PropOp39
 70
     1
102
RTVSPost2010Prop40
 90
        0
102
RTVSPost2010PropOp40
 70
     1
102
RTVSPost2010Prop41ColorIndex
 90
       18
102
RTVSPost2010Prop41ColorRGB
 90
        0
102
RTVSPost2010PropOp41
 70
     1
102
RTVSPost2010Prop42
 90
       50
102
RTVSPost2010PropOp42
 70
     1
102
RTVSPost2010Prop43
 90
        3
102
RTVSPost2010PropOp43
 70
     1
102
RTVSPost2010Prop44ColorIndex
 90
        5
102
RTVSPost2010Prop44ColorRGB
 90
      255
102
RTVSPost2010PropOp44
 70
     1
102
RTVSPost2010Prop45
280
     0
102
RTVSPost2010PropOp45
 70
     1
102
RTVSPost2010Prop46
 90
       50
102
RTVSPost2010PropOp46
 70
     1
102
RTVSPost2010Prop47
 90
       50
102
RTVSPost2010PropOp47
 70
     1
102
RTVSPost2010Prop48
 90
       50
102
RTVSPost2010PropOp48
 70
     1
102
RTVSPost2010Prop49
280
     0
102
RTVSPost2010PropOp49
 70
     1
102
RTVSPost2010Prop50
 90
       50
102
RTVSPost2010PropOp50
 70
     1
102
RTVSPost2010Prop51ColorIndex
 90
      256
102
RTVSPost2010Prop51ColorRGB
 90
-16777216
102
RTVSPost2010PropOp51
 70
     0
102
RTVSPost2010Prop52
140
1.0
102
RTVSPost2010PropOp52
 70
     0
102
RTVSPost2010Prop53
 90
        2
102
RTVSPost2010PropOp53
 70
     1
102
RTVSPost2010Prop54
  1
strokes_ogs.tif
102
RTVSPost2010PropOp54
 70
     1
102
RTVSPost2010Prop55
280
     0
102
RTVSPost2010PropOp55
 70
     1
102
RTVSPost2010Prop56
140
1.0
102
RTVSPost2010PropOp56
 70
     1
102
RTVSPost2010Prop57
140
1.0
102
RTVSPost2010PropOp57
 70
     1
  0
XRECORD
  5
512
102
{ACAD_REACTORS
330
511
102
}
330
511
100
AcDbXrecord
280
     1
102
RTVSPropertyOp0
 70
     0
102
RTVSPropertyOp1
 70
     0
102
RTVSPropertyOp2
 70
     0
102
RTVSPropertyOp3
 70
     0
102
RTVSPropertyOp4
 70
     0
102
RTVSPropertyOp5
 70
     0
102
RTVSPropertyOp6
 70
     0
102
RTVSPropertyOp7
 70
     0
102
RTVSPropertyOp8
 70
     0
102
RTVSPropertyOp9
 70
     0
102
RTVSPropertyOp10
 70
     0
102
RTVSPropertyOp11
 70
     0
102
RTVSPropertyOp12
 70
     0
102
RTVSPropertyOp13
 70
     0
102
RTVSPropertyOp14
 70
     2
102
RTVSPropertyOp15
 70
     0
102
RTVSPropertyOp16
 70
     0
102
RTVSPropertyOp17
 70
     0
102
RTVSPropertyOp18
 70
     0
102
RTVSPropertyOp19
 70
     0
102
RTVSPropertyOp20
 70
     0
102
RTVSPropertyOp21
 70
     0
102
RTVSPropertyOp22
 70
     0
102
RTVSPropertyOp23
 70
     0
102
RTVSPropertyOp24
 70
     0
102
RTVSPropertyOp25
 70
     0
102
RTVSPropertyOp26
 70
     0
102
RTVSPropertyOp27
 70
     0
102
RTVSPropertyOp28
 70
     0
102
RTVSPropertyOp29
 70
     0
102
RTVSPropertyOp30
 70
     0
102
RTVSPropertyOp31
 70
     0
102
RTVSPropertyOp32
 70
     0
102
RTVSPropertyOp33
 70
     0
102
RTVSPropertyOp34
 70
     0
102
RTVSPropertyOp35
 70
     0
102
RTVSPropertyOp36
 70
     0
102
RTVSPropertyOp37
 70
     0
102
RTVSPropertyOp38
 70
     0
102
RTVSPropertyOp39
 70
     0
102
RTVSPropertyOp40
 70
     0
102
RTVSPropertyOp41
 70
     0
102
RTVSPropertyOp42
 70
     0
102
RTVSPropertyOp43
 70
     0
102
RTVSPropertyOp44
 70
     0
102
RTVSPropertyOp45
 70
     0
102
RTVSPropertyOp46
 70
     0
102
RTVSPropertyOp47
 70
     0
102
RTVSPropertyOp48
 70
     0
102
RTVSPropertyOp49
 70
     0
102
RTVSPropertyOp50
 70
     0
102
RTVSPropertyOp51
 70
     0
102
RTVSPropertyOp52
 70
     0
102
RTVSPropertyOp53
 70
     0
102
RTVSPropertyOp54
 70
     0
102
RTVSPropertyOp55
 70
     0
102
RTVSPropertyOp56
 70
     0
102
RTVSPropertyOp57
 70
     0
102
RTVSPost2010Prop28
280
     0
102
RTVSPost2010PropOp28
 70
     0
102
RTVSPost2010Prop29
280
     1
102
RTVSPost2010PropOp29
 70
     0
102
RTVSPost2010Prop30
280
     1
102
RTVSPost2010PropOp30
 70
     0
102
RTVSPost2010Prop31
280
     0
102
RTVSPost2010PropOp31
 70
     0
102
RTVSPost2010Prop32
280
     0
102
RTVSPost2010PropOp32
 70
     0
102
RTVSPost2010Prop33
280
     0
102
RTVSPost2010PropOp33
 70
     0
102
RTVSPost2010Prop34
280
     0
102
RTVSPost2010PropOp34
 70
     0
102
RTVSPost2010Prop35
280
     0
102
RTVSPost2010PropOp35
 70
     0
102
RTVSPost2010Prop36
280
     0
102
RTVSPost2010PropOp36
 70
     0
102
RTVSPost2010Prop37
 90
       50
102
RTVSPost2010PropOp37
 70
     0
102
RTVSPost2010Prop38
140
0.0
102
RTVSPost2010PropOp38
 70
     0
102
RTVSPost2010Prop39
140
1.0
102
RTVSPost2010PropOp39
 70
     0
102
RTVSPost2010Prop40
 90
        0
102
RTVSPost2010PropOp40
 70
     0
102
RTVSPost2010Prop41ColorIndex
 90
       18
102
RTVSPost2010Prop41ColorRGB
 90
        0
102
RTVSPost2010PropOp41
 70
     0
102
RTVSPost2010Prop42
 90
       50
102
RTVSPost2010PropOp42
 70
     0
102
RTVSPost2010Prop43
 90
        3
102
RTVSPost2010PropOp43
 70
     0
102
RTVSPost2010Prop44ColorIndex
 90
        5
102
RTVSPost2010Prop44ColorRGB
 90
      255
102
RTVSPost2010PropOp44
 70
     0
102
RTVSPost2010Prop45
280
     0
102
RTVSPost2010PropOp45
 70
     0
102
RTVSPost2010Prop46
 90
       50
102
RTVSPost2010PropOp46
 70
     0
102
RTVSPost2010Prop47
 90
       50
102
RTVSPost2010PropOp47
 70
     0
102
RTVSPost2010Prop48
 90
       50
102
RTVSPost2010PropOp48
 70
     0
102
RTVSPost2010Prop49
280
     0
102
RTVSPost2010PropOp49
 70
     0
102
RTVSPost2010Prop50
 90
       50
102
RTVSPost2010PropOp50
 70
     0
102
RTVSPost2010Prop51ColorIndex
 90
      256
102
RTVSPost2010Prop51ColorRGB
 90
-16777216
102
RTVSPost2010PropOp51
 70
     0
102
RTVSPost2010Prop52
140
1.0
102
RTVSPost2010PropOp52
 70
     0
102
RTVSPost2010Prop53
 90
        2
102
RTVSPost2010PropOp53
 70
     0
102
RTVSPost2010Prop54
  1
strokes_ogs.tif
102
RTVSPost2010PropOp54
 70
     0
102
RTVSPost2010Prop55
280
     0
102
RTVSPost2010PropOp55
 70
     0
102
RTVSPost2010Prop56
140
1.0
102
RTVSPost2010PropOp56
 70
     0
102
RTVSPost2010Prop57
140
1.0
102
RTVSPost2010PropOp57
 70
     0
  0
XRECORD
  5
500
102
{ACAD_REACTORS
330
4FF
102
}
330
4FF
100
AcDbXrecord
280
     1
102
RTVSPropertyOp0
 70
     1
102
RTVSPropertyOp1
 70
     1
102
RTVSPropertyOp2
 70
     1
102
RTVSPropertyOp3
 70
     1
102
RTVSPropertyOp4
 70
     1
102
RTVSPropertyOp5
 70
     1
102
RTVSPropertyOp6
 70
     1
102
RTVSPropertyOp7
 70
     1
102
RTVSPropertyOp8
 70
     1
102
RTVSPropertyOp9
 70
     1
102
RTVSPropertyOp10
 70
     1
102
RTVSPropertyOp11
 70
     1
102
RTVSPropertyOp12
 70
     1
102
RTVSPropertyOp13
 70
     1
102
RTVSPropertyOp14
 70
     1
102
RTVSPropertyOp15
 70
     1
102
RTVSPropertyOp16
 70
     1
102
RTVSPropertyOp17
 70
     1
102
RTVSPropertyOp18
 70
     1
102
RTVSPropertyOp19
 70
     1
102
RTVSPropertyOp20
 70
     1
102
RTVSPropertyOp21
 70
     1
102
RTVSPropertyOp22
 70
     1
102
RTVSPropertyOp23
 70
     1
102
RTVSPropertyOp24
 70
     1
102
RTVSPropertyOp25
 70
     1
102
RTVSPropertyOp26
 70
     1
102
RTVSPropertyOp27
 70
     1
102
RTVSPropertyOp28
 70
     1
102
RTVSPropertyOp29
 70
     1
102
RTVSPropertyOp30
 70
     1
102
RTVSPropertyOp31
 70
     1
102
RTVSPropertyOp32
 70
     1
102
RTVSPropertyOp33
 70
     1
102
RTVSPropertyOp34
 70
     1
102
RTVSPropertyOp35
 70
     1
102
RTVSPropertyOp36
 70
     1
102
RTVSPropertyOp37
 70
     1
102
RTVSPropertyOp38
 70
     1
102
RTVSPropertyOp39
 70
     1
102
RTVSPropertyOp40
 70
     1
102
RTVSPropertyOp41
 70
     1
102
RTVSPropertyOp42
 70
     1
102
RTVSPropertyOp43
 70
     1
102
RTVSPropertyOp44
 70
     1
102
RTVSPropertyOp45
 70
     1
102
RTVSPropertyOp46
 70
     1
102
RTVSPropertyOp47
 70
     1
102
RTVSPropertyOp48
 70
     1
102
RTVSPropertyOp49
 70
     1
102
RTVSPropertyOp50
 70
     1
102
RTVSPropertyOp51
 70
     0
102
RTVSPropertyOp52
 70
     0
102
RTVSPropertyOp53
 70
     1
102
RTVSPropertyOp54
 70
     1
102
RTVSPropertyOp55
 70
     1
102
RTVSPropertyOp56
 70
     1
102
RTVSPropertyOp57
 70
     1
102
RTVSPost2010Prop28
280
     0
102
RTVSPost2010PropOp28
 70
     1
102
RTVSPost2010Prop29
280
     1
102
RTVSPost2010PropOp29
 70
     1
102
RTVSPost2010Prop30
280
     1
102
RTVSPost2010PropOp30
 70
     1
102
RTVSPost2010Prop31
280
     0
102
RTVSPost2010PropOp31
 70
     1
102
RTVSPost2010Prop32
280
     0
102
RTVSPost2010PropOp32
 70
     1
102
RTVSPost2010Prop33
280
     0
102
RTVSPost2010PropOp33
 70
     1
102
RTVSPost2010Prop34
280
     0
102
RTVSPost2010PropOp34
 70
     1
102
RTVSPost2010Prop35
280
     0
102
RTVSPost2010PropOp35
 70
     1
102
RTVSPost2010Prop36
280
     0
102
RTVSPost2010PropOp36
 70
     1
102
RTVSPost2010Prop37
 90
       50
102
RTVSPost2010PropOp37
 70
     1
102
RTVSPost2010Prop38
140
0.0
102
RTVSPost2010PropOp38
 70
     1
102
RTVSPost2010Prop39
140
1.0
102
RTVSPost2010PropOp39
 70
     1
102
RTVSPost2010Prop40
 90
        0
102
RTVSPost2010PropOp40
 70
     1
102
RTVSPost2010Prop41ColorIndex
 90
       18
102
RTVSPost2010Prop41ColorRGB
 90
        0
102
RTVSPost2010PropOp41
 70
     1
102
RTVSPost2010Prop42
 90
       50
102
RTVSPost2010PropOp42
 70
     1
102
RTVSPost2010Prop43
 90
        3
102
RTVSPost2010PropOp43
 70
     1
102
RTVSPost2010Prop44ColorIndex
 90
        5
102
RTVSPost2010Prop44ColorRGB
 90
      255
102
RTVSPost2010PropOp44
 70
     1
102
RTVSPost2010Prop45
280
     0
102
RTVSPost2010PropOp45
 70
     1
102
RTVSPost2010Prop46
 90
       50
102
RTVSPost2010PropOp46
 70
     1
102
RTVSPost2010Prop47
 90
       50
102
RTVSPost2010PropOp47
 70
     1
102
RTVSPost2010Prop48
 90
       50
102
RTVSPost2010PropOp48
 70
     1
102
RTVSPost2010Prop49
280
     0
102
RTVSPost2010PropOp49
 70
     1
102
RTVSPost2010Prop50
 90
       50
102
RTVSPost2010PropOp50
 70
     1
102
RTVSPost2010Prop51ColorIndex
 90
      256
102
RTVSPost2010Prop51ColorRGB
 90
-16777216
102
RTVSPost2010PropOp51
 70
     0
102
RTVSPost2010Prop52
140
1.0
102
RTVSPost2010PropOp52
 70
     0
102
RTVSPost2010Prop53
 90
        2
102
RTVSPost2010PropOp53
 70
     1
102
RTVSPost2010Prop54
  1
strokes_ogs.tif
102
RTVSPost2010PropOp54
 70
     1
102
RTVSPost2010Prop55
280
     0
102
RTVSPost2010PropOp55
 70
     1
102
RTVSPost2010Prop56
140
1.0
102
RTVSPost2010PropOp56
 70
     1
102
RTVSPost2010Prop57
140
1.0
102
RTVSPost2010PropOp57
 70
     1
  0
XRECORD
  5
51E
102
{ACAD_REACTORS
330
51D
102
}
330
51D
100
AcDbXrecord
280
     1
102
RTVSPropertyOp0
 70
     1
102
RTVSPropertyOp1
 70
     1
102
RTVSPropertyOp2
 70
     1
102
RTVSPropertyOp3
 70
     1
102
RTVSPropertyOp4
 70
     1
102
RTVSPropertyOp5
 70
     1
102
RTVSPropertyOp6
 70
     1
102
RTVSPropertyOp7
 70
     1
102
RTVSPropertyOp8
 70
     1
102
RTVSPropertyOp9
 70
     1
102
RTVSPropertyOp10
 70
     1
102
RTVSPropertyOp11
 70
     1
102
RTVSPropertyOp12
 70
     1
102
RTVSPropertyOp13
 70
     1
102
RTVSPropertyOp14
 70
     1
102
RTVSPropertyOp15
 70
     1
102
RTVSPropertyOp16
 70
     1
102
RTVSPropertyOp17
 70
     1
102
RTVSPropertyOp18
 70
     1
102
RTVSPropertyOp19
 70
     1
102
RTVSPropertyOp20
 70
     1
102
RTVSPropertyOp21
 70
     1
102
RTVSPropertyOp22
 70
     1
102
RTVSPropertyOp23
 70
     1
102
RTVSPropertyOp24
 70
     1
102
RTVSPropertyOp25
 70
     1
102
RTVSPropertyOp26
 70
     1
102
RTVSPropertyOp27
 70
     1
102
RTVSPropertyOp28
 70
     1
102
RTVSPropertyOp29
 70
     1
102
RTVSPropertyOp30
 70
     1
102
RTVSPropertyOp31
 70
     1
102
RTVSPropertyOp32
 70
     1
102
RTVSPropertyOp33
 70
     1
102
RTVSPropertyOp34
 70
     1
102
RTVSPropertyOp35
 70
     1
102
RTVSPropertyOp36
 70
     1
102
RTVSPropertyOp37
 70
     1
102
RTVSPropertyOp38
 70
     1
102
RTVSPropertyOp39
 70
     1
102
RTVSPropertyOp40
 70
     1
102
RTVSPropertyOp41
 70
     1
102
RTVSPropertyOp42
 70
     1
102
RTVSPropertyOp43
 70
     1
102
RTVSPropertyOp44
 70
     1
102
RTVSPropertyOp45
 70
     1
102
RTVSPropertyOp46
 70
     1
102
RTVSPropertyOp47
 70
     1
102
RTVSPropertyOp48
 70
     1
102
RTVSPropertyOp49
 70
     1
102
RTVSPropertyOp50
 70
     1
102
RTVSPropertyOp51
 70
     0
102
RTVSPropertyOp52
 70
     0
102
RTVSPropertyOp53
 70
     1
102
RTVSPropertyOp54
 70
     1
102
RTVSPropertyOp55
 70
     1
102
RTVSPropertyOp56
 70
     1
102
RTVSPropertyOp57
 70
     1
102
RTVSPost2010Prop28
280
     0
102
RTVSPost2010PropOp28
 70
     1
102
RTVSPost2010Prop29
280
     1
102
RTVSPost2010PropOp29
 70
     1
102
RTVSPost2010Prop30
280
     1
102
RTVSPost2010PropOp30
 70
     1
102
RTVSPost2010Prop31
280
     0
102
RTVSPost2010PropOp31
 70
     1
102
RTVSPost2010Prop32
280
     0
102
RTVSPost2010PropOp32
 70
     1
102
RTVSPost2010Prop33
280
     0
102
RTVSPost2010PropOp33
 70
     1
102
RTVSPost2010Prop34
280
     0
102
RTVSPost2010PropOp34
 70
     1
102
RTVSPost2010Prop35
280
     0
102
RTVSPost2010PropOp35
 70
     1
102
RTVSPost2010Prop36
280
     0
102
RTVSPost2010PropOp36
 70
     1
102
RTVSPost2010Prop37
 90
       50
102
RTVSPost2010PropOp37
 70
     1
102
RTVSPost2010Prop38
140
0.0
102
RTVSPost2010PropOp38
 70
     1
102
RTVSPost2010Prop39
140
1.0
102
RTVSPost2010PropOp39
 70
     1
102
RTVSPost2010Prop40
 90
        0
102
RTVSPost2010PropOp40
 70
     1
102
RTVSPost2010Prop41ColorIndex
 90
       18
102
RTVSPost2010Prop41ColorRGB
 90
        0
102
RTVSPost2010PropOp41
 70
     1
102
RTVSPost2010Prop42
 90
       50
102
RTVSPost2010PropOp42
 70
     1
102
RTVSPost2010Prop43
 90
        3
102
RTVSPost2010PropOp43
 70
     1
102
RTVSPost2010Prop44ColorIndex
 90
        5
102
RTVSPost2010Prop44ColorRGB
 90
      255
102
RTVSPost2010PropOp44
 70
     1
102
RTVSPost2010Prop45
280
     0
102
RTVSPost2010PropOp45
 70
     1
102
RTVSPost2010Prop46
 90
       50
102
RTVSPost2010PropOp46
 70
     1
102
RTVSPost2010Prop47
 90
       50
102
RTVSPost2010PropOp47
 70
     1
102
RTVSPost2010Prop48
 90
       50
102
RTVSPost2010PropOp48
 70
     1
102
RTVSPost2010Prop49
280
     0
102
RTVSPost2010PropOp49
 70
     1
102
RTVSPost2010Prop50
 90
       50
102
RTVSPost2010PropOp50
 70
     1
102
RTVSPost2010Prop51ColorIndex
 90
      256
102
RTVSPost2010Prop51ColorRGB
 90
-16777216
102
RTVSPost2010PropOp51
 70
     0
102
RTVSPost2010Prop52
140
1.0
102
RTVSPost2010PropOp52
 70
     0
102
RTVSPost2010Prop53
 90
        2
102
RTVSPost2010PropOp53
 70
     1
102
RTVSPost2010Prop54
  1
strokes_ogs.tif
102
RTVSPost2010PropOp54
 70
     1
102
RTVSPost2010Prop55
280
     0
102
RTVSPost2010PropOp55
 70
     1
102
RTVSPost2010Prop56
140
1.0
102
RTVSPost2010PropOp56
 70
     1
102
RTVSPost2010Prop57
140
1.0
102
RTVSPost2010PropOp57
 70
     1
  0
XRECORD
  5
51C
102
{ACAD_REACTORS
330
51B
102
}
330
51B
100
AcDbXrecord
280
     1
102
RTVSPropertyOp0
 70
     1
102
RTVSPropertyOp1
 70
     1
102
RTVSPropertyOp2
 70
     1
102
RTVSPropertyOp3
 70
     1
102
RTVSPropertyOp4
 70
     1
102
RTVSPropertyOp5
 70
     1
102
RTVSPropertyOp6
 70
     1
102
RTVSPropertyOp7
 70
     1
102
RTVSPropertyOp8
 70
     1
102
RTVSPropertyOp9
 70
     1
102
RTVSPropertyOp10
 70
     1
102
RTVSPropertyOp11
 70
     1
102
RTVSPropertyOp12
 70
     1
102
RTVSPropertyOp13
 70
     1
102
RTVSPropertyOp14
 70
     1
102
RTVSPropertyOp15
 70
     1
102
RTVSPropertyOp16
 70
     1
102
RTVSPropertyOp17
 70
     1
102
RTVSPropertyOp18
 70
     1
102
RTVSPropertyOp19
 70
     1
102
RTVSPropertyOp20
 70
     1
102
RTVSPropertyOp21
 70
     1
102
RTVSPropertyOp22
 70
     1
102
RTVSPropertyOp23
 70
     1
102
RTVSPropertyOp24
 70
     1
102
RTVSPropertyOp25
 70
     1
102
RTVSPropertyOp26
 70
     1
102
RTVSPropertyOp27
 70
     1
102
RTVSPropertyOp28
 70
     1
102
RTVSPropertyOp29
 70
     1
102
RTVSPropertyOp30
 70
     1
102
RTVSPropertyOp31
 70
     1
102
RTVSPropertyOp32
 70
     1
102
RTVSPropertyOp33
 70
     1
102
RTVSPropertyOp34
 70
     1
102
RTVSPropertyOp35
 70
     1
102
RTVSPropertyOp36
 70
     1
102
RTVSPropertyOp37
 70
     1
102
RTVSPropertyOp38
 70
     1
102
RTVSPropertyOp39
 70
     1
102
RTVSPropertyOp40
 70
     1
102
RTVSPropertyOp41
 70
     1
102
RTVSPropertyOp42
 70
     1
102
RTVSPropertyOp43
 70
     1
102
RTVSPropertyOp44
 70
     1
102
RTVSPropertyOp45
 70
     1
102
RTVSPropertyOp46
 70
     1
102
RTVSPropertyOp47
 70
     1
102
RTVSPropertyOp48
 70
     1
102
RTVSPropertyOp49
 70
     1
102
RTVSPropertyOp50
 70
     1
102
RTVSPropertyOp51
 70
     0
102
RTVSPropertyOp52
 70
     0
102
RTVSPropertyOp53
 70
     1
102
RTVSPropertyOp54
 70
     1
102
RTVSPropertyOp55
 70
     1
102
RTVSPropertyOp56
 70
     1
102
RTVSPropertyOp57
 70
     1
102
RTVSPost2010Prop28
280
     0
102
RTVSPost2010PropOp28
 70
     1
102
RTVSPost2010Prop29
280
     1
102
RTVSPost2010PropOp29
 70
     1
102
RTVSPost2010Prop30
280
     1
102
RTVSPost2010PropOp30
 70
     1
102
RTVSPost2010Prop31
280
     0
102
RTVSPost2010PropOp31
 70
     1
102
RTVSPost2010Prop32
280
     0
102
RTVSPost2010PropOp32
 70
     1
102
RTVSPost2010Prop33
280
     0
102
RTVSPost2010PropOp33
 70
     1
102
RTVSPost2010Prop34
280
     0
102
RTVSPost2010PropOp34
 70
     1
102
RTVSPost2010Prop35
280
     0
102
RTVSPost2010PropOp35
 70
     1
102
RTVSPost2010Prop36
280
     0
102
RTVSPost2010PropOp36
 70
     1
102
RTVSPost2010Prop37
 90
       50
102
RTVSPost2010PropOp37
 70
     1
102
RTVSPost2010Prop38
140
0.0
102
RTVSPost2010PropOp38
 70
     1
102
RTVSPost2010Prop39
140
1.0
102
RTVSPost2010PropOp39
 70
     1
102
RTVSPost2010Prop40
 90
        0
102
RTVSPost2010PropOp40
 70
     1
102
RTVSPost2010Prop41ColorIndex
 90
       18
102
RTVSPost2010Prop41ColorRGB
 90
        0
102
RTVSPost2010PropOp41
 70
     1
102
RTVSPost2010Prop42
 90
       50
102
RTVSPost2010PropOp42
 70
     1
102
RTVSPost2010Prop43
 90
        3
102
RTVSPost2010PropOp43
 70
     1
102
RTVSPost2010Prop44ColorIndex
 90
        5
102
RTVSPost2010Prop44ColorRGB
 90
      255
102
RTVSPost2010PropOp44
 70
     1
102
RTVSPost2010Prop45
280
     0
102
RTVSPost2010PropOp45
 70
     1
102
RTVSPost2010Prop46
 90
       50
102
RTVSPost2010PropOp46
 70
     1
102
RTVSPost2010Prop47
 90
       50
102
RTVSPost2010PropOp47
 70
     1
102
RTVSPost2010Prop48
 90
       50
102
RTVSPost2010PropOp48
 70
     1
102
RTVSPost2010Prop49
280
     0
102
RTVSPost2010PropOp49
 70
     1
102
RTVSPost2010Prop50
 90
       50
102
RTVSPost2010PropOp50
 70
     1
102
RTVSPost2010Prop51ColorIndex
 90
      256
102
RTVSPost2010Prop51ColorRGB
 90
-16777216
102
RTVSPost2010PropOp51
 70
     0
102
RTVSPost2010Prop52
140
1.0
102
RTVSPost2010PropOp52
 70
     0
102
RTVSPost2010Prop53
 90
        2
102
RTVSPost2010PropOp53
 70
     1
102
RTVSPost2010Prop54
  1
strokes_ogs.tif
102
RTVSPost2010PropOp54
 70
     1
102
RTVSPost2010Prop55
280
     0
102
RTVSPost2010PropOp55
 70
     1
102
RTVSPost2010Prop56
140
1.0
102
RTVSPost2010PropOp56
 70
     1
102
RTVSPost2010Prop57
140
1.0
102
RTVSPost2010PropOp57
 70
     1
  0
XRECORD
  5
516
102
{ACAD_REACTORS
330
515
102
}
330
515
100
AcDbXrecord
280
     1
102
RTVSPropertyOp0
 70
     1
102
RTVSPropertyOp1
 70
     1
102
RTVSPropertyOp2
 70
     1
102
RTVSPropertyOp3
 70
     1
102
RTVSPropertyOp4
 70
     1
102
RTVSPropertyOp5
 70
     1
102
RTVSPropertyOp6
 70
     1
102
RTVSPropertyOp7
 70
     1
102
RTVSPropertyOp8
 70
     1
102
RTVSPropertyOp9
 70
     1
102
RTVSPropertyOp10
 70
     1
102
RTVSPropertyOp11
 70
     1
102
RTVSPropertyOp12
 70
     1
102
RTVSPropertyOp13
 70
     1
102
RTVSPropertyOp14
 70
     1
102
RTVSPropertyOp15
 70
     1
102
RTVSPropertyOp16
 70
     1
102
RTVSPropertyOp17
 70
     1
102
RTVSPropertyOp18
 70
     1
102
RTVSPropertyOp19
 70
     1
102
RTVSPropertyOp20
 70
     1
102
RTVSPropertyOp21
 70
     1
102
RTVSPropertyOp22
 70
     1
102
RTVSPropertyOp23
 70
     1
102
RTVSPropertyOp24
 70
     1
102
RTVSPropertyOp25
 70
     1
102
RTVSPropertyOp26
 70
     1
102
RTVSPropertyOp27
 70
     1
102
RTVSPropertyOp28
 70
     1
102
RTVSPropertyOp29
 70
     1
102
RTVSPropertyOp30
 70
     1
102
RTVSPropertyOp31
 70
     1
102
RTVSPropertyOp32
 70
     1
102
RTVSPropertyOp33
 70
     1
102
RTVSPropertyOp34
 70
     1
102
RTVSPropertyOp35
 70
     1
102
RTVSPropertyOp36
 70
     1
102
RTVSPropertyOp37
 70
     1
102
RTVSPropertyOp38
 70
     1
102
RTVSPropertyOp39
 70
     1
102
RTVSPropertyOp40
 70
     1
102
RTVSPropertyOp41
 70
     1
102
RTVSPropertyOp42
 70
     1
102
RTVSPropertyOp43
 70
     1
102
RTVSPropertyOp44
 70
     1
102
RTVSPropertyOp45
 70
     1
102
RTVSPropertyOp46
 70
     1
102
RTVSPropertyOp47
 70
     1
102
RTVSPropertyOp48
 70
     1
102
RTVSPropertyOp49
 70
     1
102
RTVSPropertyOp50
 70
     1
102
RTVSPropertyOp51
 70
     0
102
RTVSPropertyOp52
 70
     0
102
RTVSPropertyOp53
 70
     1
102
RTVSPropertyOp54
 70
     1
102
RTVSPropertyOp55
 70
     1
102
RTVSPropertyOp56
 70
     1
102
RTVSPropertyOp57
 70
     1
102
RTVSPost2010Prop28
280
     0
102
RTVSPost2010PropOp28
 70
     1
102
RTVSPost2010Prop29
280
     1
102
RTVSPost2010PropOp29
 70
     1
102
RTVSPost2010Prop30
280
     1
102
RTVSPost2010PropOp30
 70
     1
102
RTVSPost2010Prop31
280
     0
102
RTVSPost2010PropOp31
 70
     1
102
RTVSPost2010Prop32
280
     0
102
RTVSPost2010PropOp32
 70
     1
102
RTVSPost2010Prop33
280
     0
102
RTVSPost2010PropOp33
 70
     1
102
RTVSPost2010Prop34
280
     0
102
RTVSPost2010PropOp34
 70
     1
102
RTVSPost2010Prop35
280
     0
102
RTVSPost2010PropOp35
 70
     1
102
RTVSPost2010Prop36
280
     0
102
RTVSPost2010PropOp36
 70
     1
102
RTVSPost2010Prop37
 90
       50
102
RTVSPost2010PropOp37
 70
     1
102
RTVSPost2010Prop38
140
0.0
102
RTVSPost2010PropOp38
 70
     1
102
RTVSPost2010Prop39
140
1.0
102
RTVSPost2010PropOp39
 70
     1
102
RTVSPost2010Prop40
 90
        0
102
RTVSPost2010PropOp40
 70
     1
102
RTVSPost2010Prop41ColorIndex
 90
       18
102
RTVSPost2010Prop41ColorRGB
 90
        0
102
RTVSPost2010PropOp41
 70
     1
102
RTVSPost2010Prop42
 90
       50
102
RTVSPost2010PropOp42
 70
     1
102
RTVSPost2010Prop43
 90
        3
102
RTVSPost2010PropOp43
 70
     1
102
RTVSPost2010Prop44ColorIndex
 90
        5
102
RTVSPost2010Prop44ColorRGB
 90
      255
102
RTVSPost2010PropOp44
 70
     1
102
RTVSPost2010Prop45
280
     0
102
RTVSPost2010PropOp45
 70
     1
102
RTVSPost2010Prop46
 90
       50
102
RTVSPost2010PropOp46
 70
     1
102
RTVSPost2010Prop47
 90
       50
102
RTVSPost2010PropOp47
 70
     1
102
RTVSPost2010Prop48
 90
       50
102
RTVSPost2010PropOp48
 70
     1
102
RTVSPost2010Prop49
280
     0
102
RTVSPost2010PropOp49
 70
     1
102
RTVSPost2010Prop50
 90
       50
102
RTVSPost2010PropOp50
 70
     1
102
RTVSPost2010Prop51ColorIndex
 90
      256
102
RTVSPost2010Prop51ColorRGB
 90
-16777216
102
RTVSPost2010PropOp51
 70
     0
102
RTVSPost2010Prop52
140
1.0
102
RTVSPost2010PropOp52
 70
     0
102
RTVSPost2010Prop53
 90
        2
102
RTVSPost2010PropOp53
 70
     1
102
RTVSPost2010Prop54
  1
strokes_ogs.tif
102
RTVSPost2010PropOp54
 70
     1
102
RTVSPost2010Prop55
280
     0
102
RTVSPost2010PropOp55
 70
     1
102
RTVSPost2010Prop56
140
1.0
102
RTVSPost2010PropOp56
 70
     1
102
RTVSPost2010Prop57
140
1.0
102
RTVSPost2010PropOp57
 70
     1
  0
XRECORD
  5
518
102
{ACAD_REACTORS
330
517
102
}
330
517
100
AcDbXrecord
280
     1
102
RTVSPropertyOp0
 70
     1
102
RTVSPropertyOp1
 70
     1
102
RTVSPropertyOp2
 70
     1
102
RTVSPropertyOp3
 70
     1
102
RTVSPropertyOp4
 70
     1
102
RTVSPropertyOp5
 70
     1
102
RTVSPropertyOp6
 70
     1
102
RTVSPropertyOp7
 70
     1
102
RTVSPropertyOp8
 70
     1
102
RTVSPropertyOp9
 70
     1
102
RTVSPropertyOp10
 70
     1
102
RTVSPropertyOp11
 70
     1
102
RTVSPropertyOp12
 70
     1
102
RTVSPropertyOp13
 70
     1
102
RTVSPropertyOp14
 70
     1
102
RTVSPropertyOp15
 70
     1
102
RTVSPropertyOp16
 70
     1
102
RTVSPropertyOp17
 70
     1
102
RTVSPropertyOp18
 70
     1
102
RTVSPropertyOp19
 70
     1
102
RTVSPropertyOp20
 70
     1
102
RTVSPropertyOp21
 70
     1
102
RTVSPropertyOp22
 70
     1
102
RTVSPropertyOp23
 70
     1
102
RTVSPropertyOp24
 70
     1
102
RTVSPropertyOp25
 70
     1
102
RTVSPropertyOp26
 70
     1
102
RTVSPropertyOp27
 70
     1
102
RTVSPropertyOp28
 70
     1
102
RTVSPropertyOp29
 70
     1
102
RTVSPropertyOp30
 70
     1
102
RTVSPropertyOp31
 70
     1
102
RTVSPropertyOp32
 70
     1
102
RTVSPropertyOp33
 70
     1
102
RTVSPropertyOp34
 70
     1
102
RTVSPropertyOp35
 70
     1
102
RTVSPropertyOp36
 70
     1
102
RTVSPropertyOp37
 70
     1
102
RTVSPropertyOp38
 70
     1
102
RTVSPropertyOp39
 70
     1
102
RTVSPropertyOp40
 70
     1
102
RTVSPropertyOp41
 70
     1
102
RTVSPropertyOp42
 70
     1
102
RTVSPropertyOp43
 70
     1
102
RTVSPropertyOp44
 70
     1
102
RTVSPropertyOp45
 70
     1
102
RTVSPropertyOp46
 70
     1
102
RTVSPropertyOp47
 70
     1
102
RTVSPropertyOp48
 70
     1
102
RTVSPropertyOp49
 70
     1
102
RTVSPropertyOp50
 70
     1
102
RTVSPropertyOp51
 70
     0
102
RTVSPropertyOp52
 70
     0
102
RTVSPropertyOp53
 70
     1
102
RTVSPropertyOp54
 70
     1
102
RTVSPropertyOp55
 70
     1
102
RTVSPropertyOp56
 70
     1
102
RTVSPropertyOp57
 70
     1
102
RTVSPost2010Prop28
280
     0
102
RTVSPost2010PropOp28
 70
     1
102
RTVSPost2010Prop29
280
     1
102
RTVSPost2010PropOp29
 70
     1
102
RTVSPost2010Prop30
280
     1
102
RTVSPost2010PropOp30
 70
     1
102
RTVSPost2010Prop31
280
     0
102
RTVSPost2010PropOp31
 70
     1
102
RTVSPost2010Prop32
280
     0
102
RTVSPost2010PropOp32
 70
     1
102
RTVSPost2010Prop33
280
     0
102
RTVSPost2010PropOp33
 70
     1
102
RTVSPost2010Prop34
280
     0
102
RTVSPost2010PropOp34
 70
     1
102
RTVSPost2010Prop35
280
     0
102
RTVSPost2010PropOp35
 70
     1
102
RTVSPost2010Prop36
280
     0
102
RTVSPost2010PropOp36
 70
     1
102
RTVSPost2010Prop37
 90
       50
102
RTVSPost2010PropOp37
 70
     1
102
RTVSPost2010Prop38
140
0.0
102
RTVSPost2010PropOp38
 70
     1
102
RTVSPost2010Prop39
140
1.0
102
RTVSPost2010PropOp39
 70
     1
102
RTVSPost2010Prop40
 90
        0
102
RTVSPost2010PropOp40
 70
     1
102
RTVSPost2010Prop41ColorIndex
 90
       18
102
RTVSPost2010Prop41ColorRGB
 90
        0
102
RTVSPost2010PropOp41
 70
     1
102
RTVSPost2010Prop42
 90
       50
102
RTVSPost2010PropOp42
 70
     1
102
RTVSPost2010Prop43
 90
        3
102
RTVSPost2010PropOp43
 70
     1
102
RTVSPost2010Prop44ColorIndex
 90
        5
102
RTVSPost2010Prop44ColorRGB
 90
      255
102
RTVSPost2010PropOp44
 70
     1
102
RTVSPost2010Prop45
280
     0
102
RTVSPost2010PropOp45
 70
     1
102
RTVSPost2010Prop46
 90
       50
102
RTVSPost2010PropOp46
 70
     1
102
RTVSPost2010Prop47
 90
       50
102
RTVSPost2010PropOp47
 70
     1
102
RTVSPost2010Prop48
 90
       50
102
RTVSPost2010PropOp48
 70
     1
102
RTVSPost2010Prop49
280
     0
102
RTVSPost2010PropOp49
 70
     1
102
RTVSPost2010Prop50
 90
       50
102
RTVSPost2010PropOp50
 70
     1
102
RTVSPost2010Prop51ColorIndex
 90
      256
102
RTVSPost2010Prop51ColorRGB
 90
-16777216
102
RTVSPost2010PropOp51
 70
     0
102
RTVSPost2010Prop52
140
1.0
102
RTVSPost2010PropOp52
 70
     0
102
RTVSPost2010Prop53
 90
        2
102
RTVSPost2010PropOp53
 70
     1
102
RTVSPost2010Prop54
  1
strokes_ogs.tif
102
RTVSPost2010PropOp54
 70
     1
102
RTVSPost2010Prop55
280
     0
102
RTVSPost2010PropOp55
 70
     1
102
RTVSPost2010Prop56
140
1.0
102
RTVSPost2010PropOp56
 70
     1
102
RTVSPost2010Prop57
140
1.0
102
RTVSPost2010PropOp57
 70
     1
  0
XRECORD
  5
508
102
{ACAD_REACTORS
330
507
102
}
330
507
100
AcDbXrecord
280
     1
102
RTVSPropertyOp0
 70
     1
102
RTVSPropertyOp1
 70
     1
102
RTVSPropertyOp2
 70
     1
102
RTVSPropertyOp3
 70
     1
102
RTVSPropertyOp4
 70
     1
102
RTVSPropertyOp5
 70
     1
102
RTVSPropertyOp6
 70
     1
102
RTVSPropertyOp7
 70
     1
102
RTVSPropertyOp8
 70
     1
102
RTVSPropertyOp9
 70
     1
102
RTVSPropertyOp10
 70
     1
102
RTVSPropertyOp11
 70
     1
102
RTVSPropertyOp12
 70
     1
102
RTVSPropertyOp13
 70
     1
102
RTVSPropertyOp14
 70
     1
102
RTVSPropertyOp15
 70
     1
102
RTVSPropertyOp16
 70
     1
102
RTVSPropertyOp17
 70
     1
102
RTVSPropertyOp18
 70
     1
102
RTVSPropertyOp19
 70
     1
102
RTVSPropertyOp20
 70
     1
102
RTVSPropertyOp21
 70
     1
102
RTVSPropertyOp22
 70
     1
102
RTVSPropertyOp23
 70
     1
102
RTVSPropertyOp24
 70
     1
102
RTVSPropertyOp25
 70
     1
102
RTVSPropertyOp26
 70
     1
102
RTVSPropertyOp27
 70
     1
102
RTVSPropertyOp28
 70
     1
102
RTVSPropertyOp29
 70
     1
102
RTVSPropertyOp30
 70
     1
102
RTVSPropertyOp31
 70
     1
102
RTVSPropertyOp32
 70
     1
102
RTVSPropertyOp33
 70
     1
102
RTVSPropertyOp34
 70
     1
102
RTVSPropertyOp35
 70
     1
102
RTVSPropertyOp36
 70
     1
102
RTVSPropertyOp37
 70
     1
102
RTVSPropertyOp38
 70
     1
102
RTVSPropertyOp39
 70
     1
102
RTVSPropertyOp40
 70
     1
102
RTVSPropertyOp41
 70
     1
102
RTVSPropertyOp42
 70
     1
102
RTVSPropertyOp43
 70
     1
102
RTVSPropertyOp44
 70
     1
102
RTVSPropertyOp45
 70
     1
102
RTVSPropertyOp46
 70
     1
102
RTVSPropertyOp47
 70
     1
102
RTVSPropertyOp48
 70
     1
102
RTVSPropertyOp49
 70
     1
102
RTVSPropertyOp50
 70
     1
102
RTVSPropertyOp51
 70
     0
102
RTVSPropertyOp52
 70
     0
102
RTVSPropertyOp53
 70
     1
102
RTVSPropertyOp54
 70
     1
102
RTVSPropertyOp55
 70
     1
102
RTVSPropertyOp56
 70
     1
102
RTVSPropertyOp57
 70
     1
102
RTVSPost2010Prop28
280
     0
102
RTVSPost2010PropOp28
 70
     1
102
RTVSPost2010Prop29
280
     1
102
RTVSPost2010PropOp29
 70
     1
102
RTVSPost2010Prop30
280
     1
102
RTVSPost2010PropOp30
 70
     1
102
RTVSPost2010Prop31
280
     0
102
RTVSPost2010PropOp31
 70
     1
102
RTVSPost2010Prop32
280
     0
102
RTVSPost2010PropOp32
 70
     1
102
RTVSPost2010Prop33
280
     0
102
RTVSPost2010PropOp33
 70
     1
102
RTVSPost2010Prop34
280
     0
102
RTVSPost2010PropOp34
 70
     1
102
RTVSPost2010Prop35
280
     0
102
RTVSPost2010PropOp35
 70
     1
102
RTVSPost2010Prop36
280
     0
102
RTVSPost2010PropOp36
 70
     1
102
RTVSPost2010Prop37
 90
       50
102
RTVSPost2010PropOp37
 70
     1
102
RTVSPost2010Prop38
140
0.0
102
RTVSPost2010PropOp38
 70
     1
102
RTVSPost2010Prop39
140
1.0
102
RTVSPost2010PropOp39
 70
     1
102
RTVSPost2010Prop40
 90
        0
102
RTVSPost2010PropOp40
 70
     1
102
RTVSPost2010Prop41ColorIndex
 90
       18
102
RTVSPost2010Prop41ColorRGB
 90
        0
102
RTVSPost2010PropOp41
 70
     1
102
RTVSPost2010Prop42
 90
       50
102
RTVSPost2010PropOp42
 70
     1
102
RTVSPost2010Prop43
 90
        3
102
RTVSPost2010PropOp43
 70
     1
102
RTVSPost2010Prop44ColorIndex
 90
        5
102
RTVSPost2010Prop44ColorRGB
 90
      255
102
RTVSPost2010PropOp44
 70
     1
102
RTVSPost2010Prop45
280
     0
102
RTVSPost2010PropOp45
 70
     1
102
RTVSPost2010Prop46
 90
       50
102
RTVSPost2010PropOp46
 70
     1
102
RTVSPost2010Prop47
 90
       50
102
RTVSPost2010PropOp47
 70
     1
102
RTVSPost2010Prop48
 90
       50
102
RTVSPost2010PropOp48
 70
     1
102
RTVSPost2010Prop49
280
     0
102
RTVSPost2010PropOp49
 70
     1
102
RTVSPost2010Prop50
 90
       50
102
RTVSPost2010PropOp50
 70
     1
102
RTVSPost2010Prop51ColorIndex
 90
      256
102
RTVSPost2010Prop51ColorRGB
 90
-16777216
102
RTVSPost2010PropOp51
 70
     0
102
RTVSPost2010Prop52
140
1.0
102
RTVSPost2010PropOp52
 70
     0
102
RTVSPost2010Prop53
 90
        2
102
RTVSPost2010PropOp53
 70
     1
102
RTVSPost2010Prop54
  1
strokes_ogs.tif
102
RTVSPost2010PropOp54
 70
     1
102
RTVSPost2010Prop55
280
     0
102
RTVSPost2010PropOp55
 70
     1
102
RTVSPost2010Prop56
140
1.0
102
RTVSPost2010PropOp56
 70
     1
102
RTVSPost2010Prop57
140
1.0
102
RTVSPost2010PropOp57
 70
     1
  0
XRECORD
  5
4FA
102
{ACAD_REACTORS
330
4F9
102
}
330
4F9
100
AcDbXrecord
280
     1
102
RTVSPropertyOp0
 70
     1
102
RTVSPropertyOp1
 70
     1
102
RTVSPropertyOp2
 70
     1
102
RTVSPropertyOp3
 70
     1
102
RTVSPropertyOp4
 70
     1
102
RTVSPropertyOp5
 70
     1
102
RTVSPropertyOp6
 70
     1
102
RTVSPropertyOp7
 70
     1
102
RTVSPropertyOp8
 70
     1
102
RTVSPropertyOp9
 70
     1
102
RTVSPropertyOp10
 70
     1
102
RTVSPropertyOp11
 70
     1
102
RTVSPropertyOp12
 70
     1
102
RTVSPropertyOp13
 70
     1
102
RTVSPropertyOp14
 70
     1
102
RTVSPropertyOp15
 70
     1
102
RTVSPropertyOp16
 70
     1
102
RTVSPropertyOp17
 70
     1
102
RTVSPropertyOp18
 70
     1
102
RTVSPropertyOp19
 70
     1
102
RTVSPropertyOp20
 70
     1
102
RTVSPropertyOp21
 70
     1
102
RTVSPropertyOp22
 70
     1
102
RTVSPropertyOp23
 70
     1
102
RTVSPropertyOp24
 70
     1
102
RTVSPropertyOp25
 70
     1
102
RTVSPropertyOp26
 70
     1
102
RTVSPropertyOp27
 70
     1
102
RTVSPropertyOp28
 70
     1
102
RTVSPropertyOp29
 70
     1
102
RTVSPropertyOp30
 70
     1
102
RTVSPropertyOp31
 70
     1
102
RTVSPropertyOp32
 70
     1
102
RTVSPropertyOp33
 70
     1
102
RTVSPropertyOp34
 70
     1
102
RTVSPropertyOp35
 70
     1
102
RTVSPropertyOp36
 70
     1
102
RTVSPropertyOp37
 70
     1
102
RTVSPropertyOp38
 70
     1
102
RTVSPropertyOp39
 70
     1
102
RTVSPropertyOp40
 70
     1
102
RTVSPropertyOp41
 70
     1
102
RTVSPropertyOp42
 70
     1
102
RTVSPropertyOp43
 70
     1
102
RTVSPropertyOp44
 70
     1
102
RTVSPropertyOp45
 70
     1
102
RTVSPropertyOp46
 70
     1
102
RTVSPropertyOp47
 70
     1
102
RTVSPropertyOp48
 70
     1
102
RTVSPropertyOp49
 70
     1
102
RTVSPropertyOp50
 70
     1
102
RTVSPropertyOp51
 70
     0
102
RTVSPropertyOp52
 70
     0
102
RTVSPropertyOp53
 70
     1
102
RTVSPropertyOp54
 70
     1
102
RTVSPropertyOp55
 70
     1
102
RTVSPropertyOp56
 70
     1
102
RTVSPropertyOp57
 70
     1
102
RTVSPost2010Prop28
280
     0
102
RTVSPost2010PropOp28
 70
     1
102
RTVSPost2010Prop29
280
     1
102
RTVSPost2010PropOp29
 70
     1
102
RTVSPost2010Prop30
280
     1
102
RTVSPost2010PropOp30
 70
     1
102
RTVSPost2010Prop31
280
     0
102
RTVSPost2010PropOp31
 70
     1
102
RTVSPost2010Prop32
280
     0
102
RTVSPost2010PropOp32
 70
     1
102
RTVSPost2010Prop33
280
     0
102
RTVSPost2010PropOp33
 70
     1
102
RTVSPost2010Prop34
280
     0
102
RTVSPost2010PropOp34
 70
     1
102
RTVSPost2010Prop35
280
     0
102
RTVSPost2010PropOp35
 70
     1
102
RTVSPost2010Prop36
280
     0
102
RTVSPost2010PropOp36
 70
     1
102
RTVSPost2010Prop37
 90
       50
102
RTVSPost2010PropOp37
 70
     1
102
RTVSPost2010Prop38
140
0.0
102
RTVSPost2010PropOp38
 70
     1
102
RTVSPost2010Prop39
140
1.0
102
RTVSPost2010PropOp39
 70
     1
102
RTVSPost2010Prop40
 90
        0
102
RTVSPost2010PropOp40
 70
     1
102
RTVSPost2010Prop41ColorIndex
 90
       18
102
RTVSPost2010Prop41ColorRGB
 90
        0
102
RTVSPost2010PropOp41
 70
     1
102
RTVSPost2010Prop42
 90
       50
102
RTVSPost2010PropOp42
 70
     1
102
RTVSPost2010Prop43
 90
        3
102
RTVSPost2010PropOp43
 70
     1
102
RTVSPost2010Prop44ColorIndex
 90
        5
102
RTVSPost2010Prop44ColorRGB
 90
      255
102
RTVSPost2010PropOp44
 70
     1
102
RTVSPost2010Prop45
280
     0
102
RTVSPost2010PropOp45
 70
     1
102
RTVSPost2010Prop46
 90
       50
102
RTVSPost2010PropOp46
 70
     1
102
RTVSPost2010Prop47
 90
       50
102
RTVSPost2010PropOp47
 70
     1
102
RTVSPost2010Prop48
 90
       50
102
RTVSPost2010PropOp48
 70
     1
102
RTVSPost2010Prop49
280
     0
102
RTVSPost2010PropOp49
 70
     1
102
RTVSPost2010Prop50
 90
       50
102
RTVSPost2010PropOp50
 70
     1
102
RTVSPost2010Prop51ColorIndex
 90
      256
102
RTVSPost2010Prop51ColorRGB
 90
-16777216
102
RTVSPost2010PropOp51
 70
     0
102
RTVSPost2010Prop52
140
1.0
102
RTVSPost2010PropOp52
 70
     0
102
RTVSPost2010Prop53
 90
        2
102
RTVSPost2010PropOp53
 70
     1
102
RTVSPost2010Prop54
  1
strokes_ogs.tif
102
RTVSPost2010PropOp54
 70
     1
102
RTVSPost2010Prop55
280
     0
102
RTVSPost2010PropOp55
 70
     1
102
RTVSPost2010Prop56
140
1.0
102
RTVSPost2010PropOp56
 70
     1
102
RTVSPost2010Prop57
140
1.0
102
RTVSPost2010PropOp57
 70
     1
  0
XRECORD
  5
51A
102
{ACAD_REACTORS
330
519
102
}
330
519
100
AcDbXrecord
280
     1
102
RTVSPropertyOp0
 70
     1
102
RTVSPropertyOp1
 70
     1
102
RTVSPropertyOp2
 70
     1
102
RTVSPropertyOp3
 70
     1
102
RTVSPropertyOp4
 70
     1
102
RTVSPropertyOp5
 70
     1
102
RTVSPropertyOp6
 70
     1
102
RTVSPropertyOp7
 70
     1
102
RTVSPropertyOp8
 70
     1
102
RTVSPropertyOp9
 70
     1
102
RTVSPropertyOp10
 70
     1
102
RTVSPropertyOp11
 70
     1
102
RTVSPropertyOp12
 70
     1
102
RTVSPropertyOp13
 70
     1
102
RTVSPropertyOp14
 70
     1
102
RTVSPropertyOp15
 70
     1
102
RTVSPropertyOp16
 70
     1
102
RTVSPropertyOp17
 70
     1
102
RTVSPropertyOp18
 70
     1
102
RTVSPropertyOp19
 70
     1
102
RTVSPropertyOp20
 70
     1
102
RTVSPropertyOp21
 70
     1
102
RTVSPropertyOp22
 70
     1
102
RTVSPropertyOp23
 70
     1
102
RTVSPropertyOp24
 70
     1
102
RTVSPropertyOp25
 70
     1
102
RTVSPropertyOp26
 70
     1
102
RTVSPropertyOp27
 70
     1
102
RTVSPropertyOp28
 70
     1
102
RTVSPropertyOp29
 70
     1
102
RTVSPropertyOp30
 70
     1
102
RTVSPropertyOp31
 70
     1
102
RTVSPropertyOp32
 70
     1
102
RTVSPropertyOp33
 70
     1
102
RTVSPropertyOp34
 70
     1
102
RTVSPropertyOp35
 70
     1
102
RTVSPropertyOp36
 70
     1
102
RTVSPropertyOp37
 70
     1
102
RTVSPropertyOp38
 70
     1
102
RTVSPropertyOp39
 70
     1
102
RTVSPropertyOp40
 70
     1
102
RTVSPropertyOp41
 70
     1
102
RTVSPropertyOp42
 70
     1
102
RTVSPropertyOp43
 70
     1
102
RTVSPropertyOp44
 70
     1
102
RTVSPropertyOp45
 70
     1
102
RTVSPropertyOp46
 70
     1
102
RTVSPropertyOp47
 70
     1
102
RTVSPropertyOp48
 70
     1
102
RTVSPropertyOp49
 70
     1
102
RTVSPropertyOp50
 70
     1
102
RTVSPropertyOp51
 70
     0
102
RTVSPropertyOp52
 70
     0
102
RTVSPropertyOp53
 70
     1
102
RTVSPropertyOp54
 70
     1
102
RTVSPropertyOp55
 70
     1
102
RTVSPropertyOp56
 70
     1
102
RTVSPropertyOp57
 70
     1
102
RTVSPost2010Prop28
280
     0
102
RTVSPost2010PropOp28
 70
     1
102
RTVSPost2010Prop29
280
     1
102
RTVSPost2010PropOp29
 70
     1
102
RTVSPost2010Prop30
280
     1
102
RTVSPost2010PropOp30
 70
     1
102
RTVSPost2010Prop31
280
     0
102
RTVSPost2010PropOp31
 70
     1
102
RTVSPost2010Prop32
280
     0
102
RTVSPost2010PropOp32
 70
     1
102
RTVSPost2010Prop33
280
     0
102
RTVSPost2010PropOp33
 70
     1
102
RTVSPost2010Prop34
280
     0
102
RTVSPost2010PropOp34
 70
     1
102
RTVSPost2010Prop35
280
     0
102
RTVSPost2010PropOp35
 70
     1
102
RTVSPost2010Prop36
280
     0
102
RTVSPost2010PropOp36
 70
     1
102
RTVSPost2010Prop37
 90
       50
102
RTVSPost2010PropOp37
 70
     1
102
RTVSPost2010Prop38
140
0.0
102
RTVSPost2010PropOp38
 70
     1
102
RTVSPost2010Prop39
140
1.0
102
RTVSPost2010PropOp39
 70
     1
102
RTVSPost2010Prop40
 90
        0
102
RTVSPost2010PropOp40
 70
     1
102
RTVSPost2010Prop41ColorIndex
 90
       18
102
RTVSPost2010Prop41ColorRGB
 90
        0
102
RTVSPost2010PropOp41
 70
     1
102
RTVSPost2010Prop42
 90
       50
102
RTVSPost2010PropOp42
 70
     1
102
RTVSPost2010Prop43
 90
        3
102
RTVSPost2010PropOp43
 70
     1
102
RTVSPost2010Prop44ColorIndex
 90
        5
102
RTVSPost2010Prop44ColorRGB
 90
      255
102
RTVSPost2010PropOp44
 70
     1
102
RTVSPost2010Prop45
280
     0
102
RTVSPost2010PropOp45
 70
     1
102
RTVSPost2010Prop46
 90
       50
102
RTVSPost2010PropOp46
 70
     1
102
RTVSPost2010Prop47
 90
       50
102
RTVSPost2010PropOp47
 70
     1
102
RTVSPost2010Prop48
 90
       50
102
RTVSPost2010PropOp48
 70
     1
102
RTVSPost2010Prop49
280
     0
102
RTVSPost2010PropOp49
 70
     1
102
RTVSPost2010Prop50
 90
       50
102
RTVSPost2010PropOp50
 70
     1
102
RTVSPost2010Prop51ColorIndex
 90
      256
102
RTVSPost2010Prop51ColorRGB
 90
-16777216
102
RTVSPost2010PropOp51
 70
     0
102
RTVSPost2010Prop52
140
1.0
102
RTVSPost2010PropOp52
 70
     0
102
RTVSPost2010Prop53
 90
        2
102
RTVSPost2010PropOp53
 70
     1
102
RTVSPost2010Prop54
  1
strokes_ogs.tif
102
RTVSPost2010PropOp54
 70
     1
102
RTVSPost2010Prop55
280
     0
102
RTVSPost2010PropOp55
 70
     1
102
RTVSPost2010Prop56
140
1.0
102
RTVSPost2010PropOp56
 70
     1
102
RTVSPost2010Prop57
140
1.0
102
RTVSPost2010PropOp57
 70
     1
  0
ENDSEC
  0
EOF
