  0
SECTION
  2
HEADER
  9
$ACADVER
  1
AC1015
  9
$ACADMAINTVER
 70
     6
  9
$DWGCODEPAGE
  3
ANSI_1252
  9
$INSBASE
 10
0.0
 20
0.0
 30
0.0
  9
$EXTMIN
 10
-0.5
 20
-0.5
 30
-0.5
  9
$EXTMAX
 10
5.0
 20
5.0
 30
5.0
  9
$LIMMIN
 10
-0.5
 20
-0.5
  9
$LIMMAX
 10
5.0
 20
5.0
  9
$ORTHOMODE
 70
     0
  9
$REGENMODE
 70
     1
  9
$FILLMODE
 70
     1
  9
$QTEXTMODE
 70
     0
  9
$MIRRTEXT
 70
     1
  9
$LTSCALE
 40
1.0
  9
$ATTMODE
 70
     1
  9
$TEXTSIZE
 40
0.2
  9
$TRACEWID
 40
0.05
  9
$TEXTSTYLE
  7
Standard
  9
$CLAYER
  8
0
  9
$CELTYPE
  6
ByLayer
  9
$CECOLOR
 62
   256
  9
$CELTSCALE
 40
1.0
  9
$DISPSILH
 70
     0
  9
$DIMSCALE
 40
1.0
  9
$DIMASZ
 40
0.18
  9
$DIMEXO
 40
0.0625
  9
$DIMDLI
 40
0.38
  9
$DIMRND
 40
0.0
  9
$DIMDLE
 40
0.0
  9
$DIMEXE
 40
0.18
  9
$DIMTP
 40
0.0
  9
$DIMTM
 40
0.0
  9
$DIMTXT
 40
0.18
  9
$DIMCEN
 40
0.09
  9
$DIMTSZ
 40
0.0
  9
$DIMTOL
 70
     0
  9
$DIMLIM
 70
     0
  9
$DIMTIH
 70
     1
  9
$DIMTOH
 70
     1
  9
$DIMSE1
 70
     0
  9
$DIMSE2
 70
     0
  9
$DIMTAD
 70
     0
  9
$DIMZIN
 70
     0
  9
$DIMBLK
  1

  9
$DIMASO
 70
     1
  9
$DIMSHO
 70
     1
  9
$DIMPOST
  1

  9
$DIMAPOST
  1

  9
$DIMALT
 70
     0
  9
$DIMALTD
 70
     2
  9
$DIMALTF
 40
25.4
  9
$DIMLFAC
 40
1.0
  9
$DIMTOFL
 70
     0
  9
$DIMTVP
 40
0.0
  9
$DIMTIX
 70
     0
  9
$DIMSOXD
 70
     0
  9
$DIMSAH
 70
     0
  9
$DIMBLK1
  1

  9
$DIMBLK2
  1

  9
$DIMSTYLE
  2
Standard
  9
$DIMCLRD
 70
     0
  9
$DIMCLRE
 70
     0
  9
$DIMCLRT
 70
     0
  9
$DIMTFAC
 40
1.0
  9
$DIMGAP
 40
0.09
  9
$DIMJUST
 70
     0
  9
$DIMSD1
 70
     0
  9
$DIMSD2
 70
     0
  9
$DIMTOLJ
 70
     1
  9
$DIMTZIN
 70
     0
  9
$DIMALTZ
 70
     0
  9
$DIMALTTZ
 70
     0
  9
$DIMUPT
 70
     0
  9
$DIMDEC
 70
     4
  9
$DIMTDEC
 70
     4
  9
$DIMALTU
 70
     2
  9
$DIMALTTD
 70
     2
  9
$DIMTXSTY
  7
Standard
  9
$DIMAUNIT
 70
     0
  9
$DIMADEC
 70
     0
  9
$DIMALTRND
 40
0.0
  9
$DIMAZIN
 70
     0
  9
$DIMDSEP
 70
    46
  9
$DIMATFIT
 70
     3
  9
$DIMFRAC
 70
     0
  9
$DIMLDRBLK
  1

  9
$DIMLUNIT
 70
     2
  9
$DIMLWD
 70
    -2
  9
$DIMLWE
 70
    -2
  9
$DIMTMOVE
 70
     0
  9
$LUNITS
 70
     2
  9
$LUPREC
 70
     4
  9
$SKETCHINC
 40
0.1
  9
$FILLETRAD
 40
0.5
  9
$AUNITS
 70
     0
  9
$AUPREC
 70
     0
  9
$MENU
  1
.
  9
$ELEVATION
 40
0.0
  9
$PELEVATION
 40
0.0
  9
$THICKNESS
 40
0.0
  9
$LIMCHECK
 70
     0
  9
$CHAMFERA
 40
0.0
  9
$CHAMFERB
 40
0.0
  9
$CHAMFERC
 40
0.0
  9
$CHAMFERD
 40
0.0
  9
$SKPOLY
 70
     0
  9
$TDCREATE
 40
2458635.469337685
  9
$TDUCREATE
 40
2458635.386004352
  9
$TDUPDATE
 40
2458635.469685995
  9
$TDUUPDATE
 40
2458635.386352662
  9
$TDINDWG
 40
0.0000000116
  9
$TDUSRTIMER
 40
0.0000000116
  9
$USRTIMER
 70
     1
  9
$ANGBASE
 50
0.0
  9
$ANGDIR
 70
     0
  9
$PDMODE
 70
     0
  9
$PDSIZE
 40
0.0
  9
$PLINEWID
 40
0.0
  9
$SPLFRAME
 70
     0
  9
$SPLINETYPE
 70
     6
  9
$SPLINESEGS
 70
     8
  9
$HANDSEED
  5
3A5
  9
$SURFTAB1
 70
     6
  9
$SURFTAB2
 70
     6
  9
$SURFTYPE
 70
     6
  9
$SURFU
 70
     6
  9
$SURFV
 70
     6
  9
$UCSBASE
  2

  9
$UCSNAME
  2

  9
$UCSORG
 10
0.0
 20
0.0
 30
0.0
  9
$UCSXDIR
 10
1.0
 20
0.0
 30
0.0
  9
$UCSYDIR
 10
0.0
 20
1.0
 30
0.0
  9
$UCSORTHOREF
  2

  9
$UCSORTHOVIEW
 70
     0
  9
$UCSORGTOP
 10
0.0
 20
0.0
 30
0.0
  9
$UCSORGBOTTOM
 10
0.0
 20
0.0
 30
0.0
  9
$UCSORGLEFT
 10
0.0
 20
0.0
 30
0.0
  9
$UCSORGRIGHT
 10
0.0
 20
0.0
 30
0.0
  9
$UCSORGFRONT
 10
0.0
 20
0.0
 30
0.0
  9
$UCSORGBACK
 10
0.0
 20
0.0
 30
0.0
  9
$PUCSBASE
  2

  9
$PUCSNAME
  2

  9
$PUCSORG
 10
0.0
 20
0.0
 30
0.0
  9
$PUCSXDIR
 10
1.0
 20
0.0
 30
0.0
  9
$PUCSYDIR
 10
0.0
 20
1.0
 30
0.0
  9
$PUCSORTHOREF
  2

  9
$PUCSORTHOVIEW
 70
     0
  9
$PUCSORGTOP
 10
0.0
 20
0.0
 30
0.0
  9
$PUCSORGBOTTOM
 10
0.0
 20
0.0
 30
0.0
  9
$PUCSORGLEFT
 10
0.0
 20
0.0
 30
0.0
  9
$PUCSORGRIGHT
 10
0.0
 20
0.0
 30
0.0
  9
$PUCSORGFRONT
 10
0.0
 20
0.0
 30
0.0
  9
$PUCSORGBACK
 10
0.0
 20
0.0
 30
0.0
  9
$USERI1
 70
     0
  9
$USERI2
 70
     0
  9
$USERI3
 70
     0
  9
$USERI4
 70
     0
  9
$USERI5
 70
     0
  9
$USERR1
 40
0.0
  9
$USERR2
 40
0.0
  9
$USERR3
 40
0.0
  9
$USERR4
 40
0.0
  9
$USERR5
 40
0.0
  9
$WORLDVIEW
 70
     1
  9
$SHADEDGE
 70
     3
  9
$SHADEDIF
 70
    70
  9
$TILEMODE
 70
     1
  9
$MAXACTVP
 70
    64
  9
$PINSBASE
 10
0.0
 20
0.0
 30
0.0
  9
$PLIMCHECK
 70
     0
  9
$PEXTMIN
 10
-0.5
 20
-0.5
 30
-0.5
  9
$PEXTMAX
 10
5.0
 20
5.0
 30
5.0
  9
$PLIMMIN
 10
-0.5
 20
-0.5
  9
$PLIMMAX
 10
5.0
 20
5.0
  9
$UNITMODE
 70
     0
  9
$VISRETAIN
 70
     1
  9
$PLINEGEN
 70
     0
  9
$PSLTSCALE
 70
     1
  9
$TREEDEPTH
 70
  3020
  9
$CMLSTYLE
  2
Standard
  9
$CMLJUST
 70
     0
  9
$CMLSCALE
 40
1.0
  9
$PROXYGRAPHICS
 70
     1
  9
$MEASUREMENT
 70
     1
  9
$CELWEIGHT
370
    13
  9
$ENDCAPS
280
     0
  9
$JOINSTYLE
280
     0
  9
$LWDISPLAY
290
     0
  9
$INSUNITS
 70
     4
  9
$HYPERLINKBASE
  1

  9
$STYLESHEET
  1

  9
$XEDIT
290
     1
  9
$CEPSNTYPE
380
     0
  9
$PSTYLEMODE
290
     1
  9
$FINGERPRINTGUID
  2
{912856F8-58C6-46B0-A005-CE8A1C1C3D55}
  9
$VERSIONGUID
  2
{FAEB1C32-E019-11D5-929B-00C0DF256EC4}
  9
$EXTNAMES
290
     1
  9
$PSVPSCALE
 40
0.0
  9
$OLESTARTUP
290
     0
  0
ENDSEC
  0
SECTION
  2
CLASSES
  0
CLASS
  1
ACDBDICTIONARYWDFLT
  2
AcDbDictionaryWithDefault
  3
ObjectDBX Classes
 90
        0
280
     0
281
     0
  0
CLASS
  1
VISUALSTYLE
  2
AcDbVisualStyle
  3
ObjectDBX Classes
 90
     4095
280
     0
281
     0
  0
CLASS
  1
MATERIAL
  2
AcDbMaterial
  3
ObjectDBX Classes
 90
     1153
280
     0
281
     0
  0
CLASS
  1
SCALE
  2
AcDbScale
  3
ObjectDBX Classes
 90
     1153
280
     0
281
     0
  0
CLASS
  1
SUN
  2
AcDbSun
  3
SCENEOE
 90
     1153
280
     0
281
     0
  0
CLASS
  1
DICTIONARYVAR
  2
AcDbDictionaryVar
  3
ObjectDBX Classes
 90
        0
280
     0
281
     0
  0
CLASS
  1
ACDBPLACEHOLDER
  2
AcDbPlaceHolder
  3
ObjectDBX Classes
 90
        0
280
     0
281
     0
  0
CLASS
  1
LAYOUT
  2
AcDbLayout
  3
ObjectDBX Classes
 90
        0
280
     0
281
     0
  0
ENDSEC
  0
SECTION
  2
TABLES
  0
TABLE
  2
VPORT
  5
8
330
0
100
AcDbSymbolTable
 70
    17
  0
VPORT
  5
29
330
8
100
AcDbSymbolTableRecord
100
AcDbViewportTableRecord
  2
DUMMY
 70
     0
 10
0.0
 20
0.0
 11
1.0
 21
1.0
 12
10.429907
 22
4.5
 13
0.0
 23
0.0
 14
0.5
 24
0.5
 15
0.5
 25
0.5
 16
0.0
 26
0.0
 36
1.0
 17
0.0
 27
0.0
 37
0.0
 40
9.0
 41
1.972973
 42
50.0
 43
0.0
 44
0.0
 50
0.0
 51
0.0
 71
     0
 72
   100
 73
     1
 74
     3
 75
     0
 76
     0
 77
     0
 78
     0
281
     0
 65
     1
110
0.0
120
0.0
130
0.0
111
1.0
121
0.0
131
0.0
112
0.0
122
1.0
132
0.0
 79
     0
146
0.0
  0
VPORT
  5
355
330
8
100
AcDbSymbolTableRecord
100
AcDbViewportTableRecord
  2
*ACTIVE
 70
     0
 10
0.0
 20
0.0
 11
1.0
 21
1.0
 12
8.921429
 22
20.47143
 13
0.0
 23
0.0
 14
0.5
 24
0.5
 15
0.5
 25
0.5
 16
0.0
 26
0.0
 36
1.0
 17
0.0
 27
0.0
 37
0.0
 40
229.922917
 41
0.077229
 42
50.0
 43
180.406592
 44
-180.406592
 50
0.0
 51
0.0
 71
     0
 72
   100
 73
     1
 74
     3
 75
     0
 76
     0
 77
     0
 78
     0
281
     0
 65
     1
110
0.0
120
0.0
130
0.0
111
1.0
121
0.0
131
0.0
112
0.0
122
1.0
132
0.0
 79
     0
146
0.0
  0
VPORT
  5
357
330
8
100
AcDbSymbolTableRecord
100
AcDbViewportTableRecord
  2
L1
 70
     0
 10
0.0
 20
0.0
 11
1.0
 21
1.0
 12
8.921429
 22
20.47143
 13
0.0
 23
0.0
 14
0.5
 24
0.5
 15
0.5
 25
0.5
 16
0.0
 26
0.0
 36
1.0
 17
0.0
 27
0.0
 37
0.0
 40
229.922917
 41
0.077229
 42
50.0
 43
180.406592
 44
-180.406592
 50
0.0
 51
0.0
 71
     0
 72
   100
 73
     1
 74
     3
 75
     0
 76
     0
 77
     0
 78
     0
281
     0
 65
     1
110
0.0
120
0.0
130
0.0
111
1.0
121
0.0
131
0.0
112
0.0
122
1.0
132
0.0
 79
     0
146
0.0
  0
VPORT
  5
358
330
8
100
AcDbSymbolTableRecord
100
AcDbViewportTableRecord
  2
L2
 70
     0
 10
0.0
 20
0.0
 11
0.5
 21
1.0
 12
0.0
 22
0.0
 13
0.0
 23
0.0
 14
0.5
 24
0.5
 15
0.5
 25
0.5
 16
0.0
 26
-1.0
 36
0.0
 17
0.0
 27
0.0
 37
0.0
 40
1482.243488
 41
0.01198
 42
50.0
 43
764.106154
 44
-764.106154
 50
0.0
 51
0.0
 71
     0
 72
   100
 73
     1
 74
     3
 75
     0
 76
     0
 77
     0
 78
     0
281
     0
 65
     1
110
0.0
120
0.0
130
0.0
111
1.0
121
0.0
131
0.0
112
0.0
122
1.0
132
0.0
 79
     0
146
0.0
  0
VPORT
  5
359
330
8
100
AcDbSymbolTableRecord
100
AcDbViewportTableRecord
  2
L2
 70
     0
 10
0.5
 20
0.0
 11
1.0
 21
1.0
 12
0.0
 22
0.0
 13
0.0
 23
0.0
 14
0.5
 24
0.5
 15
0.5
 25
0.5
 16
1.0
 26
0.0
 36
0.0
 17
0.0
 27
0.0
 37
0.0
 40
1482.243488
 41
0.01198
 42
50.0
 43
749.985051
 44
-749.985051
 50
0.0
 51
0.0
 71
     0
 72
   100
 73
     1
 74
     3
 75
     0
 76
     0
 77
     0
 78
     0
281
     0
 65
     1
110
0.0
120
0.0
130
0.0
111
1.0
121
0.0
131
0.0
112
0.0
122
1.0
132
0.0
 79
     0
146
0.0
  0
VPORT
  5
35A
330
8
100
AcDbSymbolTableRecord
100
AcDbViewportTableRecord
  2
L3
 70
     0
 10
0.0
 20
0.5
 11
1.0
 21
1.0
 12
8.921429
 22
20.47143
 13
0.0
 23
0.0
 14
0.5
 24
0.5
 15
0.5
 25
0.5
 16
0.0
 26
0.0
 36
1.0
 17
0.0
 27
0.0
 37
0.0
 40
229.922917
 41
0.077229
 42
50.0
 43
180.406592
 44
-180.406592
 50
0.0
 51
0.0
 71
     0
 72
   100
 73
     1
 74
     3
 75
     0
 76
     0
 77
     0
 78
     0
281
     0
 65
     1
110
0.0
120
0.0
130
0.0
111
1.0
121
0.0
131
0.0
112
0.0
122
1.0
132
0.0
 79
     0
146
0.0
  0
VPORT
  5
35B
330
8
100
AcDbSymbolTableRecord
100
AcDbViewportTableRecord
  2
L3
 70
     0
 10
0.0
 20
0.0
 11
1.0
 21
0.5
 12
0.0
 22
0.0
 13
0.0
 23
0.0
 14
0.5
 24
0.5
 15
0.5
 25
0.5
 16
0.0
 26
-1.0
 36
0.0
 17
0.0
 27
0.0
 37
0.0
 40
1482.243488
 41
0.01198
 42
50.0
 43
764.106154
 44
-764.106154
 50
0.0
 51
0.0
 71
     0
 72
   100
 73
     1
 74
     3
 75
     0
 76
     0
 77
     0
 78
     0
281
     0
 65
     1
110
0.0
120
0.0
130
0.0
111
1.0
121
0.0
131
0.0
112
0.0
122
1.0
132
0.0
 79
     0
146
0.0
  0
VPORT
  5
35C
330
8
100
AcDbSymbolTableRecord
100
AcDbViewportTableRecord
  2
L4
 70
     0
 10
0.0
 20
0.5
 11
0.5
 21
1.0
 12
8.921429
 22
20.47143
 13
0.0
 23
0.0
 14
0.5
 24
0.5
 15
0.5
 25
0.5
 16
0.0
 26
0.0
 36
1.0
 17
0.0
 27
0.0
 37
0.0
 40
229.922917
 41
0.077229
 42
50.0
 43
180.406592
 44
-180.406592
 50
0.0
 51
0.0
 71
     0
 72
   100
 73
     1
 74
     3
 75
     0
 76
     0
 77
     0
 78
     0
281
     0
 65
     1
110
0.0
120
0.0
130
0.0
111
1.0
121
0.0
131
0.0
112
0.0
122
1.0
132
0.0
 79
     0
146
0.0
  0
VPORT
  5
35D
330
8
100
AcDbSymbolTableRecord
100
AcDbViewportTableRecord
  2
L4
 70
     0
 10
0.0
 20
0.0
 11
0.5
 21
0.5
 12
0.0
 22
0.0
 13
0.0
 23
0.0
 14
0.5
 24
0.5
 15
0.5
 25
0.5
 16
0.0
 26
-1.0
 36
0.0
 17
0.0
 27
0.0
 37
0.0
 40
1482.243488
 41
0.01198
 42
50.0
 43
764.106154
 44
-764.106154
 50
0.0
 51
0.0
 71
     0
 72
   100
 73
     1
 74
     3
 75
     0
 76
     0
 77
     0
 78
     0
281
     0
 65
     1
110
0.0
120
0.0
130
0.0
111
1.0
121
0.0
131
0.0
112
0.0
122
1.0
132
0.0
 79
     0
146
0.0
  0
VPORT
  5
35E
330
8
100
AcDbSymbolTableRecord
100
AcDbViewportTableRecord
  2
L4
 70
     0
 10
0.5
 20
0.0
 11
1.0
 21
0.5
 12
0.0
 22
0.0
 13
0.0
 23
0.0
 14
0.5
 24
0.5
 15
0.5
 25
0.5
 16
1.0
 26
0.0
 36
0.0
 17
0.0
 27
0.0
 37
0.0
 40
1482.243488
 41
0.01198
 42
50.0
 43
749.985051
 44
-749.985051
 50
0.0
 51
0.0
 71
     0
 72
   100
 73
     1
 74
     3
 75
     0
 76
     0
 77
     0
 78
     0
281
     0
 65
     1
110
0.0
120
0.0
130
0.0
111
1.0
121
0.0
131
0.0
112
0.0
122
1.0
132
0.0
 79
     0
146
0.0
  0
VPORT
  5
35F
330
8
100
AcDbSymbolTableRecord
100
AcDbViewportTableRecord
  2
L4
 70
     0
 10
0.5
 20
0.5
 11
1.0
 21
1.0
 12
0.0
 22
0.0
 13
0.0
 23
0.0
 14
0.5
 24
0.5
 15
0.5
 25
0.5
 16
0.5773502691896258
 26
-0.5773502691896258
 36
0.5773502691896258
 17
0.0
 27
0.0
 37
0.0
 40
1455.982443
 41
0.012196
 42
50.0
 43
758.459455
 44
-758.459455
 50
0.0
 51
0.0
 71
     0
 72
   100
 73
     1
 74
     3
 75
     0
 76
     0
 77
     0
 78
     0
281
     0
 65
     1
110
0.0
120
0.0
130
0.0
111
1.0
121
0.0
131
0.0
112
0.0
122
1.0
132
0.0
 79
     0
146
0.0
  0
VPORT
  5
360
330
8
100
AcDbSymbolTableRecord
100
AcDbViewportTableRecord
  2
L6
 70
     0
 10
0.0
 20
0.5
 11
0.333333
 21
1.0
 12
0.0
 22
0.0
 13
0.0
 23
0.0
 14
0.5
 24
0.5
 15
0.5
 25
0.5
 16
0.7188730927569433
 26
-0.5850486126764433
 36
0.3754192287502549
 17
0.0
 27
0.0
 37
0.0
 40
1536.629211
 41
0.011556
 42
50.0
 43
795.600158
 44
-795.600158
 50
0.0
 51
0.0
 71
     0
 72
   100
 73
     1
 74
     3
 75
     0
 76
     0
 77
     0
 78
     0
281
     0
 65
     1
110
0.0
120
0.0
130
0.0
111
1.0
121
0.0
131
0.0
112
0.0
122
1.0
132
0.0
 79
     0
146
0.0
  0
VPORT
  5
361
330
8
100
AcDbSymbolTableRecord
100
AcDbViewportTableRecord
  2
L6
 70
     0
 10
0.0
 20
0.0
 11
0.333333
 21
0.5
 12
0.0
 22
0.0
 13
0.0
 23
0.0
 14
0.5
 24
0.5
 15
0.5
 25
0.5
 16
-1.0
 26
0.0
 36
0.0
 17
0.0
 27
0.0
 37
0.0
 40
1482.243488
 41
0.01198
 42
50.0
 43
749.985051
 44
-749.985051
 50
0.0
 51
0.0
 71
     0
 72
   100
 73
     1
 74
     3
 75
     0
 76
     0
 77
     0
 78
     0
281
     0
 65
     1
110
0.0
120
0.0
130
0.0
111
1.0
121
0.0
131
0.0
112
0.0
122
1.0
132
0.0
 79
     0
146
0.0
  0
VPORT
  5
362
330
8
100
AcDbSymbolTableRecord
100
AcDbViewportTableRecord
  2
L6
 70
     0
 10
0.333333
 20
0.5
 11
0.666667
 21
1.0
 12
8.921429
 22
20.47143
 13
0.0
 23
0.0
 14
0.5
 24
0.5
 15
0.5
 25
0.5
 16
0.0
 26
0.0
 36
1.0
 17
0.0
 27
0.0
 37
0.0
 40
229.922917
 41
0.077229
 42
50.0
 43
180.406592
 44
-180.406592
 50
0.0
 51
0.0
 71
     0
 72
   100
 73
     1
 74
     3
 75
     0
 76
     0
 77
     0
 78
     0
281
     0
 65
     1
110
0.0
120
0.0
130
0.0
111
1.0
121
0.0
131
0.0
112
0.0
122
1.0
132
0.0
 79
     0
146
0.0
  0
VPORT
  5
363
330
8
100
AcDbSymbolTableRecord
100
AcDbViewportTableRecord
  2
L6
 70
     0
 10
0.333333
 20
0.0
 11
0.666667
 21
0.5
 12
0.0
 22
0.0
 13
0.0
 23
0.0
 14
0.5
 24
0.5
 15
0.5
 25
0.5
 16
0.0
 26
-1.0
 36
0.0
 17
0.0
 27
0.0
 37
0.0
 40
1482.243488
 41
0.01198
 42
50.0
 43
764.106154
 44
-764.106154
 50
0.0
 51
0.0
 71
     0
 72
   100
 73
     1
 74
     3
 75
     0
 76
     0
 77
     0
 78
     0
281
     0
 65
     1
110
0.0
120
0.0
130
0.0
111
1.0
121
0.0
131
0.0
112
0.0
122
1.0
132
0.0
 79
     0
146
0.0
  0
VPORT
  5
364
330
8
100
AcDbSymbolTableRecord
100
AcDbViewportTableRecord
  2
L6
 70
     0
 10
0.666667
 20
0.5
 11
1.0
 21
1.0
 12
0.0
 22
0.0
 13
0.0
 23
0.0
 14
0.5
 24
0.5
 15
0.5
 25
0.5
 16
0.5773502691896258
 26
-0.5773502691896258
 36
0.5773502691896258
 17
0.0
 27
0.0
 37
0.0
 40
1455.982443
 41
0.012196
 42
50.0
 43
758.459455
 44
-758.459455
 50
0.0
 51
0.0
 71
     0
 72
   100
 73
     1
 74
     3
 75
     0
 76
     0
 77
     0
 78
     0
281
     0
 65
     1
110
0.0
120
0.0
130
0.0
111
1.0
121
0.0
131
0.0
112
0.0
122
1.0
132
0.0
 79
     0
146
0.0
  0
VPORT
  5
365
330
8
100
AcDbSymbolTableRecord
100
AcDbViewportTableRecord
  2
L6
 70
     0
 10
0.666667
 20
0.0
 11
1.0
 21
0.5
 12
0.0
 22
0.0
 13
0.0
 23
0.0
 14
0.5
 24
0.5
 15
0.5
 25
0.5
 16
1.0
 26
0.0
 36
0.0
 17
0.0
 27
0.0
 37
0.0
 40
1482.243488
 41
0.01198
 42
50.0
 43
749.985051
 44
-749.985051
 50
0.0
 51
0.0
 71
     0
 72
   100
 73
     1
 74
     3
 75
     0
 76
     0
 77
     0
 78
     0
281
     0
 65
     1
110
0.0
120
0.0
130
0.0
111
1.0
121
0.0
131
0.0
112
0.0
122
1.0
132
0.0
 79
     0
146
0.0
  0
ENDTAB
  0
TABLE
  2
LTYPE
  5
5
330
0
100
AcDbSymbolTable
 70
     6
  0
LTYPE
  5
14
330
5
100
AcDbSymbolTableRecord
100
AcDbLinetypeTableRecord
  2
BYBLOCK
 70
     0
  3

 72
    65
 73
     0
 40
0.0
  0
LTYPE
  5
15
330
5
100
AcDbSymbolTableRecord
100
AcDbLinetypeTableRecord
  2
BYLAYER
 70
     0
  3

 72
    65
 73
     0
 40
0.0
  0
LTYPE
  5
16
330
5
100
AcDbSymbolTableRecord
100
AcDbLinetypeTableRecord
  2
CONTINUOUS
 70
     0
  3
Solid line
 72
    65
 73
     0
 40
0.0
  0
LTYPE
  5
6A
330
5
100
AcDbSymbolTableRecord
100
AcDbLinetypeTableRecord
  2
CENTER
 70
     0
  3
____ _ ____ _ ____ _ ____
 72
    65
 73
     4
 40
47.4
 49
22.0
 74
     4
 75
     0
340
0
 46
0.0
 50
0.0
 44
0.0
 45
0.0
 49
-8.5
 74
     4
 75
     0
340
0
 46
0.0
 50
0.0
 44
0.0
 45
0.0
 49
8.5
 74
     4
 75
     0
340
0
 46
0.0
 50
0.0
 44
0.0
 45
0.0
 49
-8.5
 74
     4
 75
     0
340
0
 46
0.0
 50
0.0
 44
0.0
 45
0.0
  0
LTYPE
  5
6B
330
5
100
AcDbSymbolTableRecord
100
AcDbLinetypeTableRecord
  2
DASHDOT
 70
     0
  3
_._._._._._._._._._._._._._._._.
 72
    65
 73
     4
 40
70.0
 49
31.0
 74
     4
 75
     0
340
0
 46
0.0
 50
0.0
 44
0.0
 45
0.0
 49
-13.0
 74
     4
 75
     0
340
0
 46
0.0
 50
0.0
 44
0.0
 45
0.0
 49
13.0
 74
     4
 75
     0
340
0
 46
0.0
 50
0.0
 44
0.0
 45
0.0
 49
-13.0
 74
     4
 75
     0
340
0
 46
0.0
 50
0.0
 44
0.0
 45
0.0
  0
LTYPE
  5
6C
330
5
100
AcDbSymbolTableRecord
100
AcDbLinetypeTableRecord
  2
DASHED
 70
     0
  3
__ __ __ __ __ __ __ __ __
 72
    65
 73
     2
 40
25.72
 49
12.86
 74
     4
 75
     0
340
0
 46
0.0
 50
0.0
 44
0.0
 45
0.0
 49
-12.86
 74
     4
 75
     0
340
0
 46
0.0
 50
0.0
 44
0.0
 45
0.0
  0
LTYPE
  5
6D
330
5
100
AcDbSymbolTableRecord
100
AcDbLinetypeTableRecord
  2
DOT
 70
     0
  3
.........................
 72
    65
 73
     2
 40
10.0
 49
0.0
 74
     4
 75
     0
340
0
 46
0.0
 50
0.0
 44
0.0
 45
0.0
 49
-10.0
 74
     4
 75
     0
340
0
 46
0.0
 50
0.0
 44
0.0
 45
0.0
  0
LTYPE
  5
6E
330
5
100
AcDbSymbolTableRecord
100
AcDbLinetypeTableRecord
  2
PHANTOM
 70
     0
  3
____ _ _ ____ _ _ _____ _ _ ____
 72
    65
 73
     6
 40
50.5
 49
18.0
 74
     4
 75
     0
340
0
 46
0.0
 50
0.0
 44
0.0
 45
0.0
 49
-6.5
 74
     4
 75
     0
340
0
 46
0.0
 50
0.0
 44
0.0
 45
0.0
 49
6.5
 74
     4
 75
     0
340
0
 46
0.0
 50
0.0
 44
0.0
 45
0.0
 49
-6.5
 74
     4
 75
     0
340
0
 46
0.0
 50
0.0
 44
0.0
 45
0.0
 49
6.5
 74
     4
 75
     0
340
0
 46
0.0
 50
0.0
 44
0.0
 45
0.0
 49
-6.5
 74
     4
 75
     0
340
0
 46
0.0
 50
0.0
 44
0.0
 45
0.0
  0
ENDTAB
  0
TABLE
  2
LAYER
  5
2
330
0
100
AcDbSymbolTable
 70
    19
  0
LAYER
  5
10
102
{ACAD_XDICTIONARY
360
60E
102
}
330
2
100
AcDbSymbolTableRecord
100
AcDbLayerTableRecord
  2
0
 70
     0
 62
     7
  6
CONTINUOUS
370
    -3
390
F
  0
LAYER
  5
601
102
{ACAD_XDICTIONARY
360
610
102
}
330
2
100
AcDbSymbolTableRecord
100
AcDbLayerTableRecord
  2
1
 70
     0
 62
     4
  6
CONTINUOUS
370
    -3
390
F
  0
LAYER
  5
602
102
{ACAD_XDICTIONARY
360
612
102
}
330
2
100
AcDbSymbolTableRecord
100
AcDbLayerTableRecord
  2
2
 70
     0
 62
     7
  6
CONTINUOUS
370
    -3
390
F
  0
LAYER
  5
603
102
{ACAD_XDICTIONARY
360
614
102
}
330
2
100
AcDbSymbolTableRecord
100
AcDbLayerTableRecord
  2
4
 70
     0
 62
     2
  6
CENTER
370
    -3
390
F
  0
LAYER
  5
605
102
{ACAD_XDICTIONARY
360
616
102
}
330
2
100
AcDbSymbolTableRecord
100
AcDbLayerTableRecord
  2
SK2
 70
     0
 62
     7
  6
CONTINUOUS
370
    -3
390
F
  0
LAYER
  5
606
102
{ACAD_XDICTIONARY
360
618
102
}
330
2
100
AcDbSymbolTableRecord
100
AcDbLayerTableRecord
  2
SK3
 70
     0
 62
     1
  6
DASHED
370
    -3
390
F
  0
LAYER
  5
607
102
{ACAD_XDICTIONARY
360
61A
102
}
330
2
100
AcDbSymbolTableRecord
100
AcDbLayerTableRecord
  2
SK4
 70
     0
 62
     2
  6
CENTER
370
    -3
390
F
  0
LAYER
  5
608
102
{ACAD_XDICTIONARY
360
61C
102
}
330
2
100
AcDbSymbolTableRecord
100
AcDbLayerTableRecord
  2
SK6
 70
     0
 62
     5
  6
CONTINUOUS
370
    -3
390
F
  0
LAYER
  5
609
102
{ACAD_XDICTIONARY
360
61E
102
}
330
2
100
AcDbSymbolTableRecord
100
AcDbLayerTableRecord
  2
CUT
 70
     0
 62
     1
  6
CONTINUOUS
370
    -3
390
F
  0
LAYER
  5
60A
102
{ACAD_XDICTIONARY
360
620
102
}
330
2
100
AcDbSymbolTableRecord
100
AcDbLayerTableRecord
  2
NOCUT
 70
     0
 62
     7
  6
CONTINUOUS
370
    -3
390
F
  0
LAYER
  5
60B
102
{ACAD_XDICTIONARY
360
622
102
}
330
2
100
AcDbSymbolTableRecord
100
AcDbLayerTableRecord
  2
80
 70
     0
 62
     6
  6
CONTINUOUS
370
    -3
390
F
  0
LAYER
  5
60C
102
{ACAD_XDICTIONARY
360
624
102
}
330
2
100
AcDbSymbolTableRecord
100
AcDbLayerTableRecord
  2
81
 70
     0
 62
     3
  6
CONTINUOUS
370
    -3
390
F
  0
LAYER
  5
60D
102
{ACAD_XDICTIONARY
360
626
102
}
330
2
100
AcDbSymbolTableRecord
100
AcDbLayerTableRecord
  2
SK1
 70
     0
 62
     4
  6
CONTINUOUS
370
    -3
390
F
  0
ENDTAB
  0
TABLE
  2
STYLE
  5
3
330
0
100
AcDbSymbolTable
 70
     3
  0
STYLE
  5
11
330
3
100
AcDbSymbolTableRecord
100
AcDbTextStyleTableRecord
  2
Standard
 70
     0
 40
0.0
 41
1.0
 50
0.0
 71
     0
 42
0.2
  3
txt
  4

  0
STYLE
  5
30B
330
3
100
AcDbSymbolTableRecord
100
AcDbTextStyleTableRecord
  2
cesky
 70
     0
 40
0.0
 41
1.0
 50
0.0
 71
     0
 42
0.2
  3
simplex.shx
  4

  0
STYLE
  5
30C
330
3
100
AcDbSymbolTableRecord
100
AcDbTextStyleTableRecord
  2
DWGDirectTextStyle
 70
     0
 40
0.0
 41
1.0
 50
0.0
 71
     0
 42
0.2
  3
simplex
  4

  0
ENDTAB
  0
TABLE
  2
VIEW
  5
6
330
0
100
AcDbSymbolTable
 70
     1
  0
VIEW
  5
354
330
6
100
AcDbSymbolTableRecord
100
AcDbViewTableRecord
  2
Top
 70
     0
 40
229.922917
 10
8.921429
 20
20.47143
 41
372.004167
 11
0.0
 21
0.0
 31
1.0
 12
0.0
 22
0.0
 32
0.0
 42
50.0
 43
180.406592
 44
-180.406592
 50
0.0
 71
     0
281
     0
 72
     0
  0
ENDTAB
  0
TABLE
  2
UCS
  5
7
330
0
100
AcDbSymbolTable
 70
     0
  0
ENDTAB
  0
TABLE
  2
APPID
  5
9
330
0
100
AcDbSymbolTable
 70
     1
  0
APPID
  5
12
330
9
100
AcDbSymbolTableRecord
100
AcDbRegAppTableRecord
  2
ACAD
 70
     0
  0
ENDTAB
  0
TABLE
  2
DIMSTYLE
  5
A
330
0
100
AcDbSymbolTable
 70
     1
100
AcDbDimStyleTable
  0
DIMSTYLE
105
27
102
{ACAD_REACTORS
330
316
330
320
330
329
330
334
330
33F
330
349
330
353
102
}
330
A
100
AcDbSymbolTableRecord
100
AcDbDimStyleTableRecord
  2
Standard
 70
     0
178
     0
340
11
  0
ENDTAB
  0
TABLE
  2
BLOCK_RECORD
  5
1
330
0
100
AcDbSymbolTable
 70
     8
  0
BLOCK_RECORD
  5
1F
330
1
100
AcDbSymbolTableRecord
100
AcDbBlockTableRecord
  2
*Model_Space
340
22
  0
BLOCK_RECORD
  5
1B
330
1
100
AcDbSymbolTableRecord
100
AcDbBlockTableRecord
  2
*Paper_Space
340
1E
  0
BLOCK_RECORD
  5
23
330
1
100
AcDbSymbolTableRecord
100
AcDbBlockTableRecord
  2
*Paper_Space0
340
26
  0
BLOCK_RECORD
  5
30D
330
1
100
AcDbSymbolTableRecord
100
AcDbBlockTableRecord
  2
DimnDraft3D1
340
0
  0
BLOCK_RECORD
  5
317
330
1
100
AcDbSymbolTableRecord
100
AcDbBlockTableRecord
  2
DimnDraft3D2
340
0
  0
BLOCK_RECORD
  5
321
330
1
100
AcDbSymbolTableRecord
100
AcDbBlockTableRecord
  2
DimnDraft3D3
340
0
  0
BLOCK_RECORD
  5
32A
330
1
100
AcDbSymbolTableRecord
100
AcDbBlockTableRecord
  2
DimnDraft3D4
340
0
  0
BLOCK_RECORD
  5
335
330
1
100
AcDbSymbolTableRecord
100
AcDbBlockTableRecord
  2
DimnDraft3D5
340
0
  0
BLOCK_RECORD
  5
340
330
1
100
AcDbSymbolTableRecord
100
AcDbBlockTableRecord
  2
DimnDraft3D6
340
0
  0
BLOCK_RECORD
  5
34A
330
1
100
AcDbSymbolTableRecord
100
AcDbBlockTableRecord
  2
DimnDraft3D7
340
0
  0
ENDTAB
  0
ENDSEC
  0
SECTION
  2
BLOCKS
  0
BLOCK
  5
20
330
1F
100
AcDbEntity
  8
0
100
AcDbBlockBegin
  2
*Model_Space
 70
     0
 10
0.0
 20
0.0
 30
0.0
  3
*Model_Space
  1
*Model_Space
  0
ENDBLK
  5
21
330
1F
100
AcDbEntity
  8
0
100
AcDbBlockEnd
  0
BLOCK
  5
1C
330
1B
100
AcDbEntity
 67
     1
  8
0
100
AcDbBlockBegin
  2
*Paper_Space
 70
     0
 10
0.0
 20
0.0
 30
0.0
  3
*Paper_Space
  1
*Paper_Space
  0
ENDBLK
  5
1D
330
1B
100
AcDbEntity
 67
     1
  8
0
100
AcDbBlockEnd
  0
BLOCK
  5
24
330
23
100
AcDbEntity
  8
0
100
AcDbBlockBegin
  2
*Paper_Space0
 70
     0
 10
0.0
 20
0.0
 30
0.0
  3
*Paper_Space0
  1
*Paper_Space0
  0
ENDBLK
  5
25
330
23
100
AcDbEntity
  8
0
100
AcDbBlockEnd
  0
BLOCK
  5
314
330
30D
100
AcDbEntity
  8
0
100
AcDbBlockBegin
  2
DimnDraft3D1
 70
     0
 10
0.0
 20
0.0
 30
0.0
  3
DimnDraft3D1
  1
DimnDraft3D1
  0
MTEXT
  5
30E
330
30D
100
AcDbEntity
  8
SK2
370
    13
100
AcDbMText
 10
-14.530357
 20
-22.940357
 30
0.0
 40
3.0
 41
0.0
 71
     7
 72
     5
  1
\W0.7946;4.2
  7
cesky
 73
     2
 44
1.084337
  0
LINE
  5
30F
330
30D
100
AcDbEntity
  8
SK2
370
    13
100
AcDbLine
 10
0.0
 20
-4.2975
 30
0.0
 11
0.0
 21
-25.2975
 31
0.0
  0
LINE
  5
310
330
30D
100
AcDbEntity
  8
SK2
370
    13
100
AcDbLine
 10
4.2
 20
-3.024458
 30
0.0
 11
4.2
 21
-25.2975
 31
0.0
  0
LINE
  5
311
330
30D
100
AcDbEntity
  8
SK2
370
    13
100
AcDbLine
 10
11.7
 20
-23.2975
 30
0.0
 11
-15.092857
 21
-23.2975
 31
0.0
  0
SOLID
  5
312
330
30D
100
AcDbEntity
  8
SK2
370
    13
100
AcDbTrace
 10
0.0
 20
-23.2975
 30
0.0
 11
-3.499998
 21
-23.914644
 31
0.0
 12
-3.500002
 22
-22.680356
 32
0.0
 13
0.0
 23
-23.2975
 33
0.0
  0
SOLID
  5
313
330
30D
100
AcDbEntity
  8
SK2
370
    13
100
AcDbTrace
 10
4.2
 20
-23.2975
 30
0.0
 11
7.699998
 21
-22.680356
 31
0.0
 12
7.700002
 22
-23.914644
 32
0.0
 13
4.2
 23
-23.2975
 33
0.0
  0
ENDBLK
  5
315
330
30D
100
AcDbEntity
  8
0
100
AcDbBlockEnd
  0
BLOCK
  5
31E
330
317
100
AcDbEntity
  8
0
100
AcDbBlockBegin
  2
DimnDraft3D2
 70
     0
 10
0.0
 20
0.0
 30
0.0
  3
DimnDraft3D2
  1
DimnDraft3D2
  0
MTEXT
  5
318
330
317
100
AcDbEntity
  8
SK2
370
    13
100
AcDbMText
 10
-12.357143
 20
13.36
 30
0.0
 40
3.0
 41
0.0
 71
     7
 72
     5
  1
\W0.7867;6.55
  7
cesky
 11
6.123233995736766E-17
 21
1.0
 31
0.0
 73
     2
 44
1.084337
  0
LINE
  5
319
330
317
100
AcDbEntity
  8
SK2
370
    13
100
AcDbLine
 10
0.7
 20
3.2975
 30
0.0
 11
-14.0
 21
3.2975
 31
0.0
  0
LINE
  5
31A
330
317
100
AcDbEntity
  8
SK2
370
    13
100
AcDbLine
 10
0.7
 20
-3.2975
 30
0.0
 11
-14.0
 21
-3.2975
 31
0.0
  0
LINE
  5
31B
330
317
100
AcDbEntity
  8
SK2
370
    13
100
AcDbLine
 10
-12.0
 20
-10.7975
 30
0.0
 11
-12.0
 21
20.554643
 31
0.0
  0
SOLID
  5
31C
330
317
100
AcDbEntity
  8
SK2
370
    13
100
AcDbTrace
 10
-12.0
 20
3.2975
 30
0.0
 11
-12.617144
 21
6.797498
 31
0.0
 12
-11.382856
 22
6.797502
 32
0.0
 13
-12.0
 23
3.2975
 33
0.0
  0
SOLID
  5
31D
330
317
100
AcDbEntity
  8
SK2
370
    13
100
AcDbTrace
 10
-12.0
 20
-3.2975
 30
0.0
 11
-11.382856
 21
-6.797498
 31
0.0
 12
-12.617144
 22
-6.797502
 32
0.0
 13
-12.0
 23
-3.2975
 33
0.0
  0
ENDBLK
  5
31F
330
317
100
AcDbEntity
  8
0
100
AcDbBlockEnd
  0
BLOCK
  5
327
330
321
100
AcDbEntity
  8
0
100
AcDbBlockBegin
  2
DimnDraft3D3
 70
     0
 10
0.0
 20
0.0
 30
0.0
  3
DimnDraft3D3
  1
DimnDraft3D3
  0
MTEXT
  5
322
330
321
100
AcDbEntity
  8
2
370
    13
100
AcDbMText
 10
50.642857
 20
0.433929
 30
0.0
 40
3.0
 41
0.0
 71
     7
 72
     5
  1
\W0.8346;38,1
  7
cesky
 11
6.123233995736766E-17
 21
1.0
 31
0.0
 73
     2
 44
1.084337
  0
MTEXT
  5
323
330
321
100
AcDbEntity
  8
2
370
    13
100
AcDbMText
 10
50.642857
 20
-5.542634
 30
0.0
 40
3.0
 41
0.0
 71
     7
 72
     5
  1
%%c
  7
cesky
 11
6.123233995736766E-17
 21
1.0
 31
0.0
 73
     2
 44
1.084337
  0
LINE
  5
324
330
321
100
AcDbEntity
  8
2
370
    13
100
AcDbLine
 10
41.0
 20
19.05
 30
0.0
 11
53.75
 21
19.05
 31
0.0
  0
LINE
  5
325
330
321
100
AcDbEntity
  8
2
370
    13
100
AcDbLine
 10
51.75
 20
19.05
 30
0.0
 11
51.75
 21
-8.628571
 31
0.0
  0
SOLID
  5
326
330
321
100
AcDbEntity
  8
2
370
    13
100
AcDbTrace
 10
51.75
 20
19.05
 30
0.0
 11
52.367144
 21
15.550002
 31
0.0
 12
51.132856
 22
15.549998
 32
0.0
 13
51.75
 23
19.05
 33
0.0
  0
ENDBLK
  5
328
330
321
100
AcDbEntity
  8
0
100
AcDbBlockEnd
  0
BLOCK
  5
332
330
32A
100
AcDbEntity
  8
0
100
AcDbBlockBegin
  2
DimnDraft3D4
 70
     0
 10
0.0
 20
0.0
 30
0.0
  3
DimnDraft3D4
  1
DimnDraft3D4
  0
MTEXT
  5
32B
330
32A
100
AcDbEntity
  8
SK2
370
    13
100
AcDbMText
 10
-22.357143
 20
-23.044643
 30
0.0
 40
3.0
 41
0.0
 71
     7
 72
     5
  1
\W0.8346;12,7
  7
cesky
 11
6.123233995736766E-17
 21
1.0
 31
0.0
 73
     2
 44
1.084337
  0
MTEXT
  5
32C
330
32A
100
AcDbEntity
  8
SK2
370
    13
100
AcDbMText
 10
-22.357143
 20
-29.021205
 30
0.0
 40
3.0
 41
0.0
 71
     7
 72
     5
  1
%%c
  7
cesky
 11
6.123233995736766E-17
 21
1.0
 31
0.0
 73
     2
 44
1.084337
  0
LINE
  5
32D
330
32A
100
AcDbEntity
  8
SK2
370
    13
100
AcDbLine
 10
0.0
 20
-6.35
 30
0.0
 11
-23.25
 21
-6.35
 31
0.0
  0
LINE
  5
32E
330
32A
100
AcDbEntity
  8
SK2
370
    13
100
AcDbLine
 10
0.0
 20
6.35
 30
0.0
 11
-23.25
 21
6.35
 31
0.0
  0
LINE
  5
32F
330
32A
100
AcDbEntity
  8
SK2
370
    13
100
AcDbLine
 10
-21.25
 20
6.35
 30
0.0
 11
-21.25
 21
-31.107143
 31
0.0
  0
SOLID
  5
330
330
32A
100
AcDbEntity
  8
SK2
370
    13
100
AcDbTrace
 10
-21.25
 20
-6.35
 30
0.0
 11
-21.867144
 21
-2.850002
 31
0.0
 12
-20.632856
 22
-2.849998
 32
0.0
 13
-21.25
 23
-6.35
 33
0.0
  0
SOLID
  5
331
330
32A
100
AcDbEntity
  8
SK2
370
    13
100
AcDbTrace
 10
-21.25
 20
6.35
 30
0.0
 11
-20.632856
 21
2.850002
 31
0.0
 12
-21.867144
 22
2.849998
 32
0.0
 13
-21.25
 23
6.35
 33
0.0
  0
ENDBLK
  5
333
330
32A
100
AcDbEntity
  8
0
100
AcDbBlockEnd
  0
BLOCK
  5
33D
330
335
100
AcDbEntity
  8
0
100
AcDbBlockBegin
  2
DimnDraft3D5
 70
     0
 10
0.0
 20
0.0
 30
0.0
  3
DimnDraft3D5
  1
DimnDraft3D5
  0
MTEXT
  5
336
330
335
100
AcDbEntity
  8
SK2
370
    13
100
AcDbMText
 10
-32.357143
 20
2.598214
 30
0.0
 40
3.0
 41
0.0
 71
     7
 72
     5
  1
\W0.6087;35
  7
cesky
 11
6.123233995736766E-17
 21
1.0
 31
0.0
 73
     2
 44
1.084337
  0
MTEXT
  5
337
330
335
100
AcDbEntity
  8
SK2
370
    13
100
AcDbMText
 10
-32.357143
 20
-3.378348
 30
0.0
 40
3.0
 41
0.0
 71
     7
 72
     5
  1
%%c
  7
cesky
 11
6.123233995736766E-17
 21
1.0
 31
0.0
 73
     2
 44
1.084337
  0
LINE
  5
338
330
335
100
AcDbEntity
  8
SK2
370
    13
100
AcDbLine
 10
0.5
 20
-17.5
 30
0.0
 11
-33.25
 21
-17.5
 31
0.0
  0
LINE
  5
339
330
335
100
AcDbEntity
  8
SK2
370
    13
100
AcDbLine
 10
0.5
 20
17.5
 30
0.0
 11
-33.25
 21
17.5
 31
0.0
  0
LINE
  5
33A
330
335
100
AcDbEntity
  8
SK2
370
    13
100
AcDbLine
 10
-31.25
 20
-17.5
 30
0.0
 11
-31.25
 21
17.5
 31
0.0
  0
SOLID
  5
33B
330
335
100
AcDbEntity
  8
SK2
370
    13
100
AcDbTrace
 10
-31.25
 20
-17.5
 30
0.0
 11
-31.867144
 21
-14.000002
 31
0.0
 12
-30.632856
 22
-13.999998
 32
0.0
 13
-31.25
 23
-17.5
 33
0.0
  0
SOLID
  5
33C
330
335
100
AcDbEntity
  8
SK2
370
    13
100
AcDbTrace
 10
-31.25
 20
17.5
 30
0.0
 11
-30.632856
 21
14.000002
 31
0.0
 12
-31.867144
 22
13.999998
 32
0.0
 13
-31.25
 23
17.5
 33
0.0
  0
ENDBLK
  5
33E
330
335
100
AcDbEntity
  8
0
100
AcDbBlockEnd
  0
BLOCK
  5
347
330
340
100
AcDbEntity
  8
0
100
AcDbBlockBegin
  2
DimnDraft3D6
 70
     0
 10
0.0
 20
0.0
 30
0.0
  3
DimnDraft3D6
  1
DimnDraft3D6
  0
MTEXT
  5
341
330
340
100
AcDbEntity
  8
2
370
    13
100
AcDbMText
 10
18.848214
 20
32.407143
 30
0.0
 40
3.0
 41
0.0
 71
     7
 72
     5
  1
\W0.6087;40
  7
cesky
 73
     2
 44
1.084337
  0
LINE
  5
342
330
340
100
AcDbEntity
  8
2
370
    13
100
AcDbLine
 10
0.0
 20
4.2975
 30
0.0
 11
0.0
 21
34.05
 31
0.0
  0
LINE
  5
343
330
340
100
AcDbEntity
  8
2
370
    13
100
AcDbLine
 10
40.0
 20
20.05
 30
0.0
 11
40.0
 21
34.05
 31
0.0
  0
LINE
  5
344
330
340
100
AcDbEntity
  8
2
370
    13
100
AcDbLine
 10
0.0
 20
32.05
 30
0.0
 11
40.0
 21
32.05
 31
0.0
  0
SOLID
  5
345
330
340
100
AcDbEntity
  8
2
370
    13
100
AcDbTrace
 10
0.0
 20
32.05
 30
0.0
 11
3.499998
 21
32.667144
 31
0.0
 12
3.500002
 22
31.432856
 32
0.0
 13
0.0
 23
32.05
 33
0.0
  0
SOLID
  5
346
330
340
100
AcDbEntity
  8
2
370
    13
100
AcDbTrace
 10
40.0
 20
32.05
 30
0.0
 11
36.500002
 21
31.432856
 31
0.0
 12
36.499998
 22
32.667144
 32
0.0
 13
40.0
 23
32.05
 33
0.0
  0
ENDBLK
  5
348
330
340
100
AcDbEntity
  8
0
100
AcDbBlockEnd
  0
BLOCK
  5
351
330
34A
100
AcDbEntity
  8
0
100
AcDbBlockBegin
  2
DimnDraft3D7
 70
     0
 10
0.0
 20
0.0
 30
0.0
  3
DimnDraft3D7
  1
DimnDraft3D7
  0
MTEXT
  5
34B
330
34A
100
AcDbEntity
  8
2
370
    13
100
AcDbMText
 10
50.0625
 20
24.407143
 30
0.0
 40
3.0
 41
0.0
 71
     7
 72
     5
  1
\W0.8640;1,7
  7
cesky
 73
     2
 44
1.084337
  0
LINE
  5
34C
330
34A
100
AcDbEntity
  8
2
370
    13
100
AcDbLine
 10
38.319986
 20
17.203253
 30
0.0
 11
38.319986
 21
26.05
 31
0.0
  0
LINE
  5
34D
330
34A
100
AcDbEntity
  8
2
370
    13
100
AcDbLine
 10
40.0
 20
20.05
 30
0.0
 11
40.0
 21
26.05
 31
0.0
  0
LINE
  5
34E
330
34A
100
AcDbEntity
  8
2
370
    13
100
AcDbLine
 10
55.092857
 20
24.05
 30
0.0
 11
30.819986
 21
24.05
 31
0.0
  0
SOLID
  5
34F
330
34A
100
AcDbEntity
  8
2
370
    13
100
AcDbTrace
 10
38.319986
 20
24.05
 30
0.0
 11
34.819989
 21
23.432856
 31
0.0
 12
34.819984
 22
24.667144
 32
0.0
 13
38.319986
 23
24.05
 33
0.0
  0
SOLID
  5
350
330
34A
100
AcDbEntity
  8
2
370
    13
100
AcDbTrace
 10
40.0
 20
24.05
 30
0.0
 11
43.499998
 21
24.667144
 31
0.0
 12
43.500002
 22
23.432856
 32
0.0
 13
40.0
 23
24.05
 33
0.0
  0
ENDBLK
  5
352
330
34A
100
AcDbEntity
  8
0
100
AcDbBlockEnd
  0
ENDSEC
  0
SECTION
  2
ENTITIES
  0
LINE
  5
72
330
1F
100
AcDbEntity
  8
1
370
    13
100
AcDbLine
 10
27.678278
 20
1.472214
 30
0.0
 11
28.11132
 21
1.54698
 31
0.0
  0
LINE
  5
74
330
1F
100
AcDbEntity
  8
CUT
370
    13
100
AcDbLine
 10
28.945868
 20
16.572298
 30
0.0
 11
29.54621
 21
17.174226
 31
0.0
  0
LINE
  5
76
330
1F
100
AcDbEntity
  8
CUT
370
    13
100
AcDbLine
 10
30.391008
 20
8.738919
 30
0.0
 11
29.994949
 21
9.405777
 31
0.0
  0
LINE
  5
77
330
1F
100
AcDbEntity
  8
CUT
370
    13
100
AcDbLine
 10
37.351022
 20
18.348107
 30
0.0
 11
37.972325
 21
17.751046
 31
0.0
  0
LINE
  5
78
330
1F
100
AcDbEntity
  8
CUT
370
    13
100
AcDbLine
 10
38.178405
 20
8.941374
 30
0.0
 11
35.815489
 21
8.258936
 31
0.0
  0
LINE
  5
79
330
1F
100
AcDbEntity
  8
CUT
370
    13
100
AcDbLine
 10
39.973027
 20
11.543096
 30
0.0
 11
39.815146
 21
10.702212
 31
0.0
  0
LINE
  5
7A
330
1F
100
AcDbEntity
  8
CUT
370
    13
100
AcDbLine
 10
37.972325
 20
17.751046
 30
0.0
 11
38.384681
 21
17.101317
 31
0.0
  0
LINE
  5
7B
330
1F
100
AcDbEntity
  8
CUT
370
    13
100
AcDbLine
 10
29.54621
 20
17.174226
 30
0.0
 11
30.201225
 21
17.56572
 31
0.0
  0
LINE
  5
7C
330
1F
100
AcDbEntity
  8
CUT
370
    13
100
AcDbLine
 10
39.39664
 20
9.895777
 30
0.0
 11
38.817124
 21
9.315739
 31
0.0
  0
LINE
  5
7D
330
1F
100
AcDbEntity
  8
CUT
370
    13
100
AcDbLine
 10
29.994949
 20
9.405777
 30
0.0
 11
29.235263
 21
11.812667
 31
0.0
  0
LINE
  5
7E
330
1F
100
AcDbEntity
  8
CUT
370
    13
100
AcDbLine
 10
30.201225
 20
17.56572
 30
0.0
 11
32.588055
 21
18.273295
 31
0.0
  0
LINE
  5
7F
330
1F
100
AcDbEntity
  8
CUT
370
    13
100
AcDbLine
 10
34.950972
 20
18.955733
 30
0.0
 11
35.703737
 21
18.976225
 31
0.0
  0
LINE
  5
80
330
1F
100
AcDbEntity
  8
CUT
370
    13
100
AcDbLine
 10
28.390307
 20
14.946869
 30
0.0
 11
28.527362
 21
15.765863
 31
0.0
  0
LINE
  5
81
330
1F
100
AcDbEntity
  8
CUT
370
    13
100
AcDbLine
 10
38.817124
 20
9.315739
 30
0.0
 11
38.178405
 21
8.941374
 31
0.0
  0
LINE
  5
82
330
1F
100
AcDbEntity
  8
CUT
370
    13
100
AcDbLine
 10
39.927967
 20
12.312674
 30
0.0
 11
39.973027
 21
11.543096
 31
0.0
  0
LINE
  5
83
330
1F
100
AcDbEntity
  8
CUT
370
    13
100
AcDbLine
 10
32.588055
 20
18.273295
 30
0.0
 11
34.950972
 21
18.955733
 31
0.0
  0
LINE
  5
84
330
1F
100
AcDbEntity
  8
CUT
370
    13
100
AcDbLine
 10
28.451663
 20
14.19442
 30
0.0
 11
28.390307
 21
14.946869
 31
0.0
  0
LINE
  5
85
330
1F
100
AcDbEntity
  8
CUT
370
    13
100
AcDbLine
 10
35.815489
 20
8.258936
 30
0.0
 11
33.428658
 21
7.551361
 31
0.0
  0
LINE
  5
86
330
1F
100
AcDbEntity
  8
CUT
370
    13
100
AcDbLine
 10
30.991485
 20
8.119968
 30
0.0
 11
30.391008
 21
8.738919
 31
0.0
  0
LINE
  5
87
330
1F
100
AcDbEntity
  8
CUT
370
    13
100
AcDbLine
 10
35.703737
 20
18.976225
 30
0.0
 11
36.529659
 21
18.791694
 31
0.0
  0
LINE
  5
88
330
1F
100
AcDbEntity
  8
CUT
370
    13
100
AcDbLine
 10
39.168281
 20
14.719564
 30
0.0
 11
39.927967
 21
12.312674
 31
0.0
  0
LINE
  5
89
330
1F
100
AcDbEntity
  8
CUT
370
    13
100
AcDbLine
 10
38.384681
 20
17.101317
 30
0.0
 11
39.168281
 21
14.719564
 31
0.0
  0
LINE
  5
8A
330
1F
100
AcDbEntity
  8
CUT
370
    13
100
AcDbLine
 10
33.428658
 20
7.551361
 30
0.0
 11
32.659597
 21
7.51374
 31
0.0
  0
LINE
  5
8B
330
1F
100
AcDbEntity
  8
CUT
370
    13
100
AcDbLine
 10
32.659597
 20
7.51374
 30
0.0
 11
31.812849
 21
7.676381
 31
0.0
  0
LINE
  5
8C
330
1F
100
AcDbEntity
  8
CUT
370
    13
100
AcDbLine
 10
29.235263
 20
11.812667
 30
0.0
 11
28.451663
 21
14.19442
 31
0.0
  0
LINE
  5
8D
330
1F
100
AcDbEntity
  8
1
370
    13
100
AcDbLine
 10
32.5992
 20
13.615999
 30
0.0
 11
32.903914
 21
13.773711
 31
0.0
  0
LINE
  5
8F
330
1F
100
AcDbEntity
  8
1
370
    13
100
AcDbLine
 10
33.730175
 20
14.491398
 30
0.0
 11
33.292517
 21
14.481199
 31
0.0
  0
LINE
  5
90
330
1F
100
AcDbEntity
  8
1
370
    13
100
AcDbLine
 10
35.464377
 20
12.438294
 30
0.0
 11
35.448922
 21
12.892741
 31
0.0
  0
LINE
  5
91
330
1F
100
AcDbEntity
  8
1
370
    13
100
AcDbLine
 10
34.6411
 20
14.269396
 30
0.0
 11
34.587278
 21
14.259276
 31
0.0
  0
LINE
  5
92
330
1F
100
AcDbEntity
  8
1
370
    13
100
AcDbLine
 10
35.151825
 20
13.724512
 30
0.0
 11
35.161142
 21
13.78569
 31
0.0
  0
LINE
  5
93
330
1F
100
AcDbEntity
  8
1
370
    13
100
AcDbLine
 10
39.39664
 20
2.470319
 30
0.0
 11
39.160844
 21
2.561855
 31
0.0
  0
LINE
  5
95
330
1F
100
AcDbEntity
  8
1
370
    13
100
AcDbLine
 10
39.065179
 20
-2.598347
 30
0.0
 11
39.114693
 21
-2.656789
 31
0.0
  0
LINE
  5
96
330
1F
100
AcDbEntity
  8
1
370
    13
100
AcDbLine
 10
38.941914
 20
-2.800065
 30
0.0
 11
39.053336
 21
-2.768406
 31
0.0
  0
LINE
  5
97
330
1F
100
AcDbEntity
  8
1
370
    13
100
AcDbLine
 10
38.959629
 20
-11.532946
 30
0.0
 11
39.037185
 21
-11.074463
 31
0.0
  0
LINE
  5
98
330
1F
100
AcDbEntity
  8
1
370
    13
100
AcDbLine
 10
39.083231
 20
-10.611847
 30
0.0
 11
39.114693
 21
-10.801258
 31
0.0
  0
LINE
  5
99
330
1F
100
AcDbEntity
  8
1
370
    13
100
AcDbLine
 10
39.39664
 20
-9.806945
 30
0.0
 11
39.106408
 21
-9.510169
 31
0.0
  0
LINE
  5
9A
330
1F
100
AcDbEntity
  8
1
370
    13
100
AcDbLine
 10
29.700291
 20
-17.192365
 30
0.0
 11
30.201225
 21
-17.453085
 31
0.0
  0
LINE
  5
9B
330
1F
100
AcDbEntity
  8
1
370
    13
100
AcDbLine
 10
29.328971
 20
11.84009
 30
0.0
 11
29.837663
 21
10.239643
 31
0.0
  0
LINE
  5
9C
330
1F
100
AcDbEntity
  8
1
370
    13
100
AcDbLine
 10
29.235263
 20
11.812667
 30
0.0
 11
29.725837
 21
10.269998
 31
0.0
  0
LINE
  5
9D
330
1F
100
AcDbEntity
  8
1
370
    13
100
AcDbLine
 10
27.740466
 20
15.084763
 30
0.0
 11
28.083883
 21
15.666888
 31
0.0
  0
LINE
  5
9E
330
1F
100
AcDbEntity
  8
1
370
    13
100
AcDbLine
 10
39.325764
 20
9.966319
 30
0.0
 11
39.106682
 21
9.747054
 31
0.0
  0
LINE
  5
9F
330
1F
100
AcDbEntity
  8
1
370
    13
100
AcDbLine
 10
39.39664
 20
9.895777
 30
0.0
 11
39.106407
 21
9.605297
 31
0.0
  0
LINE
  5
A0
330
1F
100
AcDbEntity
  8
1
370
    13
100
AcDbLine
 10
29.159532
 20
1.524512
 30
0.0
 11
28.23304
 21
1.567403
 31
0.0
  0
LINE
  5
A1
330
1F
100
AcDbEntity
  8
1
370
    13
100
AcDbLine
 10
27.760677
 20
1.461581
 30
0.0
 11
28.366224
 21
1.254622
 31
0.0
  0
LINE
  5
A2
330
1F
100
AcDbEntity
  8
1
370
    13
100
AcDbLine
 10
29.855807
 20
-4.386059
 30
0.0
 11
29.841685
 21
-4.286504
 31
0.0
  0
LINE
  5
A3
330
1F
100
AcDbEntity
  8
1
370
    13
100
AcDbLine
 10
36.910352
 20
12.201457
 30
0.0
 11
37.388521
 21
12.053386
 31
0.0
  0
LINE
  5
A4
330
1F
100
AcDbEntity
  8
1
370
    13
100
AcDbLine
 10
39.011663
 20
3.517978
 30
0.0
 11
39.08861
 21
3.54519
 31
0.0
  0
LINE
  5
A5
330
1F
100
AcDbEntity
  8
1
370
    13
100
AcDbLine
 10
39.106139
 20
10.026733
 30
0.0
 11
39.011663
 21
10.361213
 31
0.0
  0
LINE
  5
A6
330
1F
100
AcDbEntity
  8
1
370
    13
100
AcDbLine
 10
38.914408
 20
3.191058
 30
0.0
 11
38.872705
 21
2.823099
 31
0.0
  0
LINE
  5
A7
330
1F
100
AcDbEntity
  8
1
370
    13
100
AcDbLine
 10
38.940729
 20
-2.706973
 30
0.0
 11
38.938698
 21
-2.645516
 31
0.0
  0
LINE
  5
A8
330
1F
100
AcDbEntity
  8
1
370
    13
100
AcDbLine
 10
38.941823
 20
2.797669
 30
0.0
 11
38.953011
 21
3.230534
 31
0.0
  0
LINE
  5
A9
330
1F
100
AcDbEntity
  8
1
370
    13
100
AcDbLine
 10
39.021123
 20
-3.287439
 30
0.0
 11
38.980415
 21
-3.403356
 31
0.0
  0
LINE
  5
AA
330
1F
100
AcDbEntity
  8
1
370
    13
100
AcDbLine
 10
39.011663
 20
-11.04706
 30
0.0
 11
39.106166
 21
-10.37826
 31
0.0
  0
LINE
  5
AB
330
1F
100
AcDbEntity
  8
1
370
    13
100
AcDbLine
 10
29.97256
 20
-4.664222
 30
0.0
 11
29.821938
 21
-4.463809
 31
0.0
  0
LINE
  5
AC
330
1F
100
AcDbEntity
  8
1
370
    13
100
AcDbLine
 10
29.304082
 20
10.449485
 30
0.0
 11
28.269139
 21
14.010876
 31
0.0
  0
LINE
  5
AD
330
1F
100
AcDbEntity
  8
1
370
    13
100
AcDbLine
 10
27.074071
 20
16.237867
 30
0.0
 11
27.88548
 21
16.266972
 31
0.0
  0
LINE
  5
AE
330
1F
100
AcDbEntity
  8
1
370
    13
100
AcDbLine
 10
26.89558
 20
16.458402
 30
0.0
 11
26.450857
 21
16.529969
 31
0.0
  0
LINE
  5
AF
330
1F
100
AcDbEntity
  8
1
370
    13
100
AcDbLine
 10
27.760677
 20
16.015748
 30
0.0
 11
27.990499
 21
15.547002
 31
0.0
  0
LINE
  5
B0
330
1F
100
AcDbEntity
  8
1
370
    13
100
AcDbLine
 10
27.715215
 20
16.157855
 30
0.0
 11
27.126092
 21
16.153411
 31
0.0
  0
LINE
  5
B1
330
1F
100
AcDbEntity
  8
1
370
    13
100
AcDbLine
 10
28.23304
 20
16.250145
 30
0.0
 11
28.462637
 21
16.064151
 31
0.0
  0
LINE
  5
B2
330
1F
100
AcDbEntity
  8
1
370
    13
100
AcDbLine
 10
28.225223
 20
16.257041
 30
0.0
 11
28.634639
 21
16.240554
 31
0.0
  0
LINE
  5
B3
330
1F
100
AcDbEntity
  8
1
370
    13
100
AcDbLine
 10
34.98142
 20
-2.483669
 30
0.0
 11
34.446851
 21
-2.621453
 31
0.0
  0
LINE
  5
B4
330
1F
100
AcDbEntity
  8
1
370
    13
100
AcDbLine
 10
33.137669
 20
-2.927817
 30
0.0
 11
32.618503
 21
-3.037226
 31
0.0
  0
LINE
  5
B5
330
1F
100
AcDbEntity
  8
1
370
    13
100
AcDbLine
 10
32.618503
 20
-3.037226
 30
0.0
 11
32.10526
 21
-3.138709
 31
0.0
  0
LINE
  5
B6
330
1F
100
AcDbEntity
  8
1
370
    13
100
AcDbLine
 10
30.668006
 20
-3.387933
 30
0.0
 11
30.231672
 21
-3.453487
 31
0.0
  0
LINE
  5
B7
330
1F
100
AcDbEntity
  8
1
370
    13
100
AcDbLine
 10
39.135019
 20
2.708946
 30
0.0
 11
39.053336
 21
2.768406
 31
0.0
  0
LINE
  5
B8
330
1F
100
AcDbEntity
  8
1
370
    13
100
AcDbLine
 10
39.927967
 20
-2.253122
 30
0.0
 11
39.998528
 21
-2.255202
 31
0.0
  0
LINE
  5
B9
330
1F
100
AcDbEntity
  8
1
370
    13
100
AcDbLine
 10
32.659597
 20
-3.948597
 30
0.0
 11
31.812849
 21
-4.0188
 31
0.0
  0
LINE
  5
BA
330
1F
100
AcDbEntity
  8
1
370
    13
100
AcDbLine
 10
33.428658
 20
-3.858888
 30
0.0
 11
35.815489
 21
-3.442627
 31
0.0
  0
LINE
  5
BB
330
1F
100
AcDbEntity
  8
1
370
    13
100
AcDbLine
 10
31.05993
 20
-4.101131
 30
0.0
 11
31.829958
 21
-4.006408
 31
0.0
  0
LINE
  5
BC
330
1F
100
AcDbEntity
  8
1
370
    13
100
AcDbLine
 10
32.676706
 20
-3.936205
 30
0.0
 11
33.398211
 21
-3.855027
 31
0.0
  0
LINE
  5
BD
330
1F
100
AcDbEntity
  8
1
370
    13
100
AcDbLine
 10
32.676706
 20
-3.936205
 30
0.0
 11
31.829958
 21
-4.006408
 31
0.0
  0
LINE
  5
BE
330
1F
100
AcDbEntity
  8
1
370
    13
100
AcDbLine
 10
30.991485
 20
-4.119837
 30
0.0
 11
30.391008
 21
-4.22766
 31
0.0
  0
LINE
  5
BF
330
1F
100
AcDbEntity
  8
1
370
    13
100
AcDbLine
 10
35.815489
 20
-3.442627
 30
0.0
 11
38.178405
 21
-2.88907
 31
0.0
  0
LINE
  5
C0
330
1F
100
AcDbEntity
  8
1
370
    13
100
AcDbLine
 10
31.05993
 20
-4.101131
 30
0.0
 11
30.459453
 21
-4.208954
 31
0.0
  0
LINE
  5
C1
330
1F
100
AcDbEntity
  8
1
370
    13
100
AcDbLine
 10
33.398211
 20
-3.855027
 30
0.0
 11
35.785041
 21
-3.438766
 31
0.0
  0
LINE
  5
C2
330
1F
100
AcDbEntity
  8
1
370
    13
100
AcDbLine
 10
30.088657
 20
-4.262141
 30
0.0
 11
30.459453
 21
-4.208954
 31
0.0
  0
LINE
  5
C3
330
1F
100
AcDbEntity
  8
1
370
    13
100
AcDbLine
 10
39.39664
 20
-2.470319
 30
0.0
 11
38.817124
 21
-2.691335
 31
0.0
  0
LINE
  5
C4
330
1F
100
AcDbEntity
  8
1
370
    13
100
AcDbLine
 10
35.785041
 20
-3.438766
 30
0.0
 11
38.147958
 21
-2.885209
 31
0.0
  0
LINE
  5
C5
330
1F
100
AcDbEntity
  8
1
370
    13
100
AcDbLine
 10
38.147958
 20
-2.885209
 30
0.0
 11
38.746247
 21
-2.696909
 31
0.0
  0
LINE
  5
C6
330
1F
100
AcDbEntity
  8
1
370
    13
100
AcDbLine
 10
39.325764
 20
-2.475893
 30
0.0
 11
38.746247
 21
-2.696909
 31
0.0
  0
LINE
  5
C7
330
1F
100
AcDbEntity
  8
1
370
    13
100
AcDbLine
 10
39.325764
 20
-2.475893
 30
0.0
 11
39.718113
 21
-2.333278
 31
0.0
  0
LINE
  5
C8
330
1F
100
AcDbEntity
  8
1
370
    13
100
AcDbLine
 10
29.235263
 20
-4.252073
 30
0.0
 11
29.994949
 21
-4.281274
 31
0.0
  0
LINE
  5
C9
330
1F
100
AcDbEntity
  8
1
370
    13
100
AcDbLine
 10
39.973027
 20
-2.271176
 30
0.0
 11
39.815146
 21
-2.318197
 31
0.0
  0
LINE
  5
CA
330
1F
100
AcDbEntity
  8
1
370
    13
100
AcDbLine
 10
39.875994
 20
-2.286257
 30
0.0
 11
39.718113
 21
-2.333278
 31
0.0
  0
LINE
  5
CB
330
1F
100
AcDbEntity
  8
1
370
    13
100
AcDbLine
 10
29.328971
 20
-4.232939
 30
0.0
 11
30.088657
 21
-4.262141
 31
0.0
  0
LINE
  5
CC
330
1F
100
AcDbEntity
  8
1
370
    13
100
AcDbLine
 10
39.900946
 20
-2.272852
 30
0.0
 11
39.834259
 21
-2.272255
 31
0.0
  0
LINE
  5
CD
330
1F
100
AcDbEntity
  8
1
370
    13
100
AcDbLine
 10
28.451663
 20
-4.085574
 30
0.0
 11
29.235263
 21
-4.252073
 31
0.0
  0
LINE
  5
CE
330
1F
100
AcDbEntity
  8
1
370
    13
100
AcDbLine
 10
28.545371
 20
-4.066441
 30
0.0
 11
29.328971
 21
-4.232939
 31
0.0
  0
LINE
  5
CF
330
1F
100
AcDbEntity
  8
1
370
    13
100
AcDbLine
 10
39.834259
 20
-2.272255
 30
0.0
 11
39.074573
 21
-2.243053
 31
0.0
  0
LINE
  5
D0
330
1F
100
AcDbEntity
  8
1
370
    13
100
AcDbLine
 10
28.451663
 20
-4.085574
 30
0.0
 11
28.370699
 21
-4.008485
 31
0.0
  0
LINE
  5
D1
330
1F
100
AcDbEntity
  8
1
370
    13
100
AcDbLine
 10
28.390307
 20
-3.973957
 30
0.0
 11
28.527362
 21
-3.807369
 31
0.0
  0
LINE
  5
D2
330
1F
100
AcDbEntity
  8
1
370
    13
100
AcDbLine
 10
27.689854
 20
1.001028
 30
0.0
 11
27.531972
 21
0.954007
 31
0.0
  0
LINE
  5
D3
330
1F
100
AcDbEntity
  8
1
370
    13
100
AcDbLine
 10
28.48734
 20
-3.958875
 30
0.0
 11
28.472659
 21
-4.021088
 31
0.0
  0
LINE
  5
D4
330
1F
100
AcDbEntity
  8
1
370
    13
100
AcDbLine
 10
28.472659
 20
-4.021088
 30
0.0
 11
28.545371
 21
-4.066441
 31
0.0
  0
LINE
  5
D5
330
1F
100
AcDbEntity
  8
1
370
    13
100
AcDbLine
 10
28.48734
 20
-3.958875
 30
0.0
 11
28.624395
 21
-3.792287
 31
0.0
  0
LINE
  5
D6
330
1F
100
AcDbEntity
  8
1
370
    13
100
AcDbLine
 10
28.945868
 20
-3.655246
 30
0.0
 11
28.527362
 21
-3.807369
 31
0.0
  0
LINE
  5
D7
330
1F
100
AcDbEntity
  8
1
370
    13
100
AcDbLine
 10
29.016744
 20
-3.649672
 30
0.0
 11
29.617087
 21
-3.548223
 31
0.0
  0
LINE
  5
D8
330
1F
100
AcDbEntity
  8
1
370
    13
100
AcDbLine
 10
28.687876
 20
1.374167
 30
0.0
 11
28.108359
 21
1.153151
 31
0.0
  0
LINE
  5
D9
330
1F
100
AcDbEntity
  8
1
370
    13
100
AcDbLine
 10
29.016744
 20
-3.649672
 30
0.0
 11
28.624395
 21
-3.792287
 31
0.0
  0
LINE
  5
DA
330
1F
100
AcDbEntity
  8
1
370
    13
100
AcDbLine
 10
37.51005
 20
2.964106
 30
0.0
 11
38.269736
 21
2.934904
 31
0.0
  0
LINE
  5
DB
330
1F
100
AcDbEntity
  8
1
370
    13
100
AcDbLine
 10
38.269736
 20
2.934904
 30
0.0
 11
39.053336
 21
2.768406
 31
0.0
  0
LINE
  5
DC
330
1F
100
AcDbEntity
  8
1
370
    13
100
AcDbLine
 10
39.927967
 20
-2.253122
 30
0.0
 11
39.168281
 21
-2.22392
 31
0.0
  0
LINE
  5
DD
330
1F
100
AcDbEntity
  8
1
370
    13
100
AcDbLine
 10
28.945868
 20
-3.655246
 30
0.0
 11
29.54621
 21
-3.553797
 31
0.0
  0
LINE
  5
DE
330
1F
100
AcDbEntity
  8
1
370
    13
100
AcDbLine
 10
37.835672
 20
-2.041064
 30
0.0
 11
38.886524
 21
-2.215251
 31
0.0
  0
LINE
  5
DF
330
1F
100
AcDbEntity
  8
1
370
    13
100
AcDbLine
 10
39.074573
 20
-2.243053
 30
0.0
 11
38.290973
 21
-2.076555
 31
0.0
  0
LINE
  5
E0
330
1F
100
AcDbEntity
  8
1
370
    13
100
AcDbLine
 10
39.168281
 20
-2.22392
 30
0.0
 11
38.384681
 21
-2.057422
 31
0.0
  0
LINE
  5
E1
330
1F
100
AcDbEntity
  8
1
370
    13
100
AcDbLine
 10
30.231672
 20
-3.453487
 30
0.0
 11
29.617087
 21
-3.548223
 31
0.0
  0
LINE
  5
E2
330
1F
100
AcDbEntity
  8
1
370
    13
100
AcDbLine
 10
38.290973
 20
-2.076555
 30
0.0
 11
37.903881
 21
-2.036178
 31
0.0
  0
LINE
  5
E3
330
1F
100
AcDbEntity
  8
1
370
    13
100
AcDbLine
 10
37.972325
 20
-2.017472
 30
0.0
 11
38.384681
 21
-2.057422
 31
0.0
  0
LINE
  5
E4
330
1F
100
AcDbEntity
  8
1
370
    13
100
AcDbLine
 10
37.282578
 20
-2.024434
 30
0.0
 11
37.903881
 21
-2.036178
 31
0.0
  0
LINE
  5
E5
330
1F
100
AcDbEntity
  8
1
370
    13
100
AcDbLine
 10
37.113991
 20
2.910492
 30
0.0
 11
36.513514
 21
2.802669
 31
0.0
  0
LINE
  5
E6
330
1F
100
AcDbEntity
  8
1
370
    13
100
AcDbLine
 10
37.351022
 20
-2.005728
 30
0.0
 11
37.972325
 21
-2.017472
 31
0.0
  0
LINE
  5
E7
330
1F
100
AcDbEntity
  8
1
370
    13
100
AcDbLine
 10
34.950972
 20
-2.479808
 30
0.0
 11
32.588055
 21
-3.033365
 31
0.0
  0
LINE
  5
E8
330
1F
100
AcDbEntity
  8
1
370
    13
100
AcDbLine
 10
32.588055
 20
-3.033365
 30
0.0
 11
30.201225
 21
-3.449626
 31
0.0
  0
LINE
  5
E9
330
1F
100
AcDbEntity
  8
1
370
    13
100
AcDbLine
 10
29.326594
 20
1.571902
 30
0.0
 11
31.689511
 21
2.125459
 31
0.0
  0
LINE
  5
EA
330
1F
100
AcDbEntity
  8
1
370
    13
100
AcDbLine
 10
31.689511
 20
2.125459
 30
0.0
 11
34.076341
 21
2.54172
 31
0.0
  0
LINE
  5
EB
330
1F
100
AcDbEntity
  8
1
370
    13
100
AcDbLine
 10
37.351022
 20
-2.005728
 30
0.0
 11
36.529659
 21
-2.106765
 31
0.0
  0
LINE
  5
EC
330
1F
100
AcDbEntity
  8
1
370
    13
100
AcDbLine
 10
37.282578
 20
-2.024434
 30
0.0
 11
36.51255
 21
-2.119157
 31
0.0
  0
LINE
  5
ED
330
1F
100
AcDbEntity
  8
1
370
    13
100
AcDbLine
 10
35.692151
 20
2.701632
 30
0.0
 11
34.845403
 21
2.631429
 31
0.0
  0
LINE
  5
EE
330
1F
100
AcDbEntity
  8
1
370
    13
100
AcDbLine
 10
35.686627
 20
-2.308927
 30
0.0
 11
34.98142
 21
-2.483669
 31
0.0
  0
LINE
  5
EF
330
1F
100
AcDbEntity
  8
1
370
    13
100
AcDbLine
 10
35.703737
 20
-2.296535
 30
0.0
 11
36.529659
 21
-2.106765
 31
0.0
  0
LINE
  5
F0
330
1F
100
AcDbEntity
  8
1
370
    13
100
AcDbLine
 10
35.686627
 20
-2.308927
 30
0.0
 11
36.51255
 21
-2.119157
 31
0.0
  0
LINE
  5
F1
330
1F
100
AcDbEntity
  8
1
370
    13
100
AcDbLine
 10
28.11132
 20
16.259969
 30
0.0
 11
28.225223
 21
16.257041
 31
0.0
  0
LINE
  5
F2
330
1F
100
AcDbEntity
  8
1
370
    13
100
AcDbLine
 10
27.88554
 20
16.26702
 30
0.0
 11
27.71509
 21
16.157931
 31
0.0
  0
LINE
  5
F3
330
1F
100
AcDbEntity
  8
1
370
    13
100
AcDbLine
 10
15.480535
 20
16.498436
 30
0.0
 11
26.89558
 21
16.458402
 31
0.0
  0
LINE
  5
F4
330
1F
100
AcDbEntity
  8
1
370
    13
100
AcDbLine
 10
28.269139
 20
14.010876
 30
0.0
 11
28.413407
 21
13.878205
 31
0.0
  0
LINE
  5
F5
330
1F
100
AcDbEntity
  8
1
370
    13
100
AcDbLine
 10
13.41939
 20
16.740689
 30
0.0
 11
13.442654
 21
16.811196
 31
0.0
  0
LINE
  5
F6
330
1F
100
AcDbEntity
  8
1
370
    13
100
AcDbLine
 10
26.891361
 20
16.386376
 30
0.0
 11
26.89558
 21
16.458402
 31
0.0
  0
LINE
  5
F7
330
1F
100
AcDbEntity
  8
1
370
    13
100
AcDbLine
 10
26.982669
 20
16.402063
 30
0.0
 11
26.89558
 21
16.458404
 31
0.0
  0
LINE
  5
F8
330
1F
100
AcDbEntity
  8
1
370
    13
100
AcDbLine
 10
14.504996
 20
16.523892
 30
0.0
 11
13.41939
 21
16.740689
 31
0.0
  0
LINE
  5
F9
330
1F
100
AcDbEntity
  8
1
370
    13
100
AcDbLine
 10
15.476316
 20
16.426168
 30
0.0
 11
14.504996
 21
16.523892
 31
0.0
  0
LINE
  5
FA
330
1F
100
AcDbEntity
  8
1
370
    13
100
AcDbLine
 10
26.891362
 20
16.386376
 30
0.0
 11
15.476316
 21
16.426168
 31
0.0
  0
LINE
  5
FB
330
1F
100
AcDbEntity
  8
1
370
    13
100
AcDbLine
 10
30.879459
 20
-5.857227
 30
0.0
 11
30.690182
 21
-5.450128
 31
0.0
  0
LINE
  5
FC
330
1F
100
AcDbEntity
  8
1
370
    13
100
AcDbLine
 10
29.443817
 20
-6.312328
 30
0.0
 11
29.794603
 21
-6.24996
 31
0.0
  0
LINE
  5
FD
330
1F
100
AcDbEntity
  8
1
370
    13
100
AcDbLine
 10
28.282785
 20
-6.202948
 30
0.0
 11
29.094562
 21
-6.297889
 31
0.0
  0
LINE
  5
FE
330
1F
100
AcDbEntity
  8
1
370
    13
100
AcDbLine
 10
29.00365
 20
-6.740169
 30
0.0
 11
29.094562
 21
-6.297889
 31
0.0
  0
LINE
  5
FF
330
1F
100
AcDbEntity
  8
1
370
    13
100
AcDbLine
 10
33.318422
 20
-6.140825
 30
0.0
 11
32.945755
 21
-6.225621
 31
0.0
  0
LINE
  5
100
330
1F
100
AcDbEntity
  8
1
370
    13
100
AcDbLine
 10
29.76084
 20
-4.664059
 30
0.0
 11
29.704246
 21
-4.708069
 31
0.0
  0
LINE
  5
101
330
1F
100
AcDbEntity
  8
1
370
    13
100
AcDbLine
 10
29.704246
 20
-4.708069
 30
0.0
 11
29.716674
 21
-4.633476
 31
0.0
  0
LINE
  5
102
330
1F
100
AcDbEntity
  8
1
370
    13
100
AcDbLine
 10
29.704246
 20
-4.708069
 30
0.0
 11
28.185519
 21
-5.062614
 31
0.0
  0
LINE
  5
103
330
1F
100
AcDbEntity
  8
1
370
    13
100
AcDbLine
 10
28.225223
 20
-16.382013
 30
0.0
 11
29.206051
 21
-16.401756
 31
0.0
  0
LINE
  5
104
330
1F
100
AcDbEntity
  8
1
370
    13
100
AcDbLine
 10
28.11132
 20
-16.384001
 30
0.0
 11
28.225223
 21
-16.382013
 31
0.0
  0
LINE
  5
105
330
1F
100
AcDbEntity
  8
1
370
    13
100
AcDbLine
 10
28.694629
 20
-14.022958
 30
0.0
 11
28.719017
 21
-13.57515
 31
0.0
  0
LINE
  5
106
330
1F
100
AcDbEntity
  8
1
370
    13
100
AcDbLine
 10
39.021123
 20
-3.287439
 30
0.0
 11
39.098746
 21
-3.491963
 31
0.0
  0
LINE
  5
107
330
1F
100
AcDbEntity
  8
1
370
    13
100
AcDbLine
 10
38.940729
 20
-2.706973
 30
0.0
 11
39.041015
 21
-4.430921
 31
0.0
  0
LINE
  5
108
330
1F
100
AcDbEntity
  8
1
370
    13
100
AcDbLine
 10
11.295837
 20
16.961914
 30
0.0
 11
11.222459
 21
17.021123
 31
0.0
  0
LINE
  5
109
330
1F
100
AcDbEntity
  8
1
370
    13
100
AcDbLine
 10
13.452231
 20
14.504696
 30
0.0
 11
14.578249
 21
13.531999
 31
0.0
  0
LINE
  5
10A
330
1F
100
AcDbEntity
  8
1
370
    13
100
AcDbLine
 10
14.578249
 20
13.531999
 30
0.0
 11
14.528261
 21
13.541686
 31
0.0
  0
LINE
  5
10B
330
1F
100
AcDbEntity
  8
1
370
    13
100
AcDbLine
 10
39.011663
 20
-11.04706
 30
0.0
 11
38.425184
 21
-13.054121
 31
0.0
  0
LINE
  5
10C
330
1F
100
AcDbEntity
  8
1
370
    13
100
AcDbLine
 10
37.65959
 20
-15.483796
 30
0.0
 11
38.425184
 21
-13.054121
 31
0.0
  0
LINE
  5
10D
330
1F
100
AcDbEntity
  8
1
370
    13
100
AcDbLine
 10
39.011663
 20
-6.277
 30
0.0
 11
38.449421
 21
-8.443619
 31
0.0
  0
LINE
  5
10E
330
1F
100
AcDbEntity
  8
1
370
    13
100
AcDbLine
 10
31.276046
 20
-16.806804
 30
0.0
 11
33.852214
 21
-17.580273
 31
0.0
  0
LINE
  5
10F
330
1F
100
AcDbEntity
  8
1
370
    13
100
AcDbLine
 10
32.857828
 20
-14.713245
 30
0.0
 11
31.276046
 21
-14.300309
 31
0.0
  0
LINE
  5
110
330
1F
100
AcDbEntity
  8
1
370
    13
100
AcDbLine
 10
31.790762
 20
-6.331536
 30
0.0
 11
32.639495
 21
-6.293865
 31
0.0
  0
LINE
  5
111
330
1F
100
AcDbEntity
  8
1
370
    13
100
AcDbLine
 10
39.041015
 20
-4.430921
 30
0.0
 11
39.098746
 21
-5.282399
 31
0.0
  0
LINE
  5
112
330
1F
100
AcDbEntity
  8
1
370
    13
100
AcDbLine
 10
39.011663
 20
-6.277
 30
0.0
 11
39.098746
 21
-5.282399
 31
0.0
  0
LINE
  5
113
330
1F
100
AcDbEntity
  8
1
370
    13
100
AcDbLine
 10
28.090547
 20
10.474484
 30
0.0
 11
28.895942
 21
10.627834
 31
0.0
  0
LINE
  5
114
330
1F
100
AcDbEntity
  8
1
370
    13
100
AcDbLine
 10
27.980799
 20
10.454901
 30
0.0
 11
28.090547
 21
10.474484
 31
0.0
  0
LINE
  5
115
330
1F
100
AcDbEntity
  8
1
370
    13
100
AcDbLine
 10
25.86618
 20
-16.493292
 30
0.0
 11
25.966123
 21
-16.465123
 31
0.0
  0
LINE
  5
116
330
1F
100
AcDbEntity
  8
1
370
    13
100
AcDbLine
 10
27.019117
 20
-16.382569
 30
0.0
 11
27.678278
 21
-16.393787
 31
0.0
  0
LINE
  5
117
330
1F
100
AcDbEntity
  8
1
370
    13
100
AcDbLine
 10
37.225315
 20
-12.631531
 30
0.0
 11
37.65959
 21
-11.581639
 31
0.0
  0
LINE
  5
118
330
1F
100
AcDbEntity
  8
1
370
    13
100
AcDbLine
 10
33.852214
 20
-14.331391
 30
0.0
 11
32.896265
 21
-14.120129
 31
0.0
  0
LINE
  5
119
330
1F
100
AcDbEntity
  8
1
370
    13
100
AcDbLine
 10
28.719017
 20
-13.57515
 30
0.0
 11
28.11132
 21
-13.635254
 31
0.0
  0
LINE
  5
11A
330
1F
100
AcDbEntity
  8
1
370
    13
100
AcDbLine
 10
38.449421
 20
-8.443619
 30
0.0
 11
37.65959
 21
-11.581639
 31
0.0
  0
LINE
  5
11B
330
1F
100
AcDbEntity
  8
1
370
    13
100
AcDbLine
 10
37.65959
 20
-15.483796
 30
0.0
 11
37.223343
 21
-16.366411
 31
0.0
  0
LINE
  5
11C
330
1F
100
AcDbEntity
  8
1
370
    13
100
AcDbLine
 10
35.941632
 20
-17.441245
 30
0.0
 11
35.783673
 21
-17.50783
 31
0.0
  0
LINE
  5
11D
330
1F
100
AcDbEntity
  8
1
370
    13
100
AcDbLine
 10
34.304265
 20
-17.679969
 30
0.0
 11
33.852214
 21
-17.580273
 31
0.0
  0
LINE
  5
11E
330
1F
100
AcDbEntity
  8
1
370
    13
100
AcDbLine
 10
15.542998
 20
12.848923
 30
0.0
 11
15.480535
 21
12.850916
 31
0.0
  0
LINE
  5
11F
330
1F
100
AcDbEntity
  8
1
370
    13
100
AcDbLine
 10
39.021123
 20
3.287439
 30
0.0
 11
39.098746
 21
3.491963
 31
0.0
  0
LINE
  5
120
330
1F
100
AcDbEntity
  8
1
370
    13
100
AcDbLine
 10
33.086992
 20
11.706465
 30
0.0
 11
33.863088
 21
11.923916
 31
0.0
  0
LINE
  5
121
330
1F
100
AcDbEntity
  8
1
370
    13
100
AcDbLine
 10
29.855807
 20
-4.386059
 30
0.0
 11
29.76084
 21
-4.664059
 31
0.0
  0
LINE
  5
122
330
1F
100
AcDbEntity
  8
1
370
    13
100
AcDbLine
 10
37.487259
 20
11.998141
 30
0.0
 11
37.390343
 21
12.052544
 31
0.0
  0
LINE
  5
123
330
1F
100
AcDbEntity
  8
1
370
    13
100
AcDbLine
 10
28.11132
 20
10.443882
 30
0.0
 11
28.001572
 21
10.42418
 31
0.0
  0
LINE
  5
124
330
1F
100
AcDbEntity
  8
1
370
    13
100
AcDbLine
 10
37.65959
 20
3.298861
 30
0.0
 11
38.425184
 21
3.194726
 31
0.0
  0
LINE
  5
125
330
1F
100
AcDbEntity
  8
1
370
    13
100
AcDbLine
 10
39.011663
 20
3.517978
 30
0.0
 11
38.425184
 21
3.194726
 31
0.0
  0
LINE
  5
126
330
1F
100
AcDbEntity
  8
1
370
    13
100
AcDbLine
 10
28.895965
 20
10.627809
 30
0.0
 11
28.860077
 21
10.587879
 31
0.0
  0
LINE
  5
127
330
1F
100
AcDbEntity
  8
1
370
    13
100
AcDbLine
 10
29.716674
 20
-4.633476
 30
0.0
 11
29.76084
 21
-4.664059
 31
0.0
  0
LINE
  5
128
330
1F
100
AcDbEntity
  8
1
370
    13
100
AcDbLine
 10
29.504172
 20
-4.388845
 30
0.0
 11
29.716674
 21
-4.633476
 31
0.0
  0
LINE
  5
129
330
1F
100
AcDbEntity
  8
1
370
    13
100
AcDbLine
 10
34.959678
 20
12.130154
 30
0.0
 11
33.852214
 21
11.893148
 31
0.0
  0
LINE
  5
12A
330
1F
100
AcDbEntity
  8
1
370
    13
100
AcDbLine
 10
37.65959
 20
3.298861
 30
0.0
 11
37.223343
 21
3.270047
 31
0.0
  0
LINE
  5
12B
330
1F
100
AcDbEntity
  8
1
370
    13
100
AcDbLine
 10
35.941632
 20
3.027702
 30
0.0
 11
35.783673
 21
2.999126
 31
0.0
  0
LINE
  5
12C
330
1F
100
AcDbEntity
  8
1
370
    13
100
AcDbLine
 10
34.304265
 20
2.767078
 30
0.0
 11
33.852214
 21
2.693382
 31
0.0
  0
LINE
  5
12D
330
1F
100
AcDbEntity
  8
1
370
    13
100
AcDbLine
 10
29.206051
 20
1.846717
 30
0.0
 11
31.276046
 21
2.171306
 31
0.0
  0
LINE
  5
12E
330
1F
100
AcDbEntity
  8
1
370
    13
100
AcDbLine
 10
31.276046
 20
2.171306
 30
0.0
 11
33.852214
 21
2.693382
 31
0.0
  0
LINE
  5
12F
330
1F
100
AcDbEntity
  8
1
370
    13
100
AcDbLine
 10
33.852214
 20
11.893148
 30
0.0
 11
33.055638
 21
11.669788
 31
0.0
  0
LINE
  5
130
330
1F
100
AcDbEntity
  8
1
370
    13
100
AcDbLine
 10
32.857828
 20
9.021407
 30
0.0
 11
31.276046
 21
8.704909
 31
0.0
  0
LINE
  5
131
330
1F
100
AcDbEntity
  8
1
370
    13
100
AcDbLine
 10
3.583838
 20
-4.223032
 30
0.0
 11
3.4
 21
-4.2975
 31
0.0
  0
LINE
  5
132
330
1F
100
AcDbEntity
  8
1
370
    13
100
AcDbLine
 10
4.136986
 20
3.415427
 30
0.0
 11
4.2
 21
3.024458
 31
0.0
  0
LINE
  5
133
330
1F
100
AcDbEntity
  8
1
370
    13
100
AcDbLine
 10
13.442654
 20
16.811196
 30
0.0
 11
14.528261
 21
16.59436
 31
0.0
  0
LINE
  5
134
330
1F
100
AcDbEntity
  8
1
370
    13
100
AcDbLine
 10
11.222459
 20
17.021123
 30
0.0
 11
11.204387
 21
17.092968
 31
0.0
  0
LINE
  5
135
330
1F
100
AcDbEntity
  8
1
370
    13
100
AcDbLine
 10
11.204387
 20
17.092968
 30
0.0
 11
11.291482
 21
17.1323
 31
0.0
  0
LINE
  5
136
330
1F
100
AcDbEntity
  8
1
370
    13
100
AcDbLine
 10
11.579306
 20
16.551434
 30
0.0
 11
11.222459
 21
17.021123
 31
0.0
  0
LINE
  5
137
330
1F
100
AcDbEntity
  8
1
370
    13
100
AcDbLine
 10
13.382327
 20
-2.368117
 30
0.0
 11
14.528261
 21
-2.463803
 31
0.0
  0
LINE
  5
138
330
1F
100
AcDbEntity
  8
1
370
    13
100
AcDbLine
 10
12.830499
 20
-2.379365
 30
0.0
 11
13.382327
 21
-2.368117
 31
0.0
  0
LINE
  5
139
330
1F
100
AcDbEntity
  8
1
370
    13
100
AcDbLine
 10
11.623025
 20
-6.040237
 30
0.0
 11
11.271856
 21
-4.310848
 31
0.0
  0
LINE
  5
13A
330
1F
100
AcDbEntity
  8
1
370
    13
100
AcDbLine
 10
15.480535
 20
-11.4156
 30
0.0
 11
14.528261
 21
-10.725252
 31
0.0
  0
LINE
  5
13B
330
1F
100
AcDbEntity
  8
1
370
    13
100
AcDbLine
 10
28.225223
 20
1.566702
 30
0.0
 11
29.206051
 21
1.846717
 31
0.0
  0
LINE
  5
13C
330
1F
100
AcDbEntity
  8
1
370
    13
100
AcDbLine
 10
28.11132
 20
1.54698
 30
0.0
 11
28.225223
 21
1.566702
 31
0.0
  0
LINE
  5
13D
330
1F
100
AcDbEntity
  8
1
370
    13
100
AcDbLine
 10
28.694629
 20
8.226752
 30
0.0
 11
28.860104
 21
10.587772
 31
0.0
  0
LINE
  5
13E
330
1F
100
AcDbEntity
  8
1
370
    13
100
AcDbLine
 10
31.276046
 20
8.704909
 30
0.0
 11
28.694629
 21
8.226752
 31
0.0
  0
LINE
  5
13F
330
1F
100
AcDbEntity
  8
1
370
    13
100
AcDbLine
 10
0.0
 20
4.947553
 30
0.0
 11
0.5
 21
5.02137
 31
0.0
  0
LINE
  5
140
330
1F
100
AcDbEntity
  8
1
370
    13
100
AcDbLine
 10
0.5
 20
-5.02137
 30
0.0
 11
0.0
 21
-4.947553
 31
0.0
  0
LINE
  5
141
330
1F
100
AcDbEntity
  8
1
370
    13
100
AcDbLine
 10
14.528261
 20
-2.463803
 30
0.0
 11
15.480535
 21
-2.524561
 31
0.0
  0
LINE
  5
142
330
1F
100
AcDbEntity
  8
1
370
    13
100
AcDbLine
 10
37.351022
 20
18.348107
 30
0.0
 11
37.972325
 21
17.751046
 31
0.0
  0
LINE
  5
143
330
1F
100
AcDbEntity
  8
1
370
    13
100
AcDbLine
 10
37.972325
 20
17.751046
 30
0.0
 11
38.384681
 21
17.101317
 31
0.0
  0
LINE
  5
144
330
1F
100
AcDbEntity
  8
1
370
    13
100
AcDbLine
 10
35.703737
 20
18.976225
 30
0.0
 11
36.529659
 21
18.791694
 31
0.0
  0
LINE
  5
145
330
1F
100
AcDbEntity
  8
1
370
    13
100
AcDbLine
 10
37.282578
 20
18.27954
 30
0.0
 11
37.903881
 21
17.68248
 31
0.0
  0
LINE
  5
146
330
1F
100
AcDbEntity
  8
1
370
    13
100
AcDbLine
 10
34.950972
 20
18.955733
 30
0.0
 11
35.703737
 21
18.976225
 31
0.0
  0
LINE
  5
147
330
1F
100
AcDbEntity
  8
1
370
    13
100
AcDbLine
 10
38.290973
 20
17.073894
 30
0.0
 11
37.903881
 21
17.68248
 31
0.0
  0
LINE
  5
148
330
1F
100
AcDbEntity
  8
1
370
    13
100
AcDbLine
 10
35.686627
 20
18.879934
 30
0.0
 11
36.51255
 21
18.695403
 31
0.0
  0
LINE
  5
149
330
1F
100
AcDbEntity
  8
1
370
    13
100
AcDbLine
 10
39.168281
 20
14.719564
 30
0.0
 11
38.384681
 21
17.101317
 31
0.0
  0
LINE
  5
14A
330
1F
100
AcDbEntity
  8
1
370
    13
100
AcDbLine
 10
35.686627
 20
18.879934
 30
0.0
 11
34.98142
 21
18.861258
 31
0.0
  0
LINE
  5
14B
330
1F
100
AcDbEntity
  8
1
370
    13
100
AcDbLine
 10
39.074573
 20
14.69214
 30
0.0
 11
38.290973
 21
17.073894
 31
0.0
  0
LINE
  5
14C
330
1F
100
AcDbEntity
  8
1
370
    13
100
AcDbLine
 10
39.927967
 20
12.312674
 30
0.0
 11
39.168281
 21
14.719564
 31
0.0
  0
LINE
  5
14D
330
1F
100
AcDbEntity
  8
1
370
    13
100
AcDbLine
 10
39.927967
 20
12.312674
 30
0.0
 11
39.973027
 21
11.543096
 31
0.0
  0
LINE
  5
14E
330
1F
100
AcDbEntity
  8
1
370
    13
100
AcDbLine
 10
34.950972
 20
18.955733
 30
0.0
 11
32.588055
 21
18.273295
 31
0.0
  0
LINE
  5
14F
330
1F
100
AcDbEntity
  8
1
370
    13
100
AcDbLine
 10
39.973027
 20
11.543096
 30
0.0
 11
39.815146
 21
10.702212
 31
0.0
  0
LINE
  5
150
330
1F
100
AcDbEntity
  8
1
370
    13
100
AcDbLine
 10
39.875994
 20
11.563236
 30
0.0
 11
39.834259
 21
12.285251
 31
0.0
  0
LINE
  5
151
330
1F
100
AcDbEntity
  8
1
370
    13
100
AcDbLine
 10
39.834259
 20
12.285251
 30
0.0
 11
39.074573
 21
14.69214
 31
0.0
  0
LINE
  5
152
330
1F
100
AcDbEntity
  8
1
370
    13
100
AcDbLine
 10
34.98142
 20
18.861258
 30
0.0
 11
32.618503
 21
18.17882
 31
0.0
  0
LINE
  5
153
330
1F
100
AcDbEntity
  8
1
370
    13
100
AcDbLine
 10
39.875994
 20
11.563236
 30
0.0
 11
39.718113
 21
10.722351
 31
0.0
  0
LINE
  5
154
330
1F
100
AcDbEntity
  8
1
370
    13
100
AcDbLine
 10
32.588055
 20
18.273295
 30
0.0
 11
30.201225
 21
17.56572
 31
0.0
  0
LINE
  5
155
330
1F
100
AcDbEntity
  8
1
370
    13
100
AcDbLine
 10
29.54621
 20
17.174226
 30
0.0
 11
30.201225
 21
17.56572
 31
0.0
  0
LINE
  5
156
330
1F
100
AcDbEntity
  8
1
370
    13
100
AcDbLine
 10
32.618503
 20
18.17882
 30
0.0
 11
30.231672
 21
17.471245
 31
0.0
  0
LINE
  5
157
330
1F
100
AcDbEntity
  8
1
370
    13
100
AcDbLine
 10
30.231672
 20
17.471245
 30
0.0
 11
29.617087
 21
17.103684
 31
0.0
  0
LINE
  5
158
330
1F
100
AcDbEntity
  8
1
370
    13
100
AcDbLine
 10
28.945868
 20
16.572298
 30
0.0
 11
29.54621
 21
17.174226
 31
0.0
  0
LINE
  5
159
330
1F
100
AcDbEntity
  8
1
370
    13
100
AcDbLine
 10
29.016744
 20
16.501756
 30
0.0
 11
29.617087
 21
17.103684
 31
0.0
  0
LINE
  5
15A
330
1F
100
AcDbEntity
  8
1
370
    13
100
AcDbLine
 10
28.390307
 20
14.946869
 30
0.0
 11
28.527362
 21
15.765863
 31
0.0
  0
LINE
  5
15B
330
1F
100
AcDbEntity
  8
1
370
    13
100
AcDbLine
 10
28.48734
 20
14.92673
 30
0.0
 11
28.624395
 21
15.745724
 31
0.0
  0
LINE
  5
15C
330
1F
100
AcDbEntity
  8
1
370
    13
100
AcDbLine
 10
28.48734
 20
14.92673
 30
0.0
 11
28.545371
 21
14.221844
 31
0.0
  0
LINE
  5
15D
330
1F
100
AcDbEntity
  8
1
370
    13
100
AcDbLine
 10
28.451663
 20
14.19442
 30
0.0
 11
28.390307
 21
14.946869
 31
0.0
  0
LINE
  5
15E
330
1F
100
AcDbEntity
  8
1
370
    13
100
AcDbLine
 10
28.545371
 20
14.221844
 30
0.0
 11
29.328971
 21
11.84009
 31
0.0
  0
LINE
  5
15F
330
1F
100
AcDbEntity
  8
1
370
    13
100
AcDbLine
 10
28.451663
 20
14.19442
 30
0.0
 11
29.235263
 21
11.812667
 31
0.0
  0
LINE
  5
160
330
1F
100
AcDbEntity
  8
1
370
    13
100
AcDbLine
 10
28.758753
 20
-16.317279
 30
0.0
 11
29.357042
 21
-16.677847
 31
0.0
  0
LINE
  5
161
330
1F
100
AcDbEntity
  8
1
370
    13
100
AcDbLine
 10
29.326594
 20
-16.772796
 30
0.0
 11
28.687876
 21
-16.387767
 31
0.0
  0
LINE
  5
162
330
1F
100
AcDbEntity
  8
1
370
    13
100
AcDbLine
 10
39.973027
 20
-11.468872
 30
0.0
 11
39.815146
 21
-10.623162
 31
0.0
  0
LINE
  5
163
330
1F
100
AcDbEntity
  8
1
370
    13
100
AcDbLine
 10
29.357042
 20
-16.677847
 30
0.0
 11
31.719958
 21
-17.389024
 31
0.0
  0
LINE
  5
164
330
1F
100
AcDbEntity
  8
1
370
    13
100
AcDbLine
 10
34.950972
 20
-18.89404
 30
0.0
 11
32.588055
 21
-18.182863
 31
0.0
  0
LINE
  5
165
330
1F
100
AcDbEntity
  8
1
370
    13
100
AcDbLine
 10
32.588055
 20
-18.182863
 30
0.0
 11
30.201225
 21
-17.453085
 31
0.0
  0
LINE
  5
166
330
1F
100
AcDbEntity
  8
1
370
    13
100
AcDbLine
 10
29.326594
 20
-16.772796
 30
0.0
 11
31.689511
 21
-17.483973
 31
0.0
  0
LINE
  5
167
330
1F
100
AcDbEntity
  8
1
370
    13
100
AcDbLine
 10
39.114693
 20
-10.801258
 30
0.0
 11
39.053336
 21
-11.561375
 31
0.0
  0
LINE
  5
168
330
1F
100
AcDbEntity
  8
1
370
    13
100
AcDbLine
 10
39.927967
 20
-12.241664
 30
0.0
 11
39.973027
 21
-11.468872
 31
0.0
  0
LINE
  5
169
330
1F
100
AcDbEntity
  8
1
370
    13
100
AcDbLine
 10
31.689511
 20
-17.483973
 30
0.0
 11
34.076341
 21
-18.213751
 31
0.0
  0
LINE
  5
16A
330
1F
100
AcDbEntity
  8
1
370
    13
100
AcDbLine
 10
31.719958
 20
-17.389024
 30
0.0
 11
34.106789
 21
-18.118802
 31
0.0
  0
LINE
  5
16B
330
1F
100
AcDbEntity
  8
1
370
    13
100
AcDbLine
 10
34.106789
 20
-18.118802
 30
0.0
 11
34.828293
 21
-18.158626
 31
0.0
  0
LINE
  5
16C
330
1F
100
AcDbEntity
  8
1
370
    13
100
AcDbLine
 10
34.845403
 20
-18.255807
 30
0.0
 11
34.076341
 21
-18.213751
 31
0.0
  0
LINE
  5
16D
330
1F
100
AcDbEntity
  8
1
370
    13
100
AcDbLine
 10
34.950972
 20
-18.89404
 30
0.0
 11
35.703737
 21
-18.923421
 31
0.0
  0
LINE
  5
16E
330
1F
100
AcDbEntity
  8
1
370
    13
100
AcDbLine
 10
35.675041
 20
-17.998871
 30
0.0
 11
34.828293
 21
-18.158626
 31
0.0
  0
LINE
  5
16F
330
1F
100
AcDbEntity
  8
1
370
    13
100
AcDbLine
 10
35.703737
 20
-18.923421
 30
0.0
 11
36.529659
 21
-18.747468
 31
0.0
  0
LINE
  5
170
330
1F
100
AcDbEntity
  8
1
370
    13
100
AcDbLine
 10
38.176029
 20
-13.929973
 30
0.0
 11
38.959629
 21
-11.532946
 31
0.0
  0
LINE
  5
171
330
1F
100
AcDbEntity
  8
1
370
    13
100
AcDbLine
 10
35.692151
 20
-18.096052
 30
0.0
 11
34.845403
 21
-18.255807
 31
0.0
  0
LINE
  5
172
330
1F
100
AcDbEntity
  8
1
370
    13
100
AcDbLine
 10
37.351022
 20
-18.307395
 30
0.0
 11
37.972325
 21
-17.707951
 31
0.0
  0
LINE
  5
173
330
1F
100
AcDbEntity
  8
1
370
    13
100
AcDbLine
 10
37.045546
 20
-16.97066
 30
0.0
 11
37.416342
 21
-16.3456
 31
0.0
  0
LINE
  5
174
330
1F
100
AcDbEntity
  8
1
370
    13
100
AcDbLine
 10
37.045546
 20
-16.97066
 30
0.0
 11
36.445069
 21
-17.586303
 31
0.0
  0
LINE
  5
175
330
1F
100
AcDbEntity
  8
1
370
    13
100
AcDbLine
 10
37.113991
 20
-17.040337
 30
0.0
 11
36.513514
 21
-17.65598
 31
0.0
  0
LINE
  5
176
330
1F
100
AcDbEntity
  8
1
370
    13
100
AcDbLine
 10
37.51005
 20
-16.374029
 30
0.0
 11
38.269736
 21
-13.958402
 31
0.0
  0
LINE
  5
177
330
1F
100
AcDbEntity
  8
1
370
    13
100
AcDbLine
 10
38.269736
 20
-13.958402
 30
0.0
 11
39.053336
 21
-11.561375
 31
0.0
  0
LINE
  5
178
330
1F
100
AcDbEntity
  8
1
370
    13
100
AcDbLine
 10
39.927967
 20
-12.241664
 30
0.0
 11
39.168281
 21
-14.657291
 31
0.0
  0
LINE
  5
179
330
1F
100
AcDbEntity
  8
1
370
    13
100
AcDbLine
 10
39.168281
 20
-14.657291
 30
0.0
 11
38.384681
 21
-17.054318
 31
0.0
  0
LINE
  5
17A
330
1F
100
AcDbEntity
  8
1
370
    13
100
AcDbLine
 10
37.51005
 20
-16.374029
 30
0.0
 11
37.113991
 21
-17.040337
 31
0.0
  0
LINE
  5
17B
330
1F
100
AcDbEntity
  8
1
370
    13
100
AcDbLine
 10
37.972325
 20
-17.707951
 30
0.0
 11
38.384681
 21
-17.054318
 31
0.0
  0
LINE
  5
17C
330
1F
100
AcDbEntity
  8
1
370
    13
100
AcDbLine
 10
37.416342
 20
-16.3456
 30
0.0
 11
38.176029
 21
-13.929973
 31
0.0
  0
LINE
  5
17D
330
1F
100
AcDbEntity
  8
1
370
    13
100
AcDbLine
 10
39.114693
 20
-2.656789
 30
0.0
 11
39.130472
 21
-2.721723
 31
0.0
  0
LINE
  5
17E
330
1F
100
AcDbEntity
  8
1
370
    13
100
AcDbLine
 10
39.130472
 20
-2.721723
 30
0.0
 11
39.053336
 21
-2.768406
 31
0.0
  0
LINE
  5
17F
330
1F
100
AcDbEntity
  8
1
370
    13
100
AcDbLine
 10
39.973027
 20
2.271176
 30
0.0
 11
39.815146
 21
2.318197
 31
0.0
  0
LINE
  5
180
330
1F
100
AcDbEntity
  8
1
370
    13
100
AcDbLine
 10
38.959629
 20
-2.749273
 30
0.0
 11
39.036053
 21
-2.674387
 31
0.0
  0
LINE
  5
181
330
1F
100
AcDbEntity
  8
1
370
    13
100
AcDbLine
 10
33.788992
 20
14.399366
 30
0.0
 11
33.730175
 21
14.491398
 31
0.0
  0
LINE
  5
182
330
1F
100
AcDbEntity
  8
1
370
    13
100
AcDbLine
 10
33.788992
 20
14.399366
 30
0.0
 11
33.809037
 21
14.337193
 31
0.0
  0
LINE
  5
183
330
1F
100
AcDbEntity
  8
1
370
    13
100
AcDbLine
 10
35.448922
 20
12.892741
 30
0.0
 11
35.352765
 21
12.944855
 31
0.0
  0
LINE
  5
184
330
1F
100
AcDbEntity
  8
1
370
    13
100
AcDbLine
 10
35.289246
 20
12.960408
 30
0.0
 11
35.352765
 21
12.944855
 31
0.0
  0
LINE
  5
185
330
1F
100
AcDbEntity
  8
1
370
    13
100
AcDbLine
 10
32.541101
 20
13.630086
 30
0.0
 11
32.5992
 21
13.615999
 31
0.0
  0
LINE
  5
186
330
1F
100
AcDbEntity
  8
1
370
    13
100
AcDbLine
 10
35.889661
 20
-2.438747
 30
0.0
 11
35.215988
 21
-2.422485
 31
0.0
  0
LINE
  5
187
330
1F
100
AcDbEntity
  8
1
370
    13
100
AcDbLine
 10
36.420184
 20
-2.191242
 30
0.0
 11
36.120307
 21
-2.208294
 31
0.0
  0
LINE
  5
188
330
1F
100
AcDbEntity
  8
1
370
    13
100
AcDbLine
 10
32.401443
 20
11.314434
 30
0.0
 11
32.97215
 21
10.913925
 31
0.0
  0
LINE
  5
189
330
1F
100
AcDbEntity
  8
1
370
    13
100
AcDbLine
 10
33.568304
 20
14.876888
 30
0.0
 11
32.812256
 21
14.417028
 31
0.0
  0
LINE
  5
18A
330
1F
100
AcDbEntity
  8
1
370
    13
100
AcDbLine
 10
32.357986
 20
11.268755
 30
0.0
 11
32.96608
 21
10.84923
 31
0.0
  0
LINE
  5
18B
330
1F
100
AcDbEntity
  8
1
370
    13
100
AcDbLine
 10
33.877786
 20
11.936839
 30
0.0
 11
33.485991
 21
11.916162
 31
0.0
  0
LINE
  5
18C
330
1F
100
AcDbEntity
  8
1
370
    13
100
AcDbLine
 10
35.380322
 20
12.470538
 30
0.0
 11
34.967788
 21
12.1617
 31
0.0
  0
LINE
  5
18D
330
1F
100
AcDbEntity
  8
1
370
    13
100
AcDbLine
 10
32.486757
 20
11.067021
 30
0.0
 11
32.960851
 21
10.791267
 31
0.0
  0
LINE
  5
18E
330
1F
100
AcDbEntity
  8
1
370
    13
100
AcDbLine
 10
32.563144
 20
10.872417
 30
0.0
 11
32.898395
 21
10.672818
 31
0.0
  0
LINE
  5
18F
330
1F
100
AcDbEntity
  8
1
370
    13
100
AcDbLine
 10
30.540552
 20
8.79677
 30
0.0
 11
30.494837
 21
8.762392
 31
0.0
  0
LINE
  5
190
330
1F
100
AcDbEntity
  8
1
370
    13
100
AcDbLine
 10
32.866809
 20
9.291811
 30
0.0
 11
31.579287
 21
9.083343
 31
0.0
  0
LINE
  5
191
330
1F
100
AcDbEntity
  8
1
370
    13
100
AcDbLine
 10
33.898692
 20
-10.618096
 30
0.0
 11
33.362683
 21
-9.964178
 31
0.0
  0
LINE
  5
192
330
1F
100
AcDbEntity
  8
1
370
    13
100
AcDbLine
 10
33.218243
 20
-13.172848
 30
0.0
 11
33.342115
 21
-13.08087
 31
0.0
  0
LINE
  5
193
330
1F
100
AcDbEntity
  8
1
370
    13
100
AcDbLine
 10
32.827814
 20
15.576059
 30
0.0
 11
31.959635
 21
14.971634
 31
0.0
  0
LINE
  5
194
330
1F
100
AcDbEntity
  8
1
370
    13
100
AcDbLine
 10
31.959635
 20
14.971634
 30
0.0
 11
31.477961
 21
14.263034
 31
0.0
  0
LINE
  5
195
330
1F
100
AcDbEntity
  8
1
370
    13
100
AcDbLine
 10
30.184848
 20
-10.466744
 30
0.0
 11
30.134081
 21
-10.579014
 31
0.0
  0
LINE
  5
196
330
1F
100
AcDbEntity
  8
1
370
    13
100
AcDbLine
 10
35.40504
 20
-2.436861
 30
0.0
 11
35.119255
 21
-2.447932
 31
0.0
  0
LINE
  5
197
330
1F
100
AcDbEntity
  8
1
370
    13
100
AcDbLine
 10
32.827678
 20
-3.058367
 30
0.0
 11
33.34772
 21
-3.014169
 31
0.0
  0
LINE
  5
198
330
1F
100
AcDbEntity
  8
1
370
    13
100
AcDbLine
 10
33.34772
 20
-3.014169
 30
0.0
 11
33.440849
 21
-2.993155
 31
0.0
  0
LINE
  5
199
330
1F
100
AcDbEntity
  8
1
370
    13
100
AcDbLine
 10
34.170485
 20
-2.877207
 30
0.0
 11
33.485991
 21
-2.981181
 31
0.0
  0
LINE
  5
19A
330
1F
100
AcDbEntity
  8
1
370
    13
100
AcDbLine
 10
34.194232
 20
-2.878717
 30
0.0
 11
34.258645
 21
-2.8758
 31
0.0
  0
LINE
  5
19B
330
1F
100
AcDbEntity
  8
1
370
    13
100
AcDbLine
 10
34.258645
 20
-2.8758
 30
0.0
 11
34.924181
 21
-2.739909
 31
0.0
  0
LINE
  5
19C
330
1F
100
AcDbEntity
  8
1
370
    13
100
AcDbLine
 10
35.380322
 20
-2.594391
 30
0.0
 11
34.912074
 21
-2.725787
 31
0.0
  0
LINE
  5
19D
330
1F
100
AcDbEntity
  8
1
370
    13
100
AcDbLine
 10
35.442123
 20
-2.584529
 30
0.0
 11
35.380322
 21
-2.594391
 31
0.0
  0
LINE
  5
19E
330
1F
100
AcDbEntity
  8
1
370
    13
100
AcDbLine
 10
35.442123
 20
-2.584529
 30
0.0
 11
35.547326
 21
-2.565047
 31
0.0
  0
LINE
  5
19F
330
1F
100
AcDbEntity
  8
1
370
    13
100
AcDbLine
 10
35.69282
 20
-2.473353
 30
0.0
 11
35.602259
 21
-2.483608
 31
0.0
  0
LINE
  5
1A0
330
1F
100
AcDbEntity
  8
1
370
    13
100
AcDbLine
 10
35.542442
 20
-2.49222
 30
0.0
 11
35.602259
 21
-2.483608
 31
0.0
  0
LINE
  5
1A1
330
1F
100
AcDbEntity
  8
1
370
    13
100
AcDbLine
 10
35.326196
 20
-2.464798
 30
0.0
 11
35.542442
 21
-2.49222
 31
0.0
  0
LINE
  5
1A2
330
1F
100
AcDbEntity
  8
1
370
    13
100
AcDbLine
 10
35.36527
 20
-2.969168
 30
0.0
 11
35.403231
 21
-3.026832
 31
0.0
  0
LINE
  5
1A3
330
1F
100
AcDbEntity
  8
1
370
    13
100
AcDbLine
 10
32.889955
 20
17.028477
 30
0.0
 11
32.87082
 21
17.126952
 31
0.0
  0
LINE
  5
1A4
330
1F
100
AcDbEntity
  8
1
370
    13
100
AcDbLine
 10
30.318494
 20
12.073427
 30
0.0
 11
30.240046
 21
12.057609
 31
0.0
  0
LINE
  5
1A5
330
1F
100
AcDbEntity
  8
1
370
    13
100
AcDbLine
 10
33.339701
 20
-10.525117
 30
0.0
 11
33.048771
 21
-10.226768
 31
0.0
  0
LINE
  5
1A6
330
1F
100
AcDbEntity
  8
1
370
    13
100
AcDbLine
 10
35.442123
 20
12.460342
 30
0.0
 11
35.380322
 21
12.470538
 31
0.0
  0
LINE
  5
1A7
330
1F
100
AcDbEntity
  8
1
370
    13
100
AcDbLine
 10
35.442123
 20
12.460342
 30
0.0
 11
35.547326
 21
12.470629
 31
0.0
  0
LINE
  5
1A8
330
1F
100
AcDbEntity
  8
1
370
    13
100
AcDbLine
 10
35.69282
 20
13.149104
 30
0.0
 11
35.602259
 21
13.207101
 31
0.0
  0
LINE
  5
1A9
330
1F
100
AcDbEntity
  8
1
370
    13
100
AcDbLine
 10
35.542442
 20
13.226545
 30
0.0
 11
35.602259
 21
13.207101
 31
0.0
  0
LINE
  5
1AA
330
1F
100
AcDbEntity
  8
1
370
    13
100
AcDbLine
 10
35.36425
 20
13.945617
 30
0.0
 11
35.326196
 21
13.897531
 31
0.0
  0
LINE
  5
1AB
330
1F
100
AcDbEntity
  8
1
370
    13
100
AcDbLine
 10
35.36425
 20
13.945617
 30
0.0
 11
35.40504
 21
14.042053
 31
0.0
  0
LINE
  5
1AC
330
1F
100
AcDbEntity
  8
1
370
    13
100
AcDbLine
 10
34.884998
 20
14.525759
 30
0.0
 11
34.791869
 21
14.478005
 31
0.0
  0
LINE
  5
1AD
330
1F
100
AcDbEntity
  8
1
370
    13
100
AcDbLine
 10
34.746727
 20
14.436512
 30
0.0
 11
34.791869
 21
14.478005
 31
0.0
  0
LINE
  5
1AE
330
1F
100
AcDbEntity
  8
1
370
    13
100
AcDbLine
 10
34.038486
 20
14.661612
 30
0.0
 11
34.062233
 21
14.60333
 31
0.0
  0
LINE
  5
1AF
330
1F
100
AcDbEntity
  8
1
370
    13
100
AcDbLine
 10
34.038486
 20
14.661612
 30
0.0
 11
33.974073
 21
14.747761
 31
0.0
  0
LINE
  5
1B0
330
1F
100
AcDbEntity
  8
1
370
    13
100
AcDbLine
 10
33.308537
 20
14.552992
 30
0.0
 11
33.305969
 21
14.447241
 31
0.0
  0
LINE
  5
1B1
330
1F
100
AcDbEntity
  8
1
370
    13
100
AcDbLine
 10
33.320644
 20
14.386304
 30
0.0
 11
33.305969
 21
14.447241
 31
0.0
  0
LINE
  5
1B2
330
1F
100
AcDbEntity
  8
1
370
    13
100
AcDbLine
 10
32.790595
 20
13.892332
 30
0.0
 11
32.852396
 21
13.882136
 31
0.0
  0
LINE
  5
1B3
330
1F
100
AcDbEntity
  8
1
370
    13
100
AcDbLine
 10
32.790595
 20
13.892332
 30
0.0
 11
32.685392
 21
13.882045
 31
0.0
  0
LINE
  5
1B4
330
1F
100
AcDbEntity
  8
1
370
    13
100
AcDbLine
 10
32.539898
 20
13.20357
 30
0.0
 11
32.630459
 21
13.145573
 31
0.0
  0
LINE
  5
1B5
330
1F
100
AcDbEntity
  8
1
370
    13
100
AcDbLine
 10
32.690276
 20
13.126129
 30
0.0
 11
32.630459
 21
13.145573
 31
0.0
  0
LINE
  5
1B6
330
1F
100
AcDbEntity
  8
1
370
    13
100
AcDbLine
 10
32.868468
 20
12.407057
 30
0.0
 11
32.906522
 21
12.455143
 31
0.0
  0
LINE
  5
1B7
330
1F
100
AcDbEntity
  8
1
370
    13
100
AcDbLine
 10
32.868468
 20
12.407057
 30
0.0
 11
32.827678
 21
12.310621
 31
0.0
  0
LINE
  5
1B8
330
1F
100
AcDbEntity
  8
1
370
    13
100
AcDbLine
 10
33.34772
 20
11.826914
 30
0.0
 11
33.440849
 21
11.874669
 31
0.0
  0
LINE
  5
1B9
330
1F
100
AcDbEntity
  8
1
370
    13
100
AcDbLine
 10
33.485991
 20
11.916162
 30
0.0
 11
33.440849
 21
11.874669
 31
0.0
  0
LINE
  5
1BA
330
1F
100
AcDbEntity
  8
1
370
    13
100
AcDbLine
 10
30.240046
 20
-3.661965
 30
0.0
 11
30.318494
 21
-3.589981
 31
0.0
  0
LINE
  5
1BB
330
1F
100
AcDbEntity
  8
1
370
    13
100
AcDbLine
 10
29.307156
 20
-4.260351
 30
0.0
 11
29.504172
 21
-4.388845
 31
0.0
  0
LINE
  5
1BC
330
1F
100
AcDbEntity
  8
1
370
    13
100
AcDbLine
 10
38.319706
 20
2.931795
 30
0.0
 11
38.425184
 21
3.194726
 31
0.0
  0
LINE
  5
1BD
330
1F
100
AcDbEntity
  8
1
370
    13
100
AcDbLine
 10
39.021123
 20
3.287439
 30
0.0
 11
38.584321
 21
2.890647
 31
0.0
  0
LINE
  5
1BE
330
1F
100
AcDbEntity
  8
1
370
    13
100
AcDbLine
 10
26.301813
 20
-16.529913
 30
0.0
 11
26.911456
 21
-16.388421
 31
0.0
  0
LINE
  5
1BF
330
1F
100
AcDbEntity
  8
1
370
    13
100
AcDbLine
 10
32.812539
 20
10.636343
 30
0.0
 11
32.952367
 21
10.696846
 31
0.0
  0
LINE
  5
1C0
330
1F
100
AcDbEntity
  8
1
370
    13
100
AcDbLine
 10
38.940729
 20
-2.706973
 30
0.0
 11
38.885399
 21
-2.666632
 31
0.0
  0
LINE
  5
1C1
330
1F
100
AcDbEntity
  8
1
370
    13
100
AcDbLine
 10
26.301813
 20
-16.529913
 30
0.0
 11
26.362178
 21
-16.426107
 31
0.0
  0
LINE
  5
1C2
330
1F
100
AcDbEntity
  8
1
370
    13
100
AcDbLine
 10
38.96139
 20
-3.234
 30
0.0
 11
39.021123
 21
-3.287439
 31
0.0
  0
LINE
  5
1C3
330
1F
100
AcDbEntity
  8
1
370
    13
100
AcDbLine
 10
28.11132
 20
16.259969
 30
0.0
 11
27.88548
 21
16.266972
 31
0.0
  0
LINE
  5
1C4
330
1F
100
AcDbEntity
  8
1
370
    13
100
AcDbLine
 10
32.896265
 20
-14.120129
 30
0.0
 11
32.857828
 21
-14.713245
 31
0.0
  0
LINE
  5
1C5
330
1F
100
AcDbEntity
  8
1
370
    13
100
AcDbLine
 10
32.639495
 20
-6.293865
 30
0.0
 11
32.945755
 21
-6.225621
 31
0.0
  0
LINE
  5
1C6
330
1F
100
AcDbEntity
  8
1
370
    13
100
AcDbLine
 10
32.945755
 20
-6.225621
 30
0.0
 11
33.318422
 21
-6.140825
 31
0.0
  0
LINE
  5
1C7
330
1F
100
AcDbEntity
  8
4
370
    13
100
AcDbLine
 10
-2.0
 20
0.0
 30
0.0
 11
42.0
 21
0.0
 31
0.0
  0
LINE
  5
1C8
330
1F
100
AcDbEntity
  8
1
370
    13
100
AcDbLine
 10
27.977939
 20
-13.652607
 30
0.0
 11
28.11132
 21
-13.635254
 31
0.0
  0
LINE
  5
1C9
330
1F
100
AcDbEntity
  8
1
370
    13
100
AcDbLine
 10
27.678278
 20
-16.393787
 30
0.0
 11
28.11132
 21
-16.384001
 31
0.0
  0
LINE
  5
1CA
330
1F
100
AcDbEntity
  8
1
370
    13
100
AcDbLine
 10
26.301813
 20
-0.605563
 30
0.0
 11
26.986289
 21
-3.036492
 31
0.0
  0
LINE
  5
1CB
330
1F
100
AcDbEntity
  8
1
370
    13
100
AcDbLine
 10
33.055638
 20
11.669788
 30
0.0
 11
32.857828
 21
9.021407
 31
0.0
  0
LINE
  5
1CC
330
1F
100
AcDbEntity
  8
1
370
    13
100
AcDbLine
 10
0.5
 20
-5.02137
 30
0.0
 11
0.7
 21
-4.2975
 31
0.0
  0
LINE
  5
1CD
330
1F
100
AcDbEntity
  8
1
370
    13
100
AcDbLine
 10
0.7
 20
4.2975
 30
0.0
 11
0.5
 21
5.02137
 31
0.0
  0
LINE
  5
1CE
330
1F
100
AcDbEntity
  8
1
370
    13
100
AcDbLine
 10
26.986289
 20
-3.036492
 30
0.0
 11
15.480535
 21
-2.524561
 31
0.0
  0
LINE
  5
1CF
330
1F
100
AcDbEntity
  8
SK4
370
    13
100
AcDbLine
 10
-2.0
 20
0.0
 30
0.0
 11
42.0
 21
0.0
 31
0.0
  0
LINE
  5
1D0
330
1F
100
AcDbEntity
  8
1
370
    13
100
AcDbLine
 10
30.494827
 20
8.762378
 30
0.0
 11
30.323822
 21
8.521548
 31
0.0
  0
LINE
  5
1D1
330
1F
100
AcDbEntity
  8
1
370
    13
100
AcDbLine
 10
28.895918
 20
10.627829
 30
0.0
 11
29.76715
 21
10.251959
 31
0.0
  0
LINE
  5
1D2
330
1F
100
AcDbEntity
  8
1
370
    13
100
AcDbLine
 10
0.5
 20
17.5
 30
0.0
 11
0.5
 21
5.02137
 31
0.0
  0
LINE
  5
1D3
330
1F
100
AcDbEntity
  8
1
370
    13
100
AcDbLine
 10
0.5
 20
-17.5
 30
0.0
 11
0.5
 21
-5.02137
 31
0.0
  0
LINE
  5
1D4
330
1F
100
AcDbEntity
  8
1
370
    13
100
AcDbLine
 10
0.535
 20
3.175
 30
0.0
 11
0.535
 21
-3.175
 31
0.0
  0
LINE
  5
1D5
330
1F
100
AcDbEntity
  8
1
370
    13
100
AcDbLine
 10
-0.1
 20
-2.54
 30
0.0
 11
0.535
 21
-3.175
 31
0.0
  0
LINE
  5
1D6
330
1F
100
AcDbEntity
  8
1
370
    13
100
AcDbLine
 10
0.535
 20
3.175
 30
0.0
 11
-0.1
 21
2.54
 31
0.0
  0
LINE
  5
1D7
330
1F
100
AcDbEntity
  8
1
370
    13
100
AcDbLine
 10
32.226924
 20
14.889883
 30
0.0
 11
32.183467
 21
14.844205
 31
0.0
  0
LINE
  5
1D8
330
1F
100
AcDbEntity
  8
1
370
    13
100
AcDbLine
 10
32.903772
 20
13.773562
 30
0.0
 11
33.166935
 21
14.050174
 31
0.0
  0
LINE
  5
1D9
330
1F
100
AcDbEntity
  8
1
370
    13
100
AcDbLine
 10
35.346343
 20
13.931099
 30
0.0
 11
35.095396
 21
13.667326
 31
0.0
  0
LINE
  5
1DA
330
1F
100
AcDbEntity
  8
1
370
    13
100
AcDbLine
 10
34.52616
 20
14.193578
 30
0.0
 11
34.777247
 21
14.457497
 31
0.0
  0
LINE
  5
1DB
330
1F
100
AcDbEntity
  8
1
370
    13
100
AcDbLine
 10
28.837343
 20
-16.521163
 30
0.0
 11
29.700147
 21
-17.192254
 31
0.0
  0
LINE
  5
1DC
330
1F
100
AcDbEntity
  8
1
370
    13
100
AcDbLine
 10
28.92043
 20
16.546189
 30
0.0
 11
28.083454
 21
15.666435
 31
0.0
  0
LINE
  5
1DD
330
1F
100
AcDbEntity
  8
1
370
    13
100
AcDbLine
 10
14.528261
 20
16.621491
 30
0.0
 11
10.471739
 21
17.40848
 31
0.0
  0
LINE
  5
1DE
330
1F
100
AcDbEntity
  8
1
370
    13
100
AcDbLine
 10
10.471739
 20
-17.40848
 30
0.0
 11
14.528261
 21
-16.621491
 31
0.0
  0
LINE
  5
1DF
330
1F
100
AcDbEntity
  8
1
370
    13
100
AcDbLine
 10
3.4
 20
4.2975
 30
0.0
 11
0.7
 21
4.2975
 31
0.0
  0
LINE
  5
1E0
330
1F
100
AcDbEntity
  8
1
370
    13
100
AcDbLine
 10
3.4
 20
-4.2975
 30
0.0
 11
0.7
 21
-4.2975
 31
0.0
  0
LINE
  5
1E1
330
1F
100
AcDbEntity
  8
1
370
    13
100
AcDbLine
 10
0.5
 20
-17.5
 30
0.0
 11
9.519465
 21
-17.5
 31
0.0
  0
LINE
  5
1E2
330
1F
100
AcDbEntity
  8
1
370
    13
100
AcDbLine
 10
9.519465
 20
17.5
 30
0.0
 11
0.5
 21
17.5
 31
0.0
  0
LINE
  5
1E3
330
1F
100
AcDbEntity
  8
1
370
    13
100
AcDbLine
 10
3.4
 20
3.2975
 30
0.0
 11
0.7
 21
3.2975
 31
0.0
  0
LINE
  5
1E4
330
1F
100
AcDbEntity
  8
1
370
    13
100
AcDbLine
 10
3.4
 20
-3.2975
 30
0.0
 11
0.7
 21
-3.2975
 31
0.0
  0
LINE
  5
1E5
330
1F
100
AcDbEntity
  8
1
370
    13
100
AcDbLine
 10
0.0
 20
3.9975
 30
0.0
 11
0.7
 21
3.2975
 31
0.0
  0
LINE
  5
1E6
330
1F
100
AcDbEntity
  8
1
370
    13
100
AcDbLine
 10
0.0
 20
4.947553
 30
0.0
 11
0.0
 21
4.2975
 31
0.0
  0
LINE
  5
1E7
330
1F
100
AcDbEntity
  8
1
370
    13
100
AcDbLine
 10
0.0
 20
-17.0
 30
0.0
 11
0.5
 21
-17.5
 31
0.0
  0
LINE
  5
1E8
330
1F
100
AcDbEntity
  8
1
370
    13
100
AcDbLine
 10
0.5
 20
17.5
 30
0.0
 11
0.0
 21
17.0
 31
0.0
  0
LINE
  5
1E9
330
1F
100
AcDbEntity
  8
1
370
    13
100
AcDbLine
 10
0.0
 20
-4.2975
 30
0.0
 11
0.0
 21
-4.947553
 31
0.0
  0
LINE
  5
1EA
330
1F
100
AcDbEntity
  8
1
370
    13
100
AcDbLine
 10
0.0
 20
-3.9975
 30
0.0
 11
0.7
 21
-3.2975
 31
0.0
  0
LINE
  5
1EB
330
1F
100
AcDbEntity
  8
1
370
    13
100
AcDbLine
 10
35.286827
 20
-2.432921
 30
0.0
 11
35.296572
 21
-2.488871
 31
0.0
  0
LINE
  5
1EC
330
1F
100
AcDbEntity
  8
1
370
    13
100
AcDbLine
 10
40.000037
 20
-2.256716
 30
0.0
 11
39.135157
 21
2.708825
 31
0.0
  0
LINE
  5
1ED
330
1F
100
AcDbEntity
  8
1
370
    13
100
AcDbLine
 10
28.269139
 20
14.010876
 30
0.0
 11
26.891362
 21
16.386376
 31
0.0
  0
LINE
  5
1EE
330
1F
100
AcDbEntity
  8
1
370
    13
100
AcDbLine
 10
38.449421
 20
-8.443619
 30
0.0
 11
30.003806
 21
-9.035671
 31
0.0
  0
LINE
  5
1EF
330
1F
100
AcDbEntity
  8
1
370
    13
100
AcDbLine
 10
27.715215
 20
16.157855
 30
0.0
 11
27.760677
 21
16.015748
 31
0.0
  0
LINE
  5
1F0
330
1F
100
AcDbEntity
  8
1
370
    13
100
AcDbLine
 10
26.45489
 20
16.52997
 30
0.0
 11
15.480535
 21
16.52997
 31
0.0
  0
LINE
  5
1F1
330
1F
100
AcDbEntity
  8
1
370
    13
100
AcDbLine
 10
28.356659
 20
14.0331
 30
0.0
 11
28.412052
 21
13.897599
 31
0.0
  0
LINE
  5
1F2
330
1F
100
AcDbEntity
  8
1
370
    13
100
AcDbLine
 10
26.982679
 20
16.402055
 30
0.0
 11
28.356659
 21
14.0331
 31
0.0
  0
LINE
  5
1F3
330
1F
100
AcDbEntity
  8
1
370
    13
100
AcDbLine
 10
26.891362
 20
16.386376
 30
0.0
 11
26.98267
 21
16.402069
 31
0.0
  0
LINE
  5
1F4
330
1F
100
AcDbEntity
  8
1
370
    13
100
AcDbLine
 10
30.134081
 20
-10.579014
 30
0.0
 11
28.694629
 21
-14.022958
 31
0.0
  0
LINE
  5
1F5
330
1F
100
AcDbEntity
  8
1
370
    13
100
AcDbLine
 10
34.873635
 20
-2.508908
 30
0.0
 11
34.91161
 21
-2.726936
 31
0.0
  0
LINE
  5
1F6
330
1F
100
AcDbEntity
  8
1
370
    13
100
AcDbLine
 10
27.760677
 20
1.461581
 30
0.0
 11
27.678278
 21
1.472214
 31
0.0
  0
LINE
  5
1F7
330
1F
100
AcDbEntity
  8
1
370
    13
100
AcDbLine
 10
27.504963
 20
0.939548
 30
0.0
 11
28.369842
 21
-4.025993
 31
0.0
  0
LINE
  5
1F8
330
1F
100
AcDbEntity
  8
1
370
    13
100
AcDbLine
 10
30.036709
 20
-10.503278
 30
0.0
 11
28.719017
 21
-13.57515
 31
0.0
  0
LINE
  5
1F9
330
1F
100
AcDbEntity
  8
1
370
    13
100
AcDbLine
 10
32.896265
 20
-14.120129
 30
0.0
 11
33.802823
 21
-12.006714
 31
0.0
  0
LINE
  5
1FA
330
1F
100
AcDbEntity
  8
1
370
    13
100
AcDbLine
 10
15.480535
 20
-16.52997
 30
0.0
 11
26.302401
 21
-16.52997
 31
0.0
  0
LINE
  5
1FB
330
1F
100
AcDbEntity
  8
1
370
    13
100
AcDbLine
 10
35.065783
 20
12.302499
 30
0.0
 11
34.921389
 21
12.150726
 31
0.0
  0
LINE
  5
1FC
330
1F
100
AcDbEntity
  8
1
370
    13
100
AcDbLine
 10
39.606963
 20
-0.000045
 30
0.0
 11
40.000037
 21
2.256716
 31
0.0
  0
LINE
  5
1FD
330
1F
100
AcDbEntity
  8
1
370
    13
100
AcDbLine
 10
39.135157
 20
-2.708825
 30
0.0
 11
39.160806
 21
-2.561566
 31
0.0
  0
LINE
  5
1FE
330
1F
100
AcDbEntity
  8
1
370
    13
100
AcDbLine
 10
39.106356
 20
9.590027
 30
0.0
 11
39.421555
 21
9.921337
 31
0.0
  0
LINE
  5
1FF
330
1F
100
AcDbEntity
  8
1
370
    13
100
AcDbLine
 10
26.986289
 20
-3.036492
 30
0.0
 11
28.284785
 21
-3.537759
 31
0.0
  0
LINE
  5
200
330
1F
100
AcDbEntity
  8
1
370
    13
100
AcDbLine
 10
29.548094
 20
10.346515
 30
0.0
 11
28.412052
 21
13.897599
 31
0.0
  0
LINE
  5
201
330
1F
100
AcDbEntity
  8
81
370
    13
100
AcDbLine
 10
39.0
 20
19.05
 30
0.0
 11
41.0
 21
19.05
 31
0.0
  0
LINE
  5
203
330
1F
100
AcDbEntity
  8
80
370
    13
100
AcDbLine
 10
0.0
 20
2.0
 30
0.0
 11
0.0
 21
-2.0
 31
0.0
  0
LINE
  5
204
330
1F
100
AcDbEntity
  8
SK3
370
    13
100
AcDbLine
 10
19.0
 20
6.35
 30
0.0
 11
0.0
 21
6.35
 31
0.0
  0
LINE
  5
205
330
1F
100
AcDbEntity
  8
81
370
    13
100
AcDbLine
 10
40.0
 20
18.05
 30
0.0
 11
40.0
 21
20.05
 31
0.0
  0
LINE
  5
206
330
1F
100
AcDbEntity
  8
SK3
370
    13
100
AcDbLine
 10
0.0
 20
-6.35
 30
0.0
 11
19.0
 21
-6.35
 31
0.0
  0
LINE
  5
207
330
1F
100
AcDbEntity
  8
1
370
    13
100
AcDbLine
 10
3.825623
 20
3.175
 30
0.0
 11
0.535
 21
3.175
 31
0.0
  0
LINE
  5
208
330
1F
100
AcDbEntity
  8
1
370
    13
100
AcDbLine
 10
0.535
 20
-3.175
 30
0.0
 11
3.825623
 21
-3.175
 31
0.0
  0
LINE
  5
209
330
1F
100
AcDbEntity
  8
1
370
    13
100
AcDbLine
 10
32.832751
 20
12.36521
 30
0.0
 11
32.886375
 21
12.421575
 31
0.0
  0
LINE
  5
20A
330
1F
100
AcDbEntity
  8
1
370
    13
100
AcDbLine
 10
33.455471
 20
11.895176
 30
0.0
 11
33.397015
 21
11.833733
 31
0.0
  0
LINE
  5
20B
330
1F
100
AcDbEntity
  8
80
370
    13
100
AcDbLine
 10
-2.0
 20
0.0
 30
0.0
 11
2.0
 21
0.0
 31
0.0
  0
LINE
  5
20C
330
1F
100
AcDbEntity
  8
SK3
370
    13
100
AcDbLine
 10
19.0
 20
-6.35
 30
0.0
 11
19.0
 21
6.35
 31
0.0
  0
LINE
  5
20D
330
1F
100
AcDbEntity
  8
NOCUT
370
    13
100
AcDbLine
 10
10.471739
 20
17.40848
 30
0.0
 11
14.528261
 21
16.621491
 31
0.0
  0
LINE
  5
20E
330
1F
100
AcDbEntity
  8
NOCUT
370
    13
100
AcDbLine
 10
0.001
 20
-6.949
 30
0.0
 11
0.5
 21
-6.45
 31
0.0
  0
LINE
  5
20F
330
1F
100
AcDbEntity
  8
NOCUT
370
    13
100
AcDbLine
 10
14.5
 20
-6.35275
 30
0.0
 11
15.760996
 21
-6.811715
 31
0.0
  0
LINE
  5
210
330
1F
100
AcDbEntity
  8
NOCUT
370
    13
100
AcDbLine
 10
34.1
 20
3.5
 30
0.0
 11
18.4
 21
3.5
 31
0.0
  0
LINE
  5
211
330
1F
100
AcDbEntity
  8
NOCUT
370
    13
100
AcDbLine
 10
17.9
 20
4.0
 30
0.0
 11
18.4
 21
3.5
 31
0.0
  0
LINE
  5
212
330
1F
100
AcDbEntity
  8
NOCUT
370
    13
100
AcDbLine
 10
0.5
 20
17.5
 30
0.0
 11
9.519465
 21
17.5
 31
0.0
  0
LINE
  5
213
330
1F
100
AcDbEntity
  8
NOCUT
370
    13
100
AcDbLine
 10
14.528261
 20
-16.621491
 30
0.0
 11
10.471739
 21
-17.40848
 31
0.0
  0
LINE
  5
214
330
1F
100
AcDbEntity
  8
NOCUT
370
    13
100
AcDbLine
 10
5.811573
 20
6.35275
 30
0.0
 11
4.7
 21
6.45
 31
0.0
  0
LINE
  5
215
330
1F
100
AcDbEntity
  8
NOCUT
370
    13
100
AcDbLine
 10
15.480535
 20
16.52997
 30
0.0
 11
28.11132
 21
16.52997
 31
0.0
  0
LINE
  5
216
330
1F
100
AcDbEntity
  8
NOCUT
370
    13
100
AcDbLine
 10
0.5
 20
17.5
 30
0.0
 11
0.0
 21
17.0
 31
0.0
  0
LINE
  5
217
330
1F
100
AcDbEntity
  8
NOCUT
370
    13
100
AcDbLine
 10
31.276046
 20
17.043954
 30
0.0
 11
33.852214
 21
17.903415
 31
0.0
  0
LINE
  5
218
330
1F
100
AcDbEntity
  8
NOCUT
370
    13
100
AcDbLine
 10
0.5
 20
6.45
 30
0.0
 11
0.001
 21
6.949
 31
0.0
  0
LINE
  5
219
330
1F
100
AcDbEntity
  8
NOCUT
370
    13
100
AcDbLine
 10
14.5
 20
6.35275
 30
0.0
 11
5.811573
 21
6.35275
 31
0.0
  0
LINE
  5
21A
330
1F
100
AcDbEntity
  8
NOCUT
370
    13
100
AcDbLine
 10
36.355976
 20
5.2
 30
0.0
 11
34.1
 21
3.5
 31
0.0
  0
LINE
  5
21B
330
1F
100
AcDbEntity
  8
NOCUT
370
    13
100
AcDbLine
 10
18.4
 20
-3.5
 30
0.0
 11
34.1
 21
-3.5
 31
0.0
  0
LINE
  5
21C
330
1F
100
AcDbEntity
  8
NOCUT
370
    13
100
AcDbLine
 10
17.831615
 20
4.284162
 30
0.0
 11
16.229419
 21
6.659515
 31
0.0
  0
LINE
  5
21D
330
1F
100
AcDbEntity
  8
NOCUT
370
    13
100
AcDbLine
 10
4.7
 20
6.45
 30
0.0
 11
0.5
 21
6.45
 31
0.0
  0
LINE
  5
21E
330
1F
100
AcDbEntity
  8
NOCUT
370
    13
100
AcDbLine
 10
0.0
 20
6.949
 30
0.0
 11
0.0
 21
17.0
 31
0.0
  0
LINE
  5
21F
330
1F
100
AcDbEntity
  8
NOCUT
370
    13
100
AcDbLine
 10
38.675447
 20
-6.112844
 30
0.0
 11
39.098746
 21
-10.951172
 31
0.0
  0
LINE
  5
220
330
1F
100
AcDbEntity
  8
NOCUT
370
    13
100
AcDbLine
 10
0.0
 20
-17.0
 30
0.0
 11
0.5
 21
-17.5
 31
0.0
  0
LINE
  5
221
330
1F
100
AcDbEntity
  8
NOCUT
370
    13
100
AcDbLine
 10
5.811573
 20
-6.35275
 30
0.0
 11
14.5
 21
-6.35275
 31
0.0
  0
LINE
  5
222
330
1F
100
AcDbEntity
  8
NOCUT
370
    13
100
AcDbLine
 10
17.9
 20
-4.060485
 30
0.0
 11
17.9
 21
-4.0
 31
0.0
  0
LINE
  5
223
330
1F
100
AcDbEntity
  8
NOCUT
370
    13
100
AcDbLine
 10
34.1
 20
-3.5
 30
0.0
 11
36.355976
 21
-5.2
 31
0.0
  0
LINE
  5
224
330
1F
100
AcDbEntity
  8
NOCUT
370
    13
100
AcDbLine
 10
28.11132
 20
-16.52997
 30
0.0
 11
15.480535
 21
-16.52997
 31
0.0
  0
LINE
  5
225
330
1F
100
AcDbEntity
  8
NOCUT
370
    13
100
AcDbLine
 10
0.0
 20
-17.0
 30
0.0
 11
0.0
 21
-6.949
 31
0.0
  0
LINE
  5
226
330
1F
100
AcDbEntity
  8
NOCUT
370
    13
100
AcDbLine
 10
39.011663
 20
-11.733603
 30
0.0
 11
37.65959
 21
-15.969791
 31
0.0
  0
LINE
  5
227
330
1F
100
AcDbEntity
  8
NOCUT
370
    13
100
AcDbLine
 10
9.519465
 20
-17.5
 30
0.0
 11
0.5
 21
-17.5
 31
0.0
  0
LINE
  5
228
330
1F
100
AcDbEntity
  8
NOCUT
370
    13
100
AcDbLine
 10
18.4
 20
-3.5
 30
0.0
 11
17.9
 21
-4.0
 31
0.0
  0
LINE
  5
229
330
1F
100
AcDbEntity
  8
NOCUT
370
    13
100
AcDbLine
 10
15.760996
 20
6.811715
 30
0.0
 11
14.5
 21
6.35275
 31
0.0
  0
LINE
  5
22A
330
1F
100
AcDbEntity
  8
NOCUT
370
    13
100
AcDbLine
 10
0.5
 20
-6.45
 30
0.0
 11
4.7
 21
-6.45
 31
0.0
  0
LINE
  5
22B
330
1F
100
AcDbEntity
  8
NOCUT
370
    13
100
AcDbLine
 10
37.65959
 20
15.969791
 30
0.0
 11
39.011663
 21
11.733603
 31
0.0
  0
LINE
  5
22C
330
1F
100
AcDbEntity
  8
NOCUT
370
    13
100
AcDbLine
 10
16.229419
 20
-6.659515
 30
0.0
 11
17.831615
 21
-4.284162
 31
0.0
  0
LINE
  5
22D
330
1F
100
AcDbEntity
  8
NOCUT
370
    13
100
AcDbLine
 10
36.355976
 20
-5.2
 30
0.0
 11
37.679253
 21
-5.2
 31
0.0
  0
LINE
  5
22E
330
1F
100
AcDbEntity
  8
NOCUT
370
    13
100
AcDbLine
 10
4.7
 20
-6.45
 30
0.0
 11
5.811573
 21
-6.35275
 31
0.0
  0
LINE
  5
22F
330
1F
100
AcDbEntity
  8
NOCUT
370
    13
100
AcDbLine
 10
17.9
 20
4.0
 30
0.0
 11
17.9
 21
4.060485
 31
0.0
  0
LINE
  5
230
330
1F
100
AcDbEntity
  8
NOCUT
370
    13
100
AcDbLine
 10
37.679253
 20
5.2
 30
0.0
 11
36.355976
 21
5.2
 31
0.0
  0
LINE
  5
231
330
1F
100
AcDbEntity
  8
NOCUT
370
    13
100
AcDbLine
 10
33.852214
 20
-17.903415
 30
0.0
 11
31.276046
 21
-17.043954
 31
0.0
  0
LINE
  5
232
330
1F
100
AcDbEntity
  8
NOCUT
370
    13
100
AcDbLine
 10
39.098746
 20
10.951172
 30
0.0
 11
38.675447
 21
6.112844
 31
0.0
  0
LINE
  5
233
330
1F
100
AcDbEntity
  8
1
370
    13
100
AcDbLine
 10
0.0
 20
-17.0
 30
0.0
 11
0.0
 21
-4.947553
 31
0.0
  0
LINE
  5
234
330
1F
100
AcDbEntity
  8
1
370
    13
100
AcDbLine
 10
0.0
 20
4.947553
 30
0.0
 11
0.0
 21
17.0
 31
0.0
  0
LINE
  5
235
330
1F
100
AcDbEntity
  8
1
370
    13
100
AcDbLine
 10
4.2
 20
3.024458
 30
0.0
 11
4.2
 21
-3.024458
 31
0.0
  0
LINE
  5
236
330
1F
100
AcDbEntity
  8
1
370
    13
100
AcDbLine
 10
0.0
 20
-3.9975
 30
0.0
 11
0.0
 21
-4.2975
 31
0.0
  0
LINE
  5
237
330
1F
100
AcDbEntity
  8
1
370
    13
100
AcDbLine
 10
0.7
 20
-3.2975
 30
0.0
 11
0.7
 21
-4.2975
 31
0.0
  0
LINE
  5
238
330
1F
100
AcDbEntity
  8
1
370
    13
100
AcDbLine
 10
0.0
 20
3.9975
 30
0.0
 11
0.0
 21
4.2975
 31
0.0
  0
LINE
  5
239
330
1F
100
AcDbEntity
  8
1
370
    13
100
AcDbLine
 10
0.7
 20
3.2975
 30
0.0
 11
0.7
 21
4.2975
 31
0.0
  0
LINE
  5
23A
330
1F
100
AcDbEntity
  8
1
370
    13
100
AcDbLine
 10
39.106357
 20
3.514562
 30
0.0
 11
39.106357
 21
10.052857
 31
0.0
  0
LINE
  5
23B
330
1F
100
AcDbEntity
  8
1
370
    13
100
AcDbLine
 10
39.106357
 20
-10.408833
 30
0.0
 11
39.106357
 21
-5.48601
 31
0.0
  0
LINE
  5
23C
330
1F
100
AcDbEntity
  8
1
370
    13
100
AcDbLine
 10
-0.1
 20
2.54
 30
0.0
 11
-0.1
 21
-2.54
 31
0.0
  0
LINE
  5
23D
330
1F
100
AcDbEntity
  8
1
370
    13
100
AcDbLine
 10
39.106357
 20
-5.246372
 30
0.0
 11
39.106357
 21
-3.510684
 31
0.0
  0
ARC
  5
23E
330
1F
100
AcDbEntity
  8
CUT
370
    13
100
AcDbCircle
 10
-32.109527
 20
9.20795
 30
0.0
 40
1.560039257838342
210
0.0
220
0.0
230
-1.0
100
AcDbArc
 50
280.962932
 51
315.78068
  0
ARC
  5
23F
330
1F
100
AcDbEntity
  8
CUT
370
    13
100
AcDbCircle
 10
-30.000962
 20
15.512938
 30
0.0
 40
1.495147764179885
210
0.0
220
0.0
230
-1.0
100
AcDbArc
 50
9.739214
 51
45.115587
  0
ARC
  5
240
330
1F
100
AcDbEntity
  8
CUT
370
    13
100
AcDbCircle
 10
-38.306887
 20
10.973124
 30
0.0
 40
1.532396374087085
210
0.0
220
0.0
230
-1.0
100
AcDbArc
 50
190.182826
 51
224.671976
  0
ARC
  5
241
330
1F
100
AcDbEntity
  8
CUT
370
    13
100
AcDbCircle
 10
-36.149681
 20
17.105885
 30
0.0
 40
1.72810168921667
210
0.0
220
0.0
230
-1.0
100
AcDbArc
 50
102.702082
 51
134.04153
  0
ARC
  5
242
330
1F
100
AcDbEntity
  8
1
370
    13
100
AcDbCircle
 10
-36.398595
 20
2.841838
 30
0.0
 40
9.429366071823676
210
0.0
220
0.0
230
-1.0
100
AcDbArc
 50
74.401496
 51
84.501632
  0
ARC
  5
243
330
1F
100
AcDbEntity
  8
1
370
    13
100
AcDbCircle
 10
-36.100918
 20
6.748981
 30
0.0
 40
5.51222977348922
210
0.0
220
0.0
230
-1.0
100
AcDbArc
 50
83.690177
 51
98.444035
  0
ARC
  5
244
330
1F
100
AcDbEntity
  8
1
370
    13
100
AcDbCircle
 10
-31.445474
 20
-3.452952
 30
0.0
 40
1.882792429562229
210
0.0
220
0.0
230
-1.0
100
AcDbArc
 50
193.206567
 51
222.259978
  0
ARC
  5
245
330
1F
100
AcDbEntity
  8
1
370
    13
100
AcDbCircle
 10
-33.841796
 20
-1.851752
 30
0.0
 40
4.783406819075933
210
0.0
220
0.0
230
-1.0
100
AcDbArc
 50
311.213285
 51
323.987355
  0
ARC
  5
246
330
1F
100
AcDbEntity
  8
1
370
    13
100
AcDbCircle
 10
10.352339
 20
5.130083
 30
0.0
 40
12.00887063700347
100
AcDbArc
 50
75.202786
 51
84.53713
  0
ARC
  5
247
330
1F
100
AcDbEntity
  8
1
370
    13
100
AcDbCircle
 10
11.433727
 20
16.833313
 30
0.0
 40
0.2586058408019926
100
AcDbArc
 50
76.159326
 51
127.599116
  0
ARC
  5
248
330
1F
100
AcDbEntity
  8
1
370
    13
100
AcDbCircle
 10
103.299945
 20
34.003698
 30
0.0
 40
77.54372729402331
100
AcDbArc
 50
195.042618
 51
196.545525
  0
ARC
  5
249
330
1F
100
AcDbEntity
  8
1
370
    13
100
AcDbCircle
 10
108.546265
 20
35.551655
 30
0.0
 40
83.01363986508487
100
AcDbArc
 50
196.538506
 51
197.64169
  0
ARC
  5
24A
330
1F
100
AcDbEntity
  8
1
370
    13
100
AcDbCircle
 10
-31.447764
 20
9.905938
 30
0.0
 40
13.90663018005278
210
0.0
220
0.0
230
-1.0
100
AcDbArc
 50
261.810796
 51
263.587821
  0
ARC
  5
24B
330
1F
100
AcDbEntity
  8
1
370
    13
100
AcDbCircle
 10
-31.295859
 20
11.071575
 30
0.0
 40
15.08195453728549
210
0.0
220
0.0
230
-1.0
100
AcDbArc
 50
263.508896
 51
264.812127
  0
ARC
  5
24C
330
1F
100
AcDbEntity
  8
1
370
    13
100
AcDbCircle
 10
-32.203843
 20
-11.205205
 30
0.0
 40
7.188340500773739
210
0.0
220
0.0
230
-1.0
100
AcDbArc
 50
80.290305
 51
83.730316
  0
ARC
  5
24D
330
1F
100
AcDbEntity
  8
1
370
    13
100
AcDbCircle
 10
-32.364754
 20
-11.226643
 30
0.0
 40
7.228941964806261
210
0.0
220
0.0
230
-1.0
100
AcDbArc
 50
82.481044
 51
85.621401
  0
ARC
  5
24E
330
1F
100
AcDbEntity
  8
1
370
    13
100
AcDbCircle
 10
-29.188492
 20
2.779012
 30
0.0
 40
7.109113883839932
210
0.0
220
0.0
230
-1.0
100
AcDbArc
 50
260.261523
 51
262.389628
  0
ARC
  5
24F
330
1F
100
AcDbEntity
  8
1
370
    13
100
AcDbCircle
 10
-29.878147
 20
-2.469639
 30
0.0
 40
1.815397292364373
210
0.0
220
0.0
230
-1.0
100
AcDbArc
 50
262.025751
 51
266.311056
  0
ARC
  5
250
330
1F
100
AcDbEntity
  8
1
370
    13
100
AcDbCircle
 10
-36.677128
 20
3.17774
 30
0.0
 40
6.247048945738476
210
0.0
220
0.0
230
-1.0
100
AcDbArc
 50
249.967015
 51
253.190652
  0
ARC
  5
251
330
1F
100
AcDbEntity
  8
1
370
    13
100
AcDbCircle
 10
-36.012883
 20
5.318779
 30
0.0
 40
8.48871461885136
210
0.0
220
0.0
230
-1.0
100
AcDbArc
 50
253.077933
 51
255.220134
  0
ARC
  5
252
330
1F
100
AcDbEntity
  8
1
370
    13
100
AcDbCircle
 10
-43.615962
 20
-13.529349
 30
0.0
 40
11.83658779665285
210
0.0
220
0.0
230
-1.0
100
AcDbArc
 50
69.116783
 51
70.625758
  0
ARC
  5
253
330
1F
100
AcDbEntity
  8
1
370
    13
100
AcDbCircle
 10
-40.204115
 20
-3.60834
 30
0.0
 40
1.347504002993525
210
0.0
220
0.0
230
-1.0
100
AcDbArc
 50
67.540471
 51
73.222311
  0
ARC
  5
254
330
1F
100
AcDbEntity
  8
1
370
    13
100
AcDbCircle
 10
26.36634
 20
4.971287
 30
0.0
 40
4.185050203817555
100
AcDbArc
 50
288.436163
 51
291.007237
  0
ARC
  5
255
330
1F
100
AcDbEntity
  8
1
370
    13
100
AcDbCircle
 10
26.056991
 20
6.366775
 30
0.0
 40
5.602677114617618
100
AcDbArc
 50
288.844083
 51
291.4778
  0
ARC
  5
256
330
1F
100
AcDbEntity
  8
1
370
    13
100
AcDbCircle
 10
31.444214
 20
-6.466334
 30
0.0
 40
8.312494078336094
100
AcDbArc
 50
104.758855
 51
107.504471
  0
ARC
  5
257
330
1F
100
AcDbEntity
  8
1
370
    13
100
AcDbCircle
 10
30.628326
 20
-3.913198
 30
0.0
 40
5.632191293456557
100
AcDbArc
 50
107.400973
 51
110.153013
  0
ARC
  5
258
330
1F
100
AcDbEntity
  8
1
370
    13
100
AcDbCircle
 10
-32.259535
 20
-18.722138
 30
0.0
 40
15.4091109734638
210
0.0
220
0.0
230
-1.0
100
AcDbArc
 50
79.858151
 51
81.150448
  0
ARC
  5
259
330
1F
100
AcDbEntity
  8
1
370
    13
100
AcDbCircle
 10
-34.563346
 20
-33.594112
 30
0.0
 40
30.45846617467769
210
0.0
220
0.0
230
-1.0
100
AcDbArc
 50
81.172129
 51
81.76605
  0
ARC
  5
25A
330
1F
100
AcDbEntity
  8
1
370
    13
100
AcDbCircle
 10
37.685479
 20
0.550975
 30
0.0
 40
2.419499318742274
100
AcDbArc
 50
94.157957
 51
98.518997
  0
ARC
  5
25B
330
1F
100
AcDbEntity
  8
1
370
    13
100
AcDbCircle
 10
38.448888
 20
-4.935462
 30
0.0
 40
7.95870258434217
100
AcDbArc
 50
98.103173
 51
99.655744
  0
ARC
  5
25C
330
1F
100
AcDbEntity
  8
1
370
    13
100
AcDbCircle
 10
34.8409
 20
12.896672
 30
0.0
 40
10.23051641163946
100
AcDbArc
 50
274.772931
 51
277.556077
  0
ARC
  5
25D
330
1F
100
AcDbEntity
  8
1
370
    13
100
AcDbCircle
 10
35.690984
 20
7.302239
 30
0.0
 40
4.574131815968142
100
AcDbArc
 50
276.214989
 51
280.3594
  0
ARC
  5
25E
330
1F
100
AcDbEntity
  8
1
370
    13
100
AcDbCircle
 10
36.266438
 20
-12.95596
 30
0.0
 40
15.65202980943849
100
AcDbArc
 50
95.20901
 51
96.807932
  0
ARC
  5
25F
330
1F
100
AcDbEntity
  8
1
370
    13
100
AcDbCircle
 10
35.945464
 20
-10.383868
 30
0.0
 40
13.0600315768966
100
AcDbArc
 50
96.747339
 51
98.228297
  0
ARC
  5
260
330
1F
100
AcDbEntity
  8
1
370
    13
100
AcDbCircle
 10
-40.050193
 20
-21.737042
 30
0.0
 40
19.9209210896929
210
0.0
220
0.0
230
-1.0
100
AcDbArc
 50
75.168743
 51
76.411533
  0
ARC
  5
261
330
1F
100
AcDbEntity
  8
1
370
    13
100
AcDbCircle
 10
-39.819682
 20
-20.857437
 30
0.0
 40
19.01178800298191
210
0.0
220
0.0
230
-1.0
100
AcDbArc
 50
76.463968
 51
77.496786
  0
ARC
  5
262
330
1F
100
AcDbEntity
  8
1
370
    13
100
AcDbCircle
 10
15.496413
 20
21.426797
 30
0.0
 40
4.928464720258468
100
AcDbArc
 50
258.671088
 51
264.906284
  0
ARC
  5
263
330
1F
100
AcDbEntity
  8
1
370
    13
100
AcDbCircle
 10
15.494597
 20
21.407141
 30
0.0
 40
4.908724568902556
100
AcDbArc
 50
264.907024
 51
269.835861
  0
ARC
  5
264
330
1F
100
AcDbEntity
  8
1
370
    13
100
AcDbCircle
 10
29.29529
 20
-5.673748
 30
0.0
 40
0.655625643889095
100
AcDbArc
 50
252.17186
 51
283.093624
  0
ARC
  5
265
330
1F
100
AcDbEntity
  8
1
370
    13
100
AcDbCircle
 10
-30.899383
 20
-2.898404
 30
0.0
 40
2.660237002617925
210
0.0
220
0.0
230
-1.0
100
AcDbArc
 50
223.189973
 51
253.695311
  0
ARC
  5
266
330
1F
100
AcDbEntity
  8
1
370
    13
100
AcDbCircle
 10
-31.170757
 20
-3.851791
 30
0.0
 40
1.669021512084976
210
0.0
220
0.0
230
-1.0
100
AcDbArc
 50
253.44817
 51
286.734541
  0
ARC
  5
267
330
1F
100
AcDbEntity
  8
1
370
    13
100
AcDbCircle
 10
29.044989
 20
-22.913859
 30
0.0
 40
8.897801644913006
100
AcDbArc
 50
75.478544
 51
92.256666
  0
ARC
  5
268
330
1F
100
AcDbEntity
  8
1
370
    13
100
AcDbCircle
 10
-28.228707
 20
-26.888358
 30
0.0
 40
10.53204744886133
210
0.0
220
0.0
230
-1.0
100
AcDbArc
 50
95.324542
 51
106.818426
  0
ARC
  5
269
330
1F
100
AcDbEntity
  8
1
370
    13
100
AcDbCircle
 10
38.146135
 20
37.201175
 30
0.0
 40
33.6238936790607
100
AcDbArc
 50
217.008316
 51
218.95937
  0
ARC
  5
26A
330
1F
100
AcDbEntity
  8
1
370
    13
100
AcDbCircle
 10
24.842152
 20
26.594933
 30
0.0
 40
16.61036240219391
100
AcDbArc
 50
219.365729
 51
226.708392
  0
ARC
  5
26B
330
1F
100
AcDbEntity
  8
1
370
    13
100
AcDbCircle
 10
21.465058
 20
22.228777
 30
0.0
 40
11.09333479980499
100
AcDbArc
 50
231.624981
 51
235.062206
  0
ARC
  5
26C
330
1F
100
AcDbEntity
  8
1
370
    13
100
AcDbCircle
 10
21.241293
 20
21.908242
 30
0.0
 40
10.70242099393588
100
AcDbArc
 50
235.061515
 51
237.830185
  0
ARC
  5
26D
330
1F
100
AcDbEntity
  8
1
370
    13
100
AcDbCircle
 10
32.029373
 20
-4.760476
 30
0.0
 40
1.589076905055781
100
AcDbArc
 50
223.64446
 51
261.363982
  0
ARC
  5
26E
330
1F
100
AcDbEntity
  8
1
370
    13
100
AcDbCircle
 10
-26.186557
 20
-14.336473
 30
0.0
 40
2.196466537413345
210
0.0
220
0.0
230
-1.0
100
AcDbArc
 50
266.992116
 51
278.243551
  0
ARC
  5
26F
330
1F
100
AcDbEntity
  8
1
370
    13
100
AcDbCircle
 10
-27.0392
 20
-23.395605
 30
0.0
 40
7.013065111428828
210
0.0
220
0.0
230
-1.0
100
AcDbArc
 50
81.198532
 51
89.835923
  0
ARC
  5
270
330
1F
100
AcDbEntity
  8
1
370
    13
100
AcDbCircle
 10
34.422618
 20
-11.569106
 30
0.0
 40
2.820563579269043
100
AcDbArc
 50
258.332579
 51
297.25261
  0
ARC
  5
271
330
1F
100
AcDbEntity
  8
1
370
    13
100
AcDbCircle
 10
34.045699
 20
-10.819158
 30
0.0
 40
3.659871047658705
100
AcDbArc
 50
297.122163
 51
330.316965
  0
ARC
  5
272
330
1F
100
AcDbEntity
  8
1
370
    13
100
AcDbCircle
 10
-30.132385
 20
-8.365848
 30
0.0
 40
0.6820530505443804
210
0.0
220
0.0
230
-1.0
100
AcDbArc
 50
280.866346
 51
312.632354
  0
ARC
  5
273
330
1F
100
AcDbEntity
  8
1
370
    13
100
AcDbCircle
 10
-30.904139
 20
-7.425233
 30
0.0
 40
1.898044328595834
210
0.0
220
0.0
230
-1.0
100
AcDbArc
 50
310.540551
 51
339.751309
  0
ARC
  5
274
330
1F
100
AcDbEntity
  8
1
370
    13
100
AcDbCircle
 10
-31.435565
 20
-7.199493
 30
0.0
 40
2.474912622865962
210
0.0
220
0.0
230
-1.0
100
AcDbArc
 50
339.106205
 51
10.695639
  0
ARC
  5
275
330
1F
100
AcDbEntity
  8
1
370
    13
100
AcDbCircle
 10
-34.637359
 20
-14.584314
 30
0.0
 40
3.140570792401253
210
0.0
220
0.0
230
-1.0
100
AcDbArc
 50
214.572165
 51
245.461915
  0
ARC
  5
276
330
1F
100
AcDbEntity
  8
1
370
    13
100
AcDbCircle
 10
-34.720603
 20
-14.814815
 30
0.0
 40
2.895245131480846
210
0.0
220
0.0
230
-1.0
100
AcDbArc
 50
248.458328
 51
278.267825
  0
ARC
  5
277
330
1F
100
AcDbEntity
  8
1
370
    13
100
AcDbCircle
 10
24.783017
 20
27.567156
 30
0.0
 40
17.37827193313954
100
AcDbArc
 50
237.879645
 51
253.002061
  0
ARC
  5
278
330
1F
100
AcDbEntity
  8
1
370
    13
100
AcDbCircle
 10
24.849955
 20
27.76324
 30
0.0
 40
17.58535955334905
100
AcDbArc
 50
252.98026
 51
267.429474
  0
ARC
  5
279
330
1F
100
AcDbEntity
  8
1
370
    13
100
AcDbCircle
 10
24.855
 20
27.94908
 30
0.0
 40
17.77123859031354
100
AcDbArc
 50
267.440096
 51
280.130507
  0
ARC
  5
27A
330
1F
100
AcDbEntity
  8
1
370
    13
100
AcDbCircle
 10
-24.853952
 20
27.901747
 30
0.0
 40
17.75874066711613
210
0.0
220
0.0
230
-1.0
100
AcDbArc
 50
259.790762
 51
276.076443
  0
ARC
  5
27B
330
1F
100
AcDbEntity
  8
1
370
    13
100
AcDbCircle
 10
-24.851215
 20
27.729352
 30
0.0
 40
17.5870318301325
210
0.0
220
0.0
230
-1.0
100
AcDbArc
 50
276.127029
 51
290.543309
  0
ARC
  5
27C
330
1F
100
AcDbEntity
  8
1
370
    13
100
AcDbCircle
 10
-24.766853
 20
27.519963
 30
0.0
 40
17.36135476164668
210
0.0
220
0.0
230
-1.0
100
AcDbArc
 50
290.525094
 51
302.336073
  0
ARC
  5
27D
330
1F
100
AcDbEntity
  8
1
370
    13
100
AcDbCircle
 10
-27.101258
 20
0.347681
 30
0.0
 40
1.244101046569346
210
0.0
220
0.0
230
-1.0
100
AcDbArc
 50
309.985107
 51
351.253473
  0
ARC
  5
27E
330
1F
100
AcDbEntity
  8
1
370
    13
100
AcDbCircle
 10
-27.037914
 20
0.326552
 30
0.0
 40
1.178334330604634
210
0.0
220
0.0
230
-1.0
100
AcDbArc
 50
351.800571
 51
35.430637
  0
ARC
  5
27F
330
1F
100
AcDbEntity
  8
1
370
    13
100
AcDbCircle
 10
-27.153336
 20
0.241171
 30
0.0
 40
1.32188168157374
210
0.0
220
0.0
230
-1.0
100
AcDbArc
 50
35.54582
 51
74.442603
  0
ARC
  5
280
330
1F
100
AcDbEntity
  8
1
370
    13
100
AcDbCircle
 10
-27.176042
 20
0.197302
 30
0.0
 40
1.370270952074524
210
0.0
220
0.0
230
-1.0
100
AcDbArc
 50
74.019951
 51
111.501331
  0
ARC
  5
281
330
1F
100
AcDbEntity
  8
1
370
    13
100
AcDbCircle
 10
27.636779
 20
0.217197
 30
0.0
 40
15.37540506358881
100
AcDbArc
 50
45.247354
 51
47.511266
  0
ARC
  5
282
330
1F
100
AcDbEntity
  8
1
370
    13
100
AcDbCircle
 10
23.800119
 20
-3.967536
 30
0.0
 40
21.0527234610858
100
AcDbArc
 50
47.504096
 51
48.827973
  0
ARC
  5
283
330
1F
100
AcDbEntity
  8
1
370
    13
100
AcDbCircle
 10
22.440883
 20
-0.83895
 30
0.0
 40
20.0008590781611
100
AcDbArc
 50
34.054696
 51
35.574204
  0
ARC
  5
284
330
1F
100
AcDbEntity
  8
1
370
    13
100
AcDbCircle
 10
18.379766
 20
-3.740905
 30
0.0
 40
24.99225327305168
100
AcDbArc
 50
35.569067
 51
36.531458
  0
ARC
  5
285
330
1F
100
AcDbEntity
  8
1
370
    13
100
AcDbCircle
 10
36.68174
 20
10.532987
 30
0.0
 40
1.664212169998031
100
AcDbArc
 50
54.014844
 51
87.734183
  0
ARC
  5
286
330
1F
100
AcDbEntity
  8
1
370
    13
100
AcDbCircle
 10
36.102902
 20
5.383634
 30
0.0
 40
6.842696213539901
100
AcDbArc
 50
84.594291
 51
99.617631
  0
ARC
  5
287
330
1F
100
AcDbEntity
  8
1
370
    13
100
AcDbCircle
 10
66.171058
 20
-145.577382
 30
0.0
 40
151.6361679943045
100
AcDbArc
 50
101.005454
 51
101.255309
  0
ARC
  5
288
330
1F
100
AcDbEntity
  8
1
370
    13
100
AcDbCircle
 10
-32.308904
 20
24.876903
 30
0.0
 40
22.14913739387901
210
0.0
220
0.0
230
-1.0
100
AcDbArc
 50
258.896232
 51
260.560145
  0
ARC
  5
289
330
1F
100
AcDbEntity
  8
1
370
    13
100
AcDbCircle
 10
-32.217087
 20
21.131282
 30
0.0
 40
18.47960085373501
210
0.0
220
0.0
230
-1.0
100
AcDbArc
 50
258.872015
 51
261.447164
  0
ARC
  5
28A
330
1F
100
AcDbEntity
  8
1
370
    13
100
AcDbCircle
 10
-31.157122
 20
28.327354
 30
0.0
 40
25.75329488880303
210
0.0
220
0.0
230
-1.0
100
AcDbArc
 50
261.496181
 51
262.980708
  0
ARC
  5
28B
330
1F
100
AcDbEntity
  8
1
370
    13
100
AcDbCircle
 10
-2.74705
 20
-2.990852
 30
0.0
 40
1.453338592361478
210
0.0
220
0.0
230
-1.0
100
AcDbArc
 50
181.32497
 51
212.624209
  0
ARC
  5
28C
330
1F
100
AcDbEntity
  8
1
370
    13
100
AcDbCircle
 10
-2.565601
 20
-2.95269
 30
0.0
 40
1.628059469368188
210
0.0
220
0.0
230
-1.0
100
AcDbArc
 50
210.312037
 51
231.286234
  0
ARC
  5
28D
330
1F
100
AcDbEntity
  8
1
370
    13
100
AcDbCircle
 10
-3.280995
 20
3.740178
 30
0.0
 40
0.5698861254586487
210
0.0
220
0.0
230
-1.0
100
AcDbArc
 50
102.053389
 51
142.34408
  0
ARC
  5
28E
330
1F
100
AcDbEntity
  8
1
370
    13
100
AcDbCircle
 10
-2.413219
 20
2.836637
 30
0.0
 40
1.818343032734073
210
0.0
220
0.0
230
-1.0
100
AcDbArc
 50
136.498717
 51
161.439478
  0
ARC
  5
28F
330
1F
100
AcDbEntity
  8
1
370
    13
100
AcDbCircle
 10
-11.424467
 20
15.135947
 30
0.0
 40
2.000777142221629
210
0.0
220
0.0
230
-1.0
100
AcDbArc
 50
86.188919
 51
99.364132
  0
ARC
  5
290
330
1F
100
AcDbEntity
  8
1
370
    13
100
AcDbCircle
 10
-8.101102
 20
-8.498319
 30
0.0
 40
25.86703889381725
210
0.0
220
0.0
230
-1.0
100
AcDbArc
 50
98.109421
 51
101.917341
  0
ARC
  5
291
330
1F
100
AcDbEntity
  8
1
370
    13
100
AcDbCircle
 10
-25.194681
 20
26.960139
 30
0.0
 40
17.14139410192598
210
0.0
220
0.0
230
-1.0
100
AcDbArc
 50
308.481429
 51
316.558582
  0
ARC
  5
292
330
1F
100
AcDbEntity
  8
1
370
    13
100
AcDbCircle
 10
-25.262299
 20
26.9784
 30
0.0
 40
17.20307893544589
210
0.0
220
0.0
230
-1.0
100
AcDbArc
 50
316.669277
 51
322.691207
  0
ARC
  5
293
330
1F
100
AcDbEntity
  8
1
370
    13
100
AcDbCircle
 10
-12.959932
 20
-4.041625
 30
0.0
 40
1.709409831908317
210
0.0
220
0.0
230
-1.0
100
AcDbArc
 50
350.938469
 51
18.663615
  0
ARC
  5
294
330
1F
100
AcDbEntity
  8
1
370
    13
100
AcDbCircle
 10
-12.826204
 20
-4.014439
 30
0.0
 40
1.574106510307963
210
0.0
220
0.0
230
-1.0
100
AcDbArc
 50
19.28382
 51
49.968616
  0
ARC
  5
295
330
1F
100
AcDbEntity
  8
1
370
    13
100
AcDbCircle
 10
-13.055819
 20
-4.330004
 30
0.0
 40
1.963610046936285
210
0.0
220
0.0
230
-1.0
100
AcDbArc
 50
50.761119
 51
83.410921
  0
ARC
  5
296
330
1F
100
AcDbEntity
  8
1
370
    13
100
AcDbCircle
 10
-18.425555
 20
-5.355157
 30
0.0
 40
6.635271116743079
210
0.0
220
0.0
230
-1.0
100
AcDbArc
 50
305.969908
 51
328.381217
  0
ARC
  5
297
330
1F
100
AcDbEntity
  8
1
370
    13
100
AcDbCircle
 10
-21.262189
 20
-3.698877
 30
0.0
 40
9.919448262229313
210
0.0
220
0.0
230
-1.0
100
AcDbArc
 50
328.824444
 51
346.347218
  0
ARC
  5
298
330
1F
100
AcDbEntity
  8
1
370
    13
100
AcDbCircle
 10
-24.846864
 20
11.039245
 30
0.0
 40
24.88957947226819
210
0.0
220
0.0
230
-1.0
100
AcDbArc
 50
262.773124
 51
274.366231
  0
ARC
  5
299
330
1F
100
AcDbEntity
  8
1
370
    13
100
AcDbCircle
 10
-24.196728
 20
4.996507
 30
0.0
 40
18.81582433002139
210
0.0
220
0.0
230
-1.0
100
AcDbArc
 50
273.793113
 51
287.085114
  0
ARC
  5
29A
330
1F
100
AcDbEntity
  8
1
370
    13
100
AcDbCircle
 10
-21.845221
 20
-2.535247
 30
0.0
 40
10.92565267239357
210
0.0
220
0.0
230
-1.0
100
AcDbArc
 50
286.901756
 51
305.629754
  0
ARC
  5
29B
330
1F
100
AcDbEntity
  8
1
370
    13
100
AcDbCircle
 10
-21.869582
 20
44.949197
 30
0.0
 40
35.06529561854266
210
0.0
220
0.0
230
-1.0
100
AcDbArc
 50
258.500632
 51
259.199574
  0
ARC
  5
29C
330
1F
100
AcDbEntity
  8
1
370
    13
100
AcDbCircle
 10
-21.800472
 20
45.311851
 30
0.0
 40
35.43447556250521
210
0.0
220
0.0
230
-1.0
100
AcDbArc
 50
259.19969
 51
259.740944
  0
ARC
  5
29D
330
1F
100
AcDbEntity
  8
1
370
    13
100
AcDbCircle
 10
28.62696
 20
-6.822796
 30
0.0
 40
1.8146929189709
100
AcDbArc
 50
104.079009
 51
130.495459
  0
ARC
  5
29E
330
1F
100
AcDbEntity
  8
1
370
    13
100
AcDbCircle
 10
27.61579
 20
-5.664762
 30
0.0
 40
0.2779326457117016
100
AcDbArc
 50
127.001321
 51
237.654346
  0
ARC
  5
29F
330
1F
100
AcDbEntity
  8
1
370
    13
100
AcDbCircle
 10
28.464696
 20
-4.46557
 30
0.0
 40
1.746875949248126
100
AcDbArc
 50
235.17438
 51
264.022674
  0
ARC
  5
2A0
330
1F
100
AcDbEntity
  8
1
370
    13
100
AcDbCircle
 10
-21.401868
 20
22.008233
 30
0.0
 40
10.9049824634984
210
0.0
220
0.0
230
-1.0
100
AcDbArc
 50
302.887642
 51
306.334508
  0
ARC
  5
2A1
330
1F
100
AcDbEntity
  8
1
370
    13
100
AcDbCircle
 10
-21.620052
 20
22.307125
 30
0.0
 40
11.27503582639181
210
0.0
220
0.0
230
-1.0
100
AcDbArc
 50
306.327749
 51
308.975037
  0
ARC
  5
2A2
330
1F
100
AcDbEntity
  8
1
370
    13
100
AcDbCircle
 10
36.151474
 20
17.109205
 30
0.0
 40
1.724469015860797
100
AcDbArc
 50
45.92461
 51
77.331778
  0
ARC
  5
2A3
330
1F
100
AcDbEntity
  8
1
370
    13
100
AcDbCircle
 10
36.158258
 20
17.118545
 30
0.0
 40
1.616169745032509
100
AcDbArc
 50
45.919427
 51
77.336961
  0
ARC
  5
2A4
330
1F
100
AcDbEntity
  8
1
370
    13
100
AcDbCircle
 10
38.300229
 20
10.976579
 30
0.0
 40
1.539561430049425
100
AcDbArc
 50
315.410776
 51
349.734422
  0
ARC
  5
2A5
330
1F
100
AcDbEntity
  8
1
370
    13
100
AcDbCircle
 10
38.298286
 20
10.979359
 30
0.0
 40
1.44289972696037
100
AcDbArc
 50
315.405391
 51
349.739807
  0
ARC
  5
2A6
330
1F
100
AcDbEntity
  8
1
370
    13
100
AcDbCircle
 10
30.002225
 20
15.510511
 30
0.0
 40
1.397762608396248
100
AcDbArc
 50
134.83292
 51
170.312278
  0
ARC
  5
2A7
330
1F
100
AcDbEntity
  8
1
370
    13
100
AcDbCircle
 10
29.997462
 20
15.514754
 30
0.0
 40
1.491391936531179
100
AcDbArc
 50
134.838391
 51
170.306807
  0
ARC
  5
2A8
330
1F
100
AcDbEntity
  8
1
370
    13
100
AcDbCircle
 10
-38.262067
 20
-10.904084
 30
0.0
 40
1.578280986542493
210
0.0
220
0.0
230
-1.0
100
AcDbArc
 50
135.960981
 51
169.747172
  0
ARC
  5
2A9
330
1F
100
AcDbEntity
  8
1
370
    13
100
AcDbCircle
 10
35.402841
 20
-16.569532
 30
0.0
 40
1.553693532770572
100
AcDbArc
 50
280.731563
 51
315.631716
  0
ARC
  5
2AA
330
1F
100
AcDbEntity
  8
1
370
    13
100
AcDbCircle
 10
-36.175077
 20
-17.099121
 30
0.0
 40
1.686053054249674
210
0.0
220
0.0
230
-1.0
100
AcDbArc
 50
225.776848
 51
257.859873
  0
ARC
  5
2AB
330
1F
100
AcDbEntity
  8
1
370
    13
100
AcDbCircle
 10
35.404023
 20
-16.568149
 30
0.0
 40
1.456164654986196
100
AcDbArc
 50
280.726331
 51
315.636949
  0
ARC
  5
2AC
330
1F
100
AcDbEntity
  8
1
370
    13
100
AcDbCircle
 10
43.615962
 20
13.529349
 30
0.0
 40
11.83658779643638
100
AcDbArc
 50
249.116783
 51
250.625758
  0
ARC
  5
2AD
330
1F
100
AcDbEntity
  8
1
370
    13
100
AcDbCircle
 10
40.204115
 20
3.60834
 30
0.0
 40
1.34750400302086
100
AcDbArc
 50
247.540471
 51
253.222311
  0
ARC
  5
2AE
330
1F
100
AcDbEntity
  8
1
370
    13
100
AcDbCircle
 10
34.253363
 20
14.672637
 30
0.0
 40
0.556729825175847
100
AcDbArc
 50
217.051022
 51
295.555861
  0
ARC
  5
2AF
330
1F
100
AcDbEntity
  8
1
370
    13
100
AcDbCircle
 10
35.588934
 20
13.427331
 30
0.0
 40
0.5548240531859129
100
AcDbArc
 50
158.420098
 51
237.306144
  0
ARC
  5
2B0
330
1F
100
AcDbEntity
  8
1
370
    13
100
AcDbCircle
 10
34.58215
 20
13.684611
 30
0.0
 40
0.5877494358791215
100
AcDbArc
 50
9.902776
 51
84.243646
  0
ARC
  5
2B1
330
1F
100
AcDbEntity
  8
1
370
    13
100
AcDbCircle
 10
32.70118
 20
0.489138
 30
0.0
 40
3.584436300588309
100
AcDbArc
 50
264.751504
 51
280.602693
  0
ARC
  5
2B2
330
1F
100
AcDbEntity
  8
1
370
    13
100
AcDbCircle
 10
31.052173
 20
14.835814
 30
0.0
 40
18.01841210904257
100
AcDbArc
 50
277.361019
 51
282.572078
  0
ARC
  5
2B3
330
1F
100
AcDbEntity
  8
1
370
    13
100
AcDbCircle
 10
34.498085
 20
0.320219
 30
0.0
 40
3.107479786127077
100
AcDbArc
 50
278.813295
 51
296.341752
  0
ARC
  5
2B4
330
1F
100
AcDbEntity
  8
1
370
    13
100
AcDbCircle
 10
31.76328
 20
-2.053032
 30
0.0
 40
1.276026323457316
100
AcDbArc
 50
248.385627
 51
284.328609
  0
ARC
  5
2B5
330
1F
100
AcDbEntity
  8
1
370
    13
100
AcDbCircle
 10
30.314621
 20
17.979601
 30
0.0
 40
21.34202827799882
100
AcDbArc
 50
274.742344
 51
279.817008
  0
ARC
  5
2B6
330
1F
100
AcDbEntity
  8
1
370
    13
100
AcDbCircle
 10
29.831069
 20
22.113499
 30
0.0
 40
25.49886390174668
100
AcDbArc
 50
279.303863
 51
283.803505
  0
ARC
  5
2B7
330
1F
100
AcDbEntity
  8
1
370
    13
100
AcDbCircle
 10
35.301029
 20
0.725607
 30
0.0
 40
3.429940518130421
100
AcDbArc
 50
280.310299
 51
298.076579
  0
ARC
  5
2B8
330
1F
100
AcDbEntity
  8
1
370
    13
100
AcDbCircle
 10
36.630171
 20
-2.416012
 30
0.0
 40
0.3075973266125948
100
AcDbArc
 50
22.017782
 51
133.052536
  0
ARC
  5
2B9
330
1F
100
AcDbEntity
  8
1
370
    13
100
AcDbCircle
 10
33.969651
 20
13.230892
 30
0.0
 40
2.406106812971388
100
AcDbArc
 50
106.209334
 51
136.410093
  0
ARC
  5
2BA
330
1F
100
AcDbEntity
  8
1
370
    13
100
AcDbCircle
 10
33.994186
 20
13.218078
 30
0.0
 40
2.432724176624625
100
AcDbArc
 50
136.589927
 51
183.033132
  0
ARC
  5
2BB
330
1F
100
AcDbEntity
  8
1
370
    13
100
AcDbCircle
 10
34.15538
 20
13.225728
 30
0.0
 40
2.594096828562618
100
AcDbArc
 50
183.013471
 51
227.458341
  0
ARC
  5
2BC
330
1F
100
AcDbEntity
  8
1
370
    13
100
AcDbCircle
 10
34.069779
 20
13.058557
 30
0.0
 40
2.516768177359276
100
AcDbArc
 50
340.951146
 51
26.326368
  0
ARC
  5
2BD
330
1F
100
AcDbEntity
  8
1
370
    13
100
AcDbCircle
 10
33.967585
 20
13.019694
 30
0.0
 40
2.62561966371615
100
AcDbArc
 50
26.097489
 51
70.176523
  0
ARC
  5
2BE
330
1F
100
AcDbEntity
  8
1
370
    13
100
AcDbCircle
 10
33.998902
 20
13.125692
 30
0.0
 40
2.515290277794766
100
AcDbArc
 50
70.028796
 51
106.180208
  0
ARC
  5
2BF
330
1F
100
AcDbEntity
  8
1
370
    13
100
AcDbCircle
 10
34.069169
 20
13.232153
 30
0.0
 40
1.727356481829166
100
AcDbArc
 50
136.68987
 51
191.795195
  0
ARC
  5
2C0
330
1F
100
AcDbEntity
  8
1
370
    13
100
AcDbCircle
 10
34.187359
 20
13.250816
 30
0.0
 40
1.846874707608039
100
AcDbArc
 50
191.612428
 51
236.213817
  0
ARC
  5
2C1
330
1F
100
AcDbEntity
  8
1
370
    13
100
AcDbCircle
 10
34.1319
 20
13.126173
 30
0.0
 40
1.758330698646325
100
AcDbArc
 50
329.740639
 51
24.17137
  0
ARC
  5
2C2
330
1F
100
AcDbEntity
  8
1
370
    13
100
AcDbCircle
 10
34.042777
 20
13.098461
 30
0.0
 40
1.851020861850931
100
AcDbArc
 50
23.824359
 51
76.352946
  0
ARC
  5
2C3
330
1F
100
AcDbEntity
  8
1
370
    13
100
AcDbCircle
 10
34.06182
 20
13.188123
 30
0.0
 40
1.759398936831112
100
AcDbArc
 50
76.266647
 51
106.290194
  0
ARC
  5
2C4
330
1F
100
AcDbEntity
  8
1
370
    13
100
AcDbCircle
 10
33.950729
 20
13.1724
 30
0.0
 40
2.432724176624264
100
AcDbArc
 50
136.589927
 51
183.033132
  0
ARC
  5
2C5
330
1F
100
AcDbEntity
  8
1
370
    13
100
AcDbCircle
 10
34.111922
 20
13.180049
 30
0.0
 40
2.594096828562586
100
AcDbArc
 50
183.013471
 51
227.458341
  0
ARC
  5
2C6
330
1F
100
AcDbEntity
  8
1
370
    13
100
AcDbCircle
 10
33.549718
 20
12.580735
 30
0.0
 40
1.802730587392979
100
AcDbArc
 50
207.850852
 51
245.005844
  0
ARC
  5
2C7
330
1F
100
AcDbEntity
  8
1
370
    13
100
AcDbCircle
 10
33.881808
 20
12.932416
 30
0.0
 40
2.329349132731732
100
AcDbArc
 50
186.337598
 51
233.208719
  0
ARC
  5
2C8
330
1F
100
AcDbEntity
  8
1
370
    13
100
AcDbCircle
 10
34.113224
 20
13.092904
 30
0.0
 40
2.826300499906662
100
AcDbArc
 50
341.777371
 51
24.593719
  0
ARC
  5
2C9
330
1F
100
AcDbEntity
  8
1
370
    13
100
AcDbCircle
 10
33.995459
 20
13.049451
 30
0.0
 40
2.951482792592334
100
AcDbArc
 50
24.409294
 51
65.977804
  0
ARC
  5
2CA
330
1F
100
AcDbEntity
  8
1
370
    13
100
AcDbCircle
 10
34.031972
 20
13.153802
 30
0.0
 40
2.84132016399547
100
AcDbArc
 50
65.793711
 51
106.103828
  0
ARC
  5
2CB
330
1F
100
AcDbEntity
  8
1
370
    13
100
AcDbCircle
 10
33.99707
 20
13.290367
 30
0.0
 40
2.700436107230638
100
AcDbArc
 50
106.196056
 51
150.365443
  0
ARC
  5
2CC
330
1F
100
AcDbEntity
  8
1
370
    13
100
AcDbCircle
 10
34.070938
 20
13.261823
 30
0.0
 40
2.778780832639216
100
AcDbArc
 50
150.607003
 51
193.921941
  0
ARC
  5
2CD
330
1F
100
AcDbEntity
  8
1
370
    13
100
AcDbCircle
 10
34.22887
 20
13.295118
 30
0.0
 40
2.940089431272995
100
AcDbArc
 50
193.811221
 51
235.489563
  0
ARC
  5
2CE
330
1F
100
AcDbEntity
  8
1
370
    13
100
AcDbCircle
 10
32.413989
 20
4.031978
 30
0.0
 40
5.119864395213572
100
AcDbArc
 50
99.382923
 51
111.463917
  0
ARC
  5
2CF
330
1F
100
AcDbEntity
  8
1
370
    13
100
AcDbCircle
 10
32.178859
 20
-11.49556
 30
0.0
 40
1.935605577956258
100
AcDbArc
 50
52.294434
 51
104.389421
  0
ARC
  5
2D0
330
1F
100
AcDbEntity
  8
1
370
    13
100
AcDbCircle
 10
32.201231
 20
-11.594526
 30
0.0
 40
2.037028602895536
100
AcDbArc
 50
104.307196
 51
154.598526
  0
ARC
  5
2D1
330
1F
100
AcDbEntity
  8
1
370
    13
100
AcDbCircle
 10
32.156315
 20
-11.58439
 30
0.0
 40
1.992132009546271
100
AcDbArc
 50
154.307702
 51
205.378035
  0
ARC
  5
2D2
330
1F
100
AcDbEntity
  8
1
370
    13
100
AcDbCircle
 10
32.079558
 20
-11.613565
 30
0.0
 40
1.910290064334659
100
AcDbArc
 50
205.574115
 51
253.149995
  0
ARC
  5
2D3
330
1F
100
AcDbEntity
  8
1
370
    13
100
AcDbCircle
 10
32.09189
 20
-11.544756
 30
0.0
 40
1.979736221728568
100
AcDbArc
 50
253.385683
 51
304.676419
  0
ARC
  5
2D4
330
1F
100
AcDbEntity
  8
1
370
    13
100
AcDbCircle
 10
33.970761
 20
12.959046
 30
0.0
 40
2.775700381747261
100
AcDbArc
 50
344.840654
 51
28.006657
  0
ARC
  5
2D5
330
1F
100
AcDbEntity
  8
1
370
    13
100
AcDbCircle
 10
33.870729
 20
12.917792
 30
0.0
 40
2.88340876192676
100
AcDbArc
 50
27.797035
 51
69.855408
  0
ARC
  5
2D6
330
1F
100
AcDbEntity
  8
1
370
    13
100
AcDbCircle
 10
33.907042
 20
13.042166
 30
0.0
 40
2.754151002344231
100
AcDbArc
 50
69.673552
 51
113.069973
  0
ARC
  5
2D7
330
1F
100
AcDbEntity
  8
1
370
    13
100
AcDbCircle
 10
32.084649
 20
-11.300348
 30
0.0
 40
2.034811591633007
100
AcDbArc
 50
54.297874
 51
105.089256
  0
ARC
  5
2D8
330
1F
100
AcDbEntity
  8
1
370
    13
100
AcDbCircle
 10
32.108784
 20
-11.401942
 30
0.0
 40
2.139187952093882
100
AcDbArc
 50
105.00505
 51
154.076278
  0
ARC
  5
2D9
330
1F
100
AcDbEntity
  8
1
370
    13
100
AcDbCircle
 10
35.678922
 20
-2.612579
 30
0.0
 40
0.1399172112482913
100
AcDbArc
 50
160.14047
 51
84.299582
  0
ARC
  5
2DA
330
1F
100
AcDbEntity
  8
1
370
    13
100
AcDbCircle
 10
32.099927
 20
-11.456853
 30
0.0
 40
1.553516796556488
100
AcDbArc
 50
52.354652
 51
110.505399
  0
ARC
  5
2DB
330
1F
100
AcDbEntity
  8
1
370
    13
100
AcDbCircle
 10
32.122734
 20
-11.533859
 30
0.0
 40
1.633642798030112
100
AcDbArc
 50
110.308558
 51
166.458938
  0
ARC
  5
2DC
330
1F
100
AcDbEntity
  8
1
370
    13
100
AcDbCircle
 10
32.055157
 20
-11.525767
 30
0.0
 40
1.566069653706094
100
AcDbArc
 50
166.16788
 51
223.993588
  0
ARC
  5
2DD
330
1F
100
AcDbEntity
  8
1
370
    13
100
AcDbCircle
 10
32.030227
 20
-11.533246
 30
0.0
 40
1.542985207525192
100
AcDbArc
 50
224.436776
 51
282.863742
  0
ARC
  5
2DE
330
1F
100
AcDbEntity
  8
1
370
    13
100
AcDbCircle
 10
32.013285
 20
-11.447954
 30
0.0
 40
1.629910501910203
100
AcDbArc
 50
282.776833
 51
339.016615
  0
ARC
  5
2DF
330
1F
100
AcDbEntity
  8
1
370
    13
100
AcDbCircle
 10
32.063728
 20
-11.456546
 30
0.0
 40
1.579767561042145
100
AcDbArc
 50
338.652431
 51
36.128546
  0
ARC
  5
2E0
330
1F
100
AcDbEntity
  8
1
370
    13
100
AcDbCircle
 10
35.162342
 20
12.908024
 30
0.0
 40
0.5826897980349559
100
AcDbArc
 50
311.353505
 51
24.439852
  0
ARC
  5
2E1
330
1F
100
AcDbEntity
  8
1
370
    13
100
AcDbCircle
 10
35.904588
 20
13.713597
 30
0.0
 40
0.6069345876037193
100
AcDbArc
 50
162.358845
 51
233.367398
  0
ARC
  5
2E2
330
1F
100
AcDbEntity
  8
1
370
    13
100
AcDbCircle
 10
34.802038
 20
13.91516
 30
0.0
 40
0.6162091336602068
100
AcDbArc
 50
11.883644
 51
82.262778
  0
ARC
  5
2E3
330
1F
100
AcDbEntity
  8
1
370
    13
100
AcDbCircle
 10
34.519761
 20
14.992947
 30
0.0
 40
0.6009434052168984
100
AcDbArc
 50
220.416678
 51
292.190205
  0
ARC
  5
2E4
330
1F
100
AcDbEntity
  8
1
370
    13
100
AcDbCircle
 10
33.770796
 20
14.2079
 30
0.0
 40
0.5768638079848987
100
AcDbArc
 50
69.366846
 51
143.257375
  0
ARC
  5
2E5
330
1F
100
AcDbEntity
  8
1
370
    13
100
AcDbCircle
 10
32.755465
 20
14.441689
 30
0.0
 40
0.5678867132312331
100
AcDbArc
 50
279.82781
 51
354.403128
  0
ARC
  5
2E6
330
1F
100
AcDbEntity
  8
1
370
    13
100
AcDbCircle
 10
33.070377
 20
13.44465
 30
0.0
 40
0.5826897980348807
100
AcDbArc
 50
131.353505
 51
204.439852
  0
ARC
  5
2E7
330
1F
100
AcDbEntity
  8
1
370
    13
100
AcDbCircle
 10
32.32813
 20
12.639077
 30
0.0
 40
0.6069345876037563
100
AcDbArc
 50
342.358845
 51
53.367398
  0
ARC
  5
2E8
330
1F
100
AcDbEntity
  8
1
370
    13
100
AcDbCircle
 10
33.43068
 20
12.437513
 30
0.0
 40
0.6162091336602742
100
AcDbArc
 50
191.883644
 51
262.262778
  0
ARC
  5
2E9
330
1F
100
AcDbEntity
  8
1
370
    13
100
AcDbCircle
 10
28.649859
 20
4.957372
 30
0.0
 40
6.038176270812424
100
AcDbArc
 50
247.116001
 51
262.363955
  0
ARC
  5
2EA
330
1F
100
AcDbEntity
  8
1
370
    13
100
AcDbCircle
 10
30.555509
 20
13.063775
 30
0.0
 40
2.92024316879294
100
AcDbArc
 50
254.337907
 51
280.727494
  0
ARC
  5
2EB
330
1F
100
AcDbEntity
  8
1
370
    13
100
AcDbCircle
 10
30.224658
 20
17.129851
 30
0.0
 40
6.99019142421013
100
AcDbArc
 50
277.186086
 51
291.728936
  0
ARC
  5
2EC
330
1F
100
AcDbEntity
  8
1
370
    13
100
AcDbCircle
 10
31.913526
 20
-11.180489
 30
0.0
 40
2.062060203894661
100
AcDbArc
 50
336.379322
 51
26.432726
  0
ARC
  5
2ED
330
1F
100
AcDbEntity
  8
1
370
    13
100
AcDbCircle
 10
32.021635
 20
-11.141762
 30
0.0
 40
1.948061085132502
100
AcDbArc
 50
26.828202
 51
78.882637
  0
ARC
  5
2EE
330
1F
100
AcDbEntity
  8
1
370
    13
100
AcDbCircle
 10
32.000978
 20
-11.293194
 30
0.0
 40
2.100652879973661
100
AcDbArc
 50
79.126189
 51
128.544478
  0
ARC
  5
2EF
330
1F
100
AcDbEntity
  8
1
370
    13
100
AcDbCircle
 10
32.038055
 20
-11.362455
 30
0.0
 40
2.177973832461985
100
AcDbArc
 50
128.171998
 51
156.76618
  0
ARC
  5
2F0
330
1F
100
AcDbEntity
  8
1
370
    13
100
AcDbCircle
 10
21.683117
 20
45.355833
 30
0.0
 40
52.79475502079165
100
AcDbArc
 50
282.731795
 51
286.800961
  0
ARC
  5
2F1
330
1F
100
AcDbEntity
  8
1
370
    13
100
AcDbCircle
 10
31.536967
 20
13.140321
 30
0.0
 40
19.10652437645911
100
AcDbArc
 50
286.436877
 51
293.125591
  0
ARC
  5
2F2
330
1F
100
AcDbEntity
  8
1
370
    13
100
AcDbCircle
 10
29.609724
 20
-4.044535
 30
0.0
 40
2.213160231902467
100
AcDbArc
 50
274.791843
 51
305.010054
  0
ARC
  5
2F3
330
1F
100
AcDbEntity
  8
1
370
    13
100
AcDbCircle
 10
-3.4
 20
-2.4975
 30
0.0
 40
0.8
210
0.0
220
0.0
230
-1.0
100
AcDbArc
 50
180.0
 51
270.0
  0
ARC
  5
2F4
330
1F
100
AcDbEntity
  8
1
370
    13
100
AcDbCircle
 10
-15.480535
 20
-21.52997
 30
0.0
 40
5.0
210
0.0
220
0.0
230
-1.0
100
AcDbArc
 50
79.020671
 51
90.0
  0
ARC
  5
2F5
330
1F
100
AcDbEntity
  8
1
370
    13
100
AcDbCircle
 10
-15.480535
 20
21.52997
 30
0.0
 40
5.0
210
0.0
220
0.0
230
-1.0
100
AcDbArc
 50
270.0
 51
280.979329
  0
ARC
  5
2F6
330
1F
100
AcDbEntity
  8
1
370
    13
100
AcDbCircle
 10
9.519465
 20
12.5
 30
0.0
 40
5.0
100
AcDbArc
 50
79.020671
 51
90.0
  0
ARC
  5
2F7
330
1F
100
AcDbEntity
  8
1
370
    13
100
AcDbCircle
 10
9.519465
 20
-12.5
 30
0.0
 40
5.0
100
AcDbArc
 50
270.0
 51
280.979329
  0
ARC
  5
2F8
330
1F
100
AcDbEntity
  8
1
370
    13
100
AcDbCircle
 10
3.4
 20
2.4975
 30
0.0
 40
0.8
100
AcDbArc
 50
0.0
 51
90.0
  0
ARC
  5
2F9
330
1F
100
AcDbEntity
  8
NOCUT
370
    13
100
AcDbCircle
 10
15.897804
 20
-6.435838
 30
0.0
 40
0.4
100
AcDbArc
 50
250.0
 51
326.0
  0
ARC
  5
2FA
330
1F
100
AcDbEntity
  8
NOCUT
370
    13
100
AcDbCircle
 10
37.679253
 20
6.2
 30
0.0
 40
1.0
100
AcDbArc
 50
270.0
 51
355.0
  0
ARC
  5
2FB
330
1F
100
AcDbEntity
  8
NOCUT
370
    13
100
AcDbCircle
 10
17.5
 20
-4.060485
 30
0.0
 40
0.4
100
AcDbArc
 50
326.0
 51
0.0
  0
ARC
  5
2FC
330
1F
100
AcDbEntity
  8
NOCUT
370
    13
100
AcDbCircle
 10
37.106357
 20
11.125483
 30
0.0
 40
2.0
100
AcDbArc
 50
355.0
 51
17.701625
  0
ARC
  5
2FD
330
1F
100
AcDbEntity
  8
NOCUT
370
    13
100
AcDbCircle
 10
28.11132
 20
-26.52997
 30
0.0
 40
10.0
100
AcDbArc
 50
71.550262
 51
90.0
  0
ARC
  5
2FE
330
1F
100
AcDbEntity
  8
NOCUT
370
    13
100
AcDbCircle
 10
9.519465
 20
12.5
 30
0.0
 40
5.0
100
AcDbArc
 50
79.020671
 51
90.0
  0
ARC
  5
2FF
330
1F
100
AcDbEntity
  8
NOCUT
370
    13
100
AcDbCircle
 10
17.5
 20
4.060485
 30
0.0
 40
0.4
100
AcDbArc
 50
0.0
 51
34.0
  0
ARC
  5
300
330
1F
100
AcDbEntity
  8
NOCUT
370
    13
100
AcDbCircle
 10
28.11132
 20
26.52997
 30
0.0
 40
10.0
100
AcDbArc
 50
270.0
 51
288.449738
  0
ARC
  5
301
330
1F
100
AcDbEntity
  8
NOCUT
370
    13
100
AcDbCircle
 10
37.106357
 20
-11.125483
 30
0.0
 40
2.0
100
AcDbArc
 50
342.298375
 51
5.0
  0
ARC
  5
302
330
1F
100
AcDbEntity
  8
NOCUT
370
    13
100
AcDbCircle
 10
15.480535
 20
-21.52997
 30
0.0
 40
5.0
100
AcDbArc
 50
90.0
 51
100.979329
  0
ARC
  5
303
330
1F
100
AcDbEntity
  8
NOCUT
370
    13
100
AcDbCircle
 10
34.801632
 20
-15.05761
 30
0.0
 40
3.0
100
AcDbArc
 50
251.550262
 51
342.298375
  0
ARC
  5
304
330
1F
100
AcDbEntity
  8
NOCUT
370
    13
100
AcDbCircle
 10
9.519465
 20
-12.5
 30
0.0
 40
5.0
100
AcDbArc
 50
270.0
 51
280.979329
  0
ARC
  5
305
330
1F
100
AcDbEntity
  8
NOCUT
370
    13
100
AcDbCircle
 10
15.897804
 20
6.435838
 30
0.0
 40
0.4
100
AcDbArc
 50
34.0
 51
110.0
  0
ARC
  5
306
330
1F
100
AcDbEntity
  8
NOCUT
370
    13
100
AcDbCircle
 10
34.801632
 20
15.05761
 30
0.0
 40
3.0
100
AcDbArc
 50
17.701625
 51
108.449738
  0
ARC
  5
307
330
1F
100
AcDbEntity
  8
NOCUT
370
    13
100
AcDbCircle
 10
37.679253
 20
-6.2
 30
0.0
 40
1.0
100
AcDbArc
 50
5.0
 51
90.0
  0
ARC
  5
308
330
1F
100
AcDbEntity
  8
NOCUT
370
    13
100
AcDbCircle
 10
15.480535
 20
21.52997
 30
0.0
 40
5.0
100
AcDbArc
 50
259.020671
 51
270.0
  0
ARC
  5
309
330
1F
100
AcDbEntity
  8
1
370
    13
100
AcDbCircle
 10
32.960787
 20
3.886883
 30
0.0
 40
6.999999999999999
100
AcDbArc
 50
293.781593
 51
299.74556
  0
MTEXT
  5
30A
330
1F
100
AcDbEntity
  8
SK6
370
    13
100
AcDbMText
 10
0.5625
 20
67.907143
 30
0.0
 40
3.0
 41
0.0
 71
     7
 72
     5
  1
\W0.7431;150A04R-ISMOSN11-C
  7
cesky
 73
     2
 44
1.084337
  0
DIMENSION
  5
316
330
1F
100
AcDbEntity
  8
SK2
370
    13
100
AcDbDimension
  2
DimnDraft3D1
 10
4.2
 20
-23.2975
 30
0.0
 11
-12.296429
 21
-23.2975
 31
0.0
 70
   160
  1
\C95;4.2
 71
     5
 42
-1.0
  3
Standard
100
AcDbAlignedDimension
 13
0.0
 23
-4.2975
 33
0.0
 14
4.2
 24
-3.024458
 34
0.0
100
AcDbRotatedDimension
1001
ACAD
1000
DSTYLE
1002
{
1070
   279
1070
     0
1070
   172
1070
     1
1070
   173
1070
     1
1070
   340
1005
30B
1070
   271
1070
     1
1070
   272
1070
     2
1070
    77
1070
     1
1070
    73
1070
     0
1070
   171
1070
     3
1070
   274
1070
     4
1070
   177
1070
    95
1070
   176
1070
    95
1070
   178
1070
    95
1070
    78
1070
     8
1070
    48
1040
-0.005
1070
    41
1041
3.5
1070
   147
1041
1.5
1070
    42
1041
0.0
1070
    44
1041
2.0
1070
   140
1041
3.0
1070
   343
1005
0
1070
   344
1005
0
1002
}
  0
DIMENSION
  5
320
330
1F
100
AcDbEntity
  8
SK2
370
    13
100
AcDbDimension
  2
DimnDraft3D2
 10
-12.0
 20
-3.2975
 30
0.0
 11
-12.0
 21
16.676071
 31
0.0
 70
   160
  1
\C95;6.55
 71
     5
 42
-1.0
  3
Standard
100
AcDbAlignedDimension
 13
0.7
 23
3.2975
 33
0.0
 14
0.7
 24
-3.2975
 34
0.0
 50
90.0
100
AcDbRotatedDimension
1001
ACAD
1000
DSTYLE
1002
{
1070
    74
1070
     0
1070
   279
1070
     0
1070
   172
1070
     1
1070
   173
1070
     1
1070
   340
1005
30B
1070
   271
1070
     1
1070
   272
1070
     2
1070
    77
1070
     1
1070
    73
1070
     0
1070
   171
1070
     3
1070
   274
1070
     4
1070
   177
1070
    95
1070
   176
1070
    95
1070
   178
1070
    95
1070
    78
1070
     8
1070
    48
1040
-0.005
1070
    41
1041
3.5
1070
   147
1041
1.5
1070
    42
1041
0.0
1070
    44
1041
2.0
1070
   140
1041
3.0
1070
   343
1005
0
1070
   344
1005
0
1002
}
  0
DIMENSION
  5
329
330
1F
100
AcDbEntity
  8
2
370
    13
100
AcDbDimension
  2
DimnDraft3D3
 10
48.0
 20
0.0
 30
0.0
 11
49.5
 21
-0.128571
 31
0.0
 70
   161
  1
\C254;%%c 38,1
 71
     5
 42
-1.0
  3
Standard
100
AcDbAlignedDimension
 13
39.0
 23
19.05
 33
0.0
 14
40.0
 24
-19.05
 34
0.0
1001
ACAD
1000
DSTYLE
1002
{
1070
   279
1070
     0
1070
    74
1070
     0
1070
   173
1070
     1
1070
   340
1005
30B
1070
    76
1070
     1
1070
   271
1070
     2
1070
   272
1070
     2
1070
    77
1070
     1
1070
    73
1070
     0
1070
   171
1070
     3
1070
   274
1070
     4
1070
   282
1070
     1
1070
   177
1070
   254
1070
   176
1070
   254
1070
   178
1070
   254
1070
    78
1070
     8
1070
    48
1040
-0.005
1070
    41
1041
3.5
1070
   147
1041
1.5
1070
    42
1041
0.0
1070
    44
1041
2.0
1070
   140
1041
3.0
1070
   343
1005
0
1070
   344
1005
0
1002
}
  0
DIMENSION
  5
334
330
1F
100
AcDbEntity
  8
SK2
370
    13
100
AcDbDimension
  2
DimnDraft3D4
 10
-23.25
 20
6.35
 30
0.0
 11
-23.5
 21
-23.607143
 31
0.0
 70
   161
  1
\C95;%%c 12,7
 71
     5
 42
-1.0
  3
Standard
100
AcDbAlignedDimension
 13
0.0
 23
-6.35
 33
0.0
 14
0.0
 24
6.35
 34
0.0
1001
ACAD
1000
DSTYLE
1002
{
1070
   279
1070
     0
1070
    74
1070
     0
1070
   173
1070
     1
1070
   340
1005
30B
1070
   271
1070
     1
1070
   272
1070
     2
1070
    77
1070
     1
1070
    73
1070
     0
1070
   171
1070
     3
1070
   274
1070
     4
1070
   177
1070
    95
1070
   176
1070
    95
1070
   178
1070
    95
1070
    78
1070
     8
1070
    48
1040
-0.005
1070
    41
1041
3.5
1070
   147
1041
1.5
1070
    42
1041
0.0
1070
    44
1041
2.0
1070
   140
1041
3.0
1070
   343
1005
0
1070
   344
1005
0
1002
}
  0
DIMENSION
  5
33F
330
1F
100
AcDbEntity
  8
SK2
370
    13
100
AcDbDimension
  2
DimnDraft3D5
 10
-33.25
 20
17.5
 30
0.0
 11
-33.5
 21
2.035714
 31
0.0
 70
   161
  1
\C95;%%c 35
 71
     5
 42
-1.0
  3
Standard
100
AcDbAlignedDimension
 13
0.5
 23
-17.5
 33
0.0
 14
0.5
 24
17.5
 34
0.0
1001
ACAD
1000
DSTYLE
1002
{
1070
   279
1070
     0
1070
    74
1070
     0
1070
   173
1070
     1
1070
   340
1005
30B
1070
   271
1070
     1
1070
   272
1070
     2
1070
    77
1070
     1
1070
    73
1070
     0
1070
   171
1070
     3
1070
   274
1070
     4
1070
   177
1070
    95
1070
   176
1070
    95
1070
   178
1070
    95
1070
    78
1070
     8
1070
    48
1040
-0.005
1070
    41
1041
3.5
1070
   147
1041
1.5
1070
    42
1041
0.0
1070
    44
1041
2.0
1070
   140
1041
3.0
1070
   343
1005
0
1070
   344
1005
0
1002
}
  0
DIMENSION
  5
349
330
1F
100
AcDbEntity
  8
2
370
    13
100
AcDbDimension
  2
DimnDraft3D6
 10
40.0
 20
32.05
 30
0.0
 11
20.0
 21
32.05
 31
0.0
 70
   160
  1
\C254;40
 71
     5
 42
-1.0
  3
Standard
100
AcDbAlignedDimension
 13
0.0
 23
4.2975
 33
0.0
 14
40.0
 24
20.05
 34
0.0
100
AcDbRotatedDimension
1001
ACAD
1000
DSTYLE
1002
{
1070
   279
1070
     0
1070
   172
1070
     1
1070
   173
1070
     1
1070
   340
1005
30B
1070
   271
1070
     1
1070
   272
1070
     2
1070
    77
1070
     1
1070
    73
1070
     0
1070
   171
1070
     3
1070
   274
1070
     4
1070
   177
1070
   254
1070
   176
1070
   254
1070
   178
1070
   254
1070
    78
1070
     8
1070
    48
1040
-0.005
1070
    41
1041
3.5
1070
   147
1041
1.5
1070
    42
1041
0.0
1070
    44
1041
2.0
1070
   140
1041
3.0
1070
   343
1005
0
1070
   344
1005
0
1002
}
  0
DIMENSION
  5
353
330
1F
100
AcDbEntity
  8
2
370
    13
100
AcDbDimension
  2
DimnDraft3D7
 10
40.0
 20
24.05
 30
0.0
 11
52.296429
 21
24.05
 31
0.0
 70
   160
  1
\C254;1,7
 71
     5
 42
-1.0
  3
Standard
100
AcDbAlignedDimension
 13
38.319986
 23
17.203253
 33
0.0
 14
40.0
 24
20.05
 34
0.0
100
AcDbRotatedDimension
1001
ACAD
1000
DSTYLE
1002
{
1070
   279
1070
     0
1070
   172
1070
     1
1070
   173
1070
     1
1070
   340
1005
30B
1070
   271
1070
     1
1070
   272
1070
     2
1070
    77
1070
     1
1070
    73
1070
     0
1070
   171
1070
     3
1070
   274
1070
     4
1070
   177
1070
   254
1070
   176
1070
   254
1070
   178
1070
   254
1070
    78
1070
     8
1070
    48
1040
-0.005
1070
    41
1041
3.5
1070
   147
1041
1.5
1070
    42
1041
0.0
1070
    44
1041
2.0
1070
   140
1041
3.0
1070
   343
1005
0
1070
   344
1005
0
1002
}
  0
ENDSEC
  0
SECTION
  2
OBJECTS
  0
DICTIONARY
  5
C
330
0
100
AcDbDictionary
281
     1
  3
ACAD_GROUP
350
D
  3
ACAD_LAYOUT
350
1A
  3
ACAD_MATERIAL
350
43
  3
ACAD_MLEADERSTYLE
350
368
  3
ACAD_MLINESTYLE
350
17
  3
ACAD_PLOTSETTINGS
350
19
  3
ACAD_PLOTSTYLENAME
350
E
  3
ACAD_SCALELIST
350
47
  3
ACAD_VISUALSTYLE
350
2A
  3
AcDbVariableDictionary
350
366
  0
DICTIONARY
  5
D
102
{ACAD_REACTORS
330
C
102
}
330
C
100
AcDbDictionary
281
     1
  0
DICTIONARY
  5
1A
102
{ACAD_REACTORS
330
C
102
}
330
C
100
AcDbDictionary
281
     1
  3
Layout1
350
1E
  3
Layout2
350
26
  3
Model
350
22
  0
DICTIONARY
  5
43
102
{ACAD_REACTORS
330
C
102
}
330
C
100
AcDbDictionary
281
     1
  3
ByBlock
350
45
  3
ByLayer
350
44
  3
Global
350
46
  0
DICTIONARY
  5
368
102
{ACAD_REACTORS
330
C
102
}
330
C
100
AcDbDictionary
281
     1
  0
DICTIONARY
  5
17
102
{ACAD_REACTORS
330
C
102
}
330
C
100
AcDbDictionary
281
     1
  3
Standard
350
18
  0
DICTIONARY
  5
19
102
{ACAD_REACTORS
330
C
102
}
330
C
100
AcDbDictionary
281
     1
  0
ACDBDICTIONARYWDFLT
  5
E
102
{ACAD_REACTORS
330
C
102
}
330
C
100
AcDbDictionary
281
     1
  3
Normal
350
F
100
AcDbDictionaryWithDefault
340
F
  0
DICTIONARY
  5
47
102
{ACAD_REACTORS
330
C
102
}
330
C
100
AcDbDictionary
281
     1
  3
A0
350
48
  3
A1
350
49
  3
A2
350
4A
  3
A3
350
4B
  3
A4
350
4C
  3
A5
350
4D
  3
A6
350
4E
  3
A7
350
4F
  3
A8
350
50
  3
A9
350
51
  3
B0
350
52
  3
B1
350
53
  3
B2
350
54
  3
B3
350
55
  3
B4
350
56
  3
B5
350
57
  3
B6
350
58
  3
B7
350
59
  3
B8
350
5A
  3
B9
350
5B
  3
C0
350
5C
  3
C1
350
5D
  3
C2
350
5E
  3
C3
350
5F
  3
C4
350
60
  3
C5
350
61
  3
C6
350
62
  3
C7
350
63
  3
C8
350
64
  3
C9
350
65
  3
D0
350
66
  3
D1
350
67
  3
D2
350
68
  0
DICTIONARY
  5
2A
102
{ACAD_REACTORS
330
C
102
}
330
C
100
AcDbDictionary
281
     1
  3
2dWireframe
350
2F
  3
Basic
350
32
  3
Brighten
350
36
  3
ColorChange
350
3A
  3
Conceptual
350
34
  3
Dim
350
35
  3
EdgeColorOff
350
3D
  3
Facepattern
350
39
  3
Flat
350
2B
  3
FlatWithEdges
350
2C
  3
Gouraud
350
2D
  3
GouraudWithEdges
350
2E
  3
Hidden
350
31
  3
JitterOff
350
3B
  3
Linepattern
350
38
  3
OverhangOff
350
3C
  3
Realistic
350
33
  3
Shaded
350
42
  3
Shaded with edges
350
41
  3
Shades of Gray
350
3E
  3
Sketchy
350
3F
  3
Thicken
350
37
  3
Wireframe
350
30
  3
X-Ray
350
40
  0
DICTIONARY
  5
366
102
{ACAD_REACTORS
330
C
102
}
330
C
100
AcDbDictionary
281
     1
  3
CANNOSCALE
350
36D
  3
DIMASSOC
350
36B
  3
HIDETEXT
350
36C
  3
MSLTSCALE
350
36E
  0
LAYOUT
  5
1E
102
{ACAD_REACTORS
330
1A
102
}
330
1A
100
AcDbPlotSettings
  1

  2
none_device
  4

  6

 40
0.0
 41
0.0
 42
0.0
 43
0.0
 44
0.0
 45
0.0
 46
0.0
 47
0.0
 48
0.0
 49
0.0
140
0.0
141
0.0
142
1.0
143
1.0
 70
   688
 72
     0
 73
     0
 74
     5
  7

 75
    16
147
1.0
148
0.0
149
0.0
100
AcDbLayout
  1
Layout1
 70
     1
 71
     1
 10
-0.5
 20
-0.5
 11
5.0
 21
5.0
 12
0.0
 22
0.0
 32
0.0
 14
-0.5
 24
-0.5
 34
-0.5
 15
5.0
 25
5.0
 35
5.0
146
0.0
 13
0.0
 23
0.0
 33
0.0
 16
1.0
 26
0.0
 36
0.0
 17
0.0
 27
1.0
 37
0.0
 76
     0
330
1B
  0
LAYOUT
  5
26
102
{ACAD_REACTORS
330
1A
102
}
330
1A
100
AcDbPlotSettings
  1

  2
none_device
  4

  6

 40
0.0
 41
0.0
 42
0.0
 43
0.0
 44
0.0
 45
0.0
 46
0.0
 47
0.0
 48
0.0
 49
0.0
140
0.0
141
0.0
142
1.0
143
1.0
 70
   688
 72
     0
 73
     0
 74
     5
  7

 75
    16
147
1.0
148
0.0
149
0.0
100
AcDbLayout
  1
Layout2
 70
     1
 71
     2
 10
0.0
 20
0.0
 11
0.0
 21
0.0
 12
0.0
 22
0.0
 32
0.0
 14
0.0
 24
0.0
 34
0.0
 15
0.0
 25
0.0
 35
0.0
146
0.0
 13
0.0
 23
0.0
 33
0.0
 16
1.0
 26
0.0
 36
0.0
 17
0.0
 27
1.0
 37
0.0
 76
     0
330
23
  0
LAYOUT
  5
22
102
{ACAD_REACTORS
330
1A
102
}
330
1A
100
AcDbPlotSettings
  1

  2
none_device
  4
Letter_(8.50_x_11.00_Inches)
  6

 40
6.35
 41
6.35
 42
6.350005
 43
6.350005
 44
215.9
 45
279.4
 46
0.0
 47
0.0
 48
0.0
 49
0.0
140
0.0
141
0.0
142
1.0
143
1.0
 70
  1712
 72
     0
 73
     0
 74
     0
  7

 75
     0
147
1.0
148
0.0
149
0.0
100
AcDbLayout
  1
Model
 70
     1
 71
     0
 10
-0.5
 20
-0.5
 11
5.0
 21
5.0
 12
0.0
 22
0.0
 32
0.0
 14
-0.5
 24
-0.5
 34
-0.5
 15
5.0
 25
5.0
 35
5.0
146
0.0
 13
0.0
 23
0.0
 33
0.0
 16
1.0
 26
0.0
 36
0.0
 17
0.0
 27
1.0
 37
0.0
 76
     0
330
1F
331
355
  0
MATERIAL
  5
45
102
{ACAD_REACTORS
330
43
102
}
102
{ACAD_XDICTIONARY
360
3A1
102
}
330
43
100
AcDbMaterial
  1
ByBlock
  0
MATERIAL
  5
44
102
{ACAD_REACTORS
330
43
102
}
102
{ACAD_XDICTIONARY
360
39F
102
}
330
43
100
AcDbMaterial
  1
ByLayer
  0
MATERIAL
  5
46
102
{ACAD_REACTORS
330
43
102
}
102
{ACAD_XDICTIONARY
360
3A3
102
}
330
43
100
AcDbMaterial
  1
Global
  0
MLINESTYLE
  5
18
102
{ACAD_REACTORS
330
17
102
}
330
17
100
AcDbMlineStyle
  2
Standard
 70
     0
  3

 62
   256
 51
90.0
 52
90.0
 71
     2
 49
0.5
 62
   256
  6
BYLAYER
 49
-0.5
 62
   256
  6
BYLAYER
  0
ACDBPLACEHOLDER
  5
F
102
{ACAD_REACTORS
330
E
102
}
330
E
  0
SCALE
  5
48
102
{ACAD_REACTORS
330
47
102
}
330
47
100
AcDbScale
 70
     0
300
1:1
140
1.0
141
1.0
290
     1
  0
SCALE
  5
49
102
{ACAD_REACTORS
330
47
102
}
330
47
100
AcDbScale
 70
     0
300
1:2
140
1.0
141
2.0
290
     0
  0
SCALE
  5
4A
102
{ACAD_REACTORS
330
47
102
}
330
47
100
AcDbScale
 70
     0
300
1:4
140
1.0
141
4.0
290
     0
  0
SCALE
  5
4B
102
{ACAD_REACTORS
330
47
102
}
330
47
100
AcDbScale
 70
     0
300
1:5
140
1.0
141
5.0
290
     0
  0
SCALE
  5
4C
102
{ACAD_REACTORS
330
47
102
}
330
47
100
AcDbScale
 70
     0
300
1:8
140
1.0
141
8.0
290
     0
  0
SCALE
  5
4D
102
{ACAD_REACTORS
330
47
102
}
330
47
100
AcDbScale
 70
     0
300
1:10
140
1.0
141
10.0
290
     0
  0
SCALE
  5
4E
102
{ACAD_REACTORS
330
47
102
}
330
47
100
AcDbScale
 70
     0
300
1:16
140
1.0
141
16.0
290
     0
  0
SCALE
  5
4F
102
{ACAD_REACTORS
330
47
102
}
330
47
100
AcDbScale
 70
     0
300
1:20
140
1.0
141
20.0
290
     0
  0
SCALE
  5
50
102
{ACAD_REACTORS
330
47
102
}
330
47
100
AcDbScale
 70
     0
300
1:30
140
1.0
141
30.0
290
     0
  0
SCALE
  5
51
102
{ACAD_REACTORS
330
47
102
}
330
47
100
AcDbScale
 70
     0
300
1:40
140
1.0
141
40.0
290
     0
  0
SCALE
  5
52
102
{ACAD_REACTORS
330
47
102
}
330
47
100
AcDbScale
 70
     0
300
1:50
140
1.0
141
50.0
290
     0
  0
SCALE
  5
53
102
{ACAD_REACTORS
330
47
102
}
330
47
100
AcDbScale
 70
     0
300
1:100
140
1.0
141
100.0
290
     0
  0
SCALE
  5
54
102
{ACAD_REACTORS
330
47
102
}
330
47
100
AcDbScale
 70
     0
300
2:1
140
2.0
141
1.0
290
     0
  0
SCALE
  5
55
102
{ACAD_REACTORS
330
47
102
}
330
47
100
AcDbScale
 70
     0
300
4:1
140
4.0
141
1.0
290
     0
  0
SCALE
  5
56
102
{ACAD_REACTORS
330
47
102
}
330
47
100
AcDbScale
 70
     0
300
8:1
140
8.0
141
1.0
290
     0
  0
SCALE
  5
57
102
{ACAD_REACTORS
330
47
102
}
330
47
100
AcDbScale
 70
     0
300
10:1
140
10.0
141
1.0
290
     0
  0
SCALE
  5
58
102
{ACAD_REACTORS
330
47
102
}
330
47
100
AcDbScale
 70
     0
300
100:1
140
100.0
141
1.0
290
     0
  0
SCALE
  5
59
102
{ACAD_REACTORS
330
47
102
}
330
47
100
AcDbScale
 70
     0
300
1/128" = 1'-0"
140
0.007812
141
12.0
290
     0
  0
SCALE
  5
5A
102
{ACAD_REACTORS
330
47
102
}
330
47
100
AcDbScale
 70
     0
300
1/64" = 1'-0"
140
0.015625
141
12.0
290
     0
  0
SCALE
  5
5B
102
{ACAD_REACTORS
330
47
102
}
330
47
100
AcDbScale
 70
     0
300
1/32" = 1'-0"
140
0.03125
141
12.0
290
     0
  0
SCALE
  5
5C
102
{ACAD_REACTORS
330
47
102
}
330
47
100
AcDbScale
 70
     0
300
1/16" = 1'-0"
140
0.0625
141
12.0
290
     0
  0
SCALE
  5
5D
102
{ACAD_REACTORS
330
47
102
}
330
47
100
AcDbScale
 70
     0
300
3/32" = 1'-0"
140
0.09375
141
12.0
290
     0
  0
SCALE
  5
5E
102
{ACAD_REACTORS
330
47
102
}
330
47
100
AcDbScale
 70
     0
300
1/8" = 1'-0"
140
0.125
141
12.0
290
     0
  0
SCALE
  5
5F
102
{ACAD_REACTORS
330
47
102
}
330
47
100
AcDbScale
 70
     0
300
3/16" = 1'-0"
140
0.1875
141
12.0
290
     0
  0
SCALE
  5
60
102
{ACAD_REACTORS
330
47
102
}
330
47
100
AcDbScale
 70
     0
300
1/4" = 1'-0"
140
0.25
141
12.0
290
     0
  0
SCALE
  5
61
102
{ACAD_REACTORS
330
47
102
}
330
47
100
AcDbScale
 70
     0
300
3/8" = 1'-0"
140
0.375
141
12.0
290
     0
  0
SCALE
  5
62
102
{ACAD_REACTORS
330
47
102
}
330
47
100
AcDbScale
 70
     0
300
1/2" = 1'-0"
140
0.5
141
12.0
290
     0
  0
SCALE
  5
63
102
{ACAD_REACTORS
330
47
102
}
330
47
100
AcDbScale
 70
     0
300
3/4" = 1'-0"
140
0.75
141
12.0
290
     0
  0
SCALE
  5
64
102
{ACAD_REACTORS
330
47
102
}
330
47
100
AcDbScale
 70
     0
300
1" = 1'-0"
140
1.0
141
12.0
290
     0
  0
SCALE
  5
65
102
{ACAD_REACTORS
330
47
102
}
330
47
100
AcDbScale
 70
     0
300
1-1/2" = 1'-0"
140
1.5
141
12.0
290
     0
  0
SCALE
  5
66
102
{ACAD_REACTORS
330
47
102
}
330
47
100
AcDbScale
 70
     0
300
3" = 1'-0"
140
3.0
141
12.0
290
     0
  0
SCALE
  5
67
102
{ACAD_REACTORS
330
47
102
}
330
47
100
AcDbScale
 70
     0
300
6" = 1'-0"
140
6.0
141
12.0
290
     0
  0
SCALE
  5
68
102
{ACAD_REACTORS
330
47
102
}
330
47
100
AcDbScale
 70
     0
300
1'-0" = 1'-0"
140
12.0
141
12.0
290
     0
  0
VISUALSTYLE
  5
2F
102
{ACAD_REACTORS
330
2A
102
}
102
{ACAD_XDICTIONARY
360
377
102
}
330
2A
100
AcDbVisualStyle
  2
2dWireframe
 70
     4
 71
     0
 72
     2
 73
     0
 90
        0
 40
0.6
 41
30.0
 62
     5
 63
     7
 74
     1
 91
        4
 64
     7
 65
   257
 75
     1
175
     1
 42
1.0
 92
        0
 66
   257
 43
1.0
 76
     1
 77
     6
 78
     2
 67
     7
 79
     5
170
     0
171
     0
290
     0
174
     0
 93
        1
 44
0.0
173
     0
291
     0
 45
0.0
1001
ACAD
1000
AcDbSavedByObjectVersion
1070
     0
  0
VISUALSTYLE
  5
32
102
{ACAD_REACTORS
330
2A
102
}
102
{ACAD_XDICTIONARY
360
37D
102
}
330
2A
100
AcDbVisualStyle
  2
Basic
 70
     7
 71
     1
 72
     0
 73
     1
 90
        0
 40
0.6
 41
30.0
 62
     5
 63
     7
 74
     0
 91
        4
 64
     7
 65
   257
 75
     1
175
     1
 42
1.0
 92
        8
 66
     7
 43
1.0
 76
     1
 77
     6
 78
     2
 67
     7
 79
     5
170
     0
171
     0
290
     0
174
     0
 93
        1
 44
0.0
173
     0
291
     1
 45
0.0
1001
ACAD
1000
AcDbSavedByObjectVersion
1070
     0
  0
VISUALSTYLE
  5
36
102
{ACAD_REACTORS
330
2A
102
}
102
{ACAD_XDICTIONARY
360
385
102
}
330
2A
100
AcDbVisualStyle
  2
Brighten
 70
    12
 71
     2
 72
     2
 73
     0
 90
        0
 40
0.6
 41
30.0
 62
     5
 63
     7
 74
     1
 91
        4
 64
     7
 65
   257
 75
     1
175
     1
 42
1.0
 92
        8
 66
     7
 43
1.0
 76
     1
 77
     6
 78
     2
 67
     7
 79
     5
170
     0
171
     0
290
     0
174
     0
 93
        1
 44
50.0
173
     0
291
     1
 45
0.0
1001
ACAD
1000
AcDbSavedByObjectVersion
1070
     0
  0
VISUALSTYLE
  5
3A
102
{ACAD_REACTORS
330
2A
102
}
102
{ACAD_XDICTIONARY
360
38D
102
}
330
2A
100
AcDbVisualStyle
  2
ColorChange
 70
    16
 71
     2
 72
     2
 73
     3
 90
        0
 40
0.6
 41
30.0
 62
     5
 63
     8
 74
     1
 91
        4
 64
     7
 65
   257
 75
     1
175
     1
 42
1.0
 92
        8
 66
     8
 43
1.0
 76
     1
 77
     6
 78
     2
 67
     7
 79
     5
170
     0
171
     0
290
     0
174
     0
 93
        1
 44
0.0
173
     0
291
     1
 45
0.0
1001
ACAD
1000
AcDbSavedByObjectVersion
1070
     0
  0
VISUALSTYLE
  5
34
102
{ACAD_REACTORS
330
2A
102
}
102
{ACAD_XDICTIONARY
360
381
102
}
330
2A
100
AcDbVisualStyle
  2
Conceptual
 70
     9
 71
     3
 72
     2
 73
     0
 90
        0
 40
0.6
 41
30.0
 62
     5
 63
     7
 74
     2
 91
        2
 64
     7
 65
   257
 75
     1
175
     1
 42
179.0
 92
        8
 66
     7
 43
1.0
 76
     1
 77
     6
 78
     2
 67
     7
 79
     3
170
     0
171
     0
290
     0
174
     0
 93
        1
 44
0.0
173
     0
291
     0
 45
0.0
1001
ACAD
1000
AcDbSavedByObjectVersion
1070
     0
  0
VISUALSTYLE
  5
35
102
{ACAD_REACTORS
330
2A
102
}
102
{ACAD_XDICTIONARY
360
383
102
}
330
2A
100
AcDbVisualStyle
  2
Dim
 70
    11
 71
     2
 72
     2
 73
     0
 90
        0
 40
0.6
 41
30.0
 62
     5
 63
     7
 74
     1
 91
        4
 64
     7
 65
   257
 75
     1
175
     1
 42
1.0
 92
        8
 66
     7
 43
1.0
 76
     1
 77
     6
 78
     2
 67
     7
 79
     5
170
     0
171
     0
290
     0
174
     0
 93
        1
 44
-50.0
173
     0
291
     1
 45
0.0
1001
ACAD
1000
AcDbSavedByObjectVersion
1070
     0
  0
VISUALSTYLE
  5
3D
102
{ACAD_REACTORS
330
2A
102
}
102
{ACAD_XDICTIONARY
360
393
102
}
330
2A
100
AcDbVisualStyle
  2
EdgeColorOff
 70
    22
 71
     2
 72
     2
 73
     0
 90
        0
 40
0.6
 41
30.0
 62
     5
 63
     7
 74
     1
 91
        4
 64
     7
 65
   257
 75
     1
175
     1
 42
1.0
 92
        8
 66
     7
 43
1.0
 76
     1
 77
     6
 78
     2
 67
     7
 79
     5
170
     0
171
     0
290
     0
174
     0
 93
        1
 44
0.0
173
     0
291
     1
 45
0.0
1001
ACAD
1000
AcDbSavedByObjectVersion
1070
     0
  0
VISUALSTYLE
  5
39
102
{ACAD_REACTORS
330
2A
102
}
102
{ACAD_XDICTIONARY
360
38B
102
}
330
2A
100
AcDbVisualStyle
  2
Facepattern
 70
    15
 71
     2
 72
     2
 73
     0
 90
        0
 40
0.6
 41
30.0
 62
     5
 63
     7
 74
     1
 91
        4
 64
     7
 65
   257
 75
     1
175
     1
 42
1.0
 92
        8
 66
     7
 43
1.0
 76
     1
 77
     6
 78
     2
 67
     7
 79
     5
170
     0
171
     0
290
     0
174
     0
 93
        1
 44
0.0
173
     0
291
     1
 45
0.0
1001
ACAD
1000
AcDbSavedByObjectVersion
1070
     0
  0
VISUALSTYLE
  5
2B
102
{ACAD_REACTORS
330
2A
102
}
102
{ACAD_XDICTIONARY
360
36F
102
}
330
2A
100
AcDbVisualStyle
  2
Flat
 70
     0
 71
     2
 72
     1
 73
     1
 90
        2
 40
0.6
 41
30.0
 62
     5
 63
     7
 74
     0
 91
        0
 64
     7
 65
   257
 75
     1
175
     1
 42
1.0
 92
        8
 66
     7
 43
1.0
 76
     1
 77
     6
 78
     2
 67
     7
 79
     5
170
     0
171
     0
290
     0
174
     0
 93
       13
 44
0.0
173
     0
291
     1
 45
0.0
1001
ACAD
1000
AcDbSavedByObjectVersion
1070
     0
  0
VISUALSTYLE
  5
2C
102
{ACAD_REACTORS
330
2A
102
}
102
{ACAD_XDICTIONARY
360
371
102
}
330
2A
100
AcDbVisualStyle
  2
FlatWithEdges
 70
     1
 71
     2
 72
     1
 73
     1
 90
        2
 40
0.6
 41
30.0
 62
     5
 63
     7
 74
     1
 91
        0
 64
     7
 65
   257
 75
     1
175
     1
 42
1.0
 92
        0
 66
   257
 43
1.0
 76
     1
 77
     6
 78
     2
 67
     7
 79
     5
170
     0
171
     0
290
     0
174
     0
 93
       13
 44
0.0
173
     0
291
     1
 45
0.0
1001
ACAD
1000
AcDbSavedByObjectVersion
1070
     0
  0
VISUALSTYLE
  5
2D
102
{ACAD_REACTORS
330
2A
102
}
102
{ACAD_XDICTIONARY
360
373
102
}
330
2A
100
AcDbVisualStyle
  2
Gouraud
 70
     2
 71
     2
 72
     2
 73
     1
 90
        2
 40
0.6
 41
30.0
 62
     5
 63
     7
 74
     0
 91
        0
 64
     7
 65
   257
 75
     1
175
     1
 42
1.0
 92
        0
 66
     7
 43
1.0
 76
     1
 77
     6
 78
     2
 67
     7
 79
     5
170
     0
171
     0
290
     0
174
     0
 93
       13
 44
0.0
173
     0
291
     1
 45
0.0
1001
ACAD
1000
AcDbSavedByObjectVersion
1070
     0
  0
VISUALSTYLE
  5
2E
102
{ACAD_REACTORS
330
2A
102
}
102
{ACAD_XDICTIONARY
360
375
102
}
330
2A
100
AcDbVisualStyle
  2
GouraudWithEdges
 70
     3
 71
     2
 72
     2
 73
     1
 90
        2
 40
0.6
 41
30.0
 62
     5
 63
     7
 74
     1
 91
        0
 64
     7
 65
   257
 75
     1
175
     1
 42
1.0
 92
        0
 66
   257
 43
1.0
 76
     1
 77
     6
 78
     2
 67
     7
 79
     5
170
     0
171
     0
290
     0
174
     0
 93
       13
 44
0.0
173
     0
291
     1
 45
0.0
1001
ACAD
1000
AcDbSavedByObjectVersion
1070
     0
  0
VISUALSTYLE
  5
31
102
{ACAD_REACTORS
330
2A
102
}
102
{ACAD_XDICTIONARY
360
37B
102
}
330
2A
100
AcDbVisualStyle
  2
Hidden
 70
     6
 71
     1
 72
     2
 73
     2
 90
        0
 40
0.6
 41
30.0
 62
     5
 63
     7
 74
     2
 91
        2
 64
     7
 65
   257
 75
     2
175
     1
 42
40.0
 92
        0
 66
   257
 43
1.0
 76
     1
 77
     6
 78
     2
 67
     7
 79
     3
170
     0
171
     0
290
     0
174
     0
 93
        1
 44
0.0
173
     0
291
     0
 45
0.0
1001
ACAD
1000
AcDbSavedByObjectVersion
1070
     0
  0
VISUALSTYLE
  5
3B
102
{ACAD_REACTORS
330
2A
102
}
102
{ACAD_XDICTIONARY
360
38F
102
}
330
2A
100
AcDbVisualStyle
  2
JitterOff
 70
    20
 71
     2
 72
     2
 73
     0
 90
        0
 40
0.6
 41
30.0
 62
     5
 63
     7
 74
     1
 91
        4
 64
     7
 65
   257
 75
     1
175
     1
 42
1.0
 92
       10
 66
     7
 43
1.0
 76
     1
 77
     6
 78
     2
 67
     7
 79
     5
170
     0
171
     0
290
     0
174
     0
 93
        1
 44
0.0
173
     0
291
     1
 45
0.0
1001
ACAD
1000
AcDbSavedByObjectVersion
1070
     0
  0
VISUALSTYLE
  5
38
102
{ACAD_REACTORS
330
2A
102
}
102
{ACAD_XDICTIONARY
360
389
102
}
330
2A
100
AcDbVisualStyle
  2
Linepattern
 70
    14
 71
     2
 72
     2
 73
     0
 90
        0
 40
0.6
 41
30.0
 62
     5
 63
     7
 74
     1
 91
        4
 64
     7
 65
   257
 75
     7
175
     7
 42
1.0
 92
        8
 66
     7
 43
1.0
 76
     1
 77
     6
 78
     2
 67
     7
 79
     5
170
     0
171
     0
290
     0
174
     0
 93
        1
 44
0.0
173
     0
291
     1
 45
0.0
1001
ACAD
1000
AcDbSavedByObjectVersion
1070
     0
  0
VISUALSTYLE
  5
3C
102
{ACAD_REACTORS
330
2A
102
}
102
{ACAD_XDICTIONARY
360
391
102
}
330
2A
100
AcDbVisualStyle
  2
OverhangOff
 70
    21
 71
     2
 72
     2
 73
     0
 90
        0
 40
0.6
 41
30.0
 62
     5
 63
     7
 74
     1
 91
        4
 64
     7
 65
   257
 75
     1
175
     1
 42
1.0
 92
        9
 66
     7
 43
1.0
 76
     1
 77
     6
 78
     2
 67
     7
 79
     5
170
     0
171
     0
290
     0
174
     0
 93
        1
 44
0.0
173
     0
291
     1
 45
0.0
1001
ACAD
1000
AcDbSavedByObjectVersion
1070
     0
  0
VISUALSTYLE
  5
33
102
{ACAD_REACTORS
330
2A
102
}
102
{ACAD_XDICTIONARY
360
37F
102
}
330
2A
100
AcDbVisualStyle
  2
Realistic
 70
     8
 71
     2
 72
     3
 73
     0
 90
        2
 40
0.6
 41
30.0
 62
     5
 63
     7
 74
     0
 91
        0
 64
     7
 65
   257
 75
     1
175
     1
 42
1.0
 92
        8
 66
   257
 43
1.0
 76
     1
 77
     6
 78
     2
 67
     7
 79
     3
170
     0
171
     0
290
     0
174
     0
 93
       13
 44
0.0
173
     0
291
     0
 45
0.0
1001
ACAD
1000
AcDbSavedByObjectVersion
1070
     0
  0
VISUALSTYLE
  5
42
102
{ACAD_REACTORS
330
2A
102
}
102
{ACAD_XDICTIONARY
360
39D
102
}
330
2A
100
AcDbVisualStyle
  2
Shaded
 70
    27
 71
     2
 72
     2
 73
     1
 90
        2
 40
0.6
 41
30.0
 62
     5
 63
     7
 74
     0
 91
        4
 64
     7
 65
   257
 75
     1
175
     1
 42
1.0
 92
        8
 66
   257
 43
1.0
 76
     1
 77
     6
 78
     2
 67
     8
 79
     3
170
     0
171
     0
290
     0
174
     0
 93
        5
 44
0.0
173
     0
291
     0
 45
0.0
1001
ACAD
1000
AcDbSavedByObjectVersion
1070
     0
  0
VISUALSTYLE
  5
41
102
{ACAD_REACTORS
330
2A
102
}
102
{ACAD_XDICTIONARY
360
39B
102
}
330
2A
100
AcDbVisualStyle
  2
Shaded with edges
 70
    26
 71
     2
 72
     2
 73
     1
 90
        2
 40
0.6
 41
30.0
 62
     5
 63
     7
 74
     1
 91
       10
 64
     7
 65
   257
 75
     2
175
     1
 42
1.0
 92
        8
 66
   257
 43
1.0
 76
     1
 77
     6
 78
     2
 67
     7
 79
     3
170
     0
171
     0
290
     0
174
     0
 93
        5
 44
0.0
173
     0
291
     0
 45
0.0
1001
ACAD
1000
AcDbSavedByObjectVersion
1070
     0
  0
VISUALSTYLE
  5
3E
102
{ACAD_REACTORS
330
2A
102
}
102
{ACAD_XDICTIONARY
360
395
102
}
330
2A
100
AcDbVisualStyle
  2
Shades of Gray
 70
    23
 71
     2
 72
     2
 73
     3
 90
        0
 40
0.6
 41
30.0
 62
     5
 63
     7
 74
     2
 91
        2
 64
     7
 65
     7
 75
     1
175
     1
 42
40.0
 92
        8
 66
     7
 43
1.0
 76
     1
 77
     6
 78
     2
 67
     7
 79
     3
170
     0
171
     0
290
     0
174
     0
 93
        1
 44
0.0
173
     0
291
     0
 45
0.0
1001
ACAD
1000
AcDbSavedByObjectVersion
1070
     0
  0
VISUALSTYLE
  5
3F
102
{ACAD_REACTORS
330
2A
102
}
102
{ACAD_XDICTIONARY
360
397
102
}
330
2A
100
AcDbVisualStyle
  2
Sketchy
 70
    24
 71
     1
 72
     2
 73
     2
 90
        0
 40
0.6
 41
30.0
 62
     5
 63
     7
 74
     2
 91
        2
 64
     7
 65
     7
 75
     1
175
     1
 42
40.0
 92
       11
 66
     7
 43
1.0
 76
     1
 77
     6
 78
     2
 67
     7
 79
     6
170
     0
171
     0
290
     0
174
     0
 93
        1
 44
0.0
173
     0
291
     0
 45
0.0
1001
ACAD
1000
AcDbSavedByObjectVersion
1070
     0
  0
VISUALSTYLE
  5
37
102
{ACAD_REACTORS
330
2A
102
}
102
{ACAD_XDICTIONARY
360
387
102
}
330
2A
100
AcDbVisualStyle
  2
Thicken
 70
    13
 71
     2
 72
     2
 73
     0
 90
        0
 40
0.6
 41
30.0
 62
     5
 63
     7
 74
     1
 91
        4
 64
     7
 65
   257
 75
     1
175
     1
 42
1.0
 92
       12
 66
     7
 43
1.0
 76
     1
 77
     6
 78
     2
 67
     7
 79
     5
170
     0
171
     0
290
     0
174
     0
 93
        1
 44
0.0
173
     0
291
     1
 45
0.0
1001
ACAD
1000
AcDbSavedByObjectVersion
1070
     0
  0
VISUALSTYLE
  5
30
102
{ACAD_REACTORS
330
2A
102
}
102
{ACAD_XDICTIONARY
360
379
102
}
330
2A
100
AcDbVisualStyle
  2
Wireframe
 70
     5
 71
     0
 72
     2
 73
     0
 90
        0
 40
0.6
 41
30.0
 62
     5
 63
     7
 74
     1
 91
        4
 64
     7
 65
   257
 75
     1
175
     1
 42
1.0
 92
        0
 66
   257
 43
1.0
 76
     1
 77
     6
 78
     2
 67
     7
 79
     3
170
     0
171
     0
290
     0
174
     0
 93
        1
 44
0.0
173
     0
291
     0
 45
0.0
1001
ACAD
1000
AcDbSavedByObjectVersion
1070
     0
  0
VISUALSTYLE
  5
40
102
{ACAD_REACTORS
330
2A
102
}
102
{ACAD_XDICTIONARY
360
399
102
}
330
2A
100
AcDbVisualStyle
  2
X-Ray
 70
    25
 71
     2
 72
     2
 73
     1
 90
        1
 40
0.5
 41
30.0
 62
     5
 63
     7
 74
     1
 91
        0
 64
     7
 65
   257
 75
     1
175
     1
 42
1.0
 92
        8
 66
     7
 43
1.0
 76
     1
 77
     6
 78
     2
 67
     7
 79
     3
170
     0
171
     0
290
     0
174
     0
 93
       13
 44
0.0
173
     0
291
     0
 45
0.0
1001
ACAD
1000
AcDbSavedByObjectVersion
1070
     0
  0
DICTIONARYVAR
  5
36D
102
{ACAD_REACTORS
330
366
102
}
330
366
100
DictionaryVariables
280
     0
  1
1:1
  0
DICTIONARYVAR
  5
36B
102
{ACAD_REACTORS
330
366
102
}
330
366
100
DictionaryVariables
280
     0
  1
2
  0
DICTIONARYVAR
  5
36C
102
{ACAD_REACTORS
330
366
102
}
330
366
100
DictionaryVariables
280
     0
  1
1
  0
DICTIONARYVAR
  5
36E
102
{ACAD_REACTORS
330
366
102
}
330
366
100
DictionaryVariables
280
     0
  1
1
  0
DICTIONARY
  5
3A1
330
45
100
AcDbDictionary
280
     1
281
     1
  3
ACAD_XREC_ROUNDTRIP
360
3A2
  0
DICTIONARY
  5
39F
330
44
100
AcDbDictionary
280
     1
281
     1
  3
ACAD_XREC_ROUNDTRIP
360
3A0
  0
DICTIONARY
  5
3A3
330
46
100
AcDbDictionary
280
     1
281
     1
  3
ACAD_XREC_ROUNDTRIP
360
3A4
  0
DICTIONARY
  5
377
330
2F
100
AcDbDictionary
280
     1
281
     1
  3
ACAD_XREC_ROUNDTRIP
360
378
  0
DICTIONARY
  5
37D
330
32
100
AcDbDictionary
280
     1
281
     1
  3
ACAD_XREC_ROUNDTRIP
360
37E
  0
DICTIONARY
  5
385
330
36
100
AcDbDictionary
280
     1
281
     1
  3
ACAD_XREC_ROUNDTRIP
360
386
  0
DICTIONARY
  5
38D
330
3A
100
AcDbDictionary
280
     1
281
     1
  3
ACAD_XREC_ROUNDTRIP
360
38E
  0
DICTIONARY
  5
381
330
34
100
AcDbDictionary
280
     1
281
     1
  3
ACAD_XREC_ROUNDTRIP
360
382
  0
DICTIONARY
  5
383
330
35
100
AcDbDictionary
280
     1
281
     1
  3
ACAD_XREC_ROUNDTRIP
360
384
  0
DICTIONARY
  5
393
330
3D
100
AcDbDictionary
280
     1
281
     1
  3
ACAD_XREC_ROUNDTRIP
360
394
  0
DICTIONARY
  5
38B
330
39
100
AcDbDictionary
280
     1
281
     1
  3
ACAD_XREC_ROUNDTRIP
360
38C
  0
DICTIONARY
  5
36F
330
2B
100
AcDbDictionary
280
     1
281
     1
  3
ACAD_XREC_ROUNDTRIP
360
370
  0
DICTIONARY
  5
371
330
2C
100
AcDbDictionary
280
     1
281
     1
  3
ACAD_XREC_ROUNDTRIP
360
372
  0
DICTIONARY
  5
373
330
2D
100
AcDbDictionary
280
     1
281
     1
  3
ACAD_XREC_ROUNDTRIP
360
374
  0
DICTIONARY
  5
375
330
2E
100
AcDbDictionary
280
     1
281
     1
  3
ACAD_XREC_ROUNDTRIP
360
376
  0
DICTIONARY
  5
37B
330
31
100
AcDbDictionary
280
     1
281
     1
  3
ACAD_XREC_ROUNDTRIP
360
37C
  0
DICTIONARY
  5
38F
330
3B
100
AcDbDictionary
280
     1
281
     1
  3
ACAD_XREC_ROUNDTRIP
360
390
  0
DICTIONARY
  5
389
330
38
100
AcDbDictionary
280
     1
281
     1
  3
ACAD_XREC_ROUNDTRIP
360
38A
  0
DICTIONARY
  5
391
330
3C
100
AcDbDictionary
280
     1
281
     1
  3
ACAD_XREC_ROUNDTRIP
360
392
  0
DICTIONARY
  5
37F
330
33
100
AcDbDictionary
280
     1
281
     1
  3
ACAD_XREC_ROUNDTRIP
360
380
  0
DICTIONARY
  5
39D
330
42
100
AcDbDictionary
280
     1
281
     1
  3
ACAD_XREC_ROUNDTRIP
360
39E
  0
DICTIONARY
  5
39B
330
41
100
AcDbDictionary
280
     1
281
     1
  3
ACAD_XREC_ROUNDTRIP
360
39C
  0
DICTIONARY
  5
395
330
3E
100
AcDbDictionary
280
     1
281
     1
  3
ACAD_XREC_ROUNDTRIP
360
396
  0
DICTIONARY
  5
397
330
3F
100
AcDbDictionary
280
     1
281
     1
  3
ACAD_XREC_ROUNDTRIP
360
398
  0
DICTIONARY
  5
387
330
37
100
AcDbDictionary
280
     1
281
     1
  3
ACAD_XREC_ROUNDTRIP
360
388
  0
DICTIONARY
  5
379
330
30
100
AcDbDictionary
280
     1
281
     1
  3
ACAD_XREC_ROUNDTRIP
360
37A
  0
DICTIONARY
  5
399
330
40
100
AcDbDictionary
280
     1
281
     1
  3
ACAD_XREC_ROUNDTRIP
360
39A
  0
XRECORD
  5
3A2
102
{ACAD_REACTORS
330
3A1
102
}
330
3A1
100
AcDbXrecord
280
     1
102
MATERIAL
148
0.0
149
0.0
149
0.0
 93
        0
 94
      127
282
     0
 72
     1
 77
     1
171
     1
175
     1
179
     1
273
     0
  0
XRECORD
  5
3A0
102
{ACAD_REACTORS
330
39F
102
}
330
39F
100
AcDbXrecord
280
     1
102
MATERIAL
148
0.0
149
0.0
149
0.0
 93
        0
 94
      127
282
     0
 72
     1
 77
     1
171
     1
175
     1
179
     1
273
     0
  0
XRECORD
  5
3A4
102
{ACAD_REACTORS
330
3A3
102
}
330
3A3
100
AcDbXrecord
280
     1
102
MATERIAL
148
0.0
149
0.0
149
0.0
 93
        0
 94
      127
282
     0
 72
     1
 77
     1
171
     1
175
     1
179
     1
273
     0
  0
XRECORD
  5
378
102
{ACAD_REACTORS
330
377
102
}
330
377
100
AcDbXrecord
280
     1
102
RTVSPropertyOp0
 70
     1
102
RTVSPropertyOp1
 70
     1
102
RTVSPropertyOp2
 70
     1
102
RTVSPropertyOp3
 70
     1
102
RTVSPropertyOp4
 70
     1
102
RTVSPropertyOp5
 70
     1
102
RTVSPropertyOp6
 70
     1
102
RTVSPropertyOp7
 70
     1
102
RTVSPropertyOp8
 70
     1
102
RTVSPropertyOp9
 70
     1
102
RTVSPropertyOp10
 70
     1
102
RTVSPropertyOp11
 70
     1
102
RTVSPropertyOp12
 70
     1
102
RTVSPropertyOp13
 70
     1
102
RTVSPropertyOp14
 70
     1
102
RTVSPropertyOp15
 70
     1
102
RTVSPropertyOp16
 70
     1
102
RTVSPropertyOp17
 70
     1
102
RTVSPropertyOp18
 70
     1
102
RTVSPropertyOp19
 70
     1
102
RTVSPropertyOp20
 70
     1
102
RTVSPropertyOp21
 70
     1
102
RTVSPropertyOp22
 70
     1
102
RTVSPropertyOp23
 70
     1
102
RTVSPropertyOp24
 70
     1
102
RTVSPropertyOp25
 70
     1
102
RTVSPropertyOp26
 70
     1
102
RTVSPropertyOp27
 70
     1
102
RTVSPropertyOp28
 70
     1
102
RTVSPropertyOp29
 70
     1
102
RTVSPropertyOp30
 70
     1
102
RTVSPropertyOp31
 70
     1
102
RTVSPropertyOp32
 70
     1
102
RTVSPropertyOp33
 70
     1
102
RTVSPropertyOp34
 70
     1
102
RTVSPropertyOp35
 70
     1
102
RTVSPropertyOp36
 70
     1
102
RTVSPropertyOp37
 70
     1
102
RTVSPropertyOp38
 70
     1
102
RTVSPropertyOp39
 70
     1
102
RTVSPropertyOp40
 70
     1
102
RTVSPropertyOp41
 70
     1
102
RTVSPropertyOp42
 70
     1
102
RTVSPropertyOp43
 70
     1
102
RTVSPropertyOp44
 70
     1
102
RTVSPropertyOp45
 70
     1
102
RTVSPropertyOp46
 70
     1
102
RTVSPropertyOp47
 70
     1
102
RTVSPropertyOp48
 70
     1
102
RTVSPropertyOp49
 70
     1
102
RTVSPropertyOp50
 70
     1
102
RTVSPropertyOp51
 70
     0
102
RTVSPropertyOp52
 70
     0
102
RTVSPropertyOp53
 70
     1
102
RTVSPropertyOp54
 70
     1
102
RTVSPropertyOp55
 70
     1
102
RTVSPropertyOp56
 70
     1
102
RTVSPropertyOp57
 70
     1
102
RTVSPost2010Prop28
280
     1
102
RTVSPost2010PropOp28
 70
     1
102
RTVSPost2010Prop29
280
     1
102
RTVSPost2010PropOp29
 70
     1
102
RTVSPost2010Prop30
280
     0
102
RTVSPost2010PropOp30
 70
     1
102
RTVSPost2010Prop31
280
     0
102
RTVSPost2010PropOp31
 70
     1
102
RTVSPost2010Prop32
280
     0
102
RTVSPost2010PropOp32
 70
     1
102
RTVSPost2010Prop33
280
     0
102
RTVSPost2010PropOp33
 70
     1
102
RTVSPost2010Prop34
280
     0
102
RTVSPost2010PropOp34
 70
     1
102
RTVSPost2010Prop35
280
     0
102
RTVSPost2010PropOp35
 70
     1
102
RTVSPost2010Prop36
280
     0
102
RTVSPost2010PropOp36
 70
     1
102
RTVSPost2010Prop37
 90
       50
102
RTVSPost2010PropOp37
 70
     1
102
RTVSPost2010Prop38
140
0.0
102
RTVSPost2010PropOp38
 70
     1
102
RTVSPost2010Prop39
140
1.0
102
RTVSPost2010PropOp39
 70
     1
102
RTVSPost2010Prop40
 90
        0
102
RTVSPost2010PropOp40
 70
     1
102
RTVSPost2010Prop41ColorIndex
 90
       18
102
RTVSPost2010Prop41ColorRGB
 90
        0
102
RTVSPost2010PropOp41
 70
     1
102
RTVSPost2010Prop42
 90
       50
102
RTVSPost2010PropOp42
 70
     1
102
RTVSPost2010Prop43
 90
        3
102
RTVSPost2010PropOp43
 70
     1
102
RTVSPost2010Prop44ColorIndex
 90
        5
102
RTVSPost2010Prop44ColorRGB
 90
      255
102
RTVSPost2010PropOp44
 70
     1
102
RTVSPost2010Prop45
280
     0
102
RTVSPost2010PropOp45
 70
     1
102
RTVSPost2010Prop46
 90
       50
102
RTVSPost2010PropOp46
 70
     1
102
RTVSPost2010Prop47
 90
       50
102
RTVSPost2010PropOp47
 70
     1
102
RTVSPost2010Prop48
 90
       50
102
RTVSPost2010PropOp48
 70
     1
102
RTVSPost2010Prop49
280
     0
102
RTVSPost2010PropOp49
 70
     1
102
RTVSPost2010Prop50
 90
       50
102
RTVSPost2010PropOp50
 70
     1
102
RTVSPost2010Prop51ColorIndex
 90
      256
102
RTVSPost2010Prop51ColorRGB
 90
-16777216
102
RTVSPost2010PropOp51
 70
     0
102
RTVSPost2010Prop52
140
1.0
102
RTVSPost2010PropOp52
 70
     0
102
RTVSPost2010Prop53
 90
        2
102
RTVSPost2010PropOp53
 70
     1
102
RTVSPost2010Prop54
  1
strokes_ogs.tif
102
RTVSPost2010PropOp54
 70
     1
102
RTVSPost2010Prop55
280
     0
102
RTVSPost2010PropOp55
 70
     1
102
RTVSPost2010Prop56
140
1.0
102
RTVSPost2010PropOp56
 70
     1
102
RTVSPost2010Prop57
140
1.0
102
RTVSPost2010PropOp57
 70
     1
  0
XRECORD
  5
37E
102
{ACAD_REACTORS
330
37D
102
}
330
37D
100
AcDbXrecord
280
     1
102
RTVSPropertyOp0
 70
     1
102
RTVSPropertyOp1
 70
     1
102
RTVSPropertyOp2
 70
     1
102
RTVSPropertyOp3
 70
     1
102
RTVSPropertyOp4
 70
     1
102
RTVSPropertyOp5
 70
     1
102
RTVSPropertyOp6
 70
     1
102
RTVSPropertyOp7
 70
     1
102
RTVSPropertyOp8
 70
     1
102
RTVSPropertyOp9
 70
     1
102
RTVSPropertyOp10
 70
     1
102
RTVSPropertyOp11
 70
     1
102
RTVSPropertyOp12
 70
     1
102
RTVSPropertyOp13
 70
     1
102
RTVSPropertyOp14
 70
     1
102
RTVSPropertyOp15
 70
     1
102
RTVSPropertyOp16
 70
     1
102
RTVSPropertyOp17
 70
     1
102
RTVSPropertyOp18
 70
     1
102
RTVSPropertyOp19
 70
     1
102
RTVSPropertyOp20
 70
     1
102
RTVSPropertyOp21
 70
     1
102
RTVSPropertyOp22
 70
     1
102
RTVSPropertyOp23
 70
     1
102
RTVSPropertyOp24
 70
     1
102
RTVSPropertyOp25
 70
     1
102
RTVSPropertyOp26
 70
     1
102
RTVSPropertyOp27
 70
     1
102
RTVSPropertyOp28
 70
     1
102
RTVSPropertyOp29
 70
     1
102
RTVSPropertyOp30
 70
     1
102
RTVSPropertyOp31
 70
     1
102
RTVSPropertyOp32
 70
     1
102
RTVSPropertyOp33
 70
     1
102
RTVSPropertyOp34
 70
     1
102
RTVSPropertyOp35
 70
     1
102
RTVSPropertyOp36
 70
     1
102
RTVSPropertyOp37
 70
     1
102
RTVSPropertyOp38
 70
     1
102
RTVSPropertyOp39
 70
     1
102
RTVSPropertyOp40
 70
     1
102
RTVSPropertyOp41
 70
     1
102
RTVSPropertyOp42
 70
     1
102
RTVSPropertyOp43
 70
     1
102
RTVSPropertyOp44
 70
     1
102
RTVSPropertyOp45
 70
     1
102
RTVSPropertyOp46
 70
     1
102
RTVSPropertyOp47
 70
     1
102
RTVSPropertyOp48
 70
     1
102
RTVSPropertyOp49
 70
     1
102
RTVSPropertyOp50
 70
     1
102
RTVSPropertyOp51
 70
     0
102
RTVSPropertyOp52
 70
     0
102
RTVSPropertyOp53
 70
     1
102
RTVSPropertyOp54
 70
     1
102
RTVSPropertyOp55
 70
     1
102
RTVSPropertyOp56
 70
     1
102
RTVSPropertyOp57
 70
     1
102
RTVSPost2010Prop28
280
     0
102
RTVSPost2010PropOp28
 70
     1
102
RTVSPost2010Prop29
280
     1
102
RTVSPost2010PropOp29
 70
     1
102
RTVSPost2010Prop30
280
     1
102
RTVSPost2010PropOp30
 70
     1
102
RTVSPost2010Prop31
280
     0
102
RTVSPost2010PropOp31
 70
     1
102
RTVSPost2010Prop32
280
     0
102
RTVSPost2010PropOp32
 70
     1
102
RTVSPost2010Prop33
280
     0
102
RTVSPost2010PropOp33
 70
     1
102
RTVSPost2010Prop34
280
     0
102
RTVSPost2010PropOp34
 70
     1
102
RTVSPost2010Prop35
280
     0
102
RTVSPost2010PropOp35
 70
     1
102
RTVSPost2010Prop36
280
     0
102
RTVSPost2010PropOp36
 70
     1
102
RTVSPost2010Prop37
 90
       50
102
RTVSPost2010PropOp37
 70
     1
102
RTVSPost2010Prop38
140
0.0
102
RTVSPost2010PropOp38
 70
     1
102
RTVSPost2010Prop39
140
1.0
102
RTVSPost2010PropOp39
 70
     1
102
RTVSPost2010Prop40
 90
        0
102
RTVSPost2010PropOp40
 70
     1
102
RTVSPost2010Prop41ColorIndex
 90
       18
102
RTVSPost2010Prop41ColorRGB
 90
        0
102
RTVSPost2010PropOp41
 70
     1
102
RTVSPost2010Prop42
 90
       50
102
RTVSPost2010PropOp42
 70
     1
102
RTVSPost2010Prop43
 90
        3
102
RTVSPost2010PropOp43
 70
     1
102
RTVSPost2010Prop44ColorIndex
 90
        5
102
RTVSPost2010Prop44ColorRGB
 90
      255
102
RTVSPost2010PropOp44
 70
     1
102
RTVSPost2010Prop45
280
     0
102
RTVSPost2010PropOp45
 70
     1
102
RTVSPost2010Prop46
 90
       50
102
RTVSPost2010PropOp46
 70
     1
102
RTVSPost2010Prop47
 90
       50
102
RTVSPost2010PropOp47
 70
     1
102
RTVSPost2010Prop48
 90
       50
102
RTVSPost2010PropOp48
 70
     1
102
RTVSPost2010Prop49
280
     0
102
RTVSPost2010PropOp49
 70
     1
102
RTVSPost2010Prop50
 90
       50
102
RTVSPost2010PropOp50
 70
     1
102
RTVSPost2010Prop51ColorIndex
 90
      256
102
RTVSPost2010Prop51ColorRGB
 90
-16777216
102
RTVSPost2010PropOp51
 70
     0
102
RTVSPost2010Prop52
140
1.0
102
RTVSPost2010PropOp52
 70
     0
102
RTVSPost2010Prop53
 90
        2
102
RTVSPost2010PropOp53
 70
     1
102
RTVSPost2010Prop54
  1
strokes_ogs.tif
102
RTVSPost2010PropOp54
 70
     1
102
RTVSPost2010Prop55
280
     0
102
RTVSPost2010PropOp55
 70
     1
102
RTVSPost2010Prop56
140
1.0
102
RTVSPost2010PropOp56
 70
     1
102
RTVSPost2010Prop57
140
1.0
102
RTVSPost2010PropOp57
 70
     1
  0
XRECORD
  5
386
102
{ACAD_REACTORS
330
385
102
}
330
385
100
AcDbXrecord
280
     1
102
RTVSPropertyOp0
 70
     1
102
RTVSPropertyOp1
 70
     1
102
RTVSPropertyOp2
 70
     1
102
RTVSPropertyOp3
 70
     1
102
RTVSPropertyOp4
 70
     1
102
RTVSPropertyOp5
 70
     1
102
RTVSPropertyOp6
 70
     1
102
RTVSPropertyOp7
 70
     1
102
RTVSPropertyOp8
 70
     1
102
RTVSPropertyOp9
 70
     1
102
RTVSPropertyOp10
 70
     1
102
RTVSPropertyOp11
 70
     1
102
RTVSPropertyOp12
 70
     1
102
RTVSPropertyOp13
 70
     1
102
RTVSPropertyOp14
 70
     1
102
RTVSPropertyOp15
 70
     1
102
RTVSPropertyOp16
 70
     1
102
RTVSPropertyOp17
 70
     1
102
RTVSPropertyOp18
 70
     1
102
RTVSPropertyOp19
 70
     1
102
RTVSPropertyOp20
 70
     1
102
RTVSPropertyOp21
 70
     1
102
RTVSPropertyOp22
 70
     1
102
RTVSPropertyOp23
 70
     1
102
RTVSPropertyOp24
 70
     1
102
RTVSPropertyOp25
 70
     1
102
RTVSPropertyOp26
 70
     1
102
RTVSPropertyOp27
 70
     1
102
RTVSPropertyOp28
 70
     1
102
RTVSPropertyOp29
 70
     1
102
RTVSPropertyOp30
 70
     1
102
RTVSPropertyOp31
 70
     1
102
RTVSPropertyOp32
 70
     1
102
RTVSPropertyOp33
 70
     1
102
RTVSPropertyOp34
 70
     1
102
RTVSPropertyOp35
 70
     1
102
RTVSPropertyOp36
 70
     1
102
RTVSPropertyOp37
 70
     1
102
RTVSPropertyOp38
 70
     1
102
RTVSPropertyOp39
 70
     1
102
RTVSPropertyOp40
 70
     1
102
RTVSPropertyOp41
 70
     1
102
RTVSPropertyOp42
 70
     1
102
RTVSPropertyOp43
 70
     1
102
RTVSPropertyOp44
 70
     1
102
RTVSPropertyOp45
 70
     1
102
RTVSPropertyOp46
 70
     1
102
RTVSPropertyOp47
 70
     1
102
RTVSPropertyOp48
 70
     1
102
RTVSPropertyOp49
 70
     1
102
RTVSPropertyOp50
 70
     1
102
RTVSPropertyOp51
 70
     0
102
RTVSPropertyOp52
 70
     0
102
RTVSPropertyOp53
 70
     1
102
RTVSPropertyOp54
 70
     1
102
RTVSPropertyOp55
 70
     1
102
RTVSPropertyOp56
 70
     1
102
RTVSPropertyOp57
 70
     1
102
RTVSPost2010Prop28
280
     0
102
RTVSPost2010PropOp28
 70
     1
102
RTVSPost2010Prop29
280
     1
102
RTVSPost2010PropOp29
 70
     1
102
RTVSPost2010Prop30
280
     1
102
RTVSPost2010PropOp30
 70
     1
102
RTVSPost2010Prop31
280
     0
102
RTVSPost2010PropOp31
 70
     1
102
RTVSPost2010Prop32
280
     0
102
RTVSPost2010PropOp32
 70
     1
102
RTVSPost2010Prop33
280
     0
102
RTVSPost2010PropOp33
 70
     1
102
RTVSPost2010Prop34
280
     0
102
RTVSPost2010PropOp34
 70
     1
102
RTVSPost2010Prop35
280
     0
102
RTVSPost2010PropOp35
 70
     1
102
RTVSPost2010Prop36
280
     0
102
RTVSPost2010PropOp36
 70
     1
102
RTVSPost2010Prop37
 90
       50
102
RTVSPost2010PropOp37
 70
     1
102
RTVSPost2010Prop38
140
0.0
102
RTVSPost2010PropOp38
 70
     1
102
RTVSPost2010Prop39
140
1.0
102
RTVSPost2010PropOp39
 70
     1
102
RTVSPost2010Prop40
 90
        0
102
RTVSPost2010PropOp40
 70
     1
102
RTVSPost2010Prop41ColorIndex
 90
       18
102
RTVSPost2010Prop41ColorRGB
 90
        0
102
RTVSPost2010PropOp41
 70
     1
102
RTVSPost2010Prop42
 90
       50
102
RTVSPost2010PropOp42
 70
     1
102
RTVSPost2010Prop43
 90
        3
102
RTVSPost2010PropOp43
 70
     1
102
RTVSPost2010Prop44ColorIndex
 90
        5
102
RTVSPost2010Prop44ColorRGB
 90
      255
102
RTVSPost2010PropOp44
 70
     1
102
RTVSPost2010Prop45
280
     0
102
RTVSPost2010PropOp45
 70
     1
102
RTVSPost2010Prop46
 90
       50
102
RTVSPost2010PropOp46
 70
     1
102
RTVSPost2010Prop47
 90
       50
102
RTVSPost2010PropOp47
 70
     1
102
RTVSPost2010Prop48
 90
       50
102
RTVSPost2010PropOp48
 70
     1
102
RTVSPost2010Prop49
280
     0
102
RTVSPost2010PropOp49
 70
     1
102
RTVSPost2010Prop50
 90
       50
102
RTVSPost2010PropOp50
 70
     1
102
RTVSPost2010Prop51ColorIndex
 90
      256
102
RTVSPost2010Prop51ColorRGB
 90
-16777216
102
RTVSPost2010PropOp51
 70
     0
102
RTVSPost2010Prop52
140
1.0
102
RTVSPost2010PropOp52
 70
     0
102
RTVSPost2010Prop53
 90
        2
102
RTVSPost2010PropOp53
 70
     1
102
RTVSPost2010Prop54
  1
strokes_ogs.tif
102
RTVSPost2010PropOp54
 70
     1
102
RTVSPost2010Prop55
280
     0
102
RTVSPost2010PropOp55
 70
     1
102
RTVSPost2010Prop56
140
1.0
102
RTVSPost2010PropOp56
 70
     1
102
RTVSPost2010Prop57
140
1.0
102
RTVSPost2010PropOp57
 70
     1
  0
XRECORD
  5
38E
102
{ACAD_REACTORS
330
38D
102
}
330
38D
100
AcDbXrecord
280
     1
102
RTVSPropertyOp0
 70
     1
102
RTVSPropertyOp1
 70
     1
102
RTVSPropertyOp2
 70
     1
102
RTVSPropertyOp3
 70
     1
102
RTVSPropertyOp4
 70
     1
102
RTVSPropertyOp5
 70
     1
102
RTVSPropertyOp6
 70
     1
102
RTVSPropertyOp7
 70
     1
102
RTVSPropertyOp8
 70
     1
102
RTVSPropertyOp9
 70
     1
102
RTVSPropertyOp10
 70
     1
102
RTVSPropertyOp11
 70
     1
102
RTVSPropertyOp12
 70
     1
102
RTVSPropertyOp13
 70
     1
102
RTVSPropertyOp14
 70
     1
102
RTVSPropertyOp15
 70
     1
102
RTVSPropertyOp16
 70
     1
102
RTVSPropertyOp17
 70
     1
102
RTVSPropertyOp18
 70
     1
102
RTVSPropertyOp19
 70
     1
102
RTVSPropertyOp20
 70
     1
102
RTVSPropertyOp21
 70
     1
102
RTVSPropertyOp22
 70
     1
102
RTVSPropertyOp23
 70
     1
102
RTVSPropertyOp24
 70
     1
102
RTVSPropertyOp25
 70
     1
102
RTVSPropertyOp26
 70
     1
102
RTVSPropertyOp27
 70
     1
102
RTVSPropertyOp28
 70
     1
102
RTVSPropertyOp29
 70
     1
102
RTVSPropertyOp30
 70
     1
102
RTVSPropertyOp31
 70
     1
102
RTVSPropertyOp32
 70
     1
102
RTVSPropertyOp33
 70
     1
102
RTVSPropertyOp34
 70
     1
102
RTVSPropertyOp35
 70
     1
102
RTVSPropertyOp36
 70
     1
102
RTVSPropertyOp37
 70
     1
102
RTVSPropertyOp38
 70
     1
102
RTVSPropertyOp39
 70
     1
102
RTVSPropertyOp40
 70
     1
102
RTVSPropertyOp41
 70
     1
102
RTVSPropertyOp42
 70
     1
102
RTVSPropertyOp43
 70
     1
102
RTVSPropertyOp44
 70
     1
102
RTVSPropertyOp45
 70
     1
102
RTVSPropertyOp46
 70
     1
102
RTVSPropertyOp47
 70
     1
102
RTVSPropertyOp48
 70
     1
102
RTVSPropertyOp49
 70
     1
102
RTVSPropertyOp50
 70
     1
102
RTVSPropertyOp51
 70
     0
102
RTVSPropertyOp52
 70
     0
102
RTVSPropertyOp53
 70
     1
102
RTVSPropertyOp54
 70
     1
102
RTVSPropertyOp55
 70
     1
102
RTVSPropertyOp56
 70
     1
102
RTVSPropertyOp57
 70
     1
102
RTVSPost2010Prop28
280
     0
102
RTVSPost2010PropOp28
 70
     1
102
RTVSPost2010Prop29
280
     1
102
RTVSPost2010PropOp29
 70
     1
102
RTVSPost2010Prop30
280
     1
102
RTVSPost2010PropOp30
 70
     1
102
RTVSPost2010Prop31
280
     0
102
RTVSPost2010PropOp31
 70
     1
102
RTVSPost2010Prop32
280
     0
102
RTVSPost2010PropOp32
 70
     1
102
RTVSPost2010Prop33
280
     0
102
RTVSPost2010PropOp33
 70
     1
102
RTVSPost2010Prop34
280
     0
102
RTVSPost2010PropOp34
 70
     1
102
RTVSPost2010Prop35
280
     0
102
RTVSPost2010PropOp35
 70
     1
102
RTVSPost2010Prop36
280
     0
102
RTVSPost2010PropOp36
 70
     1
102
RTVSPost2010Prop37
 90
       50
102
RTVSPost2010PropOp37
 70
     1
102
RTVSPost2010Prop38
140
0.0
102
RTVSPost2010PropOp38
 70
     1
102
RTVSPost2010Prop39
140
1.0
102
RTVSPost2010PropOp39
 70
     1
102
RTVSPost2010Prop40
 90
        0
102
RTVSPost2010PropOp40
 70
     1
102
RTVSPost2010Prop41ColorIndex
 90
       18
102
RTVSPost2010Prop41ColorRGB
 90
        0
102
RTVSPost2010PropOp41
 70
     1
102
RTVSPost2010Prop42
 90
       50
102
RTVSPost2010PropOp42
 70
     1
102
RTVSPost2010Prop43
 90
        3
102
RTVSPost2010PropOp43
 70
     1
102
RTVSPost2010Prop44ColorIndex
 90
        5
102
RTVSPost2010Prop44ColorRGB
 90
      255
102
RTVSPost2010PropOp44
 70
     1
102
RTVSPost2010Prop45
280
     0
102
RTVSPost2010PropOp45
 70
     1
102
RTVSPost2010Prop46
 90
       50
102
RTVSPost2010PropOp46
 70
     1
102
RTVSPost2010Prop47
 90
       50
102
RTVSPost2010PropOp47
 70
     1
102
RTVSPost2010Prop48
 90
       50
102
RTVSPost2010PropOp48
 70
     1
102
RTVSPost2010Prop49
280
     0
102
RTVSPost2010PropOp49
 70
     1
102
RTVSPost2010Prop50
 90
       50
102
RTVSPost2010PropOp50
 70
     1
102
RTVSPost2010Prop51ColorIndex
 90
      256
102
RTVSPost2010Prop51ColorRGB
 90
-16777216
102
RTVSPost2010PropOp51
 70
     0
102
RTVSPost2010Prop52
140
1.0
102
RTVSPost2010PropOp52
 70
     0
102
RTVSPost2010Prop53
 90
        2
102
RTVSPost2010PropOp53
 70
     1
102
RTVSPost2010Prop54
  1
strokes_ogs.tif
102
RTVSPost2010PropOp54
 70
     1
102
RTVSPost2010Prop55
280
     0
102
RTVSPost2010PropOp55
 70
     1
102
RTVSPost2010Prop56
140
1.0
102
RTVSPost2010PropOp56
 70
     1
102
RTVSPost2010Prop57
140
1.0
102
RTVSPost2010PropOp57
 70
     1
  0
XRECORD
  5
382
102
{ACAD_REACTORS
330
381
102
}
330
381
100
AcDbXrecord
280
     1
102
RTVSPropertyOp0
 70
     1
102
RTVSPropertyOp1
 70
     1
102
RTVSPropertyOp2
 70
     1
102
RTVSPropertyOp3
 70
     1
102
RTVSPropertyOp4
 70
     1
102
RTVSPropertyOp5
 70
     1
102
RTVSPropertyOp6
 70
     1
102
RTVSPropertyOp7
 70
     1
102
RTVSPropertyOp8
 70
     1
102
RTVSPropertyOp9
 70
     1
102
RTVSPropertyOp10
 70
     1
102
RTVSPropertyOp11
 70
     1
102
RTVSPropertyOp12
 70
     1
102
RTVSPropertyOp13
 70
     1
102
RTVSPropertyOp14
 70
     1
102
RTVSPropertyOp15
 70
     1
102
RTVSPropertyOp16
 70
     1
102
RTVSPropertyOp17
 70
     1
102
RTVSPropertyOp18
 70
     1
102
RTVSPropertyOp19
 70
     1
102
RTVSPropertyOp20
 70
     1
102
RTVSPropertyOp21
 70
     1
102
RTVSPropertyOp22
 70
     1
102
RTVSPropertyOp23
 70
     1
102
RTVSPropertyOp24
 70
     1
102
RTVSPropertyOp25
 70
     1
102
RTVSPropertyOp26
 70
     1
102
RTVSPropertyOp27
 70
     1
102
RTVSPropertyOp28
 70
     1
102
RTVSPropertyOp29
 70
     1
102
RTVSPropertyOp30
 70
     1
102
RTVSPropertyOp31
 70
     1
102
RTVSPropertyOp32
 70
     1
102
RTVSPropertyOp33
 70
     1
102
RTVSPropertyOp34
 70
     1
102
RTVSPropertyOp35
 70
     1
102
RTVSPropertyOp36
 70
     1
102
RTVSPropertyOp37
 70
     1
102
RTVSPropertyOp38
 70
     1
102
RTVSPropertyOp39
 70
     1
102
RTVSPropertyOp40
 70
     1
102
RTVSPropertyOp41
 70
     1
102
RTVSPropertyOp42
 70
     1
102
RTVSPropertyOp43
 70
     1
102
RTVSPropertyOp44
 70
     1
102
RTVSPropertyOp45
 70
     1
102
RTVSPropertyOp46
 70
     1
102
RTVSPropertyOp47
 70
     1
102
RTVSPropertyOp48
 70
     1
102
RTVSPropertyOp49
 70
     1
102
RTVSPropertyOp50
 70
     1
102
RTVSPropertyOp51
 70
     0
102
RTVSPropertyOp52
 70
     0
102
RTVSPropertyOp53
 70
     1
102
RTVSPropertyOp54
 70
     1
102
RTVSPropertyOp55
 70
     1
102
RTVSPropertyOp56
 70
     1
102
RTVSPropertyOp57
 70
     1
102
RTVSPost2010Prop28
280
     0
102
RTVSPost2010PropOp28
 70
     1
102
RTVSPost2010Prop29
280
     1
102
RTVSPost2010PropOp29
 70
     1
102
RTVSPost2010Prop30
280
     1
102
RTVSPost2010PropOp30
 70
     1
102
RTVSPost2010Prop31
280
     0
102
RTVSPost2010PropOp31
 70
     1
102
RTVSPost2010Prop32
280
     0
102
RTVSPost2010PropOp32
 70
     1
102
RTVSPost2010Prop33
280
     0
102
RTVSPost2010PropOp33
 70
     1
102
RTVSPost2010Prop34
280
     0
102
RTVSPost2010PropOp34
 70
     1
102
RTVSPost2010Prop35
280
     0
102
RTVSPost2010PropOp35
 70
     1
102
RTVSPost2010Prop36
280
     0
102
RTVSPost2010PropOp36
 70
     1
102
RTVSPost2010Prop37
 90
       50
102
RTVSPost2010PropOp37
 70
     1
102
RTVSPost2010Prop38
140
0.0
102
RTVSPost2010PropOp38
 70
     1
102
RTVSPost2010Prop39
140
1.0
102
RTVSPost2010PropOp39
 70
     1
102
RTVSPost2010Prop40
 90
        0
102
RTVSPost2010PropOp40
 70
     1
102
RTVSPost2010Prop41ColorIndex
 90
       18
102
RTVSPost2010Prop41ColorRGB
 90
        0
102
RTVSPost2010PropOp41
 70
     1
102
RTVSPost2010Prop42
 90
       50
102
RTVSPost2010PropOp42
 70
     1
102
RTVSPost2010Prop43
 90
        3
102
RTVSPost2010PropOp43
 70
     1
102
RTVSPost2010Prop44ColorIndex
 90
        5
102
RTVSPost2010Prop44ColorRGB
 90
      255
102
RTVSPost2010PropOp44
 70
     1
102
RTVSPost2010Prop45
280
     0
102
RTVSPost2010PropOp45
 70
     1
102
RTVSPost2010Prop46
 90
       50
102
RTVSPost2010PropOp46
 70
     1
102
RTVSPost2010Prop47
 90
       50
102
RTVSPost2010PropOp47
 70
     1
102
RTVSPost2010Prop48
 90
       50
102
RTVSPost2010PropOp48
 70
     1
102
RTVSPost2010Prop49
280
     0
102
RTVSPost2010PropOp49
 70
     1
102
RTVSPost2010Prop50
 90
       50
102
RTVSPost2010PropOp50
 70
     1
102
RTVSPost2010Prop51ColorIndex
 90
      256
102
RTVSPost2010Prop51ColorRGB
 90
-16777216
102
RTVSPost2010PropOp51
 70
     0
102
RTVSPost2010Prop52
140
1.0
102
RTVSPost2010PropOp52
 70
     0
102
RTVSPost2010Prop53
 90
        2
102
RTVSPost2010PropOp53
 70
     1
102
RTVSPost2010Prop54
  1
strokes_ogs.tif
102
RTVSPost2010PropOp54
 70
     1
102
RTVSPost2010Prop55
280
     0
102
RTVSPost2010PropOp55
 70
     1
102
RTVSPost2010Prop56
140
1.0
102
RTVSPost2010PropOp56
 70
     1
102
RTVSPost2010Prop57
140
1.0
102
RTVSPost2010PropOp57
 70
     1
  0
XRECORD
  5
384
102
{ACAD_REACTORS
330
383
102
}
330
383
100
AcDbXrecord
280
     1
102
RTVSPropertyOp0
 70
     1
102
RTVSPropertyOp1
 70
     1
102
RTVSPropertyOp2
 70
     1
102
RTVSPropertyOp3
 70
     1
102
RTVSPropertyOp4
 70
     1
102
RTVSPropertyOp5
 70
     1
102
RTVSPropertyOp6
 70
     1
102
RTVSPropertyOp7
 70
     1
102
RTVSPropertyOp8
 70
     1
102
RTVSPropertyOp9
 70
     1
102
RTVSPropertyOp10
 70
     1
102
RTVSPropertyOp11
 70
     1
102
RTVSPropertyOp12
 70
     1
102
RTVSPropertyOp13
 70
     1
102
RTVSPropertyOp14
 70
     1
102
RTVSPropertyOp15
 70
     1
102
RTVSPropertyOp16
 70
     1
102
RTVSPropertyOp17
 70
     1
102
RTVSPropertyOp18
 70
     1
102
RTVSPropertyOp19
 70
     1
102
RTVSPropertyOp20
 70
     1
102
RTVSPropertyOp21
 70
     1
102
RTVSPropertyOp22
 70
     1
102
RTVSPropertyOp23
 70
     1
102
RTVSPropertyOp24
 70
     1
102
RTVSPropertyOp25
 70
     1
102
RTVSPropertyOp26
 70
     1
102
RTVSPropertyOp27
 70
     1
102
RTVSPropertyOp28
 70
     1
102
RTVSPropertyOp29
 70
     1
102
RTVSPropertyOp30
 70
     1
102
RTVSPropertyOp31
 70
     1
102
RTVSPropertyOp32
 70
     1
102
RTVSPropertyOp33
 70
     1
102
RTVSPropertyOp34
 70
     1
102
RTVSPropertyOp35
 70
     1
102
RTVSPropertyOp36
 70
     1
102
RTVSPropertyOp37
 70
     1
102
RTVSPropertyOp38
 70
     1
102
RTVSPropertyOp39
 70
     1
102
RTVSPropertyOp40
 70
     1
102
RTVSPropertyOp41
 70
     1
102
RTVSPropertyOp42
 70
     1
102
RTVSPropertyOp43
 70
     1
102
RTVSPropertyOp44
 70
     1
102
RTVSPropertyOp45
 70
     1
102
RTVSPropertyOp46
 70
     1
102
RTVSPropertyOp47
 70
     1
102
RTVSPropertyOp48
 70
     1
102
RTVSPropertyOp49
 70
     1
102
RTVSPropertyOp50
 70
     1
102
RTVSPropertyOp51
 70
     0
102
RTVSPropertyOp52
 70
     0
102
RTVSPropertyOp53
 70
     1
102
RTVSPropertyOp54
 70
     1
102
RTVSPropertyOp55
 70
     1
102
RTVSPropertyOp56
 70
     1
102
RTVSPropertyOp57
 70
     1
102
RTVSPost2010Prop28
280
     0
102
RTVSPost2010PropOp28
 70
     1
102
RTVSPost2010Prop29
280
     1
102
RTVSPost2010PropOp29
 70
     1
102
RTVSPost2010Prop30
280
     1
102
RTVSPost2010PropOp30
 70
     1
102
RTVSPost2010Prop31
280
     0
102
RTVSPost2010PropOp31
 70
     1
102
RTVSPost2010Prop32
280
     0
102
RTVSPost2010PropOp32
 70
     1
102
RTVSPost2010Prop33
280
     0
102
RTVSPost2010PropOp33
 70
     1
102
RTVSPost2010Prop34
280
     0
102
RTVSPost2010PropOp34
 70
     1
102
RTVSPost2010Prop35
280
     0
102
RTVSPost2010PropOp35
 70
     1
102
RTVSPost2010Prop36
280
     0
102
RTVSPost2010PropOp36
 70
     1
102
RTVSPost2010Prop37
 90
       50
102
RTVSPost2010PropOp37
 70
     1
102
RTVSPost2010Prop38
140
0.0
102
RTVSPost2010PropOp38
 70
     1
102
RTVSPost2010Prop39
140
1.0
102
RTVSPost2010PropOp39
 70
     1
102
RTVSPost2010Prop40
 90
        0
102
RTVSPost2010PropOp40
 70
     1
102
RTVSPost2010Prop41ColorIndex
 90
       18
102
RTVSPost2010Prop41ColorRGB
 90
        0
102
RTVSPost2010PropOp41
 70
     1
102
RTVSPost2010Prop42
 90
       50
102
RTVSPost2010PropOp42
 70
     1
102
RTVSPost2010Prop43
 90
        3
102
RTVSPost2010PropOp43
 70
     1
102
RTVSPost2010Prop44ColorIndex
 90
        5
102
RTVSPost2010Prop44ColorRGB
 90
      255
102
RTVSPost2010PropOp44
 70
     1
102
RTVSPost2010Prop45
280
     0
102
RTVSPost2010PropOp45
 70
     1
102
RTVSPost2010Prop46
 90
       50
102
RTVSPost2010PropOp46
 70
     1
102
RTVSPost2010Prop47
 90
       50
102
RTVSPost2010PropOp47
 70
     1
102
RTVSPost2010Prop48
 90
       50
102
RTVSPost2010PropOp48
 70
     1
102
RTVSPost2010Prop49
280
     0
102
RTVSPost2010PropOp49
 70
     1
102
RTVSPost2010Prop50
 90
       50
102
RTVSPost2010PropOp50
 70
     1
102
RTVSPost2010Prop51ColorIndex
 90
      256
102
RTVSPost2010Prop51ColorRGB
 90
-16777216
102
RTVSPost2010PropOp51
 70
     0
102
RTVSPost2010Prop52
140
1.0
102
RTVSPost2010PropOp52
 70
     0
102
RTVSPost2010Prop53
 90
        2
102
RTVSPost2010PropOp53
 70
     1
102
RTVSPost2010Prop54
  1
strokes_ogs.tif
102
RTVSPost2010PropOp54
 70
     1
102
RTVSPost2010Prop55
280
     0
102
RTVSPost2010PropOp55
 70
     1
102
RTVSPost2010Prop56
140
1.0
102
RTVSPost2010PropOp56
 70
     1
102
RTVSPost2010Prop57
140
1.0
102
RTVSPost2010PropOp57
 70
     1
  0
XRECORD
  5
394
102
{ACAD_REACTORS
330
393
102
}
330
393
100
AcDbXrecord
280
     1
102
RTVSPropertyOp0
 70
     0
102
RTVSPropertyOp1
 70
     0
102
RTVSPropertyOp2
 70
     0
102
RTVSPropertyOp3
 70
     0
102
RTVSPropertyOp4
 70
     0
102
RTVSPropertyOp5
 70
     0
102
RTVSPropertyOp6
 70
     0
102
RTVSPropertyOp7
 70
     0
102
RTVSPropertyOp8
 70
     0
102
RTVSPropertyOp9
 70
     0
102
RTVSPropertyOp10
 70
     0
102
RTVSPropertyOp11
 70
     0
102
RTVSPropertyOp12
 70
     0
102
RTVSPropertyOp13
 70
     0
102
RTVSPropertyOp14
 70
     2
102
RTVSPropertyOp15
 70
     0
102
RTVSPropertyOp16
 70
     0
102
RTVSPropertyOp17
 70
     0
102
RTVSPropertyOp18
 70
     0
102
RTVSPropertyOp19
 70
     0
102
RTVSPropertyOp20
 70
     0
102
RTVSPropertyOp21
 70
     0
102
RTVSPropertyOp22
 70
     0
102
RTVSPropertyOp23
 70
     0
102
RTVSPropertyOp24
 70
     0
102
RTVSPropertyOp25
 70
     0
102
RTVSPropertyOp26
 70
     0
102
RTVSPropertyOp27
 70
     0
102
RTVSPropertyOp28
 70
     0
102
RTVSPropertyOp29
 70
     0
102
RTVSPropertyOp30
 70
     0
102
RTVSPropertyOp31
 70
     0
102
RTVSPropertyOp32
 70
     0
102
RTVSPropertyOp33
 70
     0
102
RTVSPropertyOp34
 70
     0
102
RTVSPropertyOp35
 70
     0
102
RTVSPropertyOp36
 70
     0
102
RTVSPropertyOp37
 70
     0
102
RTVSPropertyOp38
 70
     0
102
RTVSPropertyOp39
 70
     0
102
RTVSPropertyOp40
 70
     0
102
RTVSPropertyOp41
 70
     0
102
RTVSPropertyOp42
 70
     0
102
RTVSPropertyOp43
 70
     0
102
RTVSPropertyOp44
 70
     0
102
RTVSPropertyOp45
 70
     0
102
RTVSPropertyOp46
 70
     0
102
RTVSPropertyOp47
 70
     0
102
RTVSPropertyOp48
 70
     0
102
RTVSPropertyOp49
 70
     0
102
RTVSPropertyOp50
 70
     0
102
RTVSPropertyOp51
 70
     0
102
RTVSPropertyOp52
 70
     0
102
RTVSPropertyOp53
 70
     0
102
RTVSPropertyOp54
 70
     0
102
RTVSPropertyOp55
 70
     0
102
RTVSPropertyOp56
 70
     0
102
RTVSPropertyOp57
 70
     0
102
RTVSPost2010Prop28
280
     0
102
RTVSPost2010PropOp28
 70
     0
102
RTVSPost2010Prop29
280
     1
102
RTVSPost2010PropOp29
 70
     0
102
RTVSPost2010Prop30
280
     1
102
RTVSPost2010PropOp30
 70
     0
102
RTVSPost2010Prop31
280
     0
102
RTVSPost2010PropOp31
 70
     0
102
RTVSPost2010Prop32
280
     0
102
RTVSPost2010PropOp32
 70
     0
102
RTVSPost2010Prop33
280
     0
102
RTVSPost2010PropOp33
 70
     0
102
RTVSPost2010Prop34
280
     0
102
RTVSPost2010PropOp34
 70
     0
102
RTVSPost2010Prop35
280
     0
102
RTVSPost2010PropOp35
 70
     0
102
RTVSPost2010Prop36
280
     0
102
RTVSPost2010PropOp36
 70
     0
102
RTVSPost2010Prop37
 90
       50
102
RTVSPost2010PropOp37
 70
     0
102
RTVSPost2010Prop38
140
0.0
102
RTVSPost2010PropOp38
 70
     0
102
RTVSPost2010Prop39
140
1.0
102
RTVSPost2010PropOp39
 70
     0
102
RTVSPost2010Prop40
 90
        0
102
RTVSPost2010PropOp40
 70
     0
102
RTVSPost2010Prop41ColorIndex
 90
       18
102
RTVSPost2010Prop41ColorRGB
 90
        0
102
RTVSPost2010PropOp41
 70
     0
102
RTVSPost2010Prop42
 90
       50
102
RTVSPost2010PropOp42
 70
     0
102
RTVSPost2010Prop43
 90
        3
102
RTVSPost2010PropOp43
 70
     0
102
RTVSPost2010Prop44ColorIndex
 90
        5
102
RTVSPost2010Prop44ColorRGB
 90
      255
102
RTVSPost2010PropOp44
 70
     0
102
RTVSPost2010Prop45
280
     0
102
RTVSPost2010PropOp45
 70
     0
102
RTVSPost2010Prop46
 90
       50
102
RTVSPost2010PropOp46
 70
     0
102
RTVSPost2010Prop47
 90
       50
102
RTVSPost2010PropOp47
 70
     0
102
RTVSPost2010Prop48
 90
       50
102
RTVSPost2010PropOp48
 70
     0
102
RTVSPost2010Prop49
280
     0
102
RTVSPost2010PropOp49
 70
     0
102
RTVSPost2010Prop50
 90
       50
102
RTVSPost2010PropOp50
 70
     0
102
RTVSPost2010Prop51ColorIndex
 90
      256
102
RTVSPost2010Prop51ColorRGB
 90
-16777216
102
RTVSPost2010PropOp51
 70
     0
102
RTVSPost2010Prop52
140
1.0
102
RTVSPost2010PropOp52
 70
     0
102
RTVSPost2010Prop53
 90
        2
102
RTVSPost2010PropOp53
 70
     0
102
RTVSPost2010Prop54
  1
strokes_ogs.tif
102
RTVSPost2010PropOp54
 70
     0
102
RTVSPost2010Prop55
280
     0
102
RTVSPost2010PropOp55
 70
     0
102
RTVSPost2010Prop56
140
1.0
102
RTVSPost2010PropOp56
 70
     0
102
RTVSPost2010Prop57
140
1.0
102
RTVSPost2010PropOp57
 70
     0
  0
XRECORD
  5
38C
102
{ACAD_REACTORS
330
38B
102
}
330
38B
100
AcDbXrecord
280
     1
102
RTVSPropertyOp0
 70
     1
102
RTVSPropertyOp1
 70
     1
102
RTVSPropertyOp2
 70
     1
102
RTVSPropertyOp3
 70
     1
102
RTVSPropertyOp4
 70
     1
102
RTVSPropertyOp5
 70
     1
102
RTVSPropertyOp6
 70
     1
102
RTVSPropertyOp7
 70
     1
102
RTVSPropertyOp8
 70
     1
102
RTVSPropertyOp9
 70
     1
102
RTVSPropertyOp10
 70
     1
102
RTVSPropertyOp11
 70
     1
102
RTVSPropertyOp12
 70
     1
102
RTVSPropertyOp13
 70
     1
102
RTVSPropertyOp14
 70
     1
102
RTVSPropertyOp15
 70
     1
102
RTVSPropertyOp16
 70
     1
102
RTVSPropertyOp17
 70
     1
102
RTVSPropertyOp18
 70
     1
102
RTVSPropertyOp19
 70
     1
102
RTVSPropertyOp20
 70
     1
102
RTVSPropertyOp21
 70
     1
102
RTVSPropertyOp22
 70
     1
102
RTVSPropertyOp23
 70
     1
102
RTVSPropertyOp24
 70
     1
102
RTVSPropertyOp25
 70
     1
102
RTVSPropertyOp26
 70
     1
102
RTVSPropertyOp27
 70
     1
102
RTVSPropertyOp28
 70
     1
102
RTVSPropertyOp29
 70
     1
102
RTVSPropertyOp30
 70
     1
102
RTVSPropertyOp31
 70
     1
102
RTVSPropertyOp32
 70
     1
102
RTVSPropertyOp33
 70
     1
102
RTVSPropertyOp34
 70
     1
102
RTVSPropertyOp35
 70
     1
102
RTVSPropertyOp36
 70
     1
102
RTVSPropertyOp37
 70
     1
102
RTVSPropertyOp38
 70
     1
102
RTVSPropertyOp39
 70
     1
102
RTVSPropertyOp40
 70
     1
102
RTVSPropertyOp41
 70
     1
102
RTVSPropertyOp42
 70
     1
102
RTVSPropertyOp43
 70
     1
102
RTVSPropertyOp44
 70
     1
102
RTVSPropertyOp45
 70
     1
102
RTVSPropertyOp46
 70
     1
102
RTVSPropertyOp47
 70
     1
102
RTVSPropertyOp48
 70
     1
102
RTVSPropertyOp49
 70
     1
102
RTVSPropertyOp50
 70
     1
102
RTVSPropertyOp51
 70
     0
102
RTVSPropertyOp52
 70
     0
102
RTVSPropertyOp53
 70
     1
102
RTVSPropertyOp54
 70
     1
102
RTVSPropertyOp55
 70
     1
102
RTVSPropertyOp56
 70
     1
102
RTVSPropertyOp57
 70
     1
102
RTVSPost2010Prop28
280
     0
102
RTVSPost2010PropOp28
 70
     1
102
RTVSPost2010Prop29
280
     1
102
RTVSPost2010PropOp29
 70
     1
102
RTVSPost2010Prop30
280
     1
102
RTVSPost2010PropOp30
 70
     1
102
RTVSPost2010Prop31
280
     0
102
RTVSPost2010PropOp31
 70
     1
102
RTVSPost2010Prop32
280
     0
102
RTVSPost2010PropOp32
 70
     1
102
RTVSPost2010Prop33
280
     0
102
RTVSPost2010PropOp33
 70
     1
102
RTVSPost2010Prop34
280
     0
102
RTVSPost2010PropOp34
 70
     1
102
RTVSPost2010Prop35
280
     0
102
RTVSPost2010PropOp35
 70
     1
102
RTVSPost2010Prop36
280
     0
102
RTVSPost2010PropOp36
 70
     1
102
RTVSPost2010Prop37
 90
       50
102
RTVSPost2010PropOp37
 70
     1
102
RTVSPost2010Prop38
140
0.0
102
RTVSPost2010PropOp38
 70
     1
102
RTVSPost2010Prop39
140
1.0
102
RTVSPost2010PropOp39
 70
     1
102
RTVSPost2010Prop40
 90
        0
102
RTVSPost2010PropOp40
 70
     1
102
RTVSPost2010Prop41ColorIndex
 90
       18
102
RTVSPost2010Prop41ColorRGB
 90
        0
102
RTVSPost2010PropOp41
 70
     1
102
RTVSPost2010Prop42
 90
       50
102
RTVSPost2010PropOp42
 70
     1
102
RTVSPost2010Prop43
 90
        3
102
RTVSPost2010PropOp43
 70
     1
102
RTVSPost2010Prop44ColorIndex
 90
        5
102
RTVSPost2010Prop44ColorRGB
 90
      255
102
RTVSPost2010PropOp44
 70
     1
102
RTVSPost2010Prop45
280
     0
102
RTVSPost2010PropOp45
 70
     1
102
RTVSPost2010Prop46
 90
       50
102
RTVSPost2010PropOp46
 70
     1
102
RTVSPost2010Prop47
 90
       50
102
RTVSPost2010PropOp47
 70
     1
102
RTVSPost2010Prop48
 90
       50
102
RTVSPost2010PropOp48
 70
     1
102
RTVSPost2010Prop49
280
     0
102
RTVSPost2010PropOp49
 70
     1
102
RTVSPost2010Prop50
 90
       50
102
RTVSPost2010PropOp50
 70
     1
102
RTVSPost2010Prop51ColorIndex
 90
      256
102
RTVSPost2010Prop51ColorRGB
 90
-16777216
102
RTVSPost2010PropOp51
 70
     0
102
RTVSPost2010Prop52
140
1.0
102
RTVSPost2010PropOp52
 70
     0
102
RTVSPost2010Prop53
 90
        2
102
RTVSPost2010PropOp53
 70
     1
102
RTVSPost2010Prop54
  1
strokes_ogs.tif
102
RTVSPost2010PropOp54
 70
     1
102
RTVSPost2010Prop55
280
     0
102
RTVSPost2010PropOp55
 70
     1
102
RTVSPost2010Prop56
140
1.0
102
RTVSPost2010PropOp56
 70
     1
102
RTVSPost2010Prop57
140
1.0
102
RTVSPost2010PropOp57
 70
     1
  0
XRECORD
  5
370
102
{ACAD_REACTORS
330
36F
102
}
330
36F
100
AcDbXrecord
280
     1
102
RTVSPropertyOp0
 70
     1
102
RTVSPropertyOp1
 70
     1
102
RTVSPropertyOp2
 70
     1
102
RTVSPropertyOp3
 70
     1
102
RTVSPropertyOp4
 70
     1
102
RTVSPropertyOp5
 70
     1
102
RTVSPropertyOp6
 70
     1
102
RTVSPropertyOp7
 70
     1
102
RTVSPropertyOp8
 70
     1
102
RTVSPropertyOp9
 70
     1
102
RTVSPropertyOp10
 70
     1
102
RTVSPropertyOp11
 70
     1
102
RTVSPropertyOp12
 70
     1
102
RTVSPropertyOp13
 70
     1
102
RTVSPropertyOp14
 70
     1
102
RTVSPropertyOp15
 70
     1
102
RTVSPropertyOp16
 70
     1
102
RTVSPropertyOp17
 70
     1
102
RTVSPropertyOp18
 70
     1
102
RTVSPropertyOp19
 70
     1
102
RTVSPropertyOp20
 70
     1
102
RTVSPropertyOp21
 70
     1
102
RTVSPropertyOp22
 70
     1
102
RTVSPropertyOp23
 70
     1
102
RTVSPropertyOp24
 70
     1
102
RTVSPropertyOp25
 70
     1
102
RTVSPropertyOp26
 70
     1
102
RTVSPropertyOp27
 70
     1
102
RTVSPropertyOp28
 70
     1
102
RTVSPropertyOp29
 70
     1
102
RTVSPropertyOp30
 70
     1
102
RTVSPropertyOp31
 70
     1
102
RTVSPropertyOp32
 70
     1
102
RTVSPropertyOp33
 70
     1
102
RTVSPropertyOp34
 70
     1
102
RTVSPropertyOp35
 70
     1
102
RTVSPropertyOp36
 70
     1
102
RTVSPropertyOp37
 70
     1
102
RTVSPropertyOp38
 70
     1
102
RTVSPropertyOp39
 70
     1
102
RTVSPropertyOp40
 70
     1
102
RTVSPropertyOp41
 70
     1
102
RTVSPropertyOp42
 70
     1
102
RTVSPropertyOp43
 70
     1
102
RTVSPropertyOp44
 70
     1
102
RTVSPropertyOp45
 70
     1
102
RTVSPropertyOp46
 70
     1
102
RTVSPropertyOp47
 70
     1
102
RTVSPropertyOp48
 70
     1
102
RTVSPropertyOp49
 70
     1
102
RTVSPropertyOp50
 70
     1
102
RTVSPropertyOp51
 70
     0
102
RTVSPropertyOp52
 70
     0
102
RTVSPropertyOp53
 70
     1
102
RTVSPropertyOp54
 70
     1
102
RTVSPropertyOp55
 70
     1
102
RTVSPropertyOp56
 70
     1
102
RTVSPropertyOp57
 70
     1
102
RTVSPost2010Prop28
280
     0
102
RTVSPost2010PropOp28
 70
     1
102
RTVSPost2010Prop29
280
     1
102
RTVSPost2010PropOp29
 70
     1
102
RTVSPost2010Prop30
280
     1
102
RTVSPost2010PropOp30
 70
     1
102
RTVSPost2010Prop31
280
     0
102
RTVSPost2010PropOp31
 70
     1
102
RTVSPost2010Prop32
280
     0
102
RTVSPost2010PropOp32
 70
     1
102
RTVSPost2010Prop33
280
     0
102
RTVSPost2010PropOp33
 70
     1
102
RTVSPost2010Prop34
280
     0
102
RTVSPost2010PropOp34
 70
     1
102
RTVSPost2010Prop35
280
     0
102
RTVSPost2010PropOp35
 70
     1
102
RTVSPost2010Prop36
280
     0
102
RTVSPost2010PropOp36
 70
     1
102
RTVSPost2010Prop37
 90
       50
102
RTVSPost2010PropOp37
 70
     1
102
RTVSPost2010Prop38
140
0.0
102
RTVSPost2010PropOp38
 70
     1
102
RTVSPost2010Prop39
140
1.0
102
RTVSPost2010PropOp39
 70
     1
102
RTVSPost2010Prop40
 90
        0
102
RTVSPost2010PropOp40
 70
     1
102
RTVSPost2010Prop41ColorIndex
 90
       18
102
RTVSPost2010Prop41ColorRGB
 90
        0
102
RTVSPost2010PropOp41
 70
     1
102
RTVSPost2010Prop42
 90
       50
102
RTVSPost2010PropOp42
 70
     1
102
RTVSPost2010Prop43
 90
        3
102
RTVSPost2010PropOp43
 70
     1
102
RTVSPost2010Prop44ColorIndex
 90
        5
102
RTVSPost2010Prop44ColorRGB
 90
      255
102
RTVSPost2010PropOp44
 70
     1
102
RTVSPost2010Prop45
280
     0
102
RTVSPost2010PropOp45
 70
     1
102
RTVSPost2010Prop46
 90
       50
102
RTVSPost2010PropOp46
 70
     1
102
RTVSPost2010Prop47
 90
       50
102
RTVSPost2010PropOp47
 70
     1
102
RTVSPost2010Prop48
 90
       50
102
RTVSPost2010PropOp48
 70
     1
102
RTVSPost2010Prop49
280
     0
102
RTVSPost2010PropOp49
 70
     1
102
RTVSPost2010Prop50
 90
       50
102
RTVSPost2010PropOp50
 70
     1
102
RTVSPost2010Prop51ColorIndex
 90
      256
102
RTVSPost2010Prop51ColorRGB
 90
-16777216
102
RTVSPost2010PropOp51
 70
     0
102
RTVSPost2010Prop52
140
1.0
102
RTVSPost2010PropOp52
 70
     0
102
RTVSPost2010Prop53
 90
        2
102
RTVSPost2010PropOp53
 70
     1
102
RTVSPost2010Prop54
  1
strokes_ogs.tif
102
RTVSPost2010PropOp54
 70
     1
102
RTVSPost2010Prop55
280
     0
102
RTVSPost2010PropOp55
 70
     1
102
RTVSPost2010Prop56
140
1.0
102
RTVSPost2010PropOp56
 70
     1
102
RTVSPost2010Prop57
140
1.0
102
RTVSPost2010PropOp57
 70
     1
  0
XRECORD
  5
372
102
{ACAD_REACTORS
330
371
102
}
330
371
100
AcDbXrecord
280
     1
102
RTVSPropertyOp0
 70
     1
102
RTVSPropertyOp1
 70
     1
102
RTVSPropertyOp2
 70
     1
102
RTVSPropertyOp3
 70
     1
102
RTVSPropertyOp4
 70
     1
102
RTVSPropertyOp5
 70
     1
102
RTVSPropertyOp6
 70
     1
102
RTVSPropertyOp7
 70
     1
102
RTVSPropertyOp8
 70
     1
102
RTVSPropertyOp9
 70
     1
102
RTVSPropertyOp10
 70
     1
102
RTVSPropertyOp11
 70
     1
102
RTVSPropertyOp12
 70
     1
102
RTVSPropertyOp13
 70
     1
102
RTVSPropertyOp14
 70
     1
102
RTVSPropertyOp15
 70
     1
102
RTVSPropertyOp16
 70
     1
102
RTVSPropertyOp17
 70
     1
102
RTVSPropertyOp18
 70
     1
102
RTVSPropertyOp19
 70
     1
102
RTVSPropertyOp20
 70
     1
102
RTVSPropertyOp21
 70
     1
102
RTVSPropertyOp22
 70
     1
102
RTVSPropertyOp23
 70
     1
102
RTVSPropertyOp24
 70
     1
102
RTVSPropertyOp25
 70
     1
102
RTVSPropertyOp26
 70
     1
102
RTVSPropertyOp27
 70
     1
102
RTVSPropertyOp28
 70
     1
102
RTVSPropertyOp29
 70
     1
102
RTVSPropertyOp30
 70
     1
102
RTVSPropertyOp31
 70
     1
102
RTVSPropertyOp32
 70
     1
102
RTVSPropertyOp33
 70
     1
102
RTVSPropertyOp34
 70
     1
102
RTVSPropertyOp35
 70
     1
102
RTVSPropertyOp36
 70
     1
102
RTVSPropertyOp37
 70
     1
102
RTVSPropertyOp38
 70
     1
102
RTVSPropertyOp39
 70
     1
102
RTVSPropertyOp40
 70
     1
102
RTVSPropertyOp41
 70
     1
102
RTVSPropertyOp42
 70
     1
102
RTVSPropertyOp43
 70
     1
102
RTVSPropertyOp44
 70
     1
102
RTVSPropertyOp45
 70
     1
102
RTVSPropertyOp46
 70
     1
102
RTVSPropertyOp47
 70
     1
102
RTVSPropertyOp48
 70
     1
102
RTVSPropertyOp49
 70
     1
102
RTVSPropertyOp50
 70
     1
102
RTVSPropertyOp51
 70
     0
102
RTVSPropertyOp52
 70
     0
102
RTVSPropertyOp53
 70
     1
102
RTVSPropertyOp54
 70
     1
102
RTVSPropertyOp55
 70
     1
102
RTVSPropertyOp56
 70
     1
102
RTVSPropertyOp57
 70
     1
102
RTVSPost2010Prop28
280
     0
102
RTVSPost2010PropOp28
 70
     1
102
RTVSPost2010Prop29
280
     1
102
RTVSPost2010PropOp29
 70
     1
102
RTVSPost2010Prop30
280
     1
102
RTVSPost2010PropOp30
 70
     1
102
RTVSPost2010Prop31
280
     0
102
RTVSPost2010PropOp31
 70
     1
102
RTVSPost2010Prop32
280
     0
102
RTVSPost2010PropOp32
 70
     1
102
RTVSPost2010Prop33
280
     0
102
RTVSPost2010PropOp33
 70
     1
102
RTVSPost2010Prop34
280
     0
102
RTVSPost2010PropOp34
 70
     1
102
RTVSPost2010Prop35
280
     0
102
RTVSPost2010PropOp35
 70
     1
102
RTVSPost2010Prop36
280
     0
102
RTVSPost2010PropOp36
 70
     1
102
RTVSPost2010Prop37
 90
       50
102
RTVSPost2010PropOp37
 70
     1
102
RTVSPost2010Prop38
140
0.0
102
RTVSPost2010PropOp38
 70
     1
102
RTVSPost2010Prop39
140
1.0
102
RTVSPost2010PropOp39
 70
     1
102
RTVSPost2010Prop40
 90
        0
102
RTVSPost2010PropOp40
 70
     1
102
RTVSPost2010Prop41ColorIndex
 90
       18
102
RTVSPost2010Prop41ColorRGB
 90
        0
102
RTVSPost2010PropOp41
 70
     1
102
RTVSPost2010Prop42
 90
       50
102
RTVSPost2010PropOp42
 70
     1
102
RTVSPost2010Prop43
 90
        3
102
RTVSPost2010PropOp43
 70
     1
102
RTVSPost2010Prop44ColorIndex
 90
        5
102
RTVSPost2010Prop44ColorRGB
 90
      255
102
RTVSPost2010PropOp44
 70
     1
102
RTVSPost2010Prop45
280
     0
102
RTVSPost2010PropOp45
 70
     1
102
RTVSPost2010Prop46
 90
       50
102
RTVSPost2010PropOp46
 70
     1
102
RTVSPost2010Prop47
 90
       50
102
RTVSPost2010PropOp47
 70
     1
102
RTVSPost2010Prop48
 90
       50
102
RTVSPost2010PropOp48
 70
     1
102
RTVSPost2010Prop49
280
     0
102
RTVSPost2010PropOp49
 70
     1
102
RTVSPost2010Prop50
 90
       50
102
RTVSPost2010PropOp50
 70
     1
102
RTVSPost2010Prop51ColorIndex
 90
      256
102
RTVSPost2010Prop51ColorRGB
 90
-16777216
102
RTVSPost2010PropOp51
 70
     0
102
RTVSPost2010Prop52
140
1.0
102
RTVSPost2010PropOp52
 70
     0
102
RTVSPost2010Prop53
 90
        2
102
RTVSPost2010PropOp53
 70
     1
102
RTVSPost2010Prop54
  1
strokes_ogs.tif
102
RTVSPost2010PropOp54
 70
     1
102
RTVSPost2010Prop55
280
     0
102
RTVSPost2010PropOp55
 70
     1
102
RTVSPost2010Prop56
140
1.0
102
RTVSPost2010PropOp56
 70
     1
102
RTVSPost2010Prop57
140
1.0
102
RTVSPost2010PropOp57
 70
     1
  0
XRECORD
  5
374
102
{ACAD_REACTORS
330
373
102
}
330
373
100
AcDbXrecord
280
     1
102
RTVSPropertyOp0
 70
     1
102
RTVSPropertyOp1
 70
     1
102
RTVSPropertyOp2
 70
     1
102
RTVSPropertyOp3
 70
     1
102
RTVSPropertyOp4
 70
     1
102
RTVSPropertyOp5
 70
     1
102
RTVSPropertyOp6
 70
     1
102
RTVSPropertyOp7
 70
     1
102
RTVSPropertyOp8
 70
     1
102
RTVSPropertyOp9
 70
     1
102
RTVSPropertyOp10
 70
     1
102
RTVSPropertyOp11
 70
     1
102
RTVSPropertyOp12
 70
     1
102
RTVSPropertyOp13
 70
     1
102
RTVSPropertyOp14
 70
     1
102
RTVSPropertyOp15
 70
     1
102
RTVSPropertyOp16
 70
     1
102
RTVSPropertyOp17
 70
     1
102
RTVSPropertyOp18
 70
     1
102
RTVSPropertyOp19
 70
     1
102
RTVSPropertyOp20
 70
     1
102
RTVSPropertyOp21
 70
     1
102
RTVSPropertyOp22
 70
     1
102
RTVSPropertyOp23
 70
     1
102
RTVSPropertyOp24
 70
     1
102
RTVSPropertyOp25
 70
     1
102
RTVSPropertyOp26
 70
     1
102
RTVSPropertyOp27
 70
     1
102
RTVSPropertyOp28
 70
     1
102
RTVSPropertyOp29
 70
     1
102
RTVSPropertyOp30
 70
     1
102
RTVSPropertyOp31
 70
     1
102
RTVSPropertyOp32
 70
     1
102
RTVSPropertyOp33
 70
     1
102
RTVSPropertyOp34
 70
     1
102
RTVSPropertyOp35
 70
     1
102
RTVSPropertyOp36
 70
     1
102
RTVSPropertyOp37
 70
     1
102
RTVSPropertyOp38
 70
     1
102
RTVSPropertyOp39
 70
     1
102
RTVSPropertyOp40
 70
     1
102
RTVSPropertyOp41
 70
     1
102
RTVSPropertyOp42
 70
     1
102
RTVSPropertyOp43
 70
     1
102
RTVSPropertyOp44
 70
     1
102
RTVSPropertyOp45
 70
     1
102
RTVSPropertyOp46
 70
     1
102
RTVSPropertyOp47
 70
     1
102
RTVSPropertyOp48
 70
     1
102
RTVSPropertyOp49
 70
     1
102
RTVSPropertyOp50
 70
     1
102
RTVSPropertyOp51
 70
     0
102
RTVSPropertyOp52
 70
     0
102
RTVSPropertyOp53
 70
     1
102
RTVSPropertyOp54
 70
     1
102
RTVSPropertyOp55
 70
     1
102
RTVSPropertyOp56
 70
     1
102
RTVSPropertyOp57
 70
     1
102
RTVSPost2010Prop28
280
     0
102
RTVSPost2010PropOp28
 70
     1
102
RTVSPost2010Prop29
280
     1
102
RTVSPost2010PropOp29
 70
     1
102
RTVSPost2010Prop30
280
     1
102
RTVSPost2010PropOp30
 70
     1
102
RTVSPost2010Prop31
280
     0
102
RTVSPost2010PropOp31
 70
     1
102
RTVSPost2010Prop32
280
     0
102
RTVSPost2010PropOp32
 70
     1
102
RTVSPost2010Prop33
280
     0
102
RTVSPost2010PropOp33
 70
     1
102
RTVSPost2010Prop34
280
     0
102
RTVSPost2010PropOp34
 70
     1
102
RTVSPost2010Prop35
280
     0
102
RTVSPost2010PropOp35
 70
     1
102
RTVSPost2010Prop36
280
     0
102
RTVSPost2010PropOp36
 70
     1
102
RTVSPost2010Prop37
 90
       50
102
RTVSPost2010PropOp37
 70
     1
102
RTVSPost2010Prop38
140
0.0
102
RTVSPost2010PropOp38
 70
     1
102
RTVSPost2010Prop39
140
1.0
102
RTVSPost2010PropOp39
 70
     1
102
RTVSPost2010Prop40
 90
        0
102
RTVSPost2010PropOp40
 70
     1
102
RTVSPost2010Prop41ColorIndex
 90
       18
102
RTVSPost2010Prop41ColorRGB
 90
        0
102
RTVSPost2010PropOp41
 70
     1
102
RTVSPost2010Prop42
 90
       50
102
RTVSPost2010PropOp42
 70
     1
102
RTVSPost2010Prop43
 90
        3
102
RTVSPost2010PropOp43
 70
     1
102
RTVSPost2010Prop44ColorIndex
 90
        5
102
RTVSPost2010Prop44ColorRGB
 90
      255
102
RTVSPost2010PropOp44
 70
     1
102
RTVSPost2010Prop45
280
     0
102
RTVSPost2010PropOp45
 70
     1
102
RTVSPost2010Prop46
 90
       50
102
RTVSPost2010PropOp46
 70
     1
102
RTVSPost2010Prop47
 90
       50
102
RTVSPost2010PropOp47
 70
     1
102
RTVSPost2010Prop48
 90
       50
102
RTVSPost2010PropOp48
 70
     1
102
RTVSPost2010Prop49
280
     0
102
RTVSPost2010PropOp49
 70
     1
102
RTVSPost2010Prop50
 90
       50
102
RTVSPost2010PropOp50
 70
     1
102
RTVSPost2010Prop51ColorIndex
 90
      256
102
RTVSPost2010Prop51ColorRGB
 90
-16777216
102
RTVSPost2010PropOp51
 70
     0
102
RTVSPost2010Prop52
140
1.0
102
RTVSPost2010PropOp52
 70
     0
102
RTVSPost2010Prop53
 90
        2
102
RTVSPost2010PropOp53
 70
     1
102
RTVSPost2010Prop54
  1
strokes_ogs.tif
102
RTVSPost2010PropOp54
 70
     1
102
RTVSPost2010Prop55
280
     0
102
RTVSPost2010PropOp55
 70
     1
102
RTVSPost2010Prop56
140
1.0
102
RTVSPost2010PropOp56
 70
     1
102
RTVSPost2010Prop57
140
1.0
102
RTVSPost2010PropOp57
 70
     1
  0
XRECORD
  5
376
102
{ACAD_REACTORS
330
375
102
}
330
375
100
AcDbXrecord
280
     1
102
RTVSPropertyOp0
 70
     1
102
RTVSPropertyOp1
 70
     1
102
RTVSPropertyOp2
 70
     1
102
RTVSPropertyOp3
 70
     1
102
RTVSPropertyOp4
 70
     1
102
RTVSPropertyOp5
 70
     1
102
RTVSPropertyOp6
 70
     1
102
RTVSPropertyOp7
 70
     1
102
RTVSPropertyOp8
 70
     1
102
RTVSPropertyOp9
 70
     1
102
RTVSPropertyOp10
 70
     1
102
RTVSPropertyOp11
 70
     1
102
RTVSPropertyOp12
 70
     1
102
RTVSPropertyOp13
 70
     1
102
RTVSPropertyOp14
 70
     1
102
RTVSPropertyOp15
 70
     1
102
RTVSPropertyOp16
 70
     1
102
RTVSPropertyOp17
 70
     1
102
RTVSPropertyOp18
 70
     1
102
RTVSPropertyOp19
 70
     1
102
RTVSPropertyOp20
 70
     1
102
RTVSPropertyOp21
 70
     1
102
RTVSPropertyOp22
 70
     1
102
RTVSPropertyOp23
 70
     1
102
RTVSPropertyOp24
 70
     1
102
RTVSPropertyOp25
 70
     1
102
RTVSPropertyOp26
 70
     1
102
RTVSPropertyOp27
 70
     1
102
RTVSPropertyOp28
 70
     1
102
RTVSPropertyOp29
 70
     1
102
RTVSPropertyOp30
 70
     1
102
RTVSPropertyOp31
 70
     1
102
RTVSPropertyOp32
 70
     1
102
RTVSPropertyOp33
 70
     1
102
RTVSPropertyOp34
 70
     1
102
RTVSPropertyOp35
 70
     1
102
RTVSPropertyOp36
 70
     1
102
RTVSPropertyOp37
 70
     1
102
RTVSPropertyOp38
 70
     1
102
RTVSPropertyOp39
 70
     1
102
RTVSPropertyOp40
 70
     1
102
RTVSPropertyOp41
 70
     1
102
RTVSPropertyOp42
 70
     1
102
RTVSPropertyOp43
 70
     1
102
RTVSPropertyOp44
 70
     1
102
RTVSPropertyOp45
 70
     1
102
RTVSPropertyOp46
 70
     1
102
RTVSPropertyOp47
 70
     1
102
RTVSPropertyOp48
 70
     1
102
RTVSPropertyOp49
 70
     1
102
RTVSPropertyOp50
 70
     1
102
RTVSPropertyOp51
 70
     0
102
RTVSPropertyOp52
 70
     0
102
RTVSPropertyOp53
 70
     1
102
RTVSPropertyOp54
 70
     1
102
RTVSPropertyOp55
 70
     1
102
RTVSPropertyOp56
 70
     1
102
RTVSPropertyOp57
 70
     1
102
RTVSPost2010Prop28
280
     0
102
RTVSPost2010PropOp28
 70
     1
102
RTVSPost2010Prop29
280
     1
102
RTVSPost2010PropOp29
 70
     1
102
RTVSPost2010Prop30
280
     1
102
RTVSPost2010PropOp30
 70
     1
102
RTVSPost2010Prop31
280
     0
102
RTVSPost2010PropOp31
 70
     1
102
RTVSPost2010Prop32
280
     0
102
RTVSPost2010PropOp32
 70
     1
102
RTVSPost2010Prop33
280
     0
102
RTVSPost2010PropOp33
 70
     1
102
RTVSPost2010Prop34
280
     0
102
RTVSPost2010PropOp34
 70
     1
102
RTVSPost2010Prop35
280
     0
102
RTVSPost2010PropOp35
 70
     1
102
RTVSPost2010Prop36
280
     0
102
RTVSPost2010PropOp36
 70
     1
102
RTVSPost2010Prop37
 90
       50
102
RTVSPost2010PropOp37
 70
     1
102
RTVSPost2010Prop38
140
0.0
102
RTVSPost2010PropOp38
 70
     1
102
RTVSPost2010Prop39
140
1.0
102
RTVSPost2010PropOp39
 70
     1
102
RTVSPost2010Prop40
 90
        0
102
RTVSPost2010PropOp40
 70
     1
102
RTVSPost2010Prop41ColorIndex
 90
       18
102
RTVSPost2010Prop41ColorRGB
 90
        0
102
RTVSPost2010PropOp41
 70
     1
102
RTVSPost2010Prop42
 90
       50
102
RTVSPost2010PropOp42
 70
     1
102
RTVSPost2010Prop43
 90
        3
102
RTVSPost2010PropOp43
 70
     1
102
RTVSPost2010Prop44ColorIndex
 90
        5
102
RTVSPost2010Prop44ColorRGB
 90
      255
102
RTVSPost2010PropOp44
 70
     1
102
RTVSPost2010Prop45
280
     0
102
RTVSPost2010PropOp45
 70
     1
102
RTVSPost2010Prop46
 90
       50
102
RTVSPost2010PropOp46
 70
     1
102
RTVSPost2010Prop47
 90
       50
102
RTVSPost2010PropOp47
 70
     1
102
RTVSPost2010Prop48
 90
       50
102
RTVSPost2010PropOp48
 70
     1
102
RTVSPost2010Prop49
280
     0
102
RTVSPost2010PropOp49
 70
     1
102
RTVSPost2010Prop50
 90
       50
102
RTVSPost2010PropOp50
 70
     1
102
RTVSPost2010Prop51ColorIndex
 90
      256
102
RTVSPost2010Prop51ColorRGB
 90
-16777216
102
RTVSPost2010PropOp51
 70
     0
102
RTVSPost2010Prop52
140
1.0
102
RTVSPost2010PropOp52
 70
     0
102
RTVSPost2010Prop53
 90
        2
102
RTVSPost2010PropOp53
 70
     1
102
RTVSPost2010Prop54
  1
strokes_ogs.tif
102
RTVSPost2010PropOp54
 70
     1
102
RTVSPost2010Prop55
280
     0
102
RTVSPost2010PropOp55
 70
     1
102
RTVSPost2010Prop56
140
1.0
102
RTVSPost2010PropOp56
 70
     1
102
RTVSPost2010Prop57
140
1.0
102
RTVSPost2010PropOp57
 70
     1
  0
XRECORD
  5
37C
102
{ACAD_REACTORS
330
37B
102
}
330
37B
100
AcDbXrecord
280
     1
102
RTVSPropertyOp0
 70
     1
102
RTVSPropertyOp1
 70
     1
102
RTVSPropertyOp2
 70
     1
102
RTVSPropertyOp3
 70
     1
102
RTVSPropertyOp4
 70
     1
102
RTVSPropertyOp5
 70
     1
102
RTVSPropertyOp6
 70
     1
102
RTVSPropertyOp7
 70
     1
102
RTVSPropertyOp8
 70
     1
102
RTVSPropertyOp9
 70
     1
102
RTVSPropertyOp10
 70
     1
102
RTVSPropertyOp11
 70
     1
102
RTVSPropertyOp12
 70
     1
102
RTVSPropertyOp13
 70
     1
102
RTVSPropertyOp14
 70
     1
102
RTVSPropertyOp15
 70
     1
102
RTVSPropertyOp16
 70
     1
102
RTVSPropertyOp17
 70
     1
102
RTVSPropertyOp18
 70
     1
102
RTVSPropertyOp19
 70
     1
102
RTVSPropertyOp20
 70
     1
102
RTVSPropertyOp21
 70
     1
102
RTVSPropertyOp22
 70
     1
102
RTVSPropertyOp23
 70
     1
102
RTVSPropertyOp24
 70
     1
102
RTVSPropertyOp25
 70
     1
102
RTVSPropertyOp26
 70
     1
102
RTVSPropertyOp27
 70
     1
102
RTVSPropertyOp28
 70
     1
102
RTVSPropertyOp29
 70
     1
102
RTVSPropertyOp30
 70
     1
102
RTVSPropertyOp31
 70
     1
102
RTVSPropertyOp32
 70
     1
102
RTVSPropertyOp33
 70
     1
102
RTVSPropertyOp34
 70
     1
102
RTVSPropertyOp35
 70
     1
102
RTVSPropertyOp36
 70
     1
102
RTVSPropertyOp37
 70
     1
102
RTVSPropertyOp38
 70
     1
102
RTVSPropertyOp39
 70
     1
102
RTVSPropertyOp40
 70
     1
102
RTVSPropertyOp41
 70
     1
102
RTVSPropertyOp42
 70
     1
102
RTVSPropertyOp43
 70
     1
102
RTVSPropertyOp44
 70
     1
102
RTVSPropertyOp45
 70
     1
102
RTVSPropertyOp46
 70
     1
102
RTVSPropertyOp47
 70
     1
102
RTVSPropertyOp48
 70
     1
102
RTVSPropertyOp49
 70
     1
102
RTVSPropertyOp50
 70
     1
102
RTVSPropertyOp51
 70
     0
102
RTVSPropertyOp52
 70
     0
102
RTVSPropertyOp53
 70
     1
102
RTVSPropertyOp54
 70
     1
102
RTVSPropertyOp55
 70
     1
102
RTVSPropertyOp56
 70
     1
102
RTVSPropertyOp57
 70
     1
102
RTVSPost2010Prop28
280
     0
102
RTVSPost2010PropOp28
 70
     1
102
RTVSPost2010Prop29
280
     1
102
RTVSPost2010PropOp29
 70
     1
102
RTVSPost2010Prop30
280
     1
102
RTVSPost2010PropOp30
 70
     1
102
RTVSPost2010Prop31
280
     0
102
RTVSPost2010PropOp31
 70
     1
102
RTVSPost2010Prop32
280
     0
102
RTVSPost2010PropOp32
 70
     1
102
RTVSPost2010Prop33
280
     0
102
RTVSPost2010PropOp33
 70
     1
102
RTVSPost2010Prop34
280
     0
102
RTVSPost2010PropOp34
 70
     1
102
RTVSPost2010Prop35
280
     0
102
RTVSPost2010PropOp35
 70
     1
102
RTVSPost2010Prop36
280
     0
102
RTVSPost2010PropOp36
 70
     1
102
RTVSPost2010Prop37
 90
       50
102
RTVSPost2010PropOp37
 70
     1
102
RTVSPost2010Prop38
140
0.0
102
RTVSPost2010PropOp38
 70
     1
102
RTVSPost2010Prop39
140
1.0
102
RTVSPost2010PropOp39
 70
     1
102
RTVSPost2010Prop40
 90
        0
102
RTVSPost2010PropOp40
 70
     1
102
RTVSPost2010Prop41ColorIndex
 90
       18
102
RTVSPost2010Prop41ColorRGB
 90
        0
102
RTVSPost2010PropOp41
 70
     1
102
RTVSPost2010Prop42
 90
       50
102
RTVSPost2010PropOp42
 70
     1
102
RTVSPost2010Prop43
 90
        3
102
RTVSPost2010PropOp43
 70
     1
102
RTVSPost2010Prop44ColorIndex
 90
        5
102
RTVSPost2010Prop44ColorRGB
 90
      255
102
RTVSPost2010PropOp44
 70
     1
102
RTVSPost2010Prop45
280
     0
102
RTVSPost2010PropOp45
 70
     1
102
RTVSPost2010Prop46
 90
       50
102
RTVSPost2010PropOp46
 70
     1
102
RTVSPost2010Prop47
 90
       50
102
RTVSPost2010PropOp47
 70
     1
102
RTVSPost2010Prop48
 90
       50
102
RTVSPost2010PropOp48
 70
     1
102
RTVSPost2010Prop49
280
     0
102
RTVSPost2010PropOp49
 70
     1
102
RTVSPost2010Prop50
 90
       50
102
RTVSPost2010PropOp50
 70
     1
102
RTVSPost2010Prop51ColorIndex
 90
      256
102
RTVSPost2010Prop51ColorRGB
 90
-16777216
102
RTVSPost2010PropOp51
 70
     0
102
RTVSPost2010Prop52
140
1.0
102
RTVSPost2010PropOp52
 70
     0
102
RTVSPost2010Prop53
 90
        2
102
RTVSPost2010PropOp53
 70
     1
102
RTVSPost2010Prop54
  1
strokes_ogs.tif
102
RTVSPost2010PropOp54
 70
     1
102
RTVSPost2010Prop55
280
     0
102
RTVSPost2010PropOp55
 70
     1
102
RTVSPost2010Prop56
140
1.0
102
RTVSPost2010PropOp56
 70
     1
102
RTVSPost2010Prop57
140
1.0
102
RTVSPost2010PropOp57
 70
     1
  0
XRECORD
  5
390
102
{ACAD_REACTORS
330
38F
102
}
330
38F
100
AcDbXrecord
280
     1
102
RTVSPropertyOp0
 70
     0
102
RTVSPropertyOp1
 70
     0
102
RTVSPropertyOp2
 70
     0
102
RTVSPropertyOp3
 70
     0
102
RTVSPropertyOp4
 70
     0
102
RTVSPropertyOp5
 70
     0
102
RTVSPropertyOp6
 70
     0
102
RTVSPropertyOp7
 70
     0
102
RTVSPropertyOp8
 70
     0
102
RTVSPropertyOp9
 70
     0
102
RTVSPropertyOp10
 70
     0
102
RTVSPropertyOp11
 70
     0
102
RTVSPropertyOp12
 70
     0
102
RTVSPropertyOp13
 70
     0
102
RTVSPropertyOp14
 70
     2
102
RTVSPropertyOp15
 70
     0
102
RTVSPropertyOp16
 70
     0
102
RTVSPropertyOp17
 70
     0
102
RTVSPropertyOp18
 70
     0
102
RTVSPropertyOp19
 70
     0
102
RTVSPropertyOp20
 70
     0
102
RTVSPropertyOp21
 70
     0
102
RTVSPropertyOp22
 70
     0
102
RTVSPropertyOp23
 70
     0
102
RTVSPropertyOp24
 70
     0
102
RTVSPropertyOp25
 70
     0
102
RTVSPropertyOp26
 70
     0
102
RTVSPropertyOp27
 70
     0
102
RTVSPropertyOp28
 70
     0
102
RTVSPropertyOp29
 70
     0
102
RTVSPropertyOp30
 70
     0
102
RTVSPropertyOp31
 70
     0
102
RTVSPropertyOp32
 70
     0
102
RTVSPropertyOp33
 70
     0
102
RTVSPropertyOp34
 70
     0
102
RTVSPropertyOp35
 70
     0
102
RTVSPropertyOp36
 70
     0
102
RTVSPropertyOp37
 70
     0
102
RTVSPropertyOp38
 70
     0
102
RTVSPropertyOp39
 70
     0
102
RTVSPropertyOp40
 70
     0
102
RTVSPropertyOp41
 70
     0
102
RTVSPropertyOp42
 70
     0
102
RTVSPropertyOp43
 70
     0
102
RTVSPropertyOp44
 70
     0
102
RTVSPropertyOp45
 70
     0
102
RTVSPropertyOp46
 70
     0
102
RTVSPropertyOp47
 70
     0
102
RTVSPropertyOp48
 70
     0
102
RTVSPropertyOp49
 70
     0
102
RTVSPropertyOp50
 70
     0
102
RTVSPropertyOp51
 70
     0
102
RTVSPropertyOp52
 70
     0
102
RTVSPropertyOp53
 70
     0
102
RTVSPropertyOp54
 70
     0
102
RTVSPropertyOp55
 70
     0
102
RTVSPropertyOp56
 70
     0
102
RTVSPropertyOp57
 70
     0
102
RTVSPost2010Prop28
280
     0
102
RTVSPost2010PropOp28
 70
     0
102
RTVSPost2010Prop29
280
     1
102
RTVSPost2010PropOp29
 70
     0
102
RTVSPost2010Prop30
280
     1
102
RTVSPost2010PropOp30
 70
     0
102
RTVSPost2010Prop31
280
     0
102
RTVSPost2010PropOp31
 70
     0
102
RTVSPost2010Prop32
280
     0
102
RTVSPost2010PropOp32
 70
     0
102
RTVSPost2010Prop33
280
     0
102
RTVSPost2010PropOp33
 70
     0
102
RTVSPost2010Prop34
280
     0
102
RTVSPost2010PropOp34
 70
     0
102
RTVSPost2010Prop35
280
     0
102
RTVSPost2010PropOp35
 70
     0
102
RTVSPost2010Prop36
280
     0
102
RTVSPost2010PropOp36
 70
     0
102
RTVSPost2010Prop37
 90
       50
102
RTVSPost2010PropOp37
 70
     0
102
RTVSPost2010Prop38
140
0.0
102
RTVSPost2010PropOp38
 70
     0
102
RTVSPost2010Prop39
140
1.0
102
RTVSPost2010PropOp39
 70
     0
102
RTVSPost2010Prop40
 90
        0
102
RTVSPost2010PropOp40
 70
     0
102
RTVSPost2010Prop41ColorIndex
 90
       18
102
RTVSPost2010Prop41ColorRGB
 90
        0
102
RTVSPost2010PropOp41
 70
     0
102
RTVSPost2010Prop42
 90
       50
102
RTVSPost2010PropOp42
 70
     0
102
RTVSPost2010Prop43
 90
        3
102
RTVSPost2010PropOp43
 70
     0
102
RTVSPost2010Prop44ColorIndex
 90
        5
102
RTVSPost2010Prop44ColorRGB
 90
      255
102
RTVSPost2010PropOp44
 70
     0
102
RTVSPost2010Prop45
280
     0
102
RTVSPost2010PropOp45
 70
     0
102
RTVSPost2010Prop46
 90
       50
102
RTVSPost2010PropOp46
 70
     0
102
RTVSPost2010Prop47
 90
       50
102
RTVSPost2010PropOp47
 70
     0
102
RTVSPost2010Prop48
 90
       50
102
RTVSPost2010PropOp48
 70
     0
102
RTVSPost2010Prop49
280
     0
102
RTVSPost2010PropOp49
 70
     0
102
RTVSPost2010Prop50
 90
       50
102
RTVSPost2010PropOp50
 70
     0
102
RTVSPost2010Prop51ColorIndex
 90
      256
102
RTVSPost2010Prop51ColorRGB
 90
-16777216
102
RTVSPost2010PropOp51
 70
     0
102
RTVSPost2010Prop52
140
1.0
102
RTVSPost2010PropOp52
 70
     0
102
RTVSPost2010Prop53
 90
        2
102
RTVSPost2010PropOp53
 70
     0
102
RTVSPost2010Prop54
  1
strokes_ogs.tif
102
RTVSPost2010PropOp54
 70
     0
102
RTVSPost2010Prop55
280
     0
102
RTVSPost2010PropOp55
 70
     0
102
RTVSPost2010Prop56
140
1.0
102
RTVSPost2010PropOp56
 70
     0
102
RTVSPost2010Prop57
140
1.0
102
RTVSPost2010PropOp57
 70
     0
  0
XRECORD
  5
38A
102
{ACAD_REACTORS
330
389
102
}
330
389
100
AcDbXrecord
280
     1
102
RTVSPropertyOp0
 70
     1
102
RTVSPropertyOp1
 70
     1
102
RTVSPropertyOp2
 70
     1
102
RTVSPropertyOp3
 70
     1
102
RTVSPropertyOp4
 70
     1
102
RTVSPropertyOp5
 70
     1
102
RTVSPropertyOp6
 70
     1
102
RTVSPropertyOp7
 70
     1
102
RTVSPropertyOp8
 70
     1
102
RTVSPropertyOp9
 70
     1
102
RTVSPropertyOp10
 70
     1
102
RTVSPropertyOp11
 70
     1
102
RTVSPropertyOp12
 70
     1
102
RTVSPropertyOp13
 70
     1
102
RTVSPropertyOp14
 70
     1
102
RTVSPropertyOp15
 70
     1
102
RTVSPropertyOp16
 70
     1
102
RTVSPropertyOp17
 70
     1
102
RTVSPropertyOp18
 70
     1
102
RTVSPropertyOp19
 70
     1
102
RTVSPropertyOp20
 70
     1
102
RTVSPropertyOp21
 70
     1
102
RTVSPropertyOp22
 70
     1
102
RTVSPropertyOp23
 70
     1
102
RTVSPropertyOp24
 70
     1
102
RTVSPropertyOp25
 70
     1
102
RTVSPropertyOp26
 70
     1
102
RTVSPropertyOp27
 70
     1
102
RTVSPropertyOp28
 70
     1
102
RTVSPropertyOp29
 70
     1
102
RTVSPropertyOp30
 70
     1
102
RTVSPropertyOp31
 70
     1
102
RTVSPropertyOp32
 70
     1
102
RTVSPropertyOp33
 70
     1
102
RTVSPropertyOp34
 70
     1
102
RTVSPropertyOp35
 70
     1
102
RTVSPropertyOp36
 70
     1
102
RTVSPropertyOp37
 70
     1
102
RTVSPropertyOp38
 70
     1
102
RTVSPropertyOp39
 70
     1
102
RTVSPropertyOp40
 70
     1
102
RTVSPropertyOp41
 70
     1
102
RTVSPropertyOp42
 70
     1
102
RTVSPropertyOp43
 70
     1
102
RTVSPropertyOp44
 70
     1
102
RTVSPropertyOp45
 70
     1
102
RTVSPropertyOp46
 70
     1
102
RTVSPropertyOp47
 70
     1
102
RTVSPropertyOp48
 70
     1
102
RTVSPropertyOp49
 70
     1
102
RTVSPropertyOp50
 70
     1
102
RTVSPropertyOp51
 70
     0
102
RTVSPropertyOp52
 70
     0
102
RTVSPropertyOp53
 70
     1
102
RTVSPropertyOp54
 70
     1
102
RTVSPropertyOp55
 70
     1
102
RTVSPropertyOp56
 70
     1
102
RTVSPropertyOp57
 70
     1
102
RTVSPost2010Prop28
280
     0
102
RTVSPost2010PropOp28
 70
     1
102
RTVSPost2010Prop29
280
     1
102
RTVSPost2010PropOp29
 70
     1
102
RTVSPost2010Prop30
280
     1
102
RTVSPost2010PropOp30
 70
     1
102
RTVSPost2010Prop31
280
     0
102
RTVSPost2010PropOp31
 70
     1
102
RTVSPost2010Prop32
280
     0
102
RTVSPost2010PropOp32
 70
     1
102
RTVSPost2010Prop33
280
     0
102
RTVSPost2010PropOp33
 70
     1
102
RTVSPost2010Prop34
280
     0
102
RTVSPost2010PropOp34
 70
     1
102
RTVSPost2010Prop35
280
     0
102
RTVSPost2010PropOp35
 70
     1
102
RTVSPost2010Prop36
280
     0
102
RTVSPost2010PropOp36
 70
     1
102
RTVSPost2010Prop37
 90
       50
102
RTVSPost2010PropOp37
 70
     1
102
RTVSPost2010Prop38
140
0.0
102
RTVSPost2010PropOp38
 70
     1
102
RTVSPost2010Prop39
140
1.0
102
RTVSPost2010PropOp39
 70
     1
102
RTVSPost2010Prop40
 90
        0
102
RTVSPost2010PropOp40
 70
     1
102
RTVSPost2010Prop41ColorIndex
 90
       18
102
RTVSPost2010Prop41ColorRGB
 90
        0
102
RTVSPost2010PropOp41
 70
     1
102
RTVSPost2010Prop42
 90
       50
102
RTVSPost2010PropOp42
 70
     1
102
RTVSPost2010Prop43
 90
        3
102
RTVSPost2010PropOp43
 70
     1
102
RTVSPost2010Prop44ColorIndex
 90
        5
102
RTVSPost2010Prop44ColorRGB
 90
      255
102
RTVSPost2010PropOp44
 70
     1
102
RTVSPost2010Prop45
280
     0
102
RTVSPost2010PropOp45
 70
     1
102
RTVSPost2010Prop46
 90
       50
102
RTVSPost2010PropOp46
 70
     1
102
RTVSPost2010Prop47
 90
       50
102
RTVSPost2010PropOp47
 70
     1
102
RTVSPost2010Prop48
 90
       50
102
RTVSPost2010PropOp48
 70
     1
102
RTVSPost2010Prop49
280
     0
102
RTVSPost2010PropOp49
 70
     1
102
RTVSPost2010Prop50
 90
       50
102
RTVSPost2010PropOp50
 70
     1
102
RTVSPost2010Prop51ColorIndex
 90
      256
102
RTVSPost2010Prop51ColorRGB
 90
-16777216
102
RTVSPost2010PropOp51
 70
     0
102
RTVSPost2010Prop52
140
1.0
102
RTVSPost2010PropOp52
 70
     0
102
RTVSPost2010Prop53
 90
        2
102
RTVSPost2010PropOp53
 70
     1
102
RTVSPost2010Prop54
  1
strokes_ogs.tif
102
RTVSPost2010PropOp54
 70
     1
102
RTVSPost2010Prop55
280
     0
102
RTVSPost2010PropOp55
 70
     1
102
RTVSPost2010Prop56
140
1.0
102
RTVSPost2010PropOp56
 70
     1
102
RTVSPost2010Prop57
140
1.0
102
RTVSPost2010PropOp57
 70
     1
  0
XRECORD
  5
392
102
{ACAD_REACTORS
330
391
102
}
330
391
100
AcDbXrecord
280
     1
102
RTVSPropertyOp0
 70
     0
102
RTVSPropertyOp1
 70
     0
102
RTVSPropertyOp2
 70
     0
102
RTVSPropertyOp3
 70
     0
102
RTVSPropertyOp4
 70
     0
102
RTVSPropertyOp5
 70
     0
102
RTVSPropertyOp6
 70
     0
102
RTVSPropertyOp7
 70
     0
102
RTVSPropertyOp8
 70
     0
102
RTVSPropertyOp9
 70
     0
102
RTVSPropertyOp10
 70
     0
102
RTVSPropertyOp11
 70
     0
102
RTVSPropertyOp12
 70
     0
102
RTVSPropertyOp13
 70
     0
102
RTVSPropertyOp14
 70
     2
102
RTVSPropertyOp15
 70
     0
102
RTVSPropertyOp16
 70
     0
102
RTVSPropertyOp17
 70
     0
102
RTVSPropertyOp18
 70
     0
102
RTVSPropertyOp19
 70
     0
102
RTVSPropertyOp20
 70
     0
102
RTVSPropertyOp21
 70
     0
102
RTVSPropertyOp22
 70
     0
102
RTVSPropertyOp23
 70
     0
102
RTVSPropertyOp24
 70
     0
102
RTVSPropertyOp25
 70
     0
102
RTVSPropertyOp26
 70
     0
102
RTVSPropertyOp27
 70
     0
102
RTVSPropertyOp28
 70
     0
102
RTVSPropertyOp29
 70
     0
102
RTVSPropertyOp30
 70
     0
102
RTVSPropertyOp31
 70
     0
102
RTVSPropertyOp32
 70
     0
102
RTVSPropertyOp33
 70
     0
102
RTVSPropertyOp34
 70
     0
102
RTVSPropertyOp35
 70
     0
102
RTVSPropertyOp36
 70
     0
102
RTVSPropertyOp37
 70
     0
102
RTVSPropertyOp38
 70
     0
102
RTVSPropertyOp39
 70
     0
102
RTVSPropertyOp40
 70
     0
102
RTVSPropertyOp41
 70
     0
102
RTVSPropertyOp42
 70
     0
102
RTVSPropertyOp43
 70
     0
102
RTVSPropertyOp44
 70
     0
102
RTVSPropertyOp45
 70
     0
102
RTVSPropertyOp46
 70
     0
102
RTVSPropertyOp47
 70
     0
102
RTVSPropertyOp48
 70
     0
102
RTVSPropertyOp49
 70
     0
102
RTVSPropertyOp50
 70
     0
102
RTVSPropertyOp51
 70
     0
102
RTVSPropertyOp52
 70
     0
102
RTVSPropertyOp53
 70
     0
102
RTVSPropertyOp54
 70
     0
102
RTVSPropertyOp55
 70
     0
102
RTVSPropertyOp56
 70
     0
102
RTVSPropertyOp57
 70
     0
102
RTVSPost2010Prop28
280
     0
102
RTVSPost2010PropOp28
 70
     0
102
RTVSPost2010Prop29
280
     1
102
RTVSPost2010PropOp29
 70
     0
102
RTVSPost2010Prop30
280
     1
102
RTVSPost2010PropOp30
 70
     0
102
RTVSPost2010Prop31
280
     0
102
RTVSPost2010PropOp31
 70
     0
102
RTVSPost2010Prop32
280
     0
102
RTVSPost2010PropOp32
 70
     0
102
RTVSPost2010Prop33
280
     0
102
RTVSPost2010PropOp33
 70
     0
102
RTVSPost2010Prop34
280
     0
102
RTVSPost2010PropOp34
 70
     0
102
RTVSPost2010Prop35
280
     0
102
RTVSPost2010PropOp35
 70
     0
102
RTVSPost2010Prop36
280
     0
102
RTVSPost2010PropOp36
 70
     0
102
RTVSPost2010Prop37
 90
       50
102
RTVSPost2010PropOp37
 70
     0
102
RTVSPost2010Prop38
140
0.0
102
RTVSPost2010PropOp38
 70
     0
102
RTVSPost2010Prop39
140
1.0
102
RTVSPost2010PropOp39
 70
     0
102
RTVSPost2010Prop40
 90
        0
102
RTVSPost2010PropOp40
 70
     0
102
RTVSPost2010Prop41ColorIndex
 90
       18
102
RTVSPost2010Prop41ColorRGB
 90
        0
102
RTVSPost2010PropOp41
 70
     0
102
RTVSPost2010Prop42
 90
       50
102
RTVSPost2010PropOp42
 70
     0
102
RTVSPost2010Prop43
 90
        3
102
RTVSPost2010PropOp43
 70
     0
102
RTVSPost2010Prop44ColorIndex
 90
        5
102
RTVSPost2010Prop44ColorRGB
 90
      255
102
RTVSPost2010PropOp44
 70
     0
102
RTVSPost2010Prop45
280
     0
102
RTVSPost2010PropOp45
 70
     0
102
RTVSPost2010Prop46
 90
       50
102
RTVSPost2010PropOp46
 70
     0
102
RTVSPost2010Prop47
 90
       50
102
RTVSPost2010PropOp47
 70
     0
102
RTVSPost2010Prop48
 90
       50
102
RTVSPost2010PropOp48
 70
     0
102
RTVSPost2010Prop49
280
     0
102
RTVSPost2010PropOp49
 70
     0
102
RTVSPost2010Prop50
 90
       50
102
RTVSPost2010PropOp50
 70
     0
102
RTVSPost2010Prop51ColorIndex
 90
      256
102
RTVSPost2010Prop51ColorRGB
 90
-16777216
102
RTVSPost2010PropOp51
 70
     0
102
RTVSPost2010Prop52
140
1.0
102
RTVSPost2010PropOp52
 70
     0
102
RTVSPost2010Prop53
 90
        2
102
RTVSPost2010PropOp53
 70
     0
102
RTVSPost2010Prop54
  1
strokes_ogs.tif
102
RTVSPost2010PropOp54
 70
     0
102
RTVSPost2010Prop55
280
     0
102
RTVSPost2010PropOp55
 70
     0
102
RTVSPost2010Prop56
140
1.0
102
RTVSPost2010PropOp56
 70
     0
102
RTVSPost2010Prop57
140
1.0
102
RTVSPost2010PropOp57
 70
     0
  0
XRECORD
  5
380
102
{ACAD_REACTORS
330
37F
102
}
330
37F
100
AcDbXrecord
280
     1
102
RTVSPropertyOp0
 70
     1
102
RTVSPropertyOp1
 70
     1
102
RTVSPropertyOp2
 70
     1
102
RTVSPropertyOp3
 70
     1
102
RTVSPropertyOp4
 70
     1
102
RTVSPropertyOp5
 70
     1
102
RTVSPropertyOp6
 70
     1
102
RTVSPropertyOp7
 70
     1
102
RTVSPropertyOp8
 70
     1
102
RTVSPropertyOp9
 70
     1
102
RTVSPropertyOp10
 70
     1
102
RTVSPropertyOp11
 70
     1
102
RTVSPropertyOp12
 70
     1
102
RTVSPropertyOp13
 70
     1
102
RTVSPropertyOp14
 70
     1
102
RTVSPropertyOp15
 70
     1
102
RTVSPropertyOp16
 70
     1
102
RTVSPropertyOp17
 70
     1
102
RTVSPropertyOp18
 70
     1
102
RTVSPropertyOp19
 70
     1
102
RTVSPropertyOp20
 70
     1
102
RTVSPropertyOp21
 70
     1
102
RTVSPropertyOp22
 70
     1
102
RTVSPropertyOp23
 70
     1
102
RTVSPropertyOp24
 70
     1
102
RTVSPropertyOp25
 70
     1
102
RTVSPropertyOp26
 70
     1
102
RTVSPropertyOp27
 70
     1
102
RTVSPropertyOp28
 70
     1
102
RTVSPropertyOp29
 70
     1
102
RTVSPropertyOp30
 70
     1
102
RTVSPropertyOp31
 70
     1
102
RTVSPropertyOp32
 70
     1
102
RTVSPropertyOp33
 70
     1
102
RTVSPropertyOp34
 70
     1
102
RTVSPropertyOp35
 70
     1
102
RTVSPropertyOp36
 70
     1
102
RTVSPropertyOp37
 70
     1
102
RTVSPropertyOp38
 70
     1
102
RTVSPropertyOp39
 70
     1
102
RTVSPropertyOp40
 70
     1
102
RTVSPropertyOp41
 70
     1
102
RTVSPropertyOp42
 70
     1
102
RTVSPropertyOp43
 70
     1
102
RTVSPropertyOp44
 70
     1
102
RTVSPropertyOp45
 70
     1
102
RTVSPropertyOp46
 70
     1
102
RTVSPropertyOp47
 70
     1
102
RTVSPropertyOp48
 70
     1
102
RTVSPropertyOp49
 70
     1
102
RTVSPropertyOp50
 70
     1
102
RTVSPropertyOp51
 70
     0
102
RTVSPropertyOp52
 70
     0
102
RTVSPropertyOp53
 70
     1
102
RTVSPropertyOp54
 70
     1
102
RTVSPropertyOp55
 70
     1
102
RTVSPropertyOp56
 70
     1
102
RTVSPropertyOp57
 70
     1
102
RTVSPost2010Prop28
280
     0
102
RTVSPost2010PropOp28
 70
     1
102
RTVSPost2010Prop29
280
     1
102
RTVSPost2010PropOp29
 70
     1
102
RTVSPost2010Prop30
280
     1
102
RTVSPost2010PropOp30
 70
     1
102
RTVSPost2010Prop31
280
     0
102
RTVSPost2010PropOp31
 70
     1
102
RTVSPost2010Prop32
280
     0
102
RTVSPost2010PropOp32
 70
     1
102
RTVSPost2010Prop33
280
     0
102
RTVSPost2010PropOp33
 70
     1
102
RTVSPost2010Prop34
280
     0
102
RTVSPost2010PropOp34
 70
     1
102
RTVSPost2010Prop35
280
     0
102
RTVSPost2010PropOp35
 70
     1
102
RTVSPost2010Prop36
280
     0
102
RTVSPost2010PropOp36
 70
     1
102
RTVSPost2010Prop37
 90
       50
102
RTVSPost2010PropOp37
 70
     1
102
RTVSPost2010Prop38
140
0.0
102
RTVSPost2010PropOp38
 70
     1
102
RTVSPost2010Prop39
140
1.0
102
RTVSPost2010PropOp39
 70
     1
102
RTVSPost2010Prop40
 90
        0
102
RTVSPost2010PropOp40
 70
     1
102
RTVSPost2010Prop41ColorIndex
 90
       18
102
RTVSPost2010Prop41ColorRGB
 90
        0
102
RTVSPost2010PropOp41
 70
     1
102
RTVSPost2010Prop42
 90
       50
102
RTVSPost2010PropOp42
 70
     1
102
RTVSPost2010Prop43
 90
        3
102
RTVSPost2010PropOp43
 70
     1
102
RTVSPost2010Prop44ColorIndex
 90
        5
102
RTVSPost2010Prop44ColorRGB
 90
      255
102
RTVSPost2010PropOp44
 70
     1
102
RTVSPost2010Prop45
280
     0
102
RTVSPost2010PropOp45
 70
     1
102
RTVSPost2010Prop46
 90
       50
102
RTVSPost2010PropOp46
 70
     1
102
RTVSPost2010Prop47
 90
       50
102
RTVSPost2010PropOp47
 70
     1
102
RTVSPost2010Prop48
 90
       50
102
RTVSPost2010PropOp48
 70
     1
102
RTVSPost2010Prop49
280
     0
102
RTVSPost2010PropOp49
 70
     1
102
RTVSPost2010Prop50
 90
       50
102
RTVSPost2010PropOp50
 70
     1
102
RTVSPost2010Prop51ColorIndex
 90
      256
102
RTVSPost2010Prop51ColorRGB
 90
-16777216
102
RTVSPost2010PropOp51
 70
     0
102
RTVSPost2010Prop52
140
1.0
102
RTVSPost2010PropOp52
 70
     0
102
RTVSPost2010Prop53
 90
        2
102
RTVSPost2010PropOp53
 70
     1
102
RTVSPost2010Prop54
  1
strokes_ogs.tif
102
RTVSPost2010PropOp54
 70
     1
102
RTVSPost2010Prop55
280
     0
102
RTVSPost2010PropOp55
 70
     1
102
RTVSPost2010Prop56
140
1.0
102
RTVSPost2010PropOp56
 70
     1
102
RTVSPost2010Prop57
140
1.0
102
RTVSPost2010PropOp57
 70
     1
  0
XRECORD
  5
39E
102
{ACAD_REACTORS
330
39D
102
}
330
39D
100
AcDbXrecord
280
     1
102
RTVSPropertyOp0
 70
     1
102
RTVSPropertyOp1
 70
     1
102
RTVSPropertyOp2
 70
     1
102
RTVSPropertyOp3
 70
     1
102
RTVSPropertyOp4
 70
     1
102
RTVSPropertyOp5
 70
     1
102
RTVSPropertyOp6
 70
     1
102
RTVSPropertyOp7
 70
     1
102
RTVSPropertyOp8
 70
     1
102
RTVSPropertyOp9
 70
     1
102
RTVSPropertyOp10
 70
     1
102
RTVSPropertyOp11
 70
     1
102
RTVSPropertyOp12
 70
     1
102
RTVSPropertyOp13
 70
     1
102
RTVSPropertyOp14
 70
     1
102
RTVSPropertyOp15
 70
     1
102
RTVSPropertyOp16
 70
     1
102
RTVSPropertyOp17
 70
     1
102
RTVSPropertyOp18
 70
     1
102
RTVSPropertyOp19
 70
     1
102
RTVSPropertyOp20
 70
     1
102
RTVSPropertyOp21
 70
     1
102
RTVSPropertyOp22
 70
     1
102
RTVSPropertyOp23
 70
     1
102
RTVSPropertyOp24
 70
     1
102
RTVSPropertyOp25
 70
     1
102
RTVSPropertyOp26
 70
     1
102
RTVSPropertyOp27
 70
     1
102
RTVSPropertyOp28
 70
     1
102
RTVSPropertyOp29
 70
     1
102
RTVSPropertyOp30
 70
     1
102
RTVSPropertyOp31
 70
     1
102
RTVSPropertyOp32
 70
     1
102
RTVSPropertyOp33
 70
     1
102
RTVSPropertyOp34
 70
     1
102
RTVSPropertyOp35
 70
     1
102
RTVSPropertyOp36
 70
     1
102
RTVSPropertyOp37
 70
     1
102
RTVSPropertyOp38
 70
     1
102
RTVSPropertyOp39
 70
     1
102
RTVSPropertyOp40
 70
     1
102
RTVSPropertyOp41
 70
     1
102
RTVSPropertyOp42
 70
     1
102
RTVSPropertyOp43
 70
     1
102
RTVSPropertyOp44
 70
     1
102
RTVSPropertyOp45
 70
     1
102
RTVSPropertyOp46
 70
     1
102
RTVSPropertyOp47
 70
     1
102
RTVSPropertyOp48
 70
     1
102
RTVSPropertyOp49
 70
     1
102
RTVSPropertyOp50
 70
     1
102
RTVSPropertyOp51
 70
     0
102
RTVSPropertyOp52
 70
     0
102
RTVSPropertyOp53
 70
     1
102
RTVSPropertyOp54
 70
     1
102
RTVSPropertyOp55
 70
     1
102
RTVSPropertyOp56
 70
     1
102
RTVSPropertyOp57
 70
     1
102
RTVSPost2010Prop28
280
     0
102
RTVSPost2010PropOp28
 70
     1
102
RTVSPost2010Prop29
280
     1
102
RTVSPost2010PropOp29
 70
     1
102
RTVSPost2010Prop30
280
     1
102
RTVSPost2010PropOp30
 70
     1
102
RTVSPost2010Prop31
280
     0
102
RTVSPost2010PropOp31
 70
     1
102
RTVSPost2010Prop32
280
     0
102
RTVSPost2010PropOp32
 70
     1
102
RTVSPost2010Prop33
280
     0
102
RTVSPost2010PropOp33
 70
     1
102
RTVSPost2010Prop34
280
     0
102
RTVSPost2010PropOp34
 70
     1
102
RTVSPost2010Prop35
280
     0
102
RTVSPost2010PropOp35
 70
     1
102
RTVSPost2010Prop36
280
     0
102
RTVSPost2010PropOp36
 70
     1
102
RTVSPost2010Prop37
 90
       50
102
RTVSPost2010PropOp37
 70
     1
102
RTVSPost2010Prop38
140
0.0
102
RTVSPost2010PropOp38
 70
     1
102
RTVSPost2010Prop39
140
1.0
102
RTVSPost2010PropOp39
 70
     1
102
RTVSPost2010Prop40
 90
        0
102
RTVSPost2010PropOp40
 70
     1
102
RTVSPost2010Prop41ColorIndex
 90
       18
102
RTVSPost2010Prop41ColorRGB
 90
        0
102
RTVSPost2010PropOp41
 70
     1
102
RTVSPost2010Prop42
 90
       50
102
RTVSPost2010PropOp42
 70
     1
102
RTVSPost2010Prop43
 90
        3
102
RTVSPost2010PropOp43
 70
     1
102
RTVSPost2010Prop44ColorIndex
 90
        5
102
RTVSPost2010Prop44ColorRGB
 90
      255
102
RTVSPost2010PropOp44
 70
     1
102
RTVSPost2010Prop45
280
     0
102
RTVSPost2010PropOp45
 70
     1
102
RTVSPost2010Prop46
 90
       50
102
RTVSPost2010PropOp46
 70
     1
102
RTVSPost2010Prop47
 90
       50
102
RTVSPost2010PropOp47
 70
     1
102
RTVSPost2010Prop48
 90
       50
102
RTVSPost2010PropOp48
 70
     1
102
RTVSPost2010Prop49
280
     0
102
RTVSPost2010PropOp49
 70
     1
102
RTVSPost2010Prop50
 90
       50
102
RTVSPost2010PropOp50
 70
     1
102
RTVSPost2010Prop51ColorIndex
 90
      256
102
RTVSPost2010Prop51ColorRGB
 90
-16777216
102
RTVSPost2010PropOp51
 70
     0
102
RTVSPost2010Prop52
140
1.0
102
RTVSPost2010PropOp52
 70
     0
102
RTVSPost2010Prop53
 90
        2
102
RTVSPost2010PropOp53
 70
     1
102
RTVSPost2010Prop54
  1
strokes_ogs.tif
102
RTVSPost2010PropOp54
 70
     1
102
RTVSPost2010Prop55
280
     0
102
RTVSPost2010PropOp55
 70
     1
102
RTVSPost2010Prop56
140
1.0
102
RTVSPost2010PropOp56
 70
     1
102
RTVSPost2010Prop57
140
1.0
102
RTVSPost2010PropOp57
 70
     1
  0
XRECORD
  5
39C
102
{ACAD_REACTORS
330
39B
102
}
330
39B
100
AcDbXrecord
280
     1
102
RTVSPropertyOp0
 70
     1
102
RTVSPropertyOp1
 70
     1
102
RTVSPropertyOp2
 70
     1
102
RTVSPropertyOp3
 70
     1
102
RTVSPropertyOp4
 70
     1
102
RTVSPropertyOp5
 70
     1
102
RTVSPropertyOp6
 70
     1
102
RTVSPropertyOp7
 70
     1
102
RTVSPropertyOp8
 70
     1
102
RTVSPropertyOp9
 70
     1
102
RTVSPropertyOp10
 70
     1
102
RTVSPropertyOp11
 70
     1
102
RTVSPropertyOp12
 70
     1
102
RTVSPropertyOp13
 70
     1
102
RTVSPropertyOp14
 70
     1
102
RTVSPropertyOp15
 70
     1
102
RTVSPropertyOp16
 70
     1
102
RTVSPropertyOp17
 70
     1
102
RTVSPropertyOp18
 70
     1
102
RTVSPropertyOp19
 70
     1
102
RTVSPropertyOp20
 70
     1
102
RTVSPropertyOp21
 70
     1
102
RTVSPropertyOp22
 70
     1
102
RTVSPropertyOp23
 70
     1
102
RTVSPropertyOp24
 70
     1
102
RTVSPropertyOp25
 70
     1
102
RTVSPropertyOp26
 70
     1
102
RTVSPropertyOp27
 70
     1
102
RTVSPropertyOp28
 70
     1
102
RTVSPropertyOp29
 70
     1
102
RTVSPropertyOp30
 70
     1
102
RTVSPropertyOp31
 70
     1
102
RTVSPropertyOp32
 70
     1
102
RTVSPropertyOp33
 70
     1
102
RTVSPropertyOp34
 70
     1
102
RTVSPropertyOp35
 70
     1
102
RTVSPropertyOp36
 70
     1
102
RTVSPropertyOp37
 70
     1
102
RTVSPropertyOp38
 70
     1
102
RTVSPropertyOp39
 70
     1
102
RTVSPropertyOp40
 70
     1
102
RTVSPropertyOp41
 70
     1
102
RTVSPropertyOp42
 70
     1
102
RTVSPropertyOp43
 70
     1
102
RTVSPropertyOp44
 70
     1
102
RTVSPropertyOp45
 70
     1
102
RTVSPropertyOp46
 70
     1
102
RTVSPropertyOp47
 70
     1
102
RTVSPropertyOp48
 70
     1
102
RTVSPropertyOp49
 70
     1
102
RTVSPropertyOp50
 70
     1
102
RTVSPropertyOp51
 70
     0
102
RTVSPropertyOp52
 70
     0
102
RTVSPropertyOp53
 70
     1
102
RTVSPropertyOp54
 70
     1
102
RTVSPropertyOp55
 70
     1
102
RTVSPropertyOp56
 70
     1
102
RTVSPropertyOp57
 70
     1
102
RTVSPost2010Prop28
280
     0
102
RTVSPost2010PropOp28
 70
     1
102
RTVSPost2010Prop29
280
     1
102
RTVSPost2010PropOp29
 70
     1
102
RTVSPost2010Prop30
280
     1
102
RTVSPost2010PropOp30
 70
     1
102
RTVSPost2010Prop31
280
     0
102
RTVSPost2010PropOp31
 70
     1
102
RTVSPost2010Prop32
280
     0
102
RTVSPost2010PropOp32
 70
     1
102
RTVSPost2010Prop33
280
     0
102
RTVSPost2010PropOp33
 70
     1
102
RTVSPost2010Prop34
280
     0
102
RTVSPost2010PropOp34
 70
     1
102
RTVSPost2010Prop35
280
     0
102
RTVSPost2010PropOp35
 70
     1
102
RTVSPost2010Prop36
280
     0
102
RTVSPost2010PropOp36
 70
     1
102
RTVSPost2010Prop37
 90
       50
102
RTVSPost2010PropOp37
 70
     1
102
RTVSPost2010Prop38
140
0.0
102
RTVSPost2010PropOp38
 70
     1
102
RTVSPost2010Prop39
140
1.0
102
RTVSPost2010PropOp39
 70
     1
102
RTVSPost2010Prop40
 90
        0
102
RTVSPost2010PropOp40
 70
     1
102
RTVSPost2010Prop41ColorIndex
 90
       18
102
RTVSPost2010Prop41ColorRGB
 90
        0
102
RTVSPost2010PropOp41
 70
     1
102
RTVSPost2010Prop42
 90
       50
102
RTVSPost2010PropOp42
 70
     1
102
RTVSPost2010Prop43
 90
        3
102
RTVSPost2010PropOp43
 70
     1
102
RTVSPost2010Prop44ColorIndex
 90
        5
102
RTVSPost2010Prop44ColorRGB
 90
      255
102
RTVSPost2010PropOp44
 70
     1
102
RTVSPost2010Prop45
280
     0
102
RTVSPost2010PropOp45
 70
     1
102
RTVSPost2010Prop46
 90
       50
102
RTVSPost2010PropOp46
 70
     1
102
RTVSPost2010Prop47
 90
       50
102
RTVSPost2010PropOp47
 70
     1
102
RTVSPost2010Prop48
 90
       50
102
RTVSPost2010PropOp48
 70
     1
102
RTVSPost2010Prop49
280
     0
102
RTVSPost2010PropOp49
 70
     1
102
RTVSPost2010Prop50
 90
       50
102
RTVSPost2010PropOp50
 70
     1
102
RTVSPost2010Prop51ColorIndex
 90
      256
102
RTVSPost2010Prop51ColorRGB
 90
-16777216
102
RTVSPost2010PropOp51
 70
     0
102
RTVSPost2010Prop52
140
1.0
102
RTVSPost2010PropOp52
 70
     0
102
RTVSPost2010Prop53
 90
        2
102
RTVSPost2010PropOp53
 70
     1
102
RTVSPost2010Prop54
  1
strokes_ogs.tif
102
RTVSPost2010PropOp54
 70
     1
102
RTVSPost2010Prop55
280
     0
102
RTVSPost2010PropOp55
 70
     1
102
RTVSPost2010Prop56
140
1.0
102
RTVSPost2010PropOp56
 70
     1
102
RTVSPost2010Prop57
140
1.0
102
RTVSPost2010PropOp57
 70
     1
  0
XRECORD
  5
396
102
{ACAD_REACTORS
330
395
102
}
330
395
100
AcDbXrecord
280
     1
102
RTVSPropertyOp0
 70
     1
102
RTVSPropertyOp1
 70
     1
102
RTVSPropertyOp2
 70
     1
102
RTVSPropertyOp3
 70
     1
102
RTVSPropertyOp4
 70
     1
102
RTVSPropertyOp5
 70
     1
102
RTVSPropertyOp6
 70
     1
102
RTVSPropertyOp7
 70
     1
102
RTVSPropertyOp8
 70
     1
102
RTVSPropertyOp9
 70
     1
102
RTVSPropertyOp10
 70
     1
102
RTVSPropertyOp11
 70
     1
102
RTVSPropertyOp12
 70
     1
102
RTVSPropertyOp13
 70
     1
102
RTVSPropertyOp14
 70
     1
102
RTVSPropertyOp15
 70
     1
102
RTVSPropertyOp16
 70
     1
102
RTVSPropertyOp17
 70
     1
102
RTVSPropertyOp18
 70
     1
102
RTVSPropertyOp19
 70
     1
102
RTVSPropertyOp20
 70
     1
102
RTVSPropertyOp21
 70
     1
102
RTVSPropertyOp22
 70
     1
102
RTVSPropertyOp23
 70
     1
102
RTVSPropertyOp24
 70
     1
102
RTVSPropertyOp25
 70
     1
102
RTVSPropertyOp26
 70
     1
102
RTVSPropertyOp27
 70
     1
102
RTVSPropertyOp28
 70
     1
102
RTVSPropertyOp29
 70
     1
102
RTVSPropertyOp30
 70
     1
102
RTVSPropertyOp31
 70
     1
102
RTVSPropertyOp32
 70
     1
102
RTVSPropertyOp33
 70
     1
102
RTVSPropertyOp34
 70
     1
102
RTVSPropertyOp35
 70
     1
102
RTVSPropertyOp36
 70
     1
102
RTVSPropertyOp37
 70
     1
102
RTVSPropertyOp38
 70
     1
102
RTVSPropertyOp39
 70
     1
102
RTVSPropertyOp40
 70
     1
102
RTVSPropertyOp41
 70
     1
102
RTVSPropertyOp42
 70
     1
102
RTVSPropertyOp43
 70
     1
102
RTVSPropertyOp44
 70
     1
102
RTVSPropertyOp45
 70
     1
102
RTVSPropertyOp46
 70
     1
102
RTVSPropertyOp47
 70
     1
102
RTVSPropertyOp48
 70
     1
102
RTVSPropertyOp49
 70
     1
102
RTVSPropertyOp50
 70
     1
102
RTVSPropertyOp51
 70
     0
102
RTVSPropertyOp52
 70
     0
102
RTVSPropertyOp53
 70
     1
102
RTVSPropertyOp54
 70
     1
102
RTVSPropertyOp55
 70
     1
102
RTVSPropertyOp56
 70
     1
102
RTVSPropertyOp57
 70
     1
102
RTVSPost2010Prop28
280
     0
102
RTVSPost2010PropOp28
 70
     1
102
RTVSPost2010Prop29
280
     1
102
RTVSPost2010PropOp29
 70
     1
102
RTVSPost2010Prop30
280
     1
102
RTVSPost2010PropOp30
 70
     1
102
RTVSPost2010Prop31
280
     0
102
RTVSPost2010PropOp31
 70
     1
102
RTVSPost2010Prop32
280
     0
102
RTVSPost2010PropOp32
 70
     1
102
RTVSPost2010Prop33
280
     0
102
RTVSPost2010PropOp33
 70
     1
102
RTVSPost2010Prop34
280
     0
102
RTVSPost2010PropOp34
 70
     1
102
RTVSPost2010Prop35
280
     0
102
RTVSPost2010PropOp35
 70
     1
102
RTVSPost2010Prop36
280
     0
102
RTVSPost2010PropOp36
 70
     1
102
RTVSPost2010Prop37
 90
       50
102
RTVSPost2010PropOp37
 70
     1
102
RTVSPost2010Prop38
140
0.0
102
RTVSPost2010PropOp38
 70
     1
102
RTVSPost2010Prop39
140
1.0
102
RTVSPost2010PropOp39
 70
     1
102
RTVSPost2010Prop40
 90
        0
102
RTVSPost2010PropOp40
 70
     1
102
RTVSPost2010Prop41ColorIndex
 90
       18
102
RTVSPost2010Prop41ColorRGB
 90
        0
102
RTVSPost2010PropOp41
 70
     1
102
RTVSPost2010Prop42
 90
       50
102
RTVSPost2010PropOp42
 70
     1
102
RTVSPost2010Prop43
 90
        3
102
RTVSPost2010PropOp43
 70
     1
102
RTVSPost2010Prop44ColorIndex
 90
        5
102
RTVSPost2010Prop44ColorRGB
 90
      255
102
RTVSPost2010PropOp44
 70
     1
102
RTVSPost2010Prop45
280
     0
102
RTVSPost2010PropOp45
 70
     1
102
RTVSPost2010Prop46
 90
       50
102
RTVSPost2010PropOp46
 70
     1
102
RTVSPost2010Prop47
 90
       50
102
RTVSPost2010PropOp47
 70
     1
102
RTVSPost2010Prop48
 90
       50
102
RTVSPost2010PropOp48
 70
     1
102
RTVSPost2010Prop49
280
     0
102
RTVSPost2010PropOp49
 70
     1
102
RTVSPost2010Prop50
 90
       50
102
RTVSPost2010PropOp50
 70
     1
102
RTVSPost2010Prop51ColorIndex
 90
      256
102
RTVSPost2010Prop51ColorRGB
 90
-16777216
102
RTVSPost2010PropOp51
 70
     0
102
RTVSPost2010Prop52
140
1.0
102
RTVSPost2010PropOp52
 70
     0
102
RTVSPost2010Prop53
 90
        2
102
RTVSPost2010PropOp53
 70
     1
102
RTVSPost2010Prop54
  1
strokes_ogs.tif
102
RTVSPost2010PropOp54
 70
     1
102
RTVSPost2010Prop55
280
     0
102
RTVSPost2010PropOp55
 70
     1
102
RTVSPost2010Prop56
140
1.0
102
RTVSPost2010PropOp56
 70
     1
102
RTVSPost2010Prop57
140
1.0
102
RTVSPost2010PropOp57
 70
     1
  0
XRECORD
  5
398
102
{ACAD_REACTORS
330
397
102
}
330
397
100
AcDbXrecord
280
     1
102
RTVSPropertyOp0
 70
     1
102
RTVSPropertyOp1
 70
     1
102
RTVSPropertyOp2
 70
     1
102
RTVSPropertyOp3
 70
     1
102
RTVSPropertyOp4
 70
     1
102
RTVSPropertyOp5
 70
     1
102
RTVSPropertyOp6
 70
     1
102
RTVSPropertyOp7
 70
     1
102
RTVSPropertyOp8
 70
     1
102
RTVSPropertyOp9
 70
     1
102
RTVSPropertyOp10
 70
     1
102
RTVSPropertyOp11
 70
     1
102
RTVSPropertyOp12
 70
     1
102
RTVSPropertyOp13
 70
     1
102
RTVSPropertyOp14
 70
     1
102
RTVSPropertyOp15
 70
     1
102
RTVSPropertyOp16
 70
     1
102
RTVSPropertyOp17
 70
     1
102
RTVSPropertyOp18
 70
     1
102
RTVSPropertyOp19
 70
     1
102
RTVSPropertyOp20
 70
     1
102
RTVSPropertyOp21
 70
     1
102
RTVSPropertyOp22
 70
     1
102
RTVSPropertyOp23
 70
     1
102
RTVSPropertyOp24
 70
     1
102
RTVSPropertyOp25
 70
     1
102
RTVSPropertyOp26
 70
     1
102
RTVSPropertyOp27
 70
     1
102
RTVSPropertyOp28
 70
     1
102
RTVSPropertyOp29
 70
     1
102
RTVSPropertyOp30
 70
     1
102
RTVSPropertyOp31
 70
     1
102
RTVSPropertyOp32
 70
     1
102
RTVSPropertyOp33
 70
     1
102
RTVSPropertyOp34
 70
     1
102
RTVSPropertyOp35
 70
     1
102
RTVSPropertyOp36
 70
     1
102
RTVSPropertyOp37
 70
     1
102
RTVSPropertyOp38
 70
     1
102
RTVSPropertyOp39
 70
     1
102
RTVSPropertyOp40
 70
     1
102
RTVSPropertyOp41
 70
     1
102
RTVSPropertyOp42
 70
     1
102
RTVSPropertyOp43
 70
     1
102
RTVSPropertyOp44
 70
     1
102
RTVSPropertyOp45
 70
     1
102
RTVSPropertyOp46
 70
     1
102
RTVSPropertyOp47
 70
     1
102
RTVSPropertyOp48
 70
     1
102
RTVSPropertyOp49
 70
     1
102
RTVSPropertyOp50
 70
     1
102
RTVSPropertyOp51
 70
     0
102
RTVSPropertyOp52
 70
     0
102
RTVSPropertyOp53
 70
     1
102
RTVSPropertyOp54
 70
     1
102
RTVSPropertyOp55
 70
     1
102
RTVSPropertyOp56
 70
     1
102
RTVSPropertyOp57
 70
     1
102
RTVSPost2010Prop28
280
     0
102
RTVSPost2010PropOp28
 70
     1
102
RTVSPost2010Prop29
280
     1
102
RTVSPost2010PropOp29
 70
     1
102
RTVSPost2010Prop30
280
     1
102
RTVSPost2010PropOp30
 70
     1
102
RTVSPost2010Prop31
280
     0
102
RTVSPost2010PropOp31
 70
     1
102
RTVSPost2010Prop32
280
     0
102
RTVSPost2010PropOp32
 70
     1
102
RTVSPost2010Prop33
280
     0
102
RTVSPost2010PropOp33
 70
     1
102
RTVSPost2010Prop34
280
     0
102
RTVSPost2010PropOp34
 70
     1
102
RTVSPost2010Prop35
280
     0
102
RTVSPost2010PropOp35
 70
     1
102
RTVSPost2010Prop36
280
     0
102
RTVSPost2010PropOp36
 70
     1
102
RTVSPost2010Prop37
 90
       50
102
RTVSPost2010PropOp37
 70
     1
102
RTVSPost2010Prop38
140
0.0
102
RTVSPost2010PropOp38
 70
     1
102
RTVSPost2010Prop39
140
1.0
102
RTVSPost2010PropOp39
 70
     1
102
RTVSPost2010Prop40
 90
        0
102
RTVSPost2010PropOp40
 70
     1
102
RTVSPost2010Prop41ColorIndex
 90
       18
102
RTVSPost2010Prop41ColorRGB
 90
        0
102
RTVSPost2010PropOp41
 70
     1
102
RTVSPost2010Prop42
 90
       50
102
RTVSPost2010PropOp42
 70
     1
102
RTVSPost2010Prop43
 90
        3
102
RTVSPost2010PropOp43
 70
     1
102
RTVSPost2010Prop44ColorIndex
 90
        5
102
RTVSPost2010Prop44ColorRGB
 90
      255
102
RTVSPost2010PropOp44
 70
     1
102
RTVSPost2010Prop45
280
     0
102
RTVSPost2010PropOp45
 70
     1
102
RTVSPost2010Prop46
 90
       50
102
RTVSPost2010PropOp46
 70
     1
102
RTVSPost2010Prop47
 90
       50
102
RTVSPost2010PropOp47
 70
     1
102
RTVSPost2010Prop48
 90
       50
102
RTVSPost2010PropOp48
 70
     1
102
RTVSPost2010Prop49
280
     0
102
RTVSPost2010PropOp49
 70
     1
102
RTVSPost2010Prop50
 90
       50
102
RTVSPost2010PropOp50
 70
     1
102
RTVSPost2010Prop51ColorIndex
 90
      256
102
RTVSPost2010Prop51ColorRGB
 90
-16777216
102
RTVSPost2010PropOp51
 70
     0
102
RTVSPost2010Prop52
140
1.0
102
RTVSPost2010PropOp52
 70
     0
102
RTVSPost2010Prop53
 90
        2
102
RTVSPost2010PropOp53
 70
     1
102
RTVSPost2010Prop54
  1
strokes_ogs.tif
102
RTVSPost2010PropOp54
 70
     1
102
RTVSPost2010Prop55
280
     0
102
RTVSPost2010PropOp55
 70
     1
102
RTVSPost2010Prop56
140
1.0
102
RTVSPost2010PropOp56
 70
     1
102
RTVSPost2010Prop57
140
1.0
102
RTVSPost2010PropOp57
 70
     1
  0
XRECORD
  5
388
102
{ACAD_REACTORS
330
387
102
}
330
387
100
AcDbXrecord
280
     1
102
RTVSPropertyOp0
 70
     1
102
RTVSPropertyOp1
 70
     1
102
RTVSPropertyOp2
 70
     1
102
RTVSPropertyOp3
 70
     1
102
RTVSPropertyOp4
 70
     1
102
RTVSPropertyOp5
 70
     1
102
RTVSPropertyOp6
 70
     1
102
RTVSPropertyOp7
 70
     1
102
RTVSPropertyOp8
 70
     1
102
RTVSPropertyOp9
 70
     1
102
RTVSPropertyOp10
 70
     1
102
RTVSPropertyOp11
 70
     1
102
RTVSPropertyOp12
 70
     1
102
RTVSPropertyOp13
 70
     1
102
RTVSPropertyOp14
 70
     1
102
RTVSPropertyOp15
 70
     1
102
RTVSPropertyOp16
 70
     1
102
RTVSPropertyOp17
 70
     1
102
RTVSPropertyOp18
 70
     1
102
RTVSPropertyOp19
 70
     1
102
RTVSPropertyOp20
 70
     1
102
RTVSPropertyOp21
 70
     1
102
RTVSPropertyOp22
 70
     1
102
RTVSPropertyOp23
 70
     1
102
RTVSPropertyOp24
 70
     1
102
RTVSPropertyOp25
 70
     1
102
RTVSPropertyOp26
 70
     1
102
RTVSPropertyOp27
 70
     1
102
RTVSPropertyOp28
 70
     1
102
RTVSPropertyOp29
 70
     1
102
RTVSPropertyOp30
 70
     1
102
RTVSPropertyOp31
 70
     1
102
RTVSPropertyOp32
 70
     1
102
RTVSPropertyOp33
 70
     1
102
RTVSPropertyOp34
 70
     1
102
RTVSPropertyOp35
 70
     1
102
RTVSPropertyOp36
 70
     1
102
RTVSPropertyOp37
 70
     1
102
RTVSPropertyOp38
 70
     1
102
RTVSPropertyOp39
 70
     1
102
RTVSPropertyOp40
 70
     1
102
RTVSPropertyOp41
 70
     1
102
RTVSPropertyOp42
 70
     1
102
RTVSPropertyOp43
 70
     1
102
RTVSPropertyOp44
 70
     1
102
RTVSPropertyOp45
 70
     1
102
RTVSPropertyOp46
 70
     1
102
RTVSPropertyOp47
 70
     1
102
RTVSPropertyOp48
 70
     1
102
RTVSPropertyOp49
 70
     1
102
RTVSPropertyOp50
 70
     1
102
RTVSPropertyOp51
 70
     0
102
RTVSPropertyOp52
 70
     0
102
RTVSPropertyOp53
 70
     1
102
RTVSPropertyOp54
 70
     1
102
RTVSPropertyOp55
 70
     1
102
RTVSPropertyOp56
 70
     1
102
RTVSPropertyOp57
 70
     1
102
RTVSPost2010Prop28
280
     0
102
RTVSPost2010PropOp28
 70
     1
102
RTVSPost2010Prop29
280
     1
102
RTVSPost2010PropOp29
 70
     1
102
RTVSPost2010Prop30
280
     1
102
RTVSPost2010PropOp30
 70
     1
102
RTVSPost2010Prop31
280
     0
102
RTVSPost2010PropOp31
 70
     1
102
RTVSPost2010Prop32
280
     0
102
RTVSPost2010PropOp32
 70
     1
102
RTVSPost2010Prop33
280
     0
102
RTVSPost2010PropOp33
 70
     1
102
RTVSPost2010Prop34
280
     0
102
RTVSPost2010PropOp34
 70
     1
102
RTVSPost2010Prop35
280
     0
102
RTVSPost2010PropOp35
 70
     1
102
RTVSPost2010Prop36
280
     0
102
RTVSPost2010PropOp36
 70
     1
102
RTVSPost2010Prop37
 90
       50
102
RTVSPost2010PropOp37
 70
     1
102
RTVSPost2010Prop38
140
0.0
102
RTVSPost2010PropOp38
 70
     1
102
RTVSPost2010Prop39
140
1.0
102
RTVSPost2010PropOp39
 70
     1
102
RTVSPost2010Prop40
 90
        0
102
RTVSPost2010PropOp40
 70
     1
102
RTVSPost2010Prop41ColorIndex
 90
       18
102
RTVSPost2010Prop41ColorRGB
 90
        0
102
RTVSPost2010PropOp41
 70
     1
102
RTVSPost2010Prop42
 90
       50
102
RTVSPost2010PropOp42
 70
     1
102
RTVSPost2010Prop43
 90
        3
102
RTVSPost2010PropOp43
 70
     1
102
RTVSPost2010Prop44ColorIndex
 90
        5
102
RTVSPost2010Prop44ColorRGB
 90
      255
102
RTVSPost2010PropOp44
 70
     1
102
RTVSPost2010Prop45
280
     0
102
RTVSPost2010PropOp45
 70
     1
102
RTVSPost2010Prop46
 90
       50
102
RTVSPost2010PropOp46
 70
     1
102
RTVSPost2010Prop47
 90
       50
102
RTVSPost2010PropOp47
 70
     1
102
RTVSPost2010Prop48
 90
       50
102
RTVSPost2010PropOp48
 70
     1
102
RTVSPost2010Prop49
280
     0
102
RTVSPost2010PropOp49
 70
     1
102
RTVSPost2010Prop50
 90
       50
102
RTVSPost2010PropOp50
 70
     1
102
RTVSPost2010Prop51ColorIndex
 90
      256
102
RTVSPost2010Prop51ColorRGB
 90
-16777216
102
RTVSPost2010PropOp51
 70
     0
102
RTVSPost2010Prop52
140
1.0
102
RTVSPost2010PropOp52
 70
     0
102
RTVSPost2010Prop53
 90
        2
102
RTVSPost2010PropOp53
 70
     1
102
RTVSPost2010Prop54
  1
strokes_ogs.tif
102
RTVSPost2010PropOp54
 70
     1
102
RTVSPost2010Prop55
280
     0
102
RTVSPost2010PropOp55
 70
     1
102
RTVSPost2010Prop56
140
1.0
102
RTVSPost2010PropOp56
 70
     1
102
RTVSPost2010Prop57
140
1.0
102
RTVSPost2010PropOp57
 70
     1
  0
XRECORD
  5
37A
102
{ACAD_REACTORS
330
379
102
}
330
379
100
AcDbXrecord
280
     1
102
RTVSPropertyOp0
 70
     1
102
RTVSPropertyOp1
 70
     1
102
RTVSPropertyOp2
 70
     1
102
RTVSPropertyOp3
 70
     1
102
RTVSPropertyOp4
 70
     1
102
RTVSPropertyOp5
 70
     1
102
RTVSPropertyOp6
 70
     1
102
RTVSPropertyOp7
 70
     1
102
RTVSPropertyOp8
 70
     1
102
RTVSPropertyOp9
 70
     1
102
RTVSPropertyOp10
 70
     1
102
RTVSPropertyOp11
 70
     1
102
RTVSPropertyOp12
 70
     1
102
RTVSPropertyOp13
 70
     1
102
RTVSPropertyOp14
 70
     1
102
RTVSPropertyOp15
 70
     1
102
RTVSPropertyOp16
 70
     1
102
RTVSPropertyOp17
 70
     1
102
RTVSPropertyOp18
 70
     1
102
RTVSPropertyOp19
 70
     1
102
RTVSPropertyOp20
 70
     1
102
RTVSPropertyOp21
 70
     1
102
RTVSPropertyOp22
 70
     1
102
RTVSPropertyOp23
 70
     1
102
RTVSPropertyOp24
 70
     1
102
RTVSPropertyOp25
 70
     1
102
RTVSPropertyOp26
 70
     1
102
RTVSPropertyOp27
 70
     1
102
RTVSPropertyOp28
 70
     1
102
RTVSPropertyOp29
 70
     1
102
RTVSPropertyOp30
 70
     1
102
RTVSPropertyOp31
 70
     1
102
RTVSPropertyOp32
 70
     1
102
RTVSPropertyOp33
 70
     1
102
RTVSPropertyOp34
 70
     1
102
RTVSPropertyOp35
 70
     1
102
RTVSPropertyOp36
 70
     1
102
RTVSPropertyOp37
 70
     1
102
RTVSPropertyOp38
 70
     1
102
RTVSPropertyOp39
 70
     1
102
RTVSPropertyOp40
 70
     1
102
RTVSPropertyOp41
 70
     1
102
RTVSPropertyOp42
 70
     1
102
RTVSPropertyOp43
 70
     1
102
RTVSPropertyOp44
 70
     1
102
RTVSPropertyOp45
 70
     1
102
RTVSPropertyOp46
 70
     1
102
RTVSPropertyOp47
 70
     1
102
RTVSPropertyOp48
 70
     1
102
RTVSPropertyOp49
 70
     1
102
RTVSPropertyOp50
 70
     1
102
RTVSPropertyOp51
 70
     0
102
RTVSPropertyOp52
 70
     0
102
RTVSPropertyOp53
 70
     1
102
RTVSPropertyOp54
 70
     1
102
RTVSPropertyOp55
 70
     1
102
RTVSPropertyOp56
 70
     1
102
RTVSPropertyOp57
 70
     1
102
RTVSPost2010Prop28
280
     0
102
RTVSPost2010PropOp28
 70
     1
102
RTVSPost2010Prop29
280
     1
102
RTVSPost2010PropOp29
 70
     1
102
RTVSPost2010Prop30
280
     1
102
RTVSPost2010PropOp30
 70
     1
102
RTVSPost2010Prop31
280
     0
102
RTVSPost2010PropOp31
 70
     1
102
RTVSPost2010Prop32
280
     0
102
RTVSPost2010PropOp32
 70
     1
102
RTVSPost2010Prop33
280
     0
102
RTVSPost2010PropOp33
 70
     1
102
RTVSPost2010Prop34
280
     0
102
RTVSPost2010PropOp34
 70
     1
102
RTVSPost2010Prop35
280
     0
102
RTVSPost2010PropOp35
 70
     1
102
RTVSPost2010Prop36
280
     0
102
RTVSPost2010PropOp36
 70
     1
102
RTVSPost2010Prop37
 90
       50
102
RTVSPost2010PropOp37
 70
     1
102
RTVSPost2010Prop38
140
0.0
102
RTVSPost2010PropOp38
 70
     1
102
RTVSPost2010Prop39
140
1.0
102
RTVSPost2010PropOp39
 70
     1
102
RTVSPost2010Prop40
 90
        0
102
RTVSPost2010PropOp40
 70
     1
102
RTVSPost2010Prop41ColorIndex
 90
       18
102
RTVSPost2010Prop41ColorRGB
 90
        0
102
RTVSPost2010PropOp41
 70
     1
102
RTVSPost2010Prop42
 90
       50
102
RTVSPost2010PropOp42
 70
     1
102
RTVSPost2010Prop43
 90
        3
102
RTVSPost2010PropOp43
 70
     1
102
RTVSPost2010Prop44ColorIndex
 90
        5
102
RTVSPost2010Prop44ColorRGB
 90
      255
102
RTVSPost2010PropOp44
 70
     1
102
RTVSPost2010Prop45
280
     0
102
RTVSPost2010PropOp45
 70
     1
102
RTVSPost2010Prop46
 90
       50
102
RTVSPost2010PropOp46
 70
     1
102
RTVSPost2010Prop47
 90
       50
102
RTVSPost2010PropOp47
 70
     1
102
RTVSPost2010Prop48
 90
       50
102
RTVSPost2010PropOp48
 70
     1
102
RTVSPost2010Prop49
280
     0
102
RTVSPost2010PropOp49
 70
     1
102
RTVSPost2010Prop50
 90
       50
102
RTVSPost2010PropOp50
 70
     1
102
RTVSPost2010Prop51ColorIndex
 90
      256
102
RTVSPost2010Prop51ColorRGB
 90
-16777216
102
RTVSPost2010PropOp51
 70
     0
102
RTVSPost2010Prop52
140
1.0
102
RTVSPost2010PropOp52
 70
     0
102
RTVSPost2010Prop53
 90
        2
102
RTVSPost2010PropOp53
 70
     1
102
RTVSPost2010Prop54
  1
strokes_ogs.tif
102
RTVSPost2010PropOp54
 70
     1
102
RTVSPost2010Prop55
280
     0
102
RTVSPost2010PropOp55
 70
     1
102
RTVSPost2010Prop56
140
1.0
102
RTVSPost2010PropOp56
 70
     1
102
RTVSPost2010Prop57
140
1.0
102
RTVSPost2010PropOp57
 70
     1
  0
XRECORD
  5
39A
102
{ACAD_REACTORS
330
399
102
}
330
399
100
AcDbXrecord
280
     1
102
RTVSPropertyOp0
 70
     1
102
RTVSPropertyOp1
 70
     1
102
RTVSPropertyOp2
 70
     1
102
RTVSPropertyOp3
 70
     1
102
RTVSPropertyOp4
 70
     1
102
RTVSPropertyOp5
 70
     1
102
RTVSPropertyOp6
 70
     1
102
RTVSPropertyOp7
 70
     1
102
RTVSPropertyOp8
 70
     1
102
RTVSPropertyOp9
 70
     1
102
RTVSPropertyOp10
 70
     1
102
RTVSPropertyOp11
 70
     1
102
RTVSPropertyOp12
 70
     1
102
RTVSPropertyOp13
 70
     1
102
RTVSPropertyOp14
 70
     1
102
RTVSPropertyOp15
 70
     1
102
RTVSPropertyOp16
 70
     1
102
RTVSPropertyOp17
 70
     1
102
RTVSPropertyOp18
 70
     1
102
RTVSPropertyOp19
 70
     1
102
RTVSPropertyOp20
 70
     1
102
RTVSPropertyOp21
 70
     1
102
RTVSPropertyOp22
 70
     1
102
RTVSPropertyOp23
 70
     1
102
RTVSPropertyOp24
 70
     1
102
RTVSPropertyOp25
 70
     1
102
RTVSPropertyOp26
 70
     1
102
RTVSPropertyOp27
 70
     1
102
RTVSPropertyOp28
 70
     1
102
RTVSPropertyOp29
 70
     1
102
RTVSPropertyOp30
 70
     1
102
RTVSPropertyOp31
 70
     1
102
RTVSPropertyOp32
 70
     1
102
RTVSPropertyOp33
 70
     1
102
RTVSPropertyOp34
 70
     1
102
RTVSPropertyOp35
 70
     1
102
RTVSPropertyOp36
 70
     1
102
RTVSPropertyOp37
 70
     1
102
RTVSPropertyOp38
 70
     1
102
RTVSPropertyOp39
 70
     1
102
RTVSPropertyOp40
 70
     1
102
RTVSPropertyOp41
 70
     1
102
RTVSPropertyOp42
 70
     1
102
RTVSPropertyOp43
 70
     1
102
RTVSPropertyOp44
 70
     1
102
RTVSPropertyOp45
 70
     1
102
RTVSPropertyOp46
 70
     1
102
RTVSPropertyOp47
 70
     1
102
RTVSPropertyOp48
 70
     1
102
RTVSPropertyOp49
 70
     1
102
RTVSPropertyOp50
 70
     1
102
RTVSPropertyOp51
 70
     0
102
RTVSPropertyOp52
 70
     0
102
RTVSPropertyOp53
 70
     1
102
RTVSPropertyOp54
 70
     1
102
RTVSPropertyOp55
 70
     1
102
RTVSPropertyOp56
 70
     1
102
RTVSPropertyOp57
 70
     1
102
RTVSPost2010Prop28
280
     0
102
RTVSPost2010PropOp28
 70
     1
102
RTVSPost2010Prop29
280
     1
102
RTVSPost2010PropOp29
 70
     1
102
RTVSPost2010Prop30
280
     1
102
RTVSPost2010PropOp30
 70
     1
102
RTVSPost2010Prop31
280
     0
102
RTVSPost2010PropOp31
 70
     1
102
RTVSPost2010Prop32
280
     0
102
RTVSPost2010PropOp32
 70
     1
102
RTVSPost2010Prop33
280
     0
102
RTVSPost2010PropOp33
 70
     1
102
RTVSPost2010Prop34
280
     0
102
RTVSPost2010PropOp34
 70
     1
102
RTVSPost2010Prop35
280
     0
102
RTVSPost2010PropOp35
 70
     1
102
RTVSPost2010Prop36
280
     0
102
RTVSPost2010PropOp36
 70
     1
102
RTVSPost2010Prop37
 90
       50
102
RTVSPost2010PropOp37
 70
     1
102
RTVSPost2010Prop38
140
0.0
102
RTVSPost2010PropOp38
 70
     1
102
RTVSPost2010Prop39
140
1.0
102
RTVSPost2010PropOp39
 70
     1
102
RTVSPost2010Prop40
 90
        0
102
RTVSPost2010PropOp40
 70
     1
102
RTVSPost2010Prop41ColorIndex
 90
       18
102
RTVSPost2010Prop41ColorRGB
 90
        0
102
RTVSPost2010PropOp41
 70
     1
102
RTVSPost2010Prop42
 90
       50
102
RTVSPost2010PropOp42
 70
     1
102
RTVSPost2010Prop43
 90
        3
102
RTVSPost2010PropOp43
 70
     1
102
RTVSPost2010Prop44ColorIndex
 90
        5
102
RTVSPost2010Prop44ColorRGB
 90
      255
102
RTVSPost2010PropOp44
 70
     1
102
RTVSPost2010Prop45
280
     0
102
RTVSPost2010PropOp45
 70
     1
102
RTVSPost2010Prop46
 90
       50
102
RTVSPost2010PropOp46
 70
     1
102
RTVSPost2010Prop47
 90
       50
102
RTVSPost2010PropOp47
 70
     1
102
RTVSPost2010Prop48
 90
       50
102
RTVSPost2010PropOp48
 70
     1
102
RTVSPost2010Prop49
280
     0
102
RTVSPost2010PropOp49
 70
     1
102
RTVSPost2010Prop50
 90
       50
102
RTVSPost2010PropOp50
 70
     1
102
RTVSPost2010Prop51ColorIndex
 90
      256
102
RTVSPost2010Prop51ColorRGB
 90
-16777216
102
RTVSPost2010PropOp51
 70
     0
102
RTVSPost2010Prop52
140
1.0
102
RTVSPost2010PropOp52
 70
     0
102
RTVSPost2010Prop53
 90
        2
102
RTVSPost2010PropOp53
 70
     1
102
RTVSPost2010Prop54
  1
strokes_ogs.tif
102
RTVSPost2010PropOp54
 70
     1
102
RTVSPost2010Prop55
280
     0
102
RTVSPost2010PropOp55
 70
     1
102
RTVSPost2010Prop56
140
1.0
102
RTVSPost2010PropOp56
 70
     1
102
RTVSPost2010Prop57
140
1.0
102
RTVSPost2010PropOp57
 70
     1
  0
ENDSEC
  0
EOF
