  0
SECTION
  2
HEADER
  9
$ACADVER
  1
AC1018
  9
$ACADMAINTVER
 70
   104
  9
$DWGCODEPAGE
  3
ANSI_1250
  9
$LASTSAVEDBY
  1
wq7085
  9
$INSBASE
 10
0.0
 20
0.0
 30
0.0
  9
$EXTMIN
 10
15.81859008713985
 20
172.940921
 30
0.0
  9
$EXTMAX
 10
272.508425
 20
281.2293288999765
 30
0.0
  9
$LIMMIN
 10
-0.5
 20
-0.5
  9
$LIMMAX
 10
5.0
 20
5.0
  9
$ORTHOMODE
 70
     0
  9
$REGENMODE
 70
     1
  9
$FILLMODE
 70
     1
  9
$QTEXTMODE
 70
     0
  9
$MIRRTEXT
 70
     1
  9
$LTSCALE
 40
1.0
  9
$ATTMODE
 70
     1
  9
$TEXTSIZE
 40
0.2
  9
$TRACEWID
 40
0.05
  9
$TEXTSTYLE
  7
Standard
  9
$CLAYER
  8
0
  9
$CELTYPE
  6
BYLAYER
  9
$CECOLOR
 62
   256
  9
$CELTSCALE
 40
1.0
  9
$DISPSILH
 70
     0
  9
$DIMSCALE
 40
1.0
  9
$DIMASZ
 40
0.18
  9
$DIMEXO
 40
0.0625
  9
$DIMDLI
 40
0.38
  9
$DIMRND
 40
0.0
  9
$DIMDLE
 40
0.0
  9
$DIMEXE
 40
0.18
  9
$DIMTP
 40
0.0
  9
$DIMTM
 40
0.0
  9
$DIMTXT
 40
0.18
  9
$DIMCEN
 40
0.09
  9
$DIMTSZ
 40
0.0
  9
$DIMTOL
 70
     0
  9
$DIMLIM
 70
     0
  9
$DIMTIH
 70
     1
  9
$DIMTOH
 70
     1
  9
$DIMSE1
 70
     0
  9
$DIMSE2
 70
     0
  9
$DIMTAD
 70
     0
  9
$DIMZIN
 70
     0
  9
$DIMBLK
  1

  9
$DIMASO
 70
     1
  9
$DIMSHO
 70
     1
  9
$DIMPOST
  1

  9
$DIMAPOST
  1

  9
$DIMALT
 70
     0
  9
$DIMALTD
 70
     2
  9
$DIMALTF
 40
25.4
  9
$DIMLFAC
 40
1.0
  9
$DIMTOFL
 70
     0
  9
$DIMTVP
 40
0.0
  9
$DIMTIX
 70
     0
  9
$DIMSOXD
 70
     0
  9
$DIMSAH
 70
     0
  9
$DIMBLK1
  1

  9
$DIMBLK2
  1

  9
$DIMSTYLE
  2
Standard
  9
$DIMCLRD
 70
     0
  9
$DIMCLRE
 70
     0
  9
$DIMCLRT
 70
     0
  9
$DIMTFAC
 40
1.0
  9
$DIMGAP
 40
0.09
  9
$DIMJUST
 70
     0
  9
$DIMSD1
 70
     0
  9
$DIMSD2
 70
     0
  9
$DIMTOLJ
 70
     1
  9
$DIMTZIN
 70
     0
  9
$DIMALTZ
 70
     0
  9
$DIMALTTZ
 70
     0
  9
$DIMUPT
 70
     0
  9
$DIMDEC
 70
     4
  9
$DIMTDEC
 70
     4
  9
$DIMALTU
 70
     2
  9
$DIMALTTD
 70
     2
  9
$DIMTXSTY
  7
Standard
  9
$DIMAUNIT
 70
     0
  9
$DIMADEC
 70
     0
  9
$DIMALTRND
 40
0.0
  9
$DIMAZIN
 70
     0
  9
$DIMDSEP
 70
    46
  9
$DIMATFIT
 70
     3
  9
$DIMFRAC
 70
     0
  9
$DIMLDRBLK
  1

  9
$DIMLUNIT
 70
     2
  9
$DIMLWD
 70
    -2
  9
$DIMLWE
 70
    -2
  9
$DIMTMOVE
 70
     0
  9
$LUNITS
 70
     2
  9
$LUPREC
 70
     4
  9
$SKETCHINC
 40
0.1
  9
$FILLETRAD
 40
0.5
  9
$AUNITS
 70
     0
  9
$AUPREC
 70
     0
  9
$MENU
  1
.
  9
$ELEVATION
 40
0.0
  9
$PELEVATION
 40
0.0
  9
$THICKNESS
 40
0.0
  9
$LIMCHECK
 70
     0
  9
$CHAMFERA
 40
0.0
  9
$CHAMFERB
 40
0.0
  9
$CHAMFERC
 40
0.0
  9
$CHAMFERD
 40
0.0
  9
$SKPOLY
 70
     0
  9
$TDCREATE
 40
2458022.318634260
  9
$TDUCREATE
 40
2458022.235306470
  9
$TDUPDATE
 40
2458831.307696760
  9
$TDUUPDATE
 40
2458831.266030093
  9
$TDINDWG
 40
0.0020543981
  9
$TDUSRTIMER
 40
0.0020543866
  9
$USRTIMER
 70
     1
  9
$ANGBASE
 50
0.0
  9
$ANGDIR
 70
     0
  9
$PDMODE
 70
     0
  9
$PDSIZE
 40
0.0
  9
$PLINEWID
 40
0.0
  9
$SPLFRAME
 70
     0
  9
$SPLINETYPE
 70
     6
  9
$SPLINESEGS
 70
     8
  9
$HANDSEED
  5
385
  9
$SURFTAB1
 70
     6
  9
$SURFTAB2
 70
     6
  9
$SURFTYPE
 70
     6
  9
$SURFU
 70
     6
  9
$SURFV
 70
     6
  9
$UCSBASE
  2

  9
$UCSNAME
  2

  9
$UCSORG
 10
197.189659
 20
190.63119
 30
0.0
  9
$UCSXDIR
 10
1.0
 20
0.0
 30
0.0
  9
$UCSYDIR
 10
0.0
 20
1.0
 30
0.0
  9
$UCSORTHOREF
  2

  9
$UCSORTHOVIEW
 70
     0
  9
$UCSORGTOP
 10
0.0
 20
0.0
 30
0.0
  9
$UCSORGBOTTOM
 10
0.0
 20
0.0
 30
0.0
  9
$UCSORGLEFT
 10
0.0
 20
0.0
 30
0.0
  9
$UCSORGRIGHT
 10
0.0
 20
0.0
 30
0.0
  9
$UCSORGFRONT
 10
0.0
 20
0.0
 30
0.0
  9
$UCSORGBACK
 10
0.0
 20
0.0
 30
0.0
  9
$PUCSBASE
  2

  9
$PUCSNAME
  2

  9
$PUCSORG
 10
0.0
 20
0.0
 30
0.0
  9
$PUCSXDIR
 10
1.0
 20
0.0
 30
0.0
  9
$PUCSYDIR
 10
0.0
 20
1.0
 30
0.0
  9
$PUCSORTHOREF
  2

  9
$PUCSORTHOVIEW
 70
     0
  9
$PUCSORGTOP
 10
0.0
 20
0.0
 30
0.0
  9
$PUCSORGBOTTOM
 10
0.0
 20
0.0
 30
0.0
  9
$PUCSORGLEFT
 10
0.0
 20
0.0
 30
0.0
  9
$PUCSORGRIGHT
 10
0.0
 20
0.0
 30
0.0
  9
$PUCSORGFRONT
 10
0.0
 20
0.0
 30
0.0
  9
$PUCSORGBACK
 10
0.0
 20
0.0
 30
0.0
  9
$USERI1
 70
     0
  9
$USERI2
 70
     0
  9
$USERI3
 70
     0
  9
$USERI4
 70
     0
  9
$USERI5
 70
     0
  9
$USERR1
 40
0.0
  9
$USERR2
 40
0.0
  9
$USERR3
 40
0.0
  9
$USERR4
 40
0.0
  9
$USERR5
 40
0.0
  9
$WORLDVIEW
 70
     1
  9
$SHADEDGE
 70
     3
  9
$SHADEDIF
 70
    70
  9
$TILEMODE
 70
     1
  9
$MAXACTVP
 70
    64
  9
$PINSBASE
 10
0.0
 20
0.0
 30
0.0
  9
$PLIMCHECK
 70
     0
  9
$PEXTMIN
 10
-0.5
 20
-0.5
 30
-0.5
  9
$PEXTMAX
 10
5.0
 20
5.0
 30
5.0
  9
$PLIMMIN
 10
-0.5
 20
-0.5
  9
$PLIMMAX
 10
5.0
 20
5.0
  9
$UNITMODE
 70
     0
  9
$VISRETAIN
 70
     1
  9
$PLINEGEN
 70
     0
  9
$PSLTSCALE
 70
     1
  9
$TREEDEPTH
 70
  3020
  9
$CMLSTYLE
  2
Standard
  9
$CMLJUST
 70
     0
  9
$CMLSCALE
 40
1.0
  9
$PROXYGRAPHICS
 70
     1
  9
$MEASUREMENT
 70
     1
  9
$CELWEIGHT
370
    13
  9
$ENDCAPS
280
     0
  9
$JOINSTYLE
280
     0
  9
$LWDISPLAY
290
     1
  9
$INSUNITS
 70
     4
  9
$HYPERLINKBASE
  1

  9
$STYLESHEET
  1

  9
$XEDIT
290
     1
  9
$CEPSNTYPE
380
     0
  9
$PSTYLEMODE
290
     1
  9
$FINGERPRINTGUID
  2
{9A02B318-D968-495D-9F2C-65788318AF1E}
  9
$VERSIONGUID
  2
{2DED7640-F40A-0C4E-8797-CB44B22237C0}
  9
$EXTNAMES
290
     1
  9
$PSVPSCALE
 40
0.0
  9
$OLESTARTUP
290
     0
  9
$SORTENTS
280
   127
  9
$INDEXCTL
280
     0
  9
$HIDETEXT
280
     1
  9
$XCLIPFRAME
290
     0
  9
$HALOGAP
280
     0
  9
$OBSCOLOR
 70
   257
  9
$OBSLTYPE
280
     0
  9
$INTERSECTIONDISPLAY
280
     0
  9
$INTERSECTIONCOLOR
 70
   257
  9
$DIMASSOC
280
     2
  9
$PROJECTNAME
  1

  0
ENDSEC
  0
SECTION
  2
CLASSES
  0
CLASS
  1
ACDBDICTIONARYWDFLT
  2
AcDbDictionaryWithDefault
  3
ObjectDBX Classes
 90
        0
 91
        1
280
     0
281
     0
  0
CLASS
  1
VISUALSTYLE
  2
AcDbVisualStyle
  3
ObjectDBX Classes
 90
     4095
 91
       24
280
     0
281
     0
  0
CLASS
  1
MATERIAL
  2
AcDbMaterial
  3
ObjectDBX Classes
 90
     1153
 91
        3
280
     0
281
     0
  0
CLASS
  1
SCALE
  2
AcDbScale
  3
ObjectDBX Classes
 90
     1153
 91
       33
280
     0
281
     0
  0
CLASS
  1
SUN
  2
AcDbSun
  3
SCENEOE
 90
     1153
 91
        0
280
     0
281
     0
  0
CLASS
  1
DICTIONARYVAR
  2
AcDbDictionaryVar
  3
ObjectDBX Classes
 90
        0
 91
       12
280
     0
281
     0
  0
CLASS
  1
TABLESTYLE
  2
AcDbTableStyle
  3
ObjectDBX Classes
 90
     4095
 91
        1
280
     0
281
     0
  0
CLASS
  1
MLEADERSTYLE
  2
AcDbMLeaderStyle
  3
ACDB_MLEADERSTYLE_CLASS
 90
     4095
 91
        1
280
     0
281
     0
  0
CLASS
  1
ACDBSECTIONVIEWSTYLE
  2
AcDbSectionViewStyle
  3
ObjectDBX Classes
 90
     1025
 91
        1
280
     0
281
     0
  0
CLASS
  1
ACDBDETAILVIEWSTYLE
  2
AcDbDetailViewStyle
  3
ObjectDBX Classes
 90
     1025
 91
        1
280
     0
281
     0
  0
CLASS
  1
CELLSTYLEMAP
  2
AcDbCellStyleMap
  3
ObjectDBX Classes
 90
     1152
 91
        2
280
     0
281
     0
  0
ENDSEC
  0
SECTION
  2
TABLES
  0
TABLE
  2
VPORT
  5
8
330
0
100
AcDbSymbolTable
 70
    17
  0
VPORT
  5
29
330
8
100
AcDbSymbolTableRecord
100
AcDbViewportTableRecord
  2
DUMMY
 70
     0
 10
0.0
 20
0.0
 11
1.0
 21
1.0
 12
10.429907
 22
4.5
 13
0.0
 23
0.0
 14
0.5
 24
0.5
 15
0.5
 25
0.5
 16
0.0
 26
0.0
 36
1.0
 17
0.0
 27
0.0
 37
0.0
 40
9.0
 41
1.972972999999999
 42
50.0
 43
0.0
 44
0.0
 50
0.0
 51
0.0
 71
     0
 72
   100
 73
     1
 74
     3
 75
     0
 76
     0
 77
     0
 78
     0
281
     0
 65
     1
110
0.0
120
0.0
130
0.0
111
1.0
121
0.0
131
0.0
112
0.0
122
1.0
132
0.0
 79
     0
146
0.0
  0
VPORT
  5
240
330
8
100
AcDbSymbolTableRecord
100
AcDbViewportTableRecord
  2
*ACTIVE
 70
     0
 10
0.0
 20
0.0
 11
1.0
 21
1.0
 12
193.0544804506759
 22
208.7184279303637
 13
0.0
 23
0.0
 14
0.5
 24
0.5
 15
0.5
 25
0.5
 16
0.0
 26
0.0
 36
1.0
 17
0.0
 27
0.0
 37
0.0
 40
265.6305803615855
 41
2.292712066905615
 42
50.0
 43
689.8304059999998
 44
-689.8304059999998
 50
0.0
 51
0.0
 71
     0
 72
   100
 73
     1
 74
     3
 75
     0
 76
     0
 77
     0
 78
     0
281
     0
 65
     1
110
197.189659
120
190.63119
130
0.0
111
1.0
121
0.0
131
0.0
112
0.0
122
1.0
132
0.0
 79
     0
146
0.0
1001
ACAD_NAV_VCDISPLAY
1070
     3
  0
VPORT
  5
242
330
8
100
AcDbSymbolTableRecord
100
AcDbViewportTableRecord
  2
L1
 70
     0
 10
0.0
 20
0.0
 11
1.0
 21
1.0
 12
238.839972
 22
224.471302
 13
0.0
 23
0.0
 14
0.5
 24
0.5
 15
0.5
 25
0.5
 16
0.0
 26
0.0
 36
1.0
 17
0.0
 27
0.0
 37
0.0
 40
264.583333
 41
0.067112
 42
50.0
 43
689.8304059999998
 44
-689.8304059999998
 50
0.0
 51
0.0
 71
     0
 72
   100
 73
     1
 74
     3
 75
     0
 76
     0
 77
     0
 78
     0
281
     0
 65
     1
110
0.0
120
0.0
130
0.0
111
1.0
121
0.0
131
0.0
112
0.0
122
1.0
132
0.0
 79
     0
146
0.0
  0
VPORT
  5
243
330
8
100
AcDbSymbolTableRecord
100
AcDbViewportTableRecord
  2
L2
 70
     0
 10
0.0
 20
0.0
 11
0.5
 21
1.0
 12
0.0
 22
0.0
 13
0.0
 23
0.0
 14
0.5
 24
0.5
 15
0.5
 25
0.5
 16
0.0
 26
-1.0
 36
0.0
 17
0.0
 27
0.0
 37
0.0
 40
1604.305225
 41
0.011068
 42
50.0
 43
824.585324
 44
-824.585324
 50
0.0
 51
0.0
 71
     0
 72
   100
 73
     1
 74
     3
 75
     0
 76
     0
 77
     0
 78
     0
281
     0
 65
     1
110
0.0
120
0.0
130
0.0
111
1.0
121
0.0
131
0.0
112
0.0
122
1.0
132
0.0
 79
     0
146
0.0
  0
VPORT
  5
244
330
8
100
AcDbSymbolTableRecord
100
AcDbViewportTableRecord
  2
L2
 70
     0
 10
0.5
 20
0.0
 11
1.0
 21
1.0
 12
0.0
 22
0.0
 13
0.0
 23
0.0
 14
0.5
 24
0.5
 15
0.5
 25
0.5
 16
1.0
 26
0.0
 36
0.0
 17
0.0
 27
0.0
 37
0.0
 40
1604.305225
 41
0.011068
 42
50.0
 43
812.9882529999999
 44
-812.9882529999999
 50
0.0
 51
0.0
 71
     0
 72
   100
 73
     1
 74
     3
 75
     0
 76
     0
 77
     0
 78
     0
281
     0
 65
     1
110
0.0
120
0.0
130
0.0
111
1.0
121
0.0
131
0.0
112
0.0
122
1.0
132
0.0
 79
     0
146
0.0
  0
VPORT
  5
245
330
8
100
AcDbSymbolTableRecord
100
AcDbViewportTableRecord
  2
L3
 70
     0
 10
0.0
 20
0.5
 11
1.0
 21
1.0
 12
238.839972
 22
224.471302
 13
0.0
 23
0.0
 14
0.5
 24
0.5
 15
0.5
 25
0.5
 16
0.0
 26
0.0
 36
1.0
 17
0.0
 27
0.0
 37
0.0
 40
264.583333
 41
0.067112
 42
50.0
 43
689.8304059999998
 44
-689.8304059999998
 50
0.0
 51
0.0
 71
     0
 72
   100
 73
     1
 74
     3
 75
     0
 76
     0
 77
     0
 78
     0
281
     0
 65
     1
110
0.0
120
0.0
130
0.0
111
1.0
121
0.0
131
0.0
112
0.0
122
1.0
132
0.0
 79
     0
146
0.0
  0
VPORT
  5
246
330
8
100
AcDbSymbolTableRecord
100
AcDbViewportTableRecord
  2
L3
 70
     0
 10
0.0
 20
0.0
 11
1.0
 21
0.5
 12
0.0
 22
0.0
 13
0.0
 23
0.0
 14
0.5
 24
0.5
 15
0.5
 25
0.5
 16
0.0
 26
-1.0
 36
0.0
 17
0.0
 27
0.0
 37
0.0
 40
1604.305225
 41
0.011068
 42
50.0
 43
824.585324
 44
-824.585324
 50
0.0
 51
0.0
 71
     0
 72
   100
 73
     1
 74
     3
 75
     0
 76
     0
 77
     0
 78
     0
281
     0
 65
     1
110
0.0
120
0.0
130
0.0
111
1.0
121
0.0
131
0.0
112
0.0
122
1.0
132
0.0
 79
     0
146
0.0
  0
VPORT
  5
247
330
8
100
AcDbSymbolTableRecord
100
AcDbViewportTableRecord
  2
L4
 70
     0
 10
0.0
 20
0.5
 11
0.5
 21
1.0
 12
238.839972
 22
224.471302
 13
0.0
 23
0.0
 14
0.5
 24
0.5
 15
0.5
 25
0.5
 16
0.0
 26
0.0
 36
1.0
 17
0.0
 27
0.0
 37
0.0
 40
264.583333
 41
0.067112
 42
50.0
 43
689.8304059999998
 44
-689.8304059999998
 50
0.0
 51
0.0
 71
     0
 72
   100
 73
     1
 74
     3
 75
     0
 76
     0
 77
     0
 78
     0
281
     0
 65
     1
110
0.0
120
0.0
130
0.0
111
1.0
121
0.0
131
0.0
112
0.0
122
1.0
132
0.0
 79
     0
146
0.0
  0
VPORT
  5
248
330
8
100
AcDbSymbolTableRecord
100
AcDbViewportTableRecord
  2
L4
 70
     0
 10
0.0
 20
0.0
 11
0.5
 21
0.5
 12
0.0
 22
0.0
 13
0.0
 23
0.0
 14
0.5
 24
0.5
 15
0.5
 25
0.5
 16
0.0
 26
-1.0
 36
0.0
 17
0.0
 27
0.0
 37
0.0
 40
1604.305225
 41
0.011068
 42
50.0
 43
824.585324
 44
-824.585324
 50
0.0
 51
0.0
 71
     0
 72
   100
 73
     1
 74
     3
 75
     0
 76
     0
 77
     0
 78
     0
281
     0
 65
     1
110
0.0
120
0.0
130
0.0
111
1.0
121
0.0
131
0.0
112
0.0
122
1.0
132
0.0
 79
     0
146
0.0
  0
VPORT
  5
249
330
8
100
AcDbSymbolTableRecord
100
AcDbViewportTableRecord
  2
L4
 70
     0
 10
0.5
 20
0.0
 11
1.0
 21
0.5
 12
0.0
 22
0.0
 13
0.0
 23
0.0
 14
0.5
 24
0.5
 15
0.5
 25
0.5
 16
1.0
 26
0.0
 36
0.0
 17
0.0
 27
0.0
 37
0.0
 40
1604.305225
 41
0.011068
 42
50.0
 43
812.9882529999999
 44
-812.9882529999999
 50
0.0
 51
0.0
 71
     0
 72
   100
 73
     1
 74
     3
 75
     0
 76
     0
 77
     0
 78
     0
281
     0
 65
     1
110
0.0
120
0.0
130
0.0
111
1.0
121
0.0
131
0.0
112
0.0
122
1.0
132
0.0
 79
     0
146
0.0
  0
VPORT
  5
24A
330
8
100
AcDbSymbolTableRecord
100
AcDbViewportTableRecord
  2
L4
 70
     0
 10
0.5
 20
0.5
 11
1.0
 21
1.0
 12
0.0
 22
0.0
 13
0.0
 23
0.0
 14
0.5
 24
0.5
 15
0.5
 25
0.5
 16
0.577350269189626
 26
-0.577350269189626
 36
0.577350269189626
 17
0.0
 27
0.0
 37
0.0
 40
1573.900086
 41
0.011282
 42
50.0
 43
819.4867609999999
 44
-819.4867609999999
 50
0.0
 51
0.0
 71
     0
 72
   100
 73
     1
 74
     3
 75
     0
 76
     0
 77
     0
 78
     0
281
     0
 65
     1
110
0.0
120
0.0
130
0.0
111
1.0
121
0.0
131
0.0
112
0.0
122
1.0
132
0.0
 79
     0
146
0.0
  0
VPORT
  5
24B
330
8
100
AcDbSymbolTableRecord
100
AcDbViewportTableRecord
  2
L6
 70
     0
 10
0.0
 20
0.5
 11
0.333333
 21
1.0
 12
0.0
 22
0.0
 13
0.0
 23
0.0
 14
0.5
 24
0.5
 15
0.5
 25
0.5
 16
0.7188730927569435
 26
-0.5850486126764433
 36
0.3754192287502549
 17
0.0
 27
0.0
 37
0.0
 40
1660.903838
 41
0.010691
 42
50.0
 43
859.920316
 44
-859.920316
 50
0.0
 51
0.0
 71
     0
 72
   100
 73
     1
 74
     3
 75
     0
 76
     0
 77
     0
 78
     0
281
     0
 65
     1
110
0.0
120
0.0
130
0.0
111
1.0
121
0.0
131
0.0
112
0.0
122
1.0
132
0.0
 79
     0
146
0.0
  0
VPORT
  5
24C
330
8
100
AcDbSymbolTableRecord
100
AcDbViewportTableRecord
  2
L6
 70
     0
 10
0.0
 20
0.0
 11
0.333333
 21
0.5
 12
0.0
 22
0.0
 13
0.0
 23
0.0
 14
0.5
 24
0.5
 15
0.5
 25
0.5
 16
-1.0
 26
0.0
 36
0.0
 17
0.0
 27
0.0
 37
0.0
 40
1604.305225
 41
0.011068
 42
50.0
 43
812.9882529999999
 44
-812.9882529999999
 50
0.0
 51
0.0
 71
     0
 72
   100
 73
     1
 74
     3
 75
     0
 76
     0
 77
     0
 78
     0
281
     0
 65
     1
110
0.0
120
0.0
130
0.0
111
1.0
121
0.0
131
0.0
112
0.0
122
1.0
132
0.0
 79
     0
146
0.0
  0
VPORT
  5
24D
330
8
100
AcDbSymbolTableRecord
100
AcDbViewportTableRecord
  2
L6
 70
     0
 10
0.333333
 20
0.5
 11
0.666667
 21
1.0
 12
238.839972
 22
224.471302
 13
0.0
 23
0.0
 14
0.5
 24
0.5
 15
0.5
 25
0.5
 16
0.0
 26
0.0
 36
1.0
 17
0.0
 27
0.0
 37
0.0
 40
264.583333
 41
0.067112
 42
50.0
 43
689.8304059999998
 44
-689.8304059999998
 50
0.0
 51
0.0
 71
     0
 72
   100
 73
     1
 74
     3
 75
     0
 76
     0
 77
     0
 78
     0
281
     0
 65
     1
110
0.0
120
0.0
130
0.0
111
1.0
121
0.0
131
0.0
112
0.0
122
1.0
132
0.0
 79
     0
146
0.0
  0
VPORT
  5
24E
330
8
100
AcDbSymbolTableRecord
100
AcDbViewportTableRecord
  2
L6
 70
     0
 10
0.333333
 20
0.0
 11
0.666667
 21
0.5
 12
0.0
 22
0.0
 13
0.0
 23
0.0
 14
0.5
 24
0.5
 15
0.5
 25
0.5
 16
0.0
 26
-1.0
 36
0.0
 17
0.0
 27
0.0
 37
0.0
 40
1604.305225
 41
0.011068
 42
50.0
 43
824.585324
 44
-824.585324
 50
0.0
 51
0.0
 71
     0
 72
   100
 73
     1
 74
     3
 75
     0
 76
     0
 77
     0
 78
     0
281
     0
 65
     1
110
0.0
120
0.0
130
0.0
111
1.0
121
0.0
131
0.0
112
0.0
122
1.0
132
0.0
 79
     0
146
0.0
  0
VPORT
  5
24F
330
8
100
AcDbSymbolTableRecord
100
AcDbViewportTableRecord
  2
L6
 70
     0
 10
0.666667
 20
0.5
 11
1.0
 21
1.0
 12
0.0
 22
0.0
 13
0.0
 23
0.0
 14
0.5
 24
0.5
 15
0.5
 25
0.5
 16
0.577350269189626
 26
-0.577350269189626
 36
0.577350269189626
 17
0.0
 27
0.0
 37
0.0
 40
1573.900086
 41
0.011282
 42
50.0
 43
819.4867609999999
 44
-819.4867609999999
 50
0.0
 51
0.0
 71
     0
 72
   100
 73
     1
 74
     3
 75
     0
 76
     0
 77
     0
 78
     0
281
     0
 65
     1
110
0.0
120
0.0
130
0.0
111
1.0
121
0.0
131
0.0
112
0.0
122
1.0
132
0.0
 79
     0
146
0.0
  0
VPORT
  5
250
330
8
100
AcDbSymbolTableRecord
100
AcDbViewportTableRecord
  2
L6
 70
     0
 10
0.666667
 20
0.0
 11
1.0
 21
0.5
 12
0.0
 22
0.0
 13
0.0
 23
0.0
 14
0.5
 24
0.5
 15
0.5
 25
0.5
 16
1.0
 26
0.0
 36
0.0
 17
0.0
 27
0.0
 37
0.0
 40
1604.305225
 41
0.011068
 42
50.0
 43
812.9882529999999
 44
-812.9882529999999
 50
0.0
 51
0.0
 71
     0
 72
   100
 73
     1
 74
     3
 75
     0
 76
     0
 77
     0
 78
     0
281
     0
 65
     1
110
0.0
120
0.0
130
0.0
111
1.0
121
0.0
131
0.0
112
0.0
122
1.0
132
0.0
 79
     0
146
0.0
  0
ENDTAB
  0
TABLE
  2
LTYPE
  5
5
330
0
100
AcDbSymbolTable
 70
     6
  0
LTYPE
  5
14
330
5
100
AcDbSymbolTableRecord
100
AcDbLinetypeTableRecord
  2
BYBLOCK
 70
     0
  3

 72
    65
 73
     0
 40
0.0
  0
LTYPE
  5
15
330
5
100
AcDbSymbolTableRecord
100
AcDbLinetypeTableRecord
  2
BYLAYER
 70
     0
  3

 72
    65
 73
     0
 40
0.0
  0
LTYPE
  5
16
330
5
100
AcDbSymbolTableRecord
100
AcDbLinetypeTableRecord
  2
CONTINUOUS
 70
     0
  3
Solid line
 72
    65
 73
     0
 40
0.0
  0
LTYPE
  5
6A
330
5
100
AcDbSymbolTableRecord
100
AcDbLinetypeTableRecord
  2
CENTER2
 70
     0
  3
Center (.5x) ___ _ ___ _ ___ _ ___ _ ___ _ ___
 72
    65
 73
     4
 40
28.575
 49
19.05
 74
     4
 75
     0
340
0
 46
0.0
 50
0.0
 44
0.0
 45
0.0
 49
-3.174999999999998
 74
     4
 75
     0
340
0
 46
0.0
 50
0.0
 44
0.0
 45
0.0
 49
3.174999999999998
 74
     4
 75
     0
340
0
 46
0.0
 50
0.0
 44
0.0
 45
0.0
 49
-3.174999999999998
 74
     4
 75
     0
340
0
 46
0.0
 50
0.0
 44
0.0
 45
0.0
  0
LTYPE
  5
6B
330
5
100
AcDbSymbolTableRecord
100
AcDbLinetypeTableRecord
  2
DASHDOT
 70
     0
  3
_._._._._._._._._._._._._._._._.
 72
    65
 73
     4
 40
70.0
 49
31.0
 74
     4
 75
     0
340
0
 46
0.0
 50
0.0
 44
0.0
 45
0.0
 49
-13.0
 74
     4
 75
     0
340
0
 46
0.0
 50
0.0
 44
0.0
 45
0.0
 49
13.0
 74
     4
 75
     0
340
0
 46
0.0
 50
0.0
 44
0.0
 45
0.0
 49
-13.0
 74
     4
 75
     0
340
0
 46
0.0
 50
0.0
 44
0.0
 45
0.0
  0
LTYPE
  5
6C
330
5
100
AcDbSymbolTableRecord
100
AcDbLinetypeTableRecord
  2
DASHED
 70
     0
  3
__ __ __ __ __ __ __ __ __
 72
    65
 73
     2
 40
25.72
 49
12.86
 74
     4
 75
     0
340
0
 46
0.0
 50
0.0
 44
0.0
 45
0.0
 49
-12.86
 74
     4
 75
     0
340
0
 46
0.0
 50
0.0
 44
0.0
 45
0.0
  0
LTYPE
  5
6D
330
5
100
AcDbSymbolTableRecord
100
AcDbLinetypeTableRecord
  2
DOT
 70
     0
  3
.........................
 72
    65
 73
     2
 40
10.0
 49
0.0
 74
     4
 75
     0
340
0
 46
0.0
 50
0.0
 44
0.0
 45
0.0
 49
-10.0
 74
     4
 75
     0
340
0
 46
0.0
 50
0.0
 44
0.0
 45
0.0
  0
LTYPE
  5
6E
330
5
100
AcDbSymbolTableRecord
100
AcDbLinetypeTableRecord
  2
PHANTOM
 70
     0
  3
____ _ _ ____ _ _ _____ _ _ ____
 72
    65
 73
     6
 40
50.5
 49
18.0
 74
     4
 75
     0
340
0
 46
0.0
 50
0.0
 44
0.0
 45
0.0
 49
-6.5
 74
     4
 75
     0
340
0
 46
0.0
 50
0.0
 44
0.0
 45
0.0
 49
6.5
 74
     4
 75
     0
340
0
 46
0.0
 50
0.0
 44
0.0
 45
0.0
 49
-6.5
 74
     4
 75
     0
340
0
 46
0.0
 50
0.0
 44
0.0
 45
0.0
 49
6.5
 74
     4
 75
     0
340
0
 46
0.0
 50
0.0
 44
0.0
 45
0.0
 49
-6.5
 74
     4
 75
     0
340
0
 46
0.0
 50
0.0
 44
0.0
 45
0.0
  0
ENDTAB
  0
TABLE
  2
LAYER
  5
2
330
0
100
AcDbSymbolTable
 70
    14
  0
LAYER
  5
10
102
{ACAD_XDICTIONARY
360
2E5
102
}
330
2
100
AcDbSymbolTableRecord
100
AcDbLayerTableRecord
  2
0
 70
     0
 62
     7
  6
CONTINUOUS
370
    -3
390
F
  0
LAYER
  5
70
102
{ACAD_XDICTIONARY
360
2E7
102
}
330
2
100
AcDbSymbolTableRecord
100
AcDbLayerTableRecord
  2
41
 70
     0
 62
     7
  6
CONTINUOUS
370
    -3
390
F
  0
LAYER
  5
29F
102
{ACAD_XDICTIONARY
360
2E9
102
}
330
2
100
AcDbSymbolTableRecord
100
AcDbLayerTableRecord
  2
AXES
 70
     0
 62
     2
  6
CENTER2
370
    -3
390
F
  0
LAYER
  5
2A0
102
{ACAD_XDICTIONARY
360
2EB
102
}
330
2
100
AcDbSymbolTableRecord
100
AcDbLayerTableRecord
  2
BODY
 70
     0
 62
   252
  6
CONTINUOUS
370
    -3
390
F
  0
LAYER
  5
2A1
102
{ACAD_XDICTIONARY
360
2ED
102
}
330
2
100
AcDbSymbolTableRecord
100
AcDbLayerTableRecord
  2
CUT
 70
     0
 62
     1
  6
CONTINUOUS
370
    15
390
F
  0
LAYER
  5
2A2
102
{ACAD_XDICTIONARY
360
2EF
102
}
330
2
100
AcDbSymbolTableRecord
100
AcDbLayerTableRecord
  2
DIMENSIONS
 70
     0
 62
     4
  6
CONTINUOUS
370
    -3
390
F
  0
LAYER
  5
2A3
102
{ACAD_XDICTIONARY
360
2F1
102
}
330
2
100
AcDbSymbolTableRecord
100
AcDbLayerTableRecord
  2
DIMENSIONS_SK2
 70
     0
 62
     4
  6
CONTINUOUS
370
    -3
390
F
  0
LAYER
  5
2A4
102
{ACAD_XDICTIONARY
360
2F3
102
}
330
2
100
AcDbSymbolTableRecord
100
AcDbLayerTableRecord
  2
INSERTS
 70
     0
 62
   252
  6
CONTINUOUS
370
    -3
390
F
  0
LAYER
  5
2A5
102
{ACAD_XDICTIONARY
360
2F5
102
}
330
2
100
AcDbSymbolTableRecord
100
AcDbLayerTableRecord
  2
NOCUT
 70
     0
 62
     7
  6
CONTINUOUS
370
    30
390
F
  0
LAYER
  5
2A6
102
{ACAD_XDICTIONARY
360
2F7
102
}
330
2
100
AcDbSymbolTableRecord
100
AcDbLayerTableRecord
  2
SPARE_PARTS
 70
     0
 62
   252
  6
CONTINUOUS
370
    -3
390
F
  0
LAYER
  5
2A7
102
{ACAD_XDICTIONARY
360
2F9
102
}
330
2
100
AcDbSymbolTableRecord
100
AcDbLayerTableRecord
  2
TEXT
 70
     0
 62
     7
  6
CONTINUOUS
370
    -3
390
F
  0
LAYER
  5
2A8
102
{ACAD_XDICTIONARY
360
2FB
102
}
330
2
100
AcDbSymbolTableRecord
100
AcDbLayerTableRecord
  2
CP_CUTTING_SIDE
 70
     0
 62
     3
  6
CONTINUOUS
370
    -3
390
F
  0
LAYER
  5
2A9
102
{ACAD_XDICTIONARY
360
2FD
102
}
330
2
100
AcDbSymbolTableRecord
100
AcDbLayerTableRecord
  2
CP_MACHINE_SIDE
 70
     0
 62
     6
  6
CONTINUOUS
370
    -3
390
F
  0
LAYER
  5
2AA
330
2
100
AcDbSymbolTableRecord
100
AcDbLayerTableRecord
  2
Defpoints
 70
     0
 62
     7
  6
CONTINUOUS
290
     0
370
    -3
390
F
  0
ENDTAB
  0
TABLE
  2
STYLE
  5
3
330
0
100
AcDbSymbolTable
 70
     2
  0
STYLE
  5
11
330
3
100
AcDbSymbolTableRecord
100
AcDbTextStyleTableRecord
  2
Standard
 70
     0
 40
0.0
 41
1.0
 50
0.0
 71
     0
 42
0.2
  3
txt
  4

  0
STYLE
  5
1FB
330
3
100
AcDbSymbolTableRecord
100
AcDbTextStyleTableRecord
  2
cesky
 70
     0
 40
0.0
 41
1.0
 50
0.0
 71
     0
 42
0.2
  3
Monospac821 BT
  4

1001
ACAD
1000
Monospac821 BT
1071
        0
  0
ENDTAB
  0
TABLE
  2
VIEW
  5
6
330
0
100
AcDbSymbolTable
 70
     0
  0
ENDTAB
  0
TABLE
  2
UCS
  5
7
330
0
100
AcDbSymbolTable
 70
     0
  0
ENDTAB
  0
TABLE
  2
APPID
  5
9
330
0
100
AcDbSymbolTable
 70
     3
  0
APPID
  5
12
330
9
100
AcDbSymbolTableRecord
100
AcDbRegAppTableRecord
  2
ACAD
 70
     0
  0
APPID
  5
306
330
9
100
AcDbSymbolTableRecord
100
AcDbRegAppTableRecord
  2
ACAD_NAV_VCDISPLAY
 70
     0
  0
APPID
  5
342
330
9
100
AcDbSymbolTableRecord
100
AcDbRegAppTableRecord
  2
ACAD_MLEADERVER
 70
     0
  0
ENDTAB
  0
TABLE
  2
DIMSTYLE
  5
A
330
0
100
AcDbSymbolTable
 70
     1
100
AcDbDimStyleTable
 71
     0
  0
DIMSTYLE
105
27
102
{ACAD_REACTORS
330
224
330
22E
330
239
102
}
330
A
100
AcDbSymbolTableRecord
100
AcDbDimStyleTableRecord
  2
Standard
 70
     0
340
11
  0
ENDTAB
  0
TABLE
  2
BLOCK_RECORD
  5
1
330
0
100
AcDbSymbolTable
 70
     4
  0
BLOCK_RECORD
  5
1F
330
1
100
AcDbSymbolTableRecord
100
AcDbBlockTableRecord
  2
*Model_Space
340
22
  0
BLOCK_RECORD
  5
1B
330
1
100
AcDbSymbolTableRecord
100
AcDbBlockTableRecord
  2
*Paper_Space
340
1E
  0
BLOCK_RECORD
  5
23
330
1
100
AcDbSymbolTableRecord
100
AcDbBlockTableRecord
  2
*Paper_Space0
340
26
  0
BLOCK_RECORD
  5
21B
330
1
100
AcDbSymbolTableRecord
100
AcDbBlockTableRecord
  2
DimnDraft3D1
340
0
  0
BLOCK_RECORD
  5
225
330
1
100
AcDbSymbolTableRecord
100
AcDbBlockTableRecord
  2
DimnDraft3D2
340
0
  0
BLOCK_RECORD
  5
22F
330
1
100
AcDbSymbolTableRecord
100
AcDbBlockTableRecord
  2
DimnDraft3D3
340
0
  0
ENDTAB
  0
ENDSEC
  0
SECTION
  2
BLOCKS
  0
BLOCK
  5
20
330
1F
100
AcDbEntity
  8
0
100
AcDbBlockBegin
  2
*Model_Space
 70
     0
 10
0.0
 20
0.0
 30
0.0
  3
*Model_Space
  1
*Model_Space
  0
ENDBLK
  5
21
330
1F
100
AcDbEntity
  8
0
100
AcDbBlockEnd
  0
BLOCK
  5
1C
330
1B
100
AcDbEntity
 67
     1
  8
0
100
AcDbBlockBegin
  2
*Paper_Space
 70
     0
 10
0.0
 20
0.0
 30
0.0
  3
*Paper_Space
  1
*Paper_Space
  0
ENDBLK
  5
1D
330
1B
100
AcDbEntity
 67
     1
  8
0
100
AcDbBlockEnd
  0
BLOCK
  5
24
330
23
100
AcDbEntity
 67
     1
  8
0
100
AcDbBlockBegin
  2
*Paper_Space0
 70
     0
 10
0.0
 20
0.0
 30
0.0
  3
*Paper_Space0
  1
*Paper_Space0
  0
ENDBLK
  5
25
330
23
100
AcDbEntity
 67
     1
  8
0
100
AcDbBlockEnd
  0
BLOCK
  5
222
330
21B
100
AcDbEntity
  8
0
100
AcDbBlockBegin
  2
DimnDraft3D1
 70
     0
 10
0.0
 20
0.0
 30
0.0
  3
DimnDraft3D1
  1
DimnDraft3D1
  0
LINE
  5
2DC
330
21B
100
AcDbEntity
  8
DIMENSIONS
  6
Continuous
 62
     4
440
 16777216
370
    -2
100
AcDbLine
 10
242.145304
 20
204.842156
 30
0.0
 11
242.145304
 21
231.57468
 31
0.0
  0
LINE
  5
2DD
330
21B
100
AcDbEntity
  8
DIMENSIONS
  6
Continuous
 62
     4
440
 16777216
370
    -2
100
AcDbLine
 10
197.189659
 20
205.32794
 30
0.0
 11
197.189659
 21
231.57468
 31
0.0
  0
LINE
  5
2DE
330
21B
100
AcDbEntity
  8
DIMENSIONS
  6
Continuous
 62
     4
440
 16777216
370
    -2
100
AcDbLine
 10
239.645304
 20
229.57468
 30
0.0
 11
199.689659
 21
229.57468
 31
0.0
  0
SOLID
  5
2DF
330
21B
100
AcDbEntity
  8
DIMENSIONS
  6
Continuous
 62
     4
440
 16777216
370
    13
100
AcDbTrace
 10
239.645304
 20
229.9913466666666
 30
0.0
 11
239.645304
 21
229.1580133333333
 31
0.0
 12
242.145304
 22
229.57468
 32
0.0
 13
242.145304
 23
229.57468
 33
0.0
  0
SOLID
  5
2E0
330
21B
100
AcDbEntity
  8
DIMENSIONS
  6
Continuous
 62
     4
440
 16777216
370
    13
100
AcDbTrace
 10
199.689659
 20
229.9913466666666
 30
0.0
 11
199.689659
 21
229.1580133333333
 31
0.0
 12
197.189659
 22
229.57468
 32
0.0
 13
197.189659
 23
229.57468
 33
0.0
  0
MTEXT
  5
2E1
330
21B
100
AcDbEntity
  8
DIMENSIONS
  6
Continuous
 62
     4
440
 16777216
370
    13
100
AcDbMText
 10
219.667481
 20
233.1251016444132
 30
0.0
 40
3.5
 41
0.0
 71
     5
 72
     1
  1
\A1;\C4;45
  7
cesky
 73
     1
 44
1.0
1001
ACAD
1000
MTEXTBEGIN
1070
    73
1070
     1
1070
    44
1040
1.0
1070
    74
1070
     0
1000
MTEXTEND
  0
POINT
  5
2E2
330
21B
100
AcDbEntity
  8
Defpoints
  6
Continuous
 62
     0
440
 16777216
370
    13
100
AcDbPoint
 10
242.145304
 20
203.842156
 30
0.0
  0
POINT
  5
2E3
330
21B
100
AcDbEntity
  8
Defpoints
  6
Continuous
 62
     0
440
 16777216
370
    13
100
AcDbPoint
 10
197.189659
 20
204.32794
 30
0.0
  0
POINT
  5
2E4
330
21B
100
AcDbEntity
  8
Defpoints
  6
Continuous
 62
     0
440
 16777216
370
    13
100
AcDbPoint
 10
197.189659
 20
229.57468
 30
0.0
  0
ENDBLK
  5
223
330
21B
100
AcDbEntity
  8
0
100
AcDbBlockEnd
  0
BLOCK
  5
22C
330
225
100
AcDbEntity
  8
0
100
AcDbBlockBegin
  2
DimnDraft3D2
 70
     0
 10
0.0
 20
0.0
 30
0.0
  3
DimnDraft3D2
  1
DimnDraft3D2
  0
LINE
  5
2D1
330
225
100
AcDbEntity
  8
DIMENSIONS
  6
Continuous
 62
     4
440
 16777216
370
    -2
100
AcDbLine
 10
242.145304
 20
204.842156
 30
0.0
 11
242.145304
 21
217.516328
 31
0.0
  0
LINE
  5
2D2
330
225
100
AcDbEntity
  8
DIMENSIONS
  6
Continuous
 62
     4
440
 16777216
370
    -2
100
AcDbLine
 10
238.505306
 20
208.461737
 30
0.0
 11
238.505306
 21
217.516328
 31
0.0
  0
LINE
  5
2D3
330
225
100
AcDbEntity
  8
DIMENSIONS
  6
Continuous
 62
     4
440
 16777216
370
    -2
100
AcDbLine
 10
236.005306
 20
215.516328
 30
0.0
 11
233.505306
 21
215.516328
 31
0.0
  0
LINE
  5
2D4
330
225
100
AcDbEntity
  8
DIMENSIONS
  6
Continuous
 62
     4
440
 16777216
370
    -2
100
AcDbLine
 10
244.645304
 20
215.516328
 30
0.0
 11
259.9448735713282
 21
215.516328
 31
0.0
  0
LINE
  5
2D5
330
225
100
AcDbEntity
  8
DIMENSIONS
  6
Continuous
 62
     4
440
 16777216
370
    -2
100
AcDbLine
 10
238.505306
 20
215.516328
 30
0.0
 11
242.145304
 21
215.516328
 31
0.0
  0
SOLID
  5
2D6
330
225
100
AcDbEntity
  8
DIMENSIONS
  6
Continuous
 62
     4
440
 16777216
370
    13
100
AcDbTrace
 10
236.005306
 20
215.9329946666666
 30
0.0
 11
236.005306
 21
215.0996613333333
 31
0.0
 12
238.505306
 22
215.516328
 32
0.0
 13
238.505306
 23
215.516328
 33
0.0
  0
SOLID
  5
2D7
330
225
100
AcDbEntity
  8
DIMENSIONS
  6
Continuous
 62
     4
440
 16777216
370
    13
100
AcDbTrace
 10
244.645304
 20
215.9329946666666
 30
0.0
 11
244.645304
 21
215.0996613333333
 31
0.0
 12
242.145304
 22
215.516328
 32
0.0
 13
242.145304
 23
215.516328
 33
0.0
  0
MTEXT
  5
2D8
330
225
100
AcDbEntity
  8
DIMENSIONS
  6
Continuous
 62
     4
440
 16777216
370
    13
100
AcDbMText
 10
253.907804
 20
219.5365317947997
 30
0.0
 40
3.5
 41
0.0
 71
     5
 72
     1
  1
\A1;\C4;3,6
  7
cesky
 73
     1
 44
1.0
1001
ACAD
1000
MTEXTBEGIN
1070
    73
1070
     1
1070
    44
1040
1.0
1070
    74
1070
     0
1000
MTEXTEND
  0
POINT
  5
2D9
330
225
100
AcDbEntity
  8
Defpoints
  6
Continuous
 62
     0
440
 16777216
370
    13
100
AcDbPoint
 10
242.145304
 20
203.842156
 30
0.0
  0
POINT
  5
2DA
330
225
100
AcDbEntity
  8
Defpoints
  6
Continuous
 62
     0
440
 16777216
370
    13
100
AcDbPoint
 10
238.505306
 20
207.461737
 30
0.0
  0
POINT
  5
2DB
330
225
100
AcDbEntity
  8
Defpoints
  6
Continuous
 62
     0
440
 16777216
370
    13
100
AcDbPoint
 10
238.505306
 20
215.516328
 30
0.0
  0
ENDBLK
  5
22D
330
225
100
AcDbEntity
  8
0
100
AcDbBlockEnd
  0
BLOCK
  5
237
330
22F
100
AcDbEntity
  8
0
100
AcDbBlockBegin
  2
DimnDraft3D3
 70
     0
 10
0.0
 20
0.0
 30
0.0
  3
DimnDraft3D3
  1
DimnDraft3D3
  0
LINE
  5
2C8
330
22F
100
AcDbEntity
  8
DIMENSIONS
  6
Continuous
 62
     4
440
 16777216
370
    -2
100
AcDbLine
 10
40.529659
 20
203.32794
 30
0.0
 11
21.49497800000004
 21
203.32794
 31
0.0
  0
LINE
  5
2C9
330
22F
100
AcDbEntity
  8
DIMENSIONS
  6
Continuous
 62
     4
440
 16777216
370
    -2
100
AcDbLine
 10
40.529659
 20
177.93444
 30
0.0
 11
21.49497800000003
 21
177.93444
 31
0.0
  0
LINE
  5
2CA
330
22F
100
AcDbEntity
  8
DIMENSIONS
  6
Continuous
 62
     4
440
 16777216
370
    -2
100
AcDbLine
 10
23.49497800000003
 20
200.82794
 30
0.0
 11
23.49497800000003
 21
180.43444
 31
0.0
  0
SOLID
  5
2CB
330
22F
100
AcDbEntity
  8
DIMENSIONS
  6
Continuous
 62
     4
440
 16777216
370
    13
100
AcDbTrace
 10
23.07831133333337
 20
200.82794
 30
0.0
 11
23.9116446666667
 21
200.82794
 31
0.0
 12
23.49497800000003
 22
203.32794
 32
0.0
 13
23.49497800000003
 23
203.32794
 33
0.0
  0
SOLID
  5
2CC
330
22F
100
AcDbEntity
  8
DIMENSIONS
  6
Continuous
 62
     4
440
 16777216
370
    13
100
AcDbTrace
 10
23.07831133333336
 20
180.43444
 30
0.0
 11
23.9116446666667
 21
180.43444
 31
0.0
 12
23.49497800000003
 22
177.93444
 32
0.0
 13
23.49497800000003
 23
177.93444
 33
0.0
  0
MTEXT
  5
2CD
330
22F
100
AcDbEntity
  8
DIMENSIONS
  6
Continuous
 62
     4
440
 16777216
370
    13
100
AcDbMText
 10
19.42804194940267
 20
190.48119
 30
0.0
 40
3.5
 41
0.0
 71
     5
 72
     1
  1
\A1;\C4;%%c 25,4
  7
cesky
 11
0.0000000000000001
 21
1.0
 31
0.0
 73
     1
 44
1.0
1001
ACAD
1000
MTEXTBEGIN
1070
    73
1070
     1
1070
    44
1040
1.0
1070
    74
1070
     0
1000
MTEXTEND
  0
POINT
  5
2CE
330
22F
100
AcDbEntity
  8
Defpoints
  6
Continuous
 62
     0
440
 16777216
370
    13
100
AcDbPoint
 10
41.529659
 20
203.32794
 30
0.0
  0
POINT
  5
2CF
330
22F
100
AcDbEntity
  8
Defpoints
  6
Continuous
 62
     0
440
 16777216
370
    13
100
AcDbPoint
 10
41.529659
 20
177.93444
 30
0.0
  0
POINT
  5
2D0
330
22F
100
AcDbEntity
  8
Defpoints
  6
Continuous
 62
     0
440
 16777216
370
    13
100
AcDbPoint
 10
23.49497800000003
 20
177.93444
 30
0.0
  0
ENDBLK
  5
238
330
22F
100
AcDbEntity
  8
0
100
AcDbBlockEnd
  0
ENDSEC
  0
SECTION
  2
ENTITIES
  0
POINT
  5
6F
330
1F
100
AcDbEntity
  8
41
  6
Continuous
 62
     2
 60
     1
370
    13
100
AcDbPoint
 10
197.189659
 20
190.63119
 30
0.0
  0
POINT
  5
71
330
1F
100
AcDbEntity
  8
41
  6
Continuous
 62
     5
 60
     1
370
    13
100
AcDbPoint
 10
42.529659
 20
203.32794
 30
0.0
  0
POINT
  5
72
330
1F
100
AcDbEntity
  8
41
  6
Continuous
 62
     5
 60
     1
370
    13
100
AcDbPoint
 10
42.529659
 20
177.93444
 30
0.0
  0
LINE
  5
83
330
1F
100
AcDbEntity
  8
CUT
  6
Continuous
370
    13
100
AcDbLine
 10
238.505306
 20
206.461737
 30
0.0
 11
233.294844
 21
206.398872
 31
0.0
  0
LINE
  5
85
330
1F
100
AcDbEntity
  8
CUT
  6
Continuous
370
    13
100
AcDbLine
 10
242.145304
 20
202.842156
 30
0.0
 11
238.505306
 21
206.461737
 31
0.0
  0
LINE
  5
86
330
1F
100
AcDbEntity
  8
BODY
  6
Continuous
370
    13
100
AcDbLine
 10
41.529659
 20
202.32794
 30
0.0
 11
41.529659
 21
178.93444
 31
0.0
  0
LINE
  5
88
330
1F
100
AcDbEntity
  8
BODY
  6
Continuous
370
    13
100
AcDbLine
 10
41.529659
 20
178.93444
 30
0.0
 11
42.529659
 21
177.93444
 31
0.0
  0
LINE
  5
89
330
1F
100
AcDbEntity
  8
CUT
  6
Continuous
370
    13
100
AcDbLine
 10
238.35387
 20
193.951945
 30
0.0
 11
242.082577
 21
197.660431
 31
0.0
  0
LINE
  5
8A
330
1F
100
AcDbEntity
  8
CUT
  6
Continuous
370
    13
100
AcDbLine
 10
242.082577
 20
197.660431
 30
0.0
 11
242.145304
 21
202.842156
 31
0.0
  0
LINE
  5
8B
330
1F
100
AcDbEntity
  8
CUT
  6
Continuous
370
    13
100
AcDbLine
 10
233.294844
 20
206.398872
 30
0.0
 11
229.566137
 21
202.690387
 31
0.0
  0
LINE
  5
8C
330
1F
100
AcDbEntity
  8
CUT
  6
Continuous
370
    13
100
AcDbLine
 10
229.566137
 20
202.690387
 30
0.0
 11
229.50341
 21
197.508661
 31
0.0
  0
LINE
  5
8D
330
1F
100
AcDbEntity
  8
CUT
  6
Continuous
370
    13
100
AcDbLine
 10
229.50341
 20
197.508661
 30
0.0
 11
233.143408
 21
193.88908
 31
0.0
  0
LINE
  5
8E
330
1F
100
AcDbEntity
  8
CUT
  6
Continuous
370
    13
100
AcDbLine
 10
233.143408
 20
193.88908
 30
0.0
 11
238.35387
 21
193.951945
 31
0.0
  0
LINE
  5
8F
330
1F
100
AcDbEntity
  8
BODY
  6
Continuous
370
    13
100
AcDbLine
 10
197.189659
 20
203.32794
 30
0.0
 11
42.529659
 21
203.32794
 31
0.0
  0
LINE
  5
90
330
1F
100
AcDbEntity
  8
BODY
  6
Continuous
370
    13
100
AcDbLine
 10
42.529659
 20
177.93444
 30
0.0
 11
197.189659
 21
177.93444
 31
0.0
  0
LINE
  5
91
330
1F
100
AcDbEntity
  8
BODY
  6
Continuous
370
    13
100
AcDbLine
 10
42.529659
 20
203.32794
 30
0.0
 11
41.529659
 21
202.32794
 31
0.0
  0
LINE
  5
92
330
1F
100
AcDbEntity
  8
BODY
  6
Continuous
370
    13
100
AcDbLine
 10
202.015108
 20
202.63119
 30
0.0
 11
198.14257
 21
202.63119
 31
0.0
  0
LINE
  5
93
330
1F
100
AcDbEntity
  8
BODY
  6
Continuous
370
    13
100
AcDbLine
 10
198.14257
 20
178.63119
 30
0.0
 11
202.015108
 21
178.63119
 31
0.0
  0
LINE
  5
94
330
1F
100
AcDbEntity
  8
SPARE_PARTS
  6
Continuous
370
    13
100
AcDbLine
 10
233.347213
 20
198.149231
 30
0.0
 11
233.4248
 21
198.051888
 31
0.0
  0
LINE
  5
96
330
1F
100
AcDbEntity
  8
SPARE_PARTS
  6
Continuous
370
    13
100
AcDbLine
 10
238.429562
 20
202.040917
 30
0.0
 11
238.351975
 21
202.138261
 31
0.0
  0
LINE
  5
97
330
1F
100
AcDbEntity
  8
SPARE_PARTS
  6
Continuous
370
    13
100
AcDbLine
 10
237.486796
 20
199.757958
 30
0.0
 11
237.615724
 21
199.596201
 31
0.0
  0
LINE
  5
98
330
1F
100
AcDbEntity
  8
SPARE_PARTS
  6
Continuous
370
    13
100
AcDbLine
 10
235.506305
 20
198.368183
 30
0.0
 11
235.265146
 21
198.670749
 31
0.0
  0
LINE
  5
99
330
1F
100
AcDbEntity
  8
SPARE_PARTS
  6
Continuous
370
    13
100
AcDbLine
 10
236.410988
 20
201.645667
 30
0.0
 11
236.652147
 21
201.343101
 31
0.0
  0
LINE
  5
9A
330
1F
100
AcDbEntity
  8
SPARE_PARTS
  6
Continuous
370
    13
100
AcDbLine
 10
234.421149
 20
200.26762
 30
0.0
 11
234.189337
 21
200.558458
 31
0.0
  0
LINE
  5
9B
330
1F
100
AcDbEntity
  8
SPARE_PARTS
  6
Continuous
370
    13
100
AcDbLine
 10
239.64316
 20
195.588723
 30
0.0
 11
239.321704
 21
195.967151
 31
0.0
  0
LINE
  5
9C
330
1F
100
AcDbEntity
  8
SPARE_PARTS
  6
Continuous
370
    13
100
AcDbLine
 10
235.445264
 20
196.538105
 30
0.0
 11
235.028351
 21
196.26843
 31
0.0
  0
LINE
  5
9D
330
1F
100
AcDbEntity
  8
BODY
  6
Continuous
370
    13
100
AcDbLine
 10
215.54317
 20
203.097504
 30
0.0
 11
202.364103
 21
202.637281
 31
0.0
  0
LINE
  5
9E
330
1F
100
AcDbEntity
  8
SPARE_PARTS
  6
Continuous
370
    13
100
AcDbLine
 10
236.137315
 20
176.387628
 30
0.0
 11
236.376794
 21
176.331172
 31
0.0
  0
LINE
  5
9F
330
1F
100
AcDbEntity
  8
SPARE_PARTS
  6
Continuous
370
    13
100
AcDbLine
 10
238.708121
 20
176.752386
 30
0.0
 11
238.912704
 21
176.889074
 31
0.0
  0
LINE
  5
A0
330
1F
100
AcDbEntity
  8
BODY
  6
Continuous
370
    13
100
AcDbLine
 10
202.364103
 20
178.625098
 30
0.0
 11
230.127036
 21
177.655595
 31
0.0
  0
LINE
  5
A1
330
1F
100
AcDbEntity
  8
BODY
  6
Continuous
370
    13
100
AcDbLine
 10
197.189659
 20
177.93444
 30
0.0
 11
197.189659
 21
203.32794
 31
0.0
  0
LINE
  5
A2
330
1F
100
AcDbEntity
  8
BODY
  6
Continuous
370
    13
100
AcDbLine
 10
241.189659
 20
195.878577
 30
0.0
 11
241.189659
 21
190.080147
 31
0.0
  0
LINE
  5
A3
330
1F
100
AcDbEntity
  8
BODY
  6
Continuous
370
    13
100
AcDbLine
 10
241.189659
 20
182.048288
 30
0.0
 11
241.189659
 21
183.106967
 31
0.0
  0
LINE
  5
A4
330
1F
100
AcDbEntity
  8
BODY
  6
Continuous
370
    13
100
AcDbLine
 10
42.529659
 20
203.32794
 30
0.0
 11
42.529659
 21
177.93444
 31
0.0
  0
LINE
  5
A5
330
1F
100
AcDbEntity
  8
BODY
  6
Continuous
370
    13
100
AcDbLine
 10
228.978682
 20
197.62325
 30
0.0
 11
229.049228
 21
203.450909
 31
0.0
  0
LINE
  5
A6
330
1F
100
AcDbEntity
  8
BODY
  6
Continuous
370
    13
100
AcDbLine
 10
235.436744
 20
196.53258
 30
0.0
 11
235.192798
 21
196.559883
 31
0.0
  0
LINE
  5
A7
330
1F
100
AcDbEntity
  8
BODY
  6
Continuous
370
    13
100
AcDbLine
 10
229.163225
 20
203.537249
 30
0.0
 11
229.091437
 21
197.606952
 31
0.0
  0
LINE
  5
A8
330
1F
100
AcDbEntity
  8
BODY
  6
Continuous
370
    13
100
AcDbLine
 10
229.73764
 20
203.490504
 30
0.0
 11
229.729926
 21
202.853266
 31
0.0
  0
LINE
  5
A9
330
1F
100
AcDbEntity
  8
BODY
  6
Continuous
370
    13
100
AcDbLine
 10
235.192798
 20
179.307769
 30
0.0
 11
238.592001
 21
179.784057
 31
0.0
  0
LINE
  5
AA
330
1F
100
AcDbEntity
  8
BODY
  6
Continuous
370
    13
100
AcDbLine
 10
241.189659
 20
195.9002189999999
 30
0.0
 11
241.189659
 21
196.772332
 31
0.0
  0
LINE
  5
AB
330
1F
100
AcDbEntity
  8
BODY
  6
Continuous
370
    13
100
AcDbLine
 10
229.264771
 20
203.465831
 30
0.0
 11
229.193667
 21
197.592095
 31
0.0
  0
LINE
  5
AC
330
1F
100
AcDbEntity
  8
BODY
  6
Continuous
370
    13
100
AcDbLine
 10
241.189659
 20
182.048288
 30
0.0
 11
241.189659
 21
179.994586
 31
0.0
  0
LINE
  5
AD
330
1F
100
AcDbEntity
  8
BODY
  6
Continuous
370
    13
100
AcDbLine
 10
241.095029
 20
180.001308
 30
0.0
 11
241.095029
 21
182.315966
 31
0.0
  0
LINE
  5
AE
330
1F
100
AcDbEntity
  8
BODY
  6
Continuous
370
    13
100
AcDbLine
 10
231.192424
 20
184.795689
 30
0.0
 11
230.458988
 21
184.88803
 31
0.0
  0
LINE
  5
AF
330
1F
100
AcDbEntity
  8
BODY
  6
Continuous
370
    13
100
AcDbLine
 10
240.601875
 20
183.476992
 30
0.0
 11
240.17429
 21
183.530826
 31
0.0
  0
LINE
  5
B0
330
1F
100
AcDbEntity
  8
BODY
  6
Continuous
370
    13
100
AcDbLine
 10
231.585204
 20
184.61221
 30
0.0
 11
230.754652
 21
184.716778
 31
0.0
  0
LINE
  5
B1
330
1F
100
AcDbEntity
  8
BODY
  6
Continuous
370
    13
100
AcDbLine
 10
239.741653
 20
177.745568
 30
0.0
 11
239.737984
 21
177.942987
 31
0.0
  0
LINE
  5
B2
330
1F
100
AcDbEntity
  8
BODY
  6
Continuous
370
    13
100
AcDbLine
 10
230.7552
 20
184.700998
 30
0.0
 11
231.631235
 21
184.590703
 31
0.0
  0
LINE
  5
B3
330
1F
100
AcDbEntity
  8
BODY
  6
Continuous
370
    13
100
AcDbLine
 10
240.129346
 20
183.520773
 30
0.0
 11
240.558709
 21
183.466715
 31
0.0
  0
LINE
  5
B4
330
1F
100
AcDbEntity
  8
BODY
  6
Continuous
370
    13
100
AcDbLine
 10
231.306849
 20
190.283516
 30
0.0
 11
231.347401
 21
189.115193
 31
0.0
  0
LINE
  5
B5
330
1F
100
AcDbEntity
  8
INSERTS
  6
Continuous
370
    13
100
AcDbLine
 10
242.145304
 20
202.842156
 30
0.0
 11
238.505306
 21
206.461737
 31
0.0
  0
LINE
  5
B7
330
1F
100
AcDbEntity
  8
INSERTS
  6
Continuous
370
    13
100
AcDbLine
 10
233.294844
 20
183.813566
 30
0.0
 11
229.566137
 21
185.555337
 31
0.0
  0
LINE
  5
B8
330
1F
100
AcDbEntity
  8
INSERTS
  6
Continuous
370
    13
100
AcDbLine
 10
229.598645
 20
185.631145
 30
0.0
 11
229.566137
 21
185.555337
 31
0.0
  0
LINE
  5
B9
330
1F
100
AcDbEntity
  8
INSERTS
  6
Continuous
370
    13
100
AcDbLine
 10
233.967831
 20
186.598493
 30
0.0
 11
230.804232
 21
188.076289
 31
0.0
  0
LINE
  5
BA
330
1F
100
AcDbEntity
  8
INSERTS
  6
Continuous
370
    13
100
AcDbLine
 10
233.967831
 20
186.598493
 30
0.0
 11
233.294844
 21
183.813566
 31
0.0
  0
LINE
  5
BB
330
1F
100
AcDbEntity
  8
INSERTS
  6
Continuous
370
    13
100
AcDbLine
 10
238.505306
 20
183.157557
 30
0.0
 11
233.294844
 21
183.813566
 31
0.0
  0
LINE
  5
BC
330
1F
100
AcDbEntity
  8
INSERTS
  6
Continuous
370
    13
100
AcDbLine
 10
238.571467
 20
186.018885
 30
0.0
 11
233.967831
 21
186.598493
 31
0.0
  0
LINE
  5
BD
330
1F
100
AcDbEntity
  8
INSERTS
  6
Continuous
370
    13
100
AcDbLine
 10
238.571467
 20
186.018885
 30
0.0
 11
238.505306
 21
183.157557
 31
0.0
  0
LINE
  5
BE
330
1F
100
AcDbEntity
  8
INSERTS
  6
Continuous
370
    13
100
AcDbLine
 10
231.382431
 20
188.939189
 30
0.0
 11
234.323855
 21
187.565177
 31
0.0
  0
LINE
  5
BF
330
1F
100
AcDbEntity
  8
INSERTS
  6
Continuous
370
    13
100
AcDbLine
 10
231.926466
 20
190.573553
 30
0.0
 11
231.382431
 21
188.939189
 31
0.0
  0
LINE
  5
C0
330
1F
100
AcDbEntity
  8
INSERTS
  6
Continuous
370
    13
100
AcDbLine
 10
231.926466
 20
190.573553
 30
0.0
 11
234.686697
 21
189.284181
 31
0.0
  0
LINE
  5
C1
330
1F
100
AcDbEntity
  8
INSERTS
  6
Continuous
370
    13
100
AcDbLine
 10
234.323855
 20
187.565177
 30
0.0
 11
234.686697
 21
189.284181
 31
0.0
  0
LINE
  5
C2
330
1F
100
AcDbEntity
  8
INSERTS
  6
Continuous
370
    13
100
AcDbLine
 10
242.145304
 20
183.971593
 30
0.0
 11
238.505306
 21
183.157557
 31
0.0
  0
LINE
  5
C3
330
1F
100
AcDbEntity
  8
INSERTS
  6
Continuous
370
    13
100
AcDbLine
 10
241.787541
 20
186.738116
 30
0.0
 11
238.571467
 21
186.018885
 31
0.0
  0
LINE
  5
C4
330
1F
100
AcDbEntity
  8
INSERTS
  6
Continuous
370
    13
100
AcDbLine
 10
241.787541
 20
186.738116
 30
0.0
 11
242.145304
 21
183.971593
 31
0.0
  0
LINE
  5
C5
330
1F
100
AcDbEntity
  8
INSERTS
  6
Continuous
370
    13
100
AcDbLine
 10
234.686697
 20
189.284181
 30
0.0
 11
238.543819
 21
188.798561
 31
0.0
  0
LINE
  5
C6
330
1F
100
AcDbEntity
  8
INSERTS
  6
Continuous
370
    13
100
AcDbLine
 10
238.543819
 20
188.798561
 30
0.0
 11
238.434174
 21
187.047679
 31
0.0
  0
LINE
  5
C7
330
1F
100
AcDbEntity
  8
INSERTS
  6
Continuous
370
    13
100
AcDbLine
 10
234.323855
 20
187.565177
 30
0.0
 11
238.434174
 21
187.047679
 31
0.0
  0
LINE
  5
C8
330
1F
100
AcDbEntity
  8
INSERTS
  6
Continuous
370
    13
100
AcDbLine
 10
231.020679
 20
188.422125
 30
0.0
 11
234.132712
 21
186.968418
 31
0.0
  0
LINE
  5
C9
330
1F
100
AcDbEntity
  8
INSERTS
  6
Continuous
370
    13
100
AcDbLine
 10
233.967831
 20
186.598493
 30
0.0
 11
234.132712
 21
186.968418
 31
0.0
  0
LINE
  5
CA
330
1F
100
AcDbEntity
  8
INSERTS
  6
Continuous
370
    13
100
AcDbLine
 10
234.686697
 20
189.284181
 30
0.0
 11
234.718292
 21
189.473404
 31
0.0
  0
LINE
  5
CB
330
1F
100
AcDbEntity
  8
INSERTS
  6
Continuous
370
    13
100
AcDbLine
 10
234.718292
 20
189.473404
 30
0.0
 11
233.659393
 21
189.968042
 31
0.0
  0
LINE
  5
CC
330
1F
100
AcDbEntity
  8
INSERTS
  6
Continuous
370
    13
100
AcDbLine
 10
232.801067
 20
190.368987
 30
0.0
 11
232.054713
 21
190.717628
 31
0.0
  0
LINE
  5
CD
330
1F
100
AcDbEntity
  8
INSERTS
  6
Continuous
370
    13
100
AcDbLine
 10
241.255368
 20
189.590126
 30
0.0
 11
238.566813
 21
188.988867
 31
0.0
  0
LINE
  5
CE
330
1F
100
AcDbEntity
  8
INSERTS
  6
Continuous
370
    13
100
AcDbLine
 10
238.566813
 20
188.988867
 30
0.0
 11
234.718292
 21
189.473404
 31
0.0
  0
LINE
  5
CF
330
1F
100
AcDbEntity
  8
INSERTS
  6
Continuous
370
    13
100
AcDbLine
 10
241.209037
 20
190.924971
 30
0.0
 11
241.255368
 21
189.590126
 31
0.0
  0
LINE
  5
D0
330
1F
100
AcDbEntity
  8
INSERTS
  6
Continuous
370
    13
100
AcDbLine
 10
234.132712
 20
186.968418
 30
0.0
 11
234.323855
 21
187.565177
 31
0.0
  0
LINE
  5
D1
330
1F
100
AcDbEntity
  8
INSERTS
  6
Continuous
370
    13
100
AcDbLine
 10
234.132712
 20
186.968418
 30
0.0
 11
238.481438
 21
186.420904
 31
0.0
  0
LINE
  5
D2
330
1F
100
AcDbEntity
  8
INSERTS
  6
Continuous
370
    13
100
AcDbLine
 10
238.481438
 20
186.420904
 30
0.0
 11
238.571467
 21
186.018885
 31
0.0
  0
LINE
  5
D3
330
1F
100
AcDbEntity
  8
INSERTS
  6
Continuous
370
    13
100
AcDbLine
 10
238.566813
 20
188.988867
 30
0.0
 11
238.543819
 21
188.798561
 31
0.0
  0
LINE
  5
D4
330
1F
100
AcDbEntity
  8
INSERTS
  6
Continuous
370
    13
100
AcDbLine
 10
238.543819
 20
188.798561
 30
0.0
 11
241.238382
 21
189.401163
 31
0.0
  0
LINE
  5
D5
330
1F
100
AcDbEntity
  8
INSERTS
  6
Continuous
370
    13
100
AcDbLine
 10
241.238382
 20
189.401163
 30
0.0
 11
241.305619
 21
187.689838
 31
0.0
  0
LINE
  5
D6
330
1F
100
AcDbEntity
  8
INSERTS
  6
Continuous
370
    13
100
AcDbLine
 10
238.434174
 20
187.047679
 30
0.0
 11
241.305619
 21
187.689838
 31
0.0
  0
LINE
  5
D7
330
1F
100
AcDbEntity
  8
INSERTS
  6
Continuous
370
    13
100
AcDbLine
 10
238.434174
 20
187.047679
 30
0.0
 11
238.481438
 21
186.420904
 31
0.0
  0
LINE
  5
D8
330
1F
100
AcDbEntity
  8
INSERTS
  6
Continuous
370
    13
100
AcDbLine
 10
241.255368
 20
189.590126
 30
0.0
 11
241.238382
 21
189.401163
 31
0.0
  0
LINE
  5
D9
330
1F
100
AcDbEntity
  8
INSERTS
  6
Continuous
370
    13
100
AcDbLine
 10
238.481438
 20
186.420904
 30
0.0
 11
241.519432
 21
187.10031
 31
0.0
  0
LINE
  5
DA
330
1F
100
AcDbEntity
  8
INSERTS
  6
Continuous
370
    13
100
AcDbLine
 10
241.519432
 20
187.10031
 30
0.0
 11
241.787541
 21
186.738116
 31
0.0
  0
LINE
  5
DB
330
1F
100
AcDbEntity
  8
INSERTS
  6
Continuous
370
    13
100
AcDbLine
 10
241.305619
 20
187.689838
 30
0.0
 11
241.519432
 21
187.10031
 31
0.0
  0
LINE
  5
DC
330
1F
100
AcDbEntity
  8
INSERTS
  6
Continuous
370
    13
100
AcDbLine
 10
231.334443
 20
190.321756
 30
0.0
 11
231.376088
 21
189.121917
 31
0.0
  0
LINE
  5
DD
330
1F
100
AcDbEntity
  8
INSERTS
  6
Continuous
370
    13
100
AcDbLine
 10
229.566137
 20
185.555337
 30
0.0
 11
229.563335
 21
185.63607
 31
0.0
  0
LINE
  5
DE
330
1F
100
AcDbEntity
  8
INSERTS
  6
Continuous
370
    13
100
AcDbLine
 10
241.242868
 20
189.451096
 30
0.0
 11
241.256137
 21
189.115487
 31
0.0
  0
LINE
  5
DF
330
1F
100
AcDbEntity
  8
INSERTS
  6
Continuous
370
    13
100
AcDbLine
 10
241.305619
 20
187.689838
 30
0.0
 11
241.256137
 21
189.115487
 31
0.0
  0
LINE
  5
E0
330
1F
100
AcDbEntity
  8
INSERTS
  6
Continuous
370
    13
100
AcDbLine
 10
241.732119
 20
188.33487
 30
0.0
 11
241.787541
 21
186.738116
 31
0.0
  0
LINE
  5
E1
330
1F
100
AcDbEntity
  8
INSERTS
  6
Continuous
370
    13
100
AcDbLine
 10
241.732119
 20
188.33487
 30
0.0
 11
242.082577
 21
185.778822
 31
0.0
  0
LINE
  5
E2
330
1F
100
AcDbEntity
  8
INSERTS
  6
Continuous
370
    13
100
AcDbLine
 10
242.082577
 20
185.778822
 30
0.0
 11
242.145304
 21
183.971593
 31
0.0
  0
LINE
  5
E3
330
1F
100
AcDbEntity
  8
INSERTS
  6
Continuous
370
    13
100
AcDbLine
 10
241.256137
 20
189.115487
 30
0.0
 11
241.46708
 21
188.608649
 31
0.0
  0
LINE
  5
E4
330
1F
100
AcDbEntity
  8
INSERTS
  6
Continuous
370
    13
100
AcDbLine
 10
241.519432
 20
187.10031
 30
0.0
 11
241.46708
 21
188.608649
 31
0.0
  0
LINE
  5
E5
330
1F
100
AcDbEntity
  8
INSERTS
  6
Continuous
370
    13
100
AcDbLine
 10
241.46708
 20
188.608649
 30
0.0
 11
241.732119
 21
188.33487
 31
0.0
  0
LINE
  5
E6
330
1F
100
AcDbEntity
  8
INSERTS
  6
Continuous
370
    13
100
AcDbLine
 10
241.255368
 20
181.114704
 30
0.0
 11
241.189625
 21
181.064032
 31
0.0
  0
LINE
  5
E7
330
1F
100
AcDbEntity
  8
INSERTS
  6
Continuous
370
    13
100
AcDbLine
 10
241.002568
 20
183.716058
 30
0.0
 11
241.209037
 21
183.607155
 31
0.0
  0
LINE
  5
E8
330
1F
100
AcDbEntity
  8
INSERTS
  6
Continuous
370
    13
100
AcDbLine
 10
241.209037
 20
183.607155
 30
0.0
 11
241.255368
 21
181.114704
 31
0.0
  0
LINE
  5
E9
330
1F
100
AcDbEntity
  8
INSERTS
  6
Continuous
370
    13
100
AcDbLine
 10
241.209037
 20
183.607155
 30
0.0
 11
241.192429
 21
183.758494
 31
0.0
  0
LINE
  5
EA
330
1F
100
AcDbEntity
  8
INSERTS
  6
Continuous
370
    13
100
AcDbLine
 10
241.37622
 20
188.826885
 30
0.0
 11
242.082577
 21
188.454315
 31
0.0
  0
LINE
  5
EB
330
1F
100
AcDbEntity
  8
INSERTS
  6
Continuous
370
    13
100
AcDbLine
 10
241.892399
 20
187.165938
 30
0.0
 11
242.082577
 21
188.454315
 31
0.0
  0
LINE
  5
EC
330
1F
100
AcDbEntity
  8
INSERTS
  6
Continuous
370
    13
100
AcDbLine
 10
241.305619
 20
182.545584
 30
0.0
 11
241.282697
 21
183.778715
 31
0.0
  0
LINE
  5
ED
330
1F
100
AcDbEntity
  8
INSERTS
  6
Continuous
370
    13
100
AcDbLine
 10
241.248866
 20
181.464555
 30
0.0
 11
241.305619
 21
182.545584
 31
0.0
  0
LINE
  5
EE
330
1F
100
AcDbEntity
  8
INSERTS
  6
Continuous
370
    13
100
AcDbLine
 10
241.519432
 20
182.91849
 30
0.0
 11
241.502528
 21
183.82788
 31
0.0
  0
LINE
  5
EF
330
1F
100
AcDbEntity
  8
INSERTS
  6
Continuous
370
    13
100
AcDbLine
 10
241.305619
 20
182.545584
 30
0.0
 11
241.519432
 21
182.91849
 31
0.0
  0
LINE
  5
F0
330
1F
100
AcDbEntity
  8
INSERTS
  6
Continuous
370
    13
100
AcDbLine
 10
241.787541
 20
183.098617
 30
0.0
 11
241.936761
 21
183.924964
 31
0.0
  0
LINE
  5
F1
330
1F
100
AcDbEntity
  8
INSERTS
  6
Continuous
370
    13
100
AcDbLine
 10
242.113038
 20
184.901139
 30
0.0
 11
242.145304
 21
185.079819
 31
0.0
  0
LINE
  5
F2
330
1F
100
AcDbEntity
  8
INSERTS
  6
Continuous
370
    13
100
AcDbLine
 10
241.772861
 20
183.888339
 30
0.0
 11
241.787541
 21
183.098617
 31
0.0
  0
LINE
  5
F3
330
1F
100
AcDbEntity
  8
INSERTS
  6
Continuous
370
    13
100
AcDbLine
 10
242.082577
 20
188.454315
 30
0.0
 11
242.145304
 21
185.079819
 31
0.0
  0
LINE
  5
F4
330
1F
100
AcDbEntity
  8
INSERTS
  6
Continuous
370
    13
100
AcDbLine
 10
241.519432
 20
182.91849
 30
0.0
 11
241.787541
 21
183.098617
 31
0.0
  0
LINE
  5
F5
330
1F
100
AcDbEntity
  8
INSERTS
  6
Continuous
370
    13
100
AcDbLine
 10
241.787541
 20
183.098617
 30
0.0
 11
241.492164
 21
182.870954
 31
0.0
  0
LINE
  5
F6
330
1F
100
AcDbEntity
  8
SPARE_PARTS
  6
Continuous
370
    13
100
AcDbLine
 10
233.424624
 20
198.052108
 30
0.0
 11
233.4248
 21
198.051888
 31
0.0
  0
LINE
  5
F7
330
1F
100
AcDbEntity
  8
INSERTS
  6
Continuous
370
    13
100
AcDbLine
 10
242.082577
 20
197.660431
 30
0.0
 11
242.145304
 21
202.842156
 31
0.0
  0
LINE
  5
F8
330
1F
100
AcDbEntity
  8
INSERTS
  6
Continuous
370
    13
100
AcDbLine
 10
240.813885
 20
196.398619
 30
0.0
 11
242.082577
 21
197.660431
 31
0.0
  0
LINE
  5
F9
330
1F
100
AcDbEntity
  8
INSERTS
  6
Continuous
370
    13
100
AcDbLine
 10
229.566137
 20
202.690387
 30
0.0
 11
229.504093
 21
197.565093
 31
0.0
  0
LINE
  5
FA
330
1F
100
AcDbEntity
  8
INSERTS
  6
Continuous
370
    13
100
AcDbLine
 10
233.294844
 20
206.398872
 30
0.0
 11
229.566137
 21
202.690387
 31
0.0
  0
LINE
  5
FB
330
1F
100
AcDbEntity
  8
INSERTS
  6
Continuous
370
    13
100
AcDbLine
 10
238.505306
 20
206.461737
 30
0.0
 11
233.294844
 21
206.398872
 31
0.0
  0
LINE
  5
FC
330
1F
100
AcDbEntity
  8
NOCUT
  6
Continuous
370
    13
100
AcDbLine
 10
41.529659
 20
185.47669
 30
0.0
 11
41.529659
 21
178.93444
 31
0.0
  0
LINE
  5
FE
330
1F
100
AcDbEntity
  8
NOCUT
  6
Continuous
370
    13
100
AcDbLine
 10
42.529659
 20
177.93444
 30
0.0
 11
197.189659
 21
177.93444
 31
0.0
  0
LINE
  5
FF
330
1F
100
AcDbEntity
  8
NOCUT
  6
Continuous
370
    13
100
AcDbLine
 10
240.8386
 20
183.095023
 30
0.0
 11
239.65812
 21
185.626572
 31
0.0
  0
LINE
  5
100
330
1F
100
AcDbEntity
  8
NOCUT
  6
Continuous
370
    13
100
AcDbLine
 10
239.189659
 20
187.7396629999999
 30
0.0
 11
239.189659
 21
193.522716
 31
0.0
  0
LINE
  5
101
330
1F
100
AcDbEntity
  8
NOCUT
  6
Continuous
370
    13
100
AcDbLine
 10
239.65812
 20
195.635808
 30
0.0
 11
240.8386
 21
198.167356
 31
0.0
  0
LINE
  5
102
330
1F
100
AcDbEntity
  8
NOCUT
  6
Continuous
370
    13
100
AcDbLine
 10
241.189659
 20
199.214091
 30
0.0
 11
241.189659
 21
201.268113
 31
0.0
  0
LINE
  5
103
330
1F
100
AcDbEntity
  8
NOCUT
  6
Continuous
370
    13
100
AcDbLine
 10
202.364103
 20
178.625098
 30
0.0
 11
230.127036
 21
177.655595
 31
0.0
  0
LINE
  5
104
330
1F
100
AcDbEntity
  8
NOCUT
  6
Continuous
370
    13
100
AcDbLine
 10
241.189659
 20
179.994266
 30
0.0
 11
241.189659
 21
182.048288
 31
0.0
  0
LINE
  5
105
330
1F
100
AcDbEntity
  8
NOCUT
  6
Continuous
370
    13
100
AcDbLine
 10
198.14257
 20
178.63119
 30
0.0
 11
202.015108
 21
178.63119
 31
0.0
  0
LINE
  5
106
330
1F
100
AcDbEntity
  8
NOCUT
  6
Continuous
370
    13
100
AcDbLine
 10
41.529659
 20
185.47669
 30
0.0
 11
43.529311
 21
186.63119
 31
0.0
  0
LINE
  5
107
330
1F
100
AcDbEntity
  8
NOCUT
  6
Continuous
370
    13
100
AcDbLine
 10
42.529659
 20
203.32794
 30
0.0
 11
41.529659
 21
202.32794
 31
0.0
  0
LINE
  5
108
330
1F
100
AcDbEntity
  8
NOCUT
  6
Continuous
370
    13
100
AcDbLine
 10
201.49906
 20
190.63119
 30
0.0
 11
199.189659
 21
194.63119
 31
0.0
  0
LINE
  5
109
330
1F
100
AcDbEntity
  8
NOCUT
  6
Continuous
370
    13
100
AcDbLine
 10
41.529659
 20
202.32794
 30
0.0
 11
41.529659
 21
195.78569
 31
0.0
  0
LINE
  5
10A
330
1F
100
AcDbEntity
  8
NOCUT
  6
Continuous
370
    13
100
AcDbLine
 10
197.189659
 20
203.32794
 30
0.0
 11
42.529659
 21
203.32794
 31
0.0
  0
LINE
  5
10B
330
1F
100
AcDbEntity
  8
NOCUT
  6
Continuous
370
    13
100
AcDbLine
 10
230.127036
 20
203.606784
 30
0.0
 11
202.364103
 21
202.637281
 31
0.0
  0
LINE
  5
10C
330
1F
100
AcDbEntity
  8
NOCUT
  6
Continuous
370
    13
100
AcDbLine
 10
202.015108
 20
202.63119
 30
0.0
 11
198.14257
 21
202.63119
 31
0.0
  0
LINE
  5
10D
330
1F
100
AcDbEntity
  8
NOCUT
  6
Continuous
370
    13
100
AcDbLine
 10
43.529311
 20
194.63119
 30
0.0
 11
41.529659
 21
195.78569
 31
0.0
  0
LINE
  5
10E
330
1F
100
AcDbEntity
  8
NOCUT
  6
Continuous
370
    13
100
AcDbLine
 10
199.189659
 20
194.63119
 30
0.0
 11
43.529311
 21
194.63119
 31
0.0
  0
LINE
  5
10F
330
1F
100
AcDbEntity
  8
NOCUT
  6
Continuous
370
    13
100
AcDbLine
 10
199.189659
 20
186.63119
 30
0.0
 11
201.49906
 21
190.63119
 31
0.0
  0
LINE
  5
110
330
1F
100
AcDbEntity
  8
NOCUT
  6
Continuous
370
    13
100
AcDbLine
 10
43.529311
 20
186.63119
 30
0.0
 11
199.189659
 21
186.63119
 31
0.0
  0
LINE
  5
111
330
1F
100
AcDbEntity
  8
NOCUT
  6
Continuous
370
    13
100
AcDbLine
 10
41.529659
 20
178.93444
 30
0.0
 11
42.529659
 21
177.93444
 31
0.0
  0
LINE
  5
112
102
{ACAD_REACTORS
330
23A
102
}
330
1F
100
AcDbEntity
  8
CP_CUTTING_SIDE
  6
CENTER2
370
    13
100
AcDbLine
 10
240.645304
 20
206.461737
 30
0.0
 11
243.645304
 21
206.461737
 31
0.0
  0
LINE
  5
113
102
{ACAD_REACTORS
330
23A
102
}
330
1F
100
AcDbEntity
  8
CP_CUTTING_SIDE
  6
CENTER2
370
    13
100
AcDbLine
 10
242.145304
 20
204.961737
 30
0.0
 11
242.145304
 21
207.961737
 31
0.0
  0
LINE
  5
114
102
{ACAD_REACTORS
330
23B
102
}
330
1F
100
AcDbEntity
  8
CP_MACHINE_SIDE
  6
CENTER2
370
    13
100
AcDbLine
 10
195.689659
 20
190.63119
 30
0.0
 11
200.389659
 21
190.63119
 31
0.0
  0
LINE
  5
115
102
{ACAD_REACTORS
330
23B
102
}
330
1F
100
AcDbEntity
  8
CP_MACHINE_SIDE
  6
CENTER2
370
    13
100
AcDbLine
 10
197.189659
 20
187.43119
 30
0.0
 11
197.189659
 21
193.83119
 31
0.0
  0
LINE
  5
116
102
{ACAD_REACTORS
330
23C
102
}
330
1F
100
AcDbEntity
  8
DIMENSIONS
  6
Continuous
370
    13
100
AcDbLine
 10
41.529659
 20
242.598937
 30
0.0
 11
242.145304
 21
242.598937
 31
0.0
  0
LINE
  5
117
102
{ACAD_REACTORS
330
23C
102
}
330
1F
100
AcDbEntity
  8
DIMENSIONS
  6
Continuous
370
    13
100
AcDbLine
 10
242.145304
 20
208.961737
 30
0.0
 11
242.145304
 21
244.598937
 31
0.0
  0
LINE
  5
118
102
{ACAD_REACTORS
330
23C
102
}
330
1F
100
AcDbEntity
  8
DIMENSIONS
  6
Continuous
370
    13
100
AcDbLine
 10
41.529659
 20
203.32794
 30
0.0
 11
41.529659
 21
244.598937
 31
0.0
  0
LINE
  5
119
330
1F
100
AcDbEntity
  8
41
  6
Continuous
 62
     4
 60
     1
370
    13
100
AcDbLine
 10
242.145304
 20
242.598937
 30
0.0
 11
239.645306
 21
242.158119
 31
0.0
  0
LINE
  5
11A
330
1F
100
AcDbEntity
  8
41
  6
Continuous
 62
     4
 60
     1
370
    13
100
AcDbLine
 10
239.645306
 20
242.158119
 30
0.0
 11
239.645302
 21
243.039754
 31
0.0
  0
LINE
  5
11B
330
1F
100
AcDbEntity
  8
41
  6
Continuous
 62
     4
 60
     1
370
    13
100
AcDbLine
 10
239.645302
 20
243.039754
 30
0.0
 11
242.145304
 21
242.598937
 31
0.0
  0
LINE
  5
11C
330
1F
100
AcDbEntity
  8
41
  6
Continuous
 62
     4
 60
     1
370
    13
100
AcDbLine
 10
41.529659
 20
242.598937
 30
0.0
 11
44.029657
 21
243.039754
 31
0.0
  0
LINE
  5
11D
330
1F
100
AcDbEntity
  8
41
  6
Continuous
 62
     4
 60
     1
370
    13
100
AcDbLine
 10
44.029657
 20
243.039754
 30
0.0
 11
44.02966
 21
242.158119
 31
0.0
  0
LINE
  5
11E
330
1F
100
AcDbEntity
  8
41
  6
Continuous
 62
     4
 60
     1
370
    13
100
AcDbLine
 10
44.02966
 20
242.158119
 30
0.0
 11
41.529659
 21
242.598937
 31
0.0
  0
LINE
  5
11F
102
{ACAD_REACTORS
330
23D
102
}
330
1F
100
AcDbEntity
  8
DIMENSIONS
  6
Continuous
370
    13
100
AcDbLine
 10
237.796213
 20
207.166852
 30
0.0
 11
226.356665
 21
218.542234
 31
0.0
  0
LINE
  5
120
102
{ACAD_REACTORS
330
23D
102
}
330
1F
100
AcDbEntity
  8
DIMENSIONS
  6
Continuous
370
    13
100
AcDbLine
 10
242.145304
 20
208.042156
 30
0.0
 11
242.145304
 21
225.10813
 31
0.0
  0
LINE
  5
121
330
1F
100
AcDbEntity
  8
41
  6
Continuous
 62
     4
 60
     1
370
    13
100
AcDbLine
 10
227.77485
 20
217.132004
 30
0.0
 11
229.288534
 21
219.169913
 31
0.0
  0
LINE
  5
122
330
1F
100
AcDbEntity
  8
41
  6
Continuous
 62
     4
 60
     1
370
    13
100
AcDbLine
 10
229.288534
 20
219.169913
 30
0.0
 11
229.894256
 21
218.529303
 31
0.0
  0
LINE
  5
123
330
1F
100
AcDbEntity
  8
41
  6
Continuous
 62
     4
 60
     1
370
    13
100
AcDbLine
 10
229.894256
 20
218.529303
 30
0.0
 11
227.77485
 21
217.132004
 31
0.0
  0
LINE
  5
124
330
1F
100
AcDbEntity
  8
41
  6
Continuous
 62
     4
 60
     1
370
    13
100
AcDbLine
 10
242.145304
 20
223.10813
 30
0.0
 11
239.660067
 21
222.590532
 31
0.0
  0
LINE
  5
125
330
1F
100
AcDbEntity
  8
41
  6
Continuous
 62
     4
 60
     1
370
    13
100
AcDbLine
 10
239.660067
 20
222.590532
 30
0.0
 11
239.632913
 21
223.471748
 31
0.0
  0
LINE
  5
126
330
1F
100
AcDbEntity
  8
41
  6
Continuous
 62
     4
 60
     1
370
    13
100
AcDbLine
 10
239.632913
 20
223.471748
 30
0.0
 11
242.145304
 21
223.10813
 31
0.0
  0
LINE
  5
127
102
{ACAD_REACTORS
330
23E
102
}
330
1F
100
AcDbEntity
  8
DIMENSIONS
  6
Continuous
370
    13
100
AcDbLine
 10
270.508425
 20
206.461737
 30
0.0
 11
270.508425
 21
176.755925
 31
0.0
  0
LINE
  5
128
102
{ACAD_REACTORS
330
23E
102
}
330
1F
100
AcDbEntity
  8
DIMENSIONS
  6
Continuous
370
    13
100
AcDbLine
 10
243.145304
 20
206.461737
 30
0.0
 11
272.508425
 21
206.461737
 31
0.0
  0
LINE
  5
129
330
1F
100
AcDbEntity
  8
41
  6
Continuous
 62
     4
 60
     1
370
    13
100
AcDbLine
 10
270.508425
 20
206.461737
 30
0.0
 11
270.949242
 21
203.961739
 31
0.0
  0
LINE
  5
12A
330
1F
100
AcDbEntity
  8
41
  6
Continuous
 62
     4
 60
     1
370
    13
100
AcDbLine
 10
270.949242
 20
203.961739
 30
0.0
 11
270.067608
 21
203.961736
 31
0.0
  0
LINE
  5
12B
330
1F
100
AcDbEntity
  8
41
  6
Continuous
 62
     4
 60
     1
370
    13
100
AcDbLine
 10
270.067608
 20
203.961736
 30
0.0
 11
270.508425
 21
206.461737
 31
0.0
  0
LINE
  5
12C
102
{ACAD_REACTORS
330
23F
102
}
330
1F
100
AcDbEntity
  8
DIMENSIONS
  6
Continuous
370
    13
100
AcDbLine
 10
258.63743
 20
202.842156
 30
0.0
 11
258.63743
 21
172.940921
 31
0.0
  0
LINE
  5
12D
102
{ACAD_REACTORS
330
23F
102
}
330
1F
100
AcDbEntity
  8
DIMENSIONS
  6
Continuous
370
    13
100
AcDbLine
 10
243.145304
 20
202.842156
 30
0.0
 11
260.63743
 21
202.842156
 31
0.0
  0
LINE
  5
12E
330
1F
100
AcDbEntity
  8
41
  6
Continuous
 62
     4
 60
     1
370
    13
100
AcDbLine
 10
258.63743
 20
202.842156
 30
0.0
 11
259.078248
 21
200.342158
 31
0.0
  0
LINE
  5
12F
330
1F
100
AcDbEntity
  8
41
  6
Continuous
 62
     4
 60
     1
370
    13
100
AcDbLine
 10
259.078248
 20
200.342158
 30
0.0
 11
258.196613
 21
200.342155
 31
0.0
  0
LINE
  5
130
330
1F
100
AcDbEntity
  8
41
  6
Continuous
 62
     4
 60
     1
370
    13
100
AcDbLine
 10
258.196613
 20
200.342155
 30
0.0
 11
258.63743
 21
202.842156
 31
0.0
  0
ARC
  5
131
330
1F
100
AcDbEntity
  8
BODY
  6
Continuous
370
    13
100
AcDbCircle
 10
-202.015108
 20
212.63119
 30
0.0
 40
10.0
210
0.0
220
0.0
230
-1.0
100
AcDbArc
 50
268.0
 51
270.0
  0
ARC
  5
132
330
1F
100
AcDbEntity
  8
BODY
  6
Continuous
370
    13
100
AcDbCircle
 10
-202.015108
 20
168.63119
 30
0.0
 40
10.0
210
0.0
220
0.0
230
-1.0
100
AcDbArc
 50
90.0
 51
92.0
  0
ARC
  5
133
330
1F
100
AcDbEntity
  8
BODY
  6
Continuous
370
    13
100
AcDbCircle
 10
-198.14257
 20
177.63119
 30
0.0
 40
1.0
210
0.0
220
0.0
230
-1.0
100
AcDbArc
 50
17.652911
 51
90.0
  0
ARC
  5
134
330
1F
100
AcDbEntity
  8
BODY
  6
Continuous
370
    13
100
AcDbCircle
 10
-198.14257
 20
203.63119
 30
0.0
 40
1.0
210
0.0
220
0.0
230
-1.0
100
AcDbArc
 50
270.0
 51
342.347089
  0
ARC
  5
135
330
1F
100
AcDbEntity
  8
BODY
  6
Continuous
370
    13
100
AcDbCircle
 10
-229.778041
 20
167.661687
 30
0.0
 40
9.999999999999991
210
0.0
220
0.0
230
-1.0
100
AcDbArc
 50
92.0
 51
116.336786
  0
ARC
  5
136
330
1F
100
AcDbEntity
  8
BODY
  6
Continuous
370
    13
100
AcDbCircle
 10
236.391438
 20
181.021277
 30
0.0
 40
4.906900490119785
100
AcDbArc
 50
243.663214
 51
247.775378
  0
ARC
  5
137
330
1F
100
AcDbEntity
  8
BODY
  6
Continuous
370
    13
100
AcDbCircle
 10
-236.391438
 20
181.021277
 30
0.0
 40
4.906900490119785
210
0.0
220
0.0
230
-1.0
100
AcDbArc
 50
165.651711
 51
167.599508
  0
ARC
  5
138
330
1F
100
AcDbEntity
  8
NOCUT
  6
Continuous
370
    13
100
AcDbCircle
 10
244.189659
 20
193.522716
 30
0.0
 40
5.0
100
AcDbArc
 50
155.0
 51
180.0
  0
ARC
  5
139
330
1F
100
AcDbEntity
  8
NOCUT
  6
Continuous
370
    13
100
AcDbCircle
 10
236.391438
 20
200.241102
 30
0.0
 40
4.906900490119785
100
AcDbArc
 50
12.081294
 51
116.336786
  0
ARC
  5
13A
330
1F
100
AcDbEntity
  8
NOCUT
  6
Continuous
370
    13
100
AcDbCircle
 10
236.391438
 20
181.021277
 30
0.0
 40
4.906900490119785
100
AcDbArc
 50
12.081294
 51
25.0
  0
ARC
  5
13B
330
1F
100
AcDbEntity
  8
NOCUT
  6
Continuous
370
    13
100
AcDbCircle
 10
244.189659
 20
187.7396629999999
 30
0.0
 40
5.0
100
AcDbArc
 50
180.0
 51
205.0
  0
ARC
  5
13C
330
1F
100
AcDbEntity
  8
NOCUT
  6
Continuous
370
    13
100
AcDbCircle
 10
236.391438
 20
200.241102
 30
0.0
 40
4.906900490119785
100
AcDbArc
 50
335.0
 51
347.918706
  0
ARC
  5
13D
330
1F
100
AcDbEntity
  8
NOCUT
  6
Continuous
370
    13
100
AcDbCircle
 10
202.015108
 20
168.63119
 30
0.0
 40
10.0
100
AcDbArc
 50
88.0
 51
90.0
  0
ARC
  5
13E
330
1F
100
AcDbEntity
  8
NOCUT
  6
Continuous
370
    13
100
AcDbCircle
 10
-229.778041
 20
167.661687
 30
0.0
 40
9.999999999999991
210
0.0
220
0.0
230
-1.0
100
AcDbArc
 50
92.0
 51
116.336786
  0
ARC
  5
13F
330
1F
100
AcDbEntity
  8
NOCUT
  6
Continuous
370
    13
100
AcDbCircle
 10
236.391438
 20
181.021277
 30
0.0
 40
4.906900490119785
100
AcDbArc
 50
243.663214
 51
347.918706
  0
ARC
  5
140
330
1F
100
AcDbEntity
  8
NOCUT
  6
Continuous
370
    13
100
AcDbCircle
 10
-229.778041
 20
213.600693
 30
0.0
 40
9.999999999999991
210
0.0
220
0.0
230
-1.0
100
AcDbArc
 50
243.663214
 51
268.0
  0
ARC
  5
141
330
1F
100
AcDbEntity
  8
NOCUT
  6
Continuous
370
    13
100
AcDbCircle
 10
198.14257
 20
177.63119
 30
0.0
 40
1.0
100
AcDbArc
 50
90.0
 51
162.347089
  0
ARC
  5
142
330
1F
100
AcDbEntity
  8
NOCUT
  6
Continuous
370
    13
100
AcDbCircle
 10
198.14257
 20
203.63119
 30
0.0
 40
1.0
100
AcDbArc
 50
197.652911
 51
270.0
  0
ARC
  5
143
330
1F
100
AcDbEntity
  8
NOCUT
  6
Continuous
370
    13
100
AcDbCircle
 10
202.015108
 20
212.63119
 30
0.0
 40
10.0
100
AcDbArc
 50
270.0
 51
272.0
  0
ARC
  5
144
102
{ACAD_REACTORS
330
23D
102
}
330
1F
100
AcDbEntity
  8
DIMENSIONS
  6
Continuous
370
    13
100
AcDbCircle
 10
242.145304
 20
202.842156
 30
0.0
 40
20.26597350821393
100
AcDbArc
 50
90.0
 51
135.161143
  0
ELLIPSE
  5
145
330
1F
100
AcDbEntity
  8
BODY
  6
Continuous
370
    13
100
AcDbEllipse
 10
250.115807
 20
191.230624
 30
0.0
 11
-98.79188848926412
 21
-2.416441777108915
 31
0.0
210
0.0
220
0.0
230
0.9999999999999998
 40
0.131814
 41
4.916928942934351
 42
4.92182317920108
  0
ELLIPSE
  5
146
330
1F
100
AcDbEntity
  8
BODY
  6
Continuous
370
    13
100
AcDbEllipse
 10
229.910497
 20
190.604429
 30
0.0
 11
-0.9180781620562791
 21
12.96135861970232
 31
0.0
210
0.0
220
0.0
230
1.0
 40
0.406056
 41
6.069941632508705
 42
6.14284478374105
  0
ELLIPSE
  5
147
330
1F
100
AcDbEntity
  8
BODY
  6
Continuous
370
    13
100
AcDbEllipse
 10
229.194371
 20
190.625736
 30
0.0
 11
-0.1592111273018199
 21
12.94285559687346
 31
0.0
210
0.0
220
0.0
230
0.9999999999999998
 40
0.138394
 41
6.155375701466303
 42
6.211854400136909
  0
ELLIPSE
  5
148
330
1F
100
AcDbEntity
  8
BODY
  6
Continuous
370
    13
100
AcDbEllipse
 10
229.910497
 20
190.804469
 30
0.0
 11
-5.058035022095975
 21
-12.95043511346311
 31
0.0
210
0.0
220
0.0
230
0.9999999999999998
 40
0.132821
 41
1.210634371442849
 42
1.283537522434234
  0
ELLIPSE
  5
149
330
1F
100
AcDbEntity
  8
BODY
  6
Continuous
370
    13
100
AcDbEllipse
 10
250.120209
 20
187.38961
 30
0.0
 11
-98.8017019268682
 21
12.87643368980432
 31
0.0
210
0.0
220
0.0
230
0.9999999999999998
 40
0.045046
 41
1.363987090954494
 42
1.368880804966619
  0
ELLIPSE
  5
14A
330
1F
100
AcDbEntity
  8
BODY
  6
Continuous
370
    13
100
AcDbEllipse
 10
229.194371
 20
190.688096
 30
0.0
 11
-1.635070991483473
 21
-12.94265389698784
 31
0.0
210
0.0
220
0.0
230
1.0
 40
0.057838
 41
1.124136128287899
 42
1.180614822576061
  0
ELLIPSE
  5
14B
330
1F
100
AcDbEntity
  8
BODY
  6
Continuous
370
    13
100
AcDbEllipse
 10
237.328096
 20
197.822282
 30
0.0
 11
-2.775309649435753
 21
-0.1398094475298806
 31
0.0
210
0.0
220
0.0
230
1.0
 40
0.677398
 41
2.12192418768951
 42
2.676354708972953
  0
ELLIPSE
  5
14C
330
1F
100
AcDbEntity
  8
BODY
  6
Continuous
370
    13
100
AcDbEllipse
 10
237.328096
 20
197.822282
 30
0.0
 11
-2.775309649436843
 21
-0.1398094475317913
 31
0.0
210
0.0
220
0.0
230
0.9999999999999998
 40
0.677398
 41
6.187837722595982
 42
6.942683439099166
  0
ELLIPSE
  5
14D
330
1F
100
AcDbEntity
  8
BODY
  6
Continuous
370
    13
100
AcDbEllipse
 10
237.328096
 20
176.3856
 30
0.0
 11
-0.5506418091751577
 21
4.048582389668461
 31
0.0
210
0.0
220
0.0
230
1.0
 40
0.672281
 41
0.6775717744705452
 42
1.432417490973531
  0
ELLIPSE
  5
14E
330
1F
100
AcDbEntity
  8
BODY
  6
Continuous
370
    13
100
AcDbEllipse
 10
228.080762
 20
187.797135
 30
0.0
 11
-2.640240767291336
 21
2.722269086627319
 31
0.0
210
0.0
220
0.0
230
0.9999999999999996
 40
0.527349
 41
2.981823220995085
 42
3.112692121159483
  0
ELLIPSE
  5
14F
330
1F
100
AcDbEntity
  8
BODY
  6
Continuous
370
    13
100
AcDbEllipse
 10
230.988342
 20
186.525276
 30
0.0
 11
-0.2645907470175643
 21
-1.820012455016879
 31
0.0
210
0.0
220
0.0
230
0.9999999999999998
 40
0.949899
 41
6.060475760732921
 42
6.301351405857437
  0
ELLIPSE
  5
150
330
1F
100
AcDbEntity
  8
BODY
  6
Continuous
370
    13
100
AcDbEllipse
 10
228.826729
 20
187.038733
 30
0.0
 11
-2.534674226196364
 21
1.507036880314274
 31
0.0
210
0.0
220
0.0
230
1.0
 40
0.650094
 41
2.500801740743245
 42
2.583963237083443
  0
ELLIPSE
  5
151
330
1F
100
AcDbEntity
  8
BODY
  6
Continuous
370
    13
100
AcDbEllipse
 10
230.994575
 20
186.345712
 30
0.0
 11
-1.748946838779091
 21
-0.0607038312186702
 31
0.0
210
0.0
220
0.0
230
1.0
 40
0.9390599999999999
 41
1.113098071331047
 42
1.400672428777856
  0
ELLIPSE
  5
152
330
1F
100
AcDbEntity
  8
BODY
  6
Continuous
370
    13
100
AcDbEllipse
 10
237.003989
 20
195.621784
 30
0.0
 11
-2.72064769514695
 21
0.4007195015115334
 31
0.0
210
0.0
220
0.0
230
0.9999999999999998
 40
0.338791
 41
5.489598145463203
 42
6.103340455095076
  0
ELLIPSE
  5
153
330
1F
100
AcDbEntity
  8
BODY
  6
Continuous
370
    13
100
AcDbEllipse
 10
237.328096
 20
176.3856
 30
0.0
 11
-0.5506418091870711
 21
4.048582389643311
 31
0.0
210
0.0
220
0.0
230
1.0
 40
0.672281
 41
4.943900504548511
 42
5.611034963749667
  0
ELLIPSE
  5
154
330
1F
100
AcDbEntity
  8
SPARE_PARTS
  6
Continuous
370
    13
100
AcDbEllipse
 10
234.742048
 20
202.072796
 30
0.0
 11
0.5697783589621083
 21
0.4541399497805237
 31
0.0
210
0.0
220
0.0
230
1.0
 40
0.9755089999999999
 41
3.945225470998673
 42
5.180901579978867
  0
ELLIPSE
  5
155
330
1F
100
AcDbEntity
  8
SPARE_PARTS
  6
Continuous
370
    13
100
AcDbEllipse
 10
235.838067
 20
200.158208
 30
0.0
 11
-2.345982343241717
 21
-1.869857439806065
 31
0.0
210
0.0
220
0.0
230
1.0
 40
0.975509
 41
5.598129453048386
 42
6.283185307179584
  0
ELLIPSE
  5
156
330
1F
100
AcDbEntity
  8
SPARE_PARTS
  6
Continuous
370
    13
100
AcDbEllipse
 10
235.838067
 20
200.158208
 30
0.0
 11
-2.345982343241717
 21
-1.869857439806065
 31
0.0
210
0.0
220
0.0
230
1.0
 40
0.975509
 41
0.0
 42
0.2667487899625637
  0
ELLIPSE
  5
157
330
1F
100
AcDbEntity
  8
SPARE_PARTS
  6
Continuous
370
    13
100
AcDbEllipse
 10
235.838067
 20
200.158208
 30
0.0
 11
-2.345982343241717
 21
-1.869857439806065
 31
0.0
210
0.0
220
0.0
230
1.0
 40
0.975509
 41
0.4751737617830372
 42
5.598129791325191
  0
ELLIPSE
  5
158
330
1F
100
AcDbEntity
  8
SPARE_PARTS
  6
Continuous
370
    13
100
AcDbEllipse
 10
237.291314
 20
177.931803
 30
0.0
 11
-2.460167903931306
 21
-0.4444928396118991
 31
0.0
210
0.0
220
0.0
230
1.0
 40
0.6367180000000002
 41
2.170055126253255
 42
2.898610239827398
  0
ELLIPSE
  5
159
330
1F
100
AcDbEntity
  8
SPARE_PARTS
  6
Continuous
370
    13
100
AcDbEllipse
 10
237.291314
 20
177.931803
 30
0.0
 11
-2.460167903931306
 21
-0.4444928396118991
 31
0.0
210
0.0
220
0.0
230
1.0
 40
0.6367180000000002
 41
3.782379380066703
 42
6.283185307179584
  0
ELLIPSE
  5
15A
330
1F
100
AcDbEntity
  8
SPARE_PARTS
  6
Continuous
370
    13
100
AcDbEllipse
 10
237.291314
 20
177.931803
 30
0.0
 11
-2.460167903931306
 21
-0.4444928396118991
 31
0.0
210
0.0
220
0.0
230
1.0
 40
0.6367180000000002
 41
0.0
 42
0.9714392904197591
  0
ELLIPSE
  5
15B
330
1F
100
AcDbEntity
  8
SPARE_PARTS
  6
Continuous
370
    13
100
AcDbEllipse
 10
237.291314
 20
195.626848
 30
0.0
 11
2.473316086497217
 21
-0.3642904559195743
 31
0.0
210
0.0
220
0.0
230
1.0
 40
0.338791
 41
2.773142702694836
 42
3.141592240291541
  0
ELLIPSE
  5
15C
330
1F
100
AcDbEntity
  8
SPARE_PARTS
  6
Continuous
370
    13
100
AcDbEllipse
 10
237.291314
 20
195.626848
 30
0.0
 11
2.473316086497217
 21
-0.3642904559195743
 31
0.0
210
0.0
220
0.0
230
1.0
 40
0.338791
 41
3.141592240291587
 42
6.283185307179584
  0
ELLIPSE
  5
15D
330
1F
100
AcDbEntity
  8
SPARE_PARTS
  6
Continuous
370
    13
100
AcDbEllipse
 10
237.346154
 20
177.628278
 30
0.0
 11
-2.066541039302296
 21
-0.3733739852739952
 31
0.0
210
0.0
220
0.0
230
1.0
 40
0.6367180000000002
 41
0.0
 42
6.283185307179584
  0
ELLIPSE
  5
15E
330
1F
100
AcDbEntity
  8
SPARE_PARTS
  6
Continuous
370
    13
100
AcDbEllipse
 10
235.302595
 20
201.822954
 30
0.0
 11
0.0803467181042336
 21
0.0640400849750651
 31
0.0
210
0.0
220
0.0
230
1.0
 40
0.9755089999999999
 41
5.180901579978843
 42
5.872060464484531
  0
ELLIPSE
  5
15F
330
1F
100
AcDbEntity
  8
SPARE_PARTS
  6
Continuous
370
    13
100
AcDbEllipse
 10
237.346154
 20
195.999176
 30
0.0
 11
2.077585512657663
 21
-0.3060039829724425
 31
0.0
210
0.0
220
0.0
230
0.9999999999999998
 40
0.338791
 41
0.0
 42
6.283185307179584
  0
ELLIPSE
  5
160
330
1F
100
AcDbEntity
  8
SPARE_PARTS
  6
Continuous
370
    13
100
AcDbEllipse
 10
235.849594
 20
200.143746
 30
0.0
 11
-2.502381166124501
 21
-1.994514602459803
 31
0.0
210
0.0
220
0.0
230
0.9999999999999998
 40
0.9755089999999999
 41
5.598129727898296
 42
6.283185307179584
  0
ELLIPSE
  5
161
330
1F
100
AcDbEntity
  8
SPARE_PARTS
  6
Continuous
370
    13
100
AcDbEllipse
 10
235.849594
 20
200.143746
 30
0.0
 11
-2.502381166124501
 21
-1.994514602459803
 31
0.0
210
0.0
220
0.0
230
0.9999999999999998
 40
0.9755089999999999
 41
0.0
 42
0.1970447321998815
  0
ELLIPSE
  5
162
330
1F
100
AcDbEntity
  8
SPARE_PARTS
  6
Continuous
370
    13
100
AcDbEllipse
 10
235.849594
 20
200.143746
 30
0.0
 11
-2.502381166124501
 21
-1.994514602459803
 31
0.0
210
0.0
220
0.0
230
0.9999999999999998
 40
0.9755089999999999
 41
0.5313296617573035
 42
5.598129410763788
  0
ELLIPSE
  5
163
330
1F
100
AcDbEntity
  8
SPARE_PARTS
  6
Continuous
370
    13
100
AcDbEllipse
 10
234.676284
 20
201.458326
 30
0.0
 11
0.080346718104232
 21
0.0640400849750638
 31
0.0
210
0.0
220
0.0
230
0.9999999999999998
 40
0.9755089999999999
 41
3.254066586492993
 42
3.945225470998712
  0
ELLIPSE
  5
164
330
1F
100
AcDbEntity
  8
SPARE_PARTS
  6
Continuous
370
    13
100
AcDbEllipse
 10
234.530629
 20
201.313461
 30
0.0
 11
0.0803467181042321
 21
0.0640400849750638
 31
0.0
210
0.0
220
0.0
230
1.0
 40
0.9755089999999999
 41
0.1124739329032099
 42
1.327231593007166
  0
ELLIPSE
  5
165
330
1F
100
AcDbEntity
  8
SPARE_PARTS
  6
Continuous
370
    13
100
AcDbEllipse
 10
234.78191
 20
200.75603
 30
0.0
 11
0.5697783589621083
 21
0.4541399497805238
 31
0.0
210
0.0
220
0.0
230
1.0
 40
0.9755089999999999
 41
1.327231593007168
 42
2.562907701987371
  0
ELLIPSE
  5
166
330
1F
100
AcDbEntity
  8
SPARE_PARTS
  6
Continuous
370
    13
100
AcDbEllipse
 10
234.164037
 20
200.690571
 30
0.0
 11
0.0803467181042337
 21
0.0640400849750651
 31
0.0
210
0.0
220
0.0
230
1.0
 40
0.9755089999999999
 41
2.562907701987378
 42
3.777665362091362
  0
ELLIPSE
  5
167
330
1F
100
AcDbEntity
  8
SPARE_PARTS
  6
Continuous
370
    13
100
AcDbEllipse
 10
234.108991
 20
200.494418
 30
0.0
 11
0.0803467181042336
 21
0.0640400849750651
 31
0.0
210
0.0
220
0.0
230
1.0
 40
0.9755089999999999
 41
6.228099131175457
 42
6.919258015680988
  0
ELLIPSE
  5
168
330
1F
100
AcDbEntity
  8
SPARE_PARTS
  6
Continuous
370
    13
100
AcDbEllipse
 10
233.599349
 20
200.131197
 30
0.0
 11
0.5697783589621083
 21
0.4541399497805237
 31
0.0
210
0.0
220
0.0
230
1.0
 40
0.9755089999999999
 41
4.992423022195284
 42
6.228099131175458
  0
ELLIPSE
  5
169
330
1F
100
AcDbEntity
  8
SPARE_PARTS
  6
Continuous
370
    13
100
AcDbEllipse
 10
234.100344
 20
199.78017
 30
0.0
 11
0.080346718104232
 21
0.0640400849750638
 31
0.0
210
0.0
220
0.0
230
0.9999999999999998
 40
0.9755089999999999
 41
4.301264137689626
 42
4.992423022195294
  0
ELLIPSE
  5
16A
330
1F
100
AcDbEntity
  8
SPARE_PARTS
  6
Continuous
370
    13
100
AcDbEllipse
 10
234.150657
 20
199.585289
 30
0.0
 11
0.0803467181042321
 21
0.0640400849750638
 31
0.0
210
0.0
220
0.0
230
1.0
 40
0.9755089999999999
 41
1.159671484099833
 42
2.374429144203801
  0
ELLIPSE
  5
16B
330
1F
100
AcDbEntity
  8
SPARE_PARTS
  6
Continuous
370
    13
100
AcDbEllipse
 10
234.767125
 20
199.534722
 30
0.0
 11
0.5697783589621083
 21
0.4541399497805238
 31
0.0
210
0.0
220
0.0
230
1.0
 40
0.9755089999999999
 41
2.374429144203781
 42
3.610105253183975
  0
ELLIPSE
  5
16C
330
1F
100
AcDbEntity
  8
SPARE_PARTS
  6
Continuous
370
    13
100
AcDbEllipse
 10
234.502274
 20
198.971064
 30
0.0
 11
0.0803467181042337
 21
0.0640400849750651
 31
0.0
210
0.0
220
0.0
230
1.0
 40
0.9755089999999999
 41
3.610105253183953
 42
4.824862913287983
  0
ELLIPSE
  5
16D
330
1F
100
AcDbEntity
  8
SPARE_PARTS
  6
Continuous
370
    13
100
AcDbEllipse
 10
234.644463
 20
198.829672
 30
0.0
 11
0.0803467181042336
 21
0.0640400849750651
 31
0.0
210
0.0
220
0.0
230
1.0
 40
0.9755089999999999
 41
0.9921113751925048
 42
1.683270259698118
  0
ELLIPSE
  5
16E
330
1F
100
AcDbEntity
  8
SPARE_PARTS
  6
Continuous
370
    13
100
AcDbEllipse
 10
234.695368
 20
198.216609
 30
0.0
 11
0.5697783589621083
 21
0.4541399497805237
 31
0.0
210
0.0
220
0.0
230
1.0
 40
0.9755089999999999
 41
6.039620573391871
 42
7.275296682372061
  0
ELLIPSE
  5
16F
330
1F
100
AcDbEntity
  8
SPARE_PARTS
  6
Continuous
370
    13
100
AcDbEllipse
 10
235.262127
 20
198.480052
 30
0.0
 11
0.080346718104232
 21
0.0640400849750638
 31
0.0
210
0.0
220
0.0
230
0.9999999999999998
 40
0.9755089999999999
 41
5.348461688886256
 42
6.039620573391878
  0
ELLIPSE
  5
170
330
1F
100
AcDbEntity
  8
SPARE_PARTS
  6
Continuous
370
    13
100
AcDbEllipse
 10
235.458095
 20
198.430036
 30
0.0
 11
0.0803467181042321
 21
0.0640400849750638
 31
0.0
210
0.0
220
0.0
230
1.0
 40
0.9755089999999999
 41
2.206869035296388
 42
3.421626695400343
  0
ELLIPSE
  5
171
330
1F
100
AcDbEntity
  8
SPARE_PARTS
  6
Continuous
370
    13
100
AcDbEllipse
 10
235.823283
 20
198.9369
 30
0.0
 11
0.5697783589621083
 21
0.4541399497805238
 31
0.0
210
0.0
220
0.0
230
1.0
 40
0.9755089999999999
 41
3.421626695400375
 42
4.657302804380571
  0
ELLIPSE
  5
172
330
1F
100
AcDbEntity
  8
SPARE_PARTS
  6
Continuous
370
    13
100
AcDbEllipse
 10
236.176304
 20
198.438701
 30
0.0
 11
0.0803467181042337
 21
0.0640400849750651
 31
0.0
210
0.0
220
0.0
230
1.0
 40
0.9755089999999999
 41
4.657302804380513
 42
5.872060464484508
  0
ELLIPSE
  5
173
330
1F
100
AcDbEntity
  8
SPARE_PARTS
  6
Continuous
370
    13
100
AcDbEllipse
 10
236.373539
 20
198.493462
 30
0.0
 11
0.0803467181042336
 21
0.0640400849750651
 31
0.0
210
0.0
220
0.0
230
1.0
 40
0.9755089999999999
 41
2.039308926389042
 42
2.730467810894736
  0
ELLIPSE
  5
174
330
1F
100
AcDbEntity
  8
SPARE_PARTS
  6
Continuous
370
    13
100
AcDbEllipse
 10
236.934085
 20
198.243619
 30
0.0
 11
0.5697783589621083
 21
0.4541399497805237
 31
0.0
210
0.0
220
0.0
230
1.0
 40
0.9755089999999999
 41
0.8036328174088913
 42
2.039308926389082
  0
ELLIPSE
  5
175
330
1F
100
AcDbEntity
  8
SPARE_PARTS
  6
Continuous
370
    13
100
AcDbEllipse
 10
236.99985
 20
198.85809
 30
0.0
 11
0.080346718104232
 21
0.0640400849750638
 31
0.0
210
0.0
220
0.0
230
0.9999999999999998
 40
0.9755089999999999
 41
0.1124739329032352
 42
0.803632817408943
  0
ELLIPSE
  5
176
330
1F
100
AcDbEntity
  8
SPARE_PARTS
  6
Continuous
370
    13
100
AcDbEllipse
 10
237.145505
 20
199.002955
 30
0.0
 11
0.0803467181042321
 21
0.0640400849750638
 31
0.0
210
0.0
220
0.0
230
1.0
 40
0.9755089999999999
 41
3.25406658649302
 42
4.468824246596969
  0
ELLIPSE
  5
177
330
1F
100
AcDbEntity
  8
SPARE_PARTS
  6
Continuous
370
    13
100
AcDbEllipse
 10
236.894224
 20
199.560386
 30
0.0
 11
0.5697783589621083
 21
0.4541399497805238
 31
0.0
210
0.0
220
0.0
230
1.0
 40
0.9755089999999999
 41
4.468824246596973
 42
5.704500355577168
  0
ELLIPSE
  5
178
330
1F
100
AcDbEntity
  8
SPARE_PARTS
  6
Continuous
370
    13
100
AcDbEllipse
 10
237.512097
 20
199.625845
 30
0.0
 11
0.0803467181042337
 21
0.0640400849750651
 31
0.0
210
0.0
220
0.0
230
1.0
 40
0.9755089999999999
 41
5.704500355577157
 42
6.919258015681111
  0
ELLIPSE
  5
179
330
1F
100
AcDbEntity
  8
SPARE_PARTS
  6
Continuous
370
    13
100
AcDbEllipse
 10
237.567143
 20
199.821998
 30
0.0
 11
0.0803467181042336
 21
0.0640400849750651
 31
0.0
210
0.0
220
0.0
230
1.0
 40
0.9755089999999999
 41
3.086506477585678
 42
3.777665362091279
  0
ELLIPSE
  5
17A
330
1F
100
AcDbEntity
  8
SPARE_PARTS
  6
Continuous
370
    13
100
AcDbEllipse
 10
238.076785
 20
200.185218
 30
0.0
 11
0.5697783589621083
 21
0.4541399497805237
 31
0.0
210
0.0
220
0.0
230
1.0
 40
0.9755089999999999
 41
1.850830368605491
 42
3.086506477585666
  0
ELLIPSE
  5
17B
330
1F
100
AcDbEntity
  8
SPARE_PARTS
  6
Continuous
370
    13
100
AcDbEllipse
 10
237.575789
 20
200.536246
 30
0.0
 11
0.080346718104232
 21
0.0640400849750638
 31
0.0
210
0.0
220
0.0
230
0.9999999999999998
 40
0.9755089999999999
 41
1.159671484099833
 42
1.850830368605503
  0
ELLIPSE
  5
17C
330
1F
100
AcDbEntity
  8
SPARE_PARTS
  6
Continuous
370
    13
100
AcDbEllipse
 10
237.525477
 20
200.731127
 30
0.0
 11
0.0803467181042321
 21
0.0640400849750638
 31
0.0
210
0.0
220
0.0
230
1.0
 40
0.9755089999999999
 41
4.301264137689703
 42
5.516021797793619
  0
ELLIPSE
  5
17D
330
1F
100
AcDbEntity
  8
SPARE_PARTS
  6
Continuous
370
    13
100
AcDbEllipse
 10
236.909008
 20
200.781694
 30
0.0
 11
0.5697783589621083
 21
0.4541399497805238
 31
0.0
210
0.0
220
0.0
230
1.0
 40
0.9755089999999999
 41
5.516021797793576
 42
6.751697906773762
  0
ELLIPSE
  5
17E
330
1F
100
AcDbEntity
  8
SPARE_PARTS
  6
Continuous
370
    13
100
AcDbEllipse
 10
237.17386
 20
201.345352
 30
0.0
 11
0.0803467181042337
 21
0.0640400849750651
 31
0.0
210
0.0
220
0.0
230
1.0
 40
0.9755089999999999
 41
0.4685125995940659
 42
1.683270259698125
  0
ELLIPSE
  5
17F
330
1F
100
AcDbEntity
  8
SPARE_PARTS
  6
Continuous
370
    13
100
AcDbEllipse
 10
237.031671
 20
201.486744
 30
0.0
 11
0.0803467181042336
 21
0.0640400849750651
 31
0.0
210
0.0
220
0.0
230
1.0
 40
0.9755089999999999
 41
4.133704028782259
 42
4.824862913287919
  0
ELLIPSE
  5
180
330
1F
100
AcDbEntity
  8
SPARE_PARTS
  6
Continuous
370
    13
100
AcDbEllipse
 10
236.980766
 20
202.099807
 30
0.0
 11
0.5697783589621083
 21
0.4541399497805237
 31
0.0
210
0.0
220
0.0
230
1.0
 40
0.9755089999999999
 41
2.898027919802069
 42
4.133704028782267
  0
ELLIPSE
  5
181
330
1F
100
AcDbEntity
  8
SPARE_PARTS
  6
Continuous
370
    13
100
AcDbEllipse
 10
236.414006
 20
201.836363
 30
0.0
 11
0.080346718104232
 21
0.0640400849750638
 31
0.0
210
0.0
220
0.0
230
0.9999999999999998
 40
0.9755089999999999
 41
2.206869035296465
 42
2.898027919802069
  0
ELLIPSE
  5
182
330
1F
100
AcDbEntity
  8
SPARE_PARTS
  6
Continuous
370
    13
100
AcDbEllipse
 10
236.218039
 20
201.88638
 30
0.0
 11
0.0803467181042321
 21
0.0640400849750638
 31
0.0
210
0.0
220
0.0
230
1.0
 40
0.9755089999999999
 41
5.348461688886237
 42
6.563219348990167
  0
ELLIPSE
  5
183
330
1F
100
AcDbEntity
  8
SPARE_PARTS
  6
Continuous
370
    13
100
AcDbEllipse
 10
235.852851
 20
201.379516
 30
0.0
 11
0.5697783589621083
 21
0.4541399497805238
 31
0.0
210
0.0
220
0.0
230
1.0
 40
0.9755089999999999
 41
0.2800340418105843
 42
1.515710150790778
  0
ELLIPSE
  5
184
330
1F
100
AcDbEntity
  8
SPARE_PARTS
  6
Continuous
370
    13
100
AcDbEllipse
 10
235.49983
 20
201.877715
 30
0.0
 11
0.0803467181042337
 21
0.0640400849750651
 31
0.0
210
0.0
220
0.0
230
1.0
 40
0.9755089999999999
 41
1.515710150790865
 42
2.730467810894698
  0
ELLIPSE
  5
185
330
1F
100
AcDbEntity
  8
SPARE_PARTS
  6
Continuous
370
    13
100
AcDbEllipse
 10
235.927181
 20
200.046402
 30
0.0
 11
-2.502381166124499
 21
-1.994514602459801
 31
0.0
210
0.0
220
0.0
230
1.0
 40
0.975509
 41
0.0
 42
0.1505097060414729
  0
ELLIPSE
  5
186
330
1F
100
AcDbEntity
  8
SPARE_PARTS
  6
Continuous
370
    13
100
AcDbEllipse
 10
235.927181
 20
200.046402
 30
0.0
 11
-2.502381166124499
 21
-1.994514602459801
 31
0.0
210
0.0
220
0.0
230
1.0
 40
0.975509
 41
0.5193523519315642
 42
3.141600592271856
  0
ELLIPSE
  5
187
330
1F
100
AcDbEntity
  8
INSERTS
  6
Continuous
370
    13
100
AcDbEllipse
 10
235.824357
 20
200.175409
 30
0.0
 11
2.694332702392773
 21
2.147508937309515
 31
0.0
210
0.0
220
0.0
230
1.0
 40
0.9755089999999999
 41
3.763341227916191
 42
5.598129472849143
  0
ELLIPSE
  5
188
330
1F
100
AcDbEntity
  8
INSERTS
  6
Continuous
370
    13
100
AcDbEllipse
 10
235.824357
 20
200.175409
 30
0.0
 11
2.694332702392773
 21
2.147508937309515
 31
0.0
210
0.0
220
0.0
230
1.0
 40
0.9755089999999999
 41
5.598129472849151
 42
6.283185307179584
  0
ELLIPSE
  5
189
330
1F
100
AcDbEntity
  8
INSERTS
  6
Continuous
370
    13
100
AcDbEllipse
 10
235.824357
 20
200.175409
 30
0.0
 11
2.694332702392773
 21
2.147508937309515
 31
0.0
210
0.0
220
0.0
230
1.0
 40
0.9755089999999999
 41
0.0
 42
3.288666388733986
  0
ELLIPSE
  5
18A
330
1F
100
AcDbEntity
  8
INSERTS
  6
Continuous
370
    13
100
AcDbEllipse
 10
235.881923
 20
200.103185
 30
0.0
 11
2.665605943782368
 21
2.124612369710054
 31
0.0
210
0.0
220
0.0
230
0.9999999999999998
 40
0.9755089999999999
 41
5.897562733241567
 42
6.283185307179584
  0
ELLIPSE
  5
18B
330
1F
100
AcDbEntity
  8
INSERTS
  6
Continuous
370
    13
100
AcDbEllipse
 10
235.881923
 20
200.103185
 30
0.0
 11
2.665605943782368
 21
2.124612369710054
 31
0.0
210
0.0
220
0.0
230
0.9999999999999998
 40
0.9755089999999999
 41
0.0
 42
3.26706784197903
  0
SPLINE
  5
18C
330
1F
100
AcDbEntity
  8
BODY
  6
Continuous
370
    13
100
AcDbSpline
210
0.0
220
0.0
230
1.0
 70
    24
 71
     1
 72
     4
 73
     2
 74
     0
 42
0.000000001
 43
0.0000000001
 40
0.0
 40
0.0
 40
1.0
 40
1.0
 10
240.8479545232017
 20
189.7497732731657
 30
0.0
 10
240.9580280269151
 20
189.8428287216755
 30
0.0
  0
SPLINE
  5
18D
330
1F
100
AcDbEntity
  8
BODY
  6
Continuous
370
    13
100
AcDbSpline
210
0.0
220
0.0
230
1.0
 70
    24
 71
     1
 72
     4
 73
     2
 74
     0
 42
0.000000001
 43
0.0000000001
 40
0.0
 40
0.0
 40
1.0
 40
1.0
 10
240.5401442708418
 20
196.6515435749731
 30
0.0
 10
240.4602612508862
 20
196.7141764429539
 30
0.0
  0
SPLINE
  5
18E
330
1F
100
AcDbEntity
  8
BODY
  6
Continuous
370
    13
100
AcDbSpline
210
0.0
220
0.0
230
1.0
 70
    24
 71
     1
 72
     4
 73
     2
 74
     0
 42
0.000000001
 43
0.0000000001
 40
0.0
 40
0.0
 40
1.0
 40
1.0
 10
218.516163207763
 20
202.408089510961
 30
0.0
 10
218.4198475692609
 20
202.4453210388471
 30
0.0
  0
SPLINE
  5
18F
330
1F
100
AcDbEntity
  8
BODY
  6
Continuous
370
    13
100
AcDbSpline
210
0.0
220
0.0
230
1.0
 70
    24
 71
     1
 72
     4
 73
     2
 74
     0
 42
0.000000001
 43
0.0000000001
 40
0.0
 40
0.0
 40
1.0
 40
1.0
 10
229.1514416843239
 20
203.5375042793529
 30
0.0
 10
229.049228083562
 20
203.4509089377122
 30
0.0
  0
SPLINE
  5
190
330
1F
100
AcDbEntity
  8
BODY
  6
Continuous
370
    13
100
AcDbSpline
210
0.0
220
0.0
230
1.0
 70
     8
 71
     3
 72
    12
 73
     8
 74
     0
 42
0.000000001
 43
0.0000000001
 40
0.0
 40
0.0
 40
0.0
 40
0.0
 40
0.3145084348438878
 40
0.3145084348438878
 40
0.6572542118773674
 40
0.6572542118773674
 40
1.0
 40
1.0
 40
1.0
 40
1.0
 10
229.1632254581124
 20
203.5372487716857
 30
0.0
 10
229.1619900998918
 20
203.5372758801328
 30
0.0
 10
229.1607547394303
 20
203.5373028866529
 30
0.0
 10
229.1581731001715
 20
203.5373591113769
 30
0.0
 10
229.156826820948
 20
203.5373883104549
 30
0.0
 10
229.1541342572381
 20
203.5374464664567
 30
0.0
 10
229.1527879727408
 20
203.5374754233806
 30
0.0
 10
229.1514416856552
 20
203.5375042592132
 30
0.0
  0
SPLINE
  5
191
330
1F
100
AcDbEntity
  8
BODY
  6
Continuous
370
    13
100
AcDbSpline
210
0.0
220
0.0
230
1.0
 70
     8
 71
     3
 72
    11
 73
     7
 74
     0
 42
0.000000001
 43
0.0000000001
 40
0.0
 40
0.0
 40
0.0
 40
0.0
 40
0.239875513576192
 40
0.4864993394073478
 40
0.7398734976738948
 40
1.0
 40
1.0
 40
1.0
 40
1.0
 10
218.6238394500092
 20
202.9840003599378
 30
0.0
 10
219.4654350714016
 20
203.0339340050757
 30
0.0
 10
221.1723025534195
 20
203.1352060566144
 30
0.0
 10
223.7685615427714
 20
203.2763794116697
 30
0.0
 10
226.4361390652868
 20
203.4125638546703
 30
0.0
 10
228.2384409437364
 20
203.4954939575681
 30
0.0
 10
229.151441685032
 20
203.5375042591312
 30
0.0
  0
SPLINE
  5
192
330
1F
100
AcDbEntity
  8
BODY
  6
Continuous
370
    13
100
AcDbSpline
210
0.0
220
0.0
230
1.0
 70
     8
 71
     3
 72
    12
 73
     8
 74
     0
 42
0.000000001
 43
0.0000000001
 40
0.0
 40
0.0
 40
0.0
 40
0.0
 40
0.0268489361483023
 40
0.3589189081797984
 40
0.5697035025879949
 40
0.7827894580939116
 40
1.0
 40
1.0
 40
1.0
 40
1.0
 10
216.7732931916661
 20
202.946809642254
 30
0.0
 10
216.7891993244988
 20
202.9464277668168
 30
0.0
 10
217.0023867082792
 20
202.9415915523586
 30
0.0
 10
217.3516649065781
 20
202.9396705195517
 30
0.0
 10
217.821646943972
 20
202.9478508044605
 30
0.0
 10
218.2223632593347
 20
202.9615784574373
 30
0.0
 10
218.4891615940765
 20
202.9764787812763
 30
0.0
 10
218.6238394527564
 20
202.984000356365
 30
0.0
  0
SPLINE
  5
193
330
1F
100
AcDbEntity
  8
BODY
  6
Continuous
370
    13
100
AcDbSpline
210
0.0
220
0.0
230
1.0
 70
     8
 71
     3
 72
    26
 73
    22
 74
     0
 42
0.000000001
 43
0.0000000001
 40
0.0
 40
0.0
 40
0.0
 40
0.0
 40
0.0370401490441721
 40
0.073320253768529
 40
0.108842092304598
 40
0.1436074959451701
 40
0.1776183549710795
 40
0.2108766250970867
 40
0.2433843346165694
 40
0.2751435923366405
 40
0.4103155820909107
 40
0.5353430972596373
 40
0.5932139643998216
 40
0.6494404345602869
 40
0.7040539895472046
 40
0.757088788761383
 40
0.8085819375718994
 40
0.8585737769093897
 40
0.9071081928606176
 40
0.9542329436994643
 40
1.0
 40
1.0
 40
1.0
 40
1.0
 10
224.1280030418549
 20
199.3805859530103
 30
0.0
 10
224.0064692707991
 20
199.4590387512193
 30
0.0
 10
223.7658955375609
 20
199.6143345376016
 30
0.0
 10
223.410757141537
 20
199.838392580135
 30
0.0
 10
223.064575272353
 20
200.0530247003401
 30
0.0
 10
222.7274829467822
 20
200.2579569458853
 30
0.0
 10
222.3994450135119
 20
200.4534881582318
 30
0.0
 10
222.0804723469032
 20
200.639780551919
 30
0.0
 10
221.7705552259179
 20
200.817045206902
 30
0.0
 10
221.1408512540084
 20
201.1696177573905
 30
0.0
 10
220.2350410392533
 20
201.647117636151
 30
0.0
 10
219.2843876095054
 20
202.0912706577031
 30
0.0
 10
218.5954261567331
 20
202.3791520911833
 30
0.0
 10
218.1219437628899
 20
202.5605443766988
 30
0.0
 10
217.6752721207319
 20
202.7147370278667
 30
0.0
 10
217.2553998217418
 20
202.8422774079245
 30
0.0
 10
216.8623680803436
 20
202.9436965146281
 30
0.0
 10
216.4960292672942
 20
203.0198006905229
 30
0.0
 10
216.1569125102844
 20
203.0706253742949
 30
0.0
 10
215.8431325585442
 20
203.0991433500996
 30
0.0
 10
215.6526244259307
 20
203.0983696475634
 30
0.0
 10
215.5587625806342
 20
203.097988450463
 30
0.0
  0
SPLINE
  5
194
330
1F
100
AcDbEntity
  8
BODY
  6
Continuous
370
    13
100
AcDbSpline
210
0.0
220
0.0
230
1.0
 70
     8
 71
     3
 72
    23
 73
    19
 74
     0
 42
0.000000001
 43
0.0000000001
 40
0.0
 40
0.0
 40
0.0
 40
0.0
 40
0.0506599005885493
 40
0.1010152670189749
 40
0.1511208161635503
 40
0.2010318143832788
 40
0.250803908989467
 40
0.3004929521378535
 40
0.3501548199415389
 40
0.3998452297812614
 40
0.4496195588716798
 40
0.4995326671045011
 40
0.5837132409696264
 40
0.6672226413725785
 40
0.7503319867581361
 40
0.8333153624061068
 40
0.9164472626700707
 40
1.0
 40
1.0
 40
1.0
 40
1.0
 10
230.1270360672689
 20
197.4823675820517
 30
0.0
 10
230.015119076548
 20
197.4874730222298
 30
0.0
 10
229.7919578667886
 20
197.4976532120218
 30
0.0
 10
229.4593790898749
 20
197.5246035011951
 30
0.0
 10
229.1298499668773
 20
197.5599780433011
 30
0.0
 10
228.803436257336
 20
197.6045188190096
 30
0.0
 10
228.4801219931673
 20
197.6579002597423
 30
0.0
 10
228.1599130437218
 20
197.7200615474349
 30
0.0
 10
227.8428091674099
 20
197.7908514206875
 30
0.0
 10
227.5288126865136
 20
197.8701212242135
 30
0.0
 10
227.2179214487205
 20
197.9577025919219
 30
0.0
 10
226.8401370287494
 20
198.075168511679
 30
0.0
 10
226.4013081567853
 20
198.2288769746224
 30
0.0
 10
225.9095837549253
 20
198.426300146938
 30
0.0
 10
225.4358037924571
 20
198.6413999272501
 30
0.0
 10
224.9805077663947
 20
198.8731404933338
 30
0.0
 10
224.5417862903751
 20
199.1192479988461
 30
0.0
 10
224.2661627515532
 20
199.2933267997952
 30
0.0
 10
224.1280030418549
 20
199.3805859530103
 30
0.0
  0
SPLINE
  5
195
330
1F
100
AcDbEntity
  8
BODY
  6
Continuous
370
    13
100
AcDbSpline
210
0.0
220
0.0
230
1.0
 70
    12
 71
     2
 72
     6
 73
     3
 74
     0
 42
0.000000001
 43
0.0000000001
 40
0.0
 40
0.0
 40
0.0
 40
1.0
 40
1.0
 40
1.0
 10
229.1514416856553
 20
185.0042318405085
 30
0.0
 41
0.5000000154452331
 10
229.1573332940976
 20
185.0081904034081
 30
0.0
 41
0.4999999845547669
 10
229.1632254581124
 20
185.0121504433714
 30
0.0
 41
0.5000000154452331
  0
SPLINE
  5
196
330
1F
100
AcDbEntity
  8
BODY
  6
Continuous
370
    13
100
AcDbSpline
210
0.0
220
0.0
230
1.0
 70
     8
 71
     3
 72
    11
 73
     7
 74
     0
 42
0.000000001
 43
0.0000000001
 40
0.0
 40
0.0
 40
0.0
 40
0.0
 40
0.2398755135776793
 40
0.4864993394093314
 40
0.7398734976753829
 40
1.0
 40
1.0
 40
1.0
 40
1.0
 10
218.6238394519286
 20
186.4878018391875
 30
0.0
 10
219.4654350731729
 20
186.36721067692
 30
0.0
 10
221.1723025548866
 20
186.1226358142895
 30
0.0
 10
223.7685615437705
 20
185.7551388132952
 30
0.0
 10
226.4361390657942
 20
185.3806344235512
 30
0.0
 10
228.2384409439082
 20
185.1307944697301
 30
0.0
 10
229.151441685032
 20
185.0042318412544
 30
0.0
  0
SPLINE
  5
197
330
1F
100
AcDbEntity
  8
BODY
  6
Continuous
370
    13
100
AcDbSpline
210
0.0
220
0.0
230
1.0
 70
     8
 71
     3
 72
    22
 73
    18
 74
     0
 42
0.000000001
 43
0.0000000001
 40
0.0
 40
0.0
 40
0.0
 40
0.0
 40
0.0266309150230906
 40
0.0524301038111428
 40
0.0775306504349595
 40
0.1020769960131088
 40
0.1262235199516051
 40
0.1892884583601001
 40
0.2518762950675074
 40
0.3130734487429439
 40
0.3774223784945148
 40
0.5021783665934098
 40
0.6215667654268246
 40
0.7507001736801311
 40
0.8326688410567923
 40
0.9155324481365143
 40
1.0
 40
1.0
 40
1.0
 40
1.0
 10
215.5587625806342
 20
184.3641566423324
 30
0.0
 10
215.5402527108242
 20
184.3978412733777
 30
0.0
 10
215.5038110641581
 20
184.4641585103562
 30
0.0
 10
215.4597881742876
 20
184.5664743863202
 30
0.0
 10
215.424920480144
 20
184.6686888871268
 30
0.0
 10
215.39986085813
 20
184.7711266106574
 30
0.0
 10
215.376077183574
 20
184.9288731665276
 30
0.0
 10
215.380851682672
 20
185.1455466973794
 30
0.0
 10
215.4606989540547
 20
185.4081217483207
 30
0.0
 10
215.6047696545717
 20
185.6505976336684
 30
0.0
 10
215.8653424325703
 20
185.931372404156
 30
0.0
 10
216.2747977605933
 20
186.1967481082004
 30
0.0
 10
216.8306231526136
 20
186.4067310859461
 30
0.0
 10
217.3516649065781
 20
186.5061115914073
 30
0.0
 10
217.821646943972
 20
186.5402782154155
 30
0.0
 10
218.2223632593348
 20
186.5358487986359
 30
0.0
 10
218.4891615940766
 20
186.5039195237065
 30
0.0
 10
218.6238394527564
 20
186.4878018579765
 30
0.0
  0
SPLINE
  5
198
330
1F
100
AcDbEntity
  8
BODY
  6
Continuous
370
    13
100
AcDbSpline
210
0.0
220
0.0
230
1.0
 70
     8
 71
     3
 72
    26
 73
    22
 74
     0
 42
0.000000001
 43
0.0000000001
 40
0.0
 40
0.0
 40
0.0
 40
0.0
 40
0.0370401490589164
 40
0.0733202537937896
 40
0.1088420923361527
 40
0.1436074959788022
 40
0.1776183550025797
 40
0.2108766251222521
 40
0.2433843346312035
 40
0.2751435923365553
 40
0.4103155820820727
 40
0.535343097259387
 40
0.5932139643911395
 40
0.6494404345452547
 40
0.7040539895279218
 40
0.7570887887399646
 40
0.8085819375504748
 40
0.858573776890098
 40
0.9071081928456059
 40
0.9542329436908856
 40
1.0
 40
1.0
 40
1.0
 40
1.0
 10
224.1280030418549
 20
178.2056464816654
 30
0.0
 10
224.0064692707506
 20
178.2364300582268
 30
0.0
 10
223.7658955374291
 20
178.2973655485936
 30
0.0
 10
223.4107571413013
 20
178.3989044629982
 30
0.0
 10
223.0645752720548
 20
178.5061877687446
 30
0.0
 10
222.727482946463
 20
178.6195575793562
 30
0.0
 10
222.3994450132133
 20
178.7383841510629
 30
0.0
 10
222.0804723466669
 20
178.8623008656088
 30
0.0
 10
221.770555225785
 20
178.9908857588188
 30
0.0
 10
221.1408512539972
 20
179.2689732130935
 30
0.0
 10
220.2350410393096
 20
179.7345802598447
 30
0.0
 10
219.2843876095658
 20
180.3470415041429
 30
0.0
 10
218.5954261567777
 20
180.8668655399532
 30
0.0
 10
218.1219437629744
 20
181.2606225552054
 30
0.0
 10
217.6752721208422
 20
181.6692069250299
 30
0.0
 10
217.2553998218652
 20
182.0912230901002
 30
0.0
 10
216.8623680804673
 20
182.5253464095728
 30
0.0
 10
216.4960292674052
 20
182.9700948083905
 30
0.0
 10
216.1569125103698
 20
183.4247125161634
 30
0.0
 10
215.8431325585913
 20
183.8860132059082
 30
0.0
 10
215.6526244259479
 20
184.2063360960504
 30
0.0
 10
215.5587625806341
 20
184.3641566423324
 30
0.0
  0
SPLINE
  5
199
330
1F
100
AcDbEntity
  8
BODY
  6
Continuous
370
    13
100
AcDbSpline
210
0.0
220
0.0
230
1.0
 70
     8
 71
     2
 72
     7
 73
     4
 74
     0
 42
0.000000001
 43
0.0000000001
 40
0.0
 40
0.0
 40
0.0
 40
0.824927103522635
 40
1.0
 40
1.0
 40
1.0
 10
218.2237716152922
 20
202.5177891547744
 30
0.0
 10
218.6724691050294
 20
202.3547542982836
 30
0.0
 10
219.2658435264475
 20
202.0995344493117
 30
0.0
 10
219.371226707751
 20
202.0528572933804
 30
0.0
  0
SPLINE
  5
19A
330
1F
100
AcDbEntity
  8
BODY
  6
Continuous
370
    13
100
AcDbSpline
210
0.0
220
0.0
230
1.0
 70
     8
 71
     2
 72
     7
 73
     4
 74
     0
 42
0.000000001
 43
0.0000000001
 40
0.0
 40
0.0
 40
0.0
 40
0.4225286587081328
 40
1.0
 40
1.0
 40
1.0
 10
219.7649562504456
 20
201.8739449101241
 30
0.0
 10
220.6041962615846
 20
201.4832141536878
 30
0.0
 10
222.8126371025215
 20
200.2706911201347
 30
0.0
 10
224.1971494009975
 20
199.3792707580134
 30
0.0
  0
SPLINE
  5
19B
330
1F
100
AcDbEntity
  8
BODY
  6
Continuous
370
    13
100
AcDbSpline
210
0.0
220
0.0
230
1.0
 70
     8
 71
     3
 72
    15
 73
    11
 74
     0
 42
0.000000001
 43
0.0000000001
 40
0.0
 40
0.0
 40
0.0
 40
0.0
 40
0.1326705121311104
 40
0.254704912807624
 40
0.366103986975764
 40
0.4668689343950487
 40
0.5570015491555288
 40
0.636504519129332
 40
0.7053819562316536
 40
1.0
 40
1.0
 40
1.0
 40
1.0
 10
218.6136195233213
 20
202.903019324275
 30
0.0
 10
218.5405869991432
 20
202.9005133819763
 30
0.0
 10
218.4003769222836
 20
202.8957023971959
 30
0.0
 10
218.1976448959283
 20
202.8907012340838
 30
0.0
 10
218.0123106529105
 20
202.8876645473314
 30
0.0
 10
217.8446261060375
 20
202.8864146515212
 30
0.0
 10
217.6948298455708
 20
202.8865197994015
 30
0.0
 10
217.562987308335
 20
202.8875545121908
 30
0.0
 10
217.3189183936722
 20
202.8904651445412
 30
0.0
 10
217.1201214211961
 20
202.894991014271
 30
0.0
 10
216.9619880637497
 20
202.9005296973182
 30
0.0
  0
SPLINE
  5
19C
330
1F
100
AcDbEntity
  8
BODY
  6
Continuous
370
    13
100
AcDbSpline
210
0.0
220
0.0
230
1.0
 70
    24
 71
     1
 72
     4
 73
     2
 74
     0
 42
0.000000001
 43
0.0000000001
 40
0.0
 40
0.0
 40
1.0
 40
1.0
 10
218.6238394224322
 20
202.9840011567923
 30
0.0
 10
218.613619492997
 20
202.9030201194082
 30
0.0
  0
SPLINE
  5
19D
330
1F
100
AcDbEntity
  8
BODY
  6
Continuous
370
    13
100
AcDbSpline
210
0.0
220
0.0
230
1.0
 70
     8
 71
     3
 72
    20
 73
    16
 74
     0
 42
0.000000001
 43
0.0000000001
 40
0.0
 40
0.0
 40
0.0
 40
0.0
 40
0.0400426611762158
 40
0.0807331278912749
 40
0.1220786678555219
 40
0.1640862086124863
 40
0.2067623551560878
 40
0.2501134067068028
 40
0.3691656107352327
 40
0.5000744712026611
 40
0.6203850428467339
 40
0.7500127145208494
 40
0.8235108467397726
 40
0.9068396130733612
 40
1.0
 40
1.0
 40
1.0
 40
1.0
 10
224.1971494009975
 20
199.3792707580133
 30
0.0
 10
224.2622824401889
 20
199.3379312979058
 30
0.0
 10
224.3936022333426
 20
199.2545835926888
 30
0.0
 10
224.5984664421427
 20
199.1318761486663
 30
0.0
 10
224.8111741053308
 20
199.0100439511986
 30
0.0
 10
225.0322748403019
 20
198.889687929956
 30
0.0
 10
225.2617110934407
 20
198.7711355192397
 30
0.0
 10
225.6367377889206
 20
198.5877182244659
 30
0.0
 10
226.1927417689658
 20
198.3436925521991
 30
0.0
 10
226.9268863106032
 20
198.0777845665804
 30
0.0
 10
227.7092403906023
 20
197.8531733955527
 30
0.0
 10
228.3922506106987
 20
197.7064688760439
 30
0.0
 10
229.0066806647662
 20
197.6104583661243
 30
0.0
 10
229.5479355811577
 20
197.5479972429766
 30
0.0
 10
229.9332923115783
 20
197.5283175476767
 30
0.0
 10
230.1367041442468
 20
197.5179295550161
 30
0.0
  0
SPLINE
  5
19E
330
1F
100
AcDbEntity
  8
BODY
  6
Continuous
370
    13
100
AcDbSpline
210
0.0
220
0.0
230
1.0
 70
     8
 71
     3
 72
     8
 73
     4
 74
     0
 42
0.000000001
 43
0.0000000001
 40
0.0
 40
0.0
 40
0.0
 40
0.0
 40
1.0
 40
1.0
 40
1.0
 40
1.0
 10
230.1367041442468
 20
197.5179295550161
 30
0.0
 10
230.1636026454073
 20
197.5170009877292
 30
0.0
 10
230.1905078847245
 20
197.5161687576578
 30
0.0
 10
230.2174189815099
 20
197.5154329036245
 30
0.0
  0
SPLINE
  5
19F
330
1F
100
AcDbEntity
  8
BODY
  6
Continuous
370
    13
100
AcDbSpline
210
0.0
220
0.0
230
1.0
 70
     8
 71
     3
 72
    24
 73
    20
 74
     0
 42
0.000000001
 43
0.0000000001
 40
0.0
 40
0.0
 40
0.0
 40
0.0
 40
0.0475590068108735
 40
0.0913052379810212
 40
0.1312389748937103
 40
0.1673606476322405
 40
0.199670899332295
 40
0.228170693527724
 40
0.2528615042356158
 40
0.3906597878969106
 40
0.5035615286923157
 40
0.6281106539223149
 40
0.6922947835204403
 40
0.7519986948222323
 40
0.8133793263674855
 40
0.8752289697675269
 40
0.9146389302179287
 40
0.9560868643519231
 40
1.0
 40
1.0
 40
1.0
 40
1.0
 10
218.6136195233213
 20
186.4276521409856
 30
0.0
 10
218.540586999153
 20
186.4365070295103
 30
0.0
 10
218.4003769223098
 20
186.4535069157203
 30
0.0
 10
218.1976448959742
 20
186.4666841064196
 30
0.0
 10
218.0123106529663
 20
186.471695592125
 30
0.0
 10
217.8446261060933
 20
186.4697501951017
 30
0.0
 10
217.6948298456167
 20
186.4628515520812
 30
0.0
 10
217.5629873083612
 20
186.4526303956665
 30
0.0
 10
217.2694522404261
 20
186.4216409428018
 30
0.0
 10
216.8500720274459
 20
186.339811448843
 30
0.0
 10
216.3090904292295
 20
186.1381908685725
 30
0.0
 10
215.9177257620169
 20
185.8915643509143
 30
0.0
 10
215.6639638598753
 20
185.6244183241676
 30
0.0
 10
215.5238517742448
 20
185.3948549317455
 30
0.0
 10
215.4481171539813
 20
185.1467404630106
 30
0.0
 10
215.4440866140761
 20
184.9203901137587
 30
0.0
 10
215.4827185013534
 20
184.7284170921306
 30
0.0
 10
215.5402461258136
 20
184.5664787658363
 30
0.0
 10
215.5981307715177
 20
184.4634889205751
 30
0.0
 10
215.6279089397767
 20
184.410506840373
 30
0.0
  0
SPLINE
  5
1A0
330
1F
100
AcDbEntity
  8
BODY
  6
Continuous
370
    13
100
AcDbSpline
210
0.0
220
0.0
230
1.0
 70
     8
 71
     2
 72
     6
 73
     3
 74
     0
 42
0.000000001
 43
0.0000000001
 40
0.0
 40
0.0
 40
0.0
 40
1.0
 40
1.0
 40
1.0
 10
229.0492280795531
 20
203.4509089393516
 30
0.0
 10
223.7692852658435
 20
203.2135806224865
 30
0.0
 10
218.6136194941698
 20
202.9030201194789
 30
0.0
  0
SPLINE
  5
1A1
330
1F
100
AcDbEntity
  8
BODY
  6
Continuous
370
    13
100
AcDbSpline
210
0.0
220
0.0
230
1.0
 70
    24
 71
     1
 72
     4
 73
     2
 74
     0
 42
0.000000001
 43
0.0000000001
 40
0.0
 40
0.0
 40
1.0
 40
1.0
 10
215.5587625806342
 20
184.3641566423324
 30
0.0
 10
215.6279089397767
 20
184.410506840373
 30
0.0
  0
SPLINE
  5
1A2
330
1F
100
AcDbEntity
  8
BODY
  6
Continuous
370
    13
100
AcDbSpline
210
0.0
220
0.0
230
1.0
 70
     8
 71
     2
 72
    10
 73
     7
 74
     0
 42
0.000000001
 43
0.0000000001
 40
0.0
 40
0.0
 40
0.0
 40
0.25
 40
0.25
 40
0.5
 40
0.75
 40
1.0
 40
1.0
 40
1.0
 10
215.6279089397767
 20
184.4105068403729
 30
0.0
 10
216.2708958797021
 20
183.3022570996727
 30
0.0
 10
217.1668304707083
 20
182.3299021239729
 30
0.0
 10
218.0611390200548
 20
181.3593118861395
 30
0.0
 10
220.26218591241
 20
179.7894449805927
 30
0.0
 10
222.8126371025048
 20
178.636559731693
 30
0.0
 10
224.1971494009975
 20
178.2990307743737
 30
0.0
  0
SPLINE
  5
1A3
330
1F
100
AcDbEntity
  8
BODY
  6
Continuous
370
    13
100
AcDbSpline
210
0.0
220
0.0
230
1.0
 70
     8
 71
     3
 72
    11
 73
     7
 74
     0
 42
0.000000001
 43
0.0000000001
 40
0.0
 40
0.0
 40
0.0
 40
0.0
 40
0.203157147360209
 40
0.4374946857355208
 40
0.7030801401636421
 40
1.0
 40
1.0
 40
1.0
 40
1.0
 10
232.9253360110216
 20
190.2664472654551
 30
0.0
 10
233.0149670908706
 20
190.2419531090478
 30
0.0
 10
233.2079857546006
 20
190.1892054533582
 30
0.0
 10
233.5133594690006
 20
190.1010749491256
 30
0.0
 10
233.8550085800457
 20
189.9985794326059
 30
0.0
 10
234.0903055368521
 20
189.9230205932798
 30
0.0
 10
234.2145076335492
 20
189.8831366678961
 30
0.0
  0
SPLINE
  5
1A4
330
1F
100
AcDbEntity
  8
BODY
  6
Continuous
370
    13
100
AcDbSpline
210
0.0
220
0.0
230
1.0
 70
     8
 71
     3
 72
     8
 73
     4
 74
     0
 42
0.000000001
 43
0.0000000001
 40
0.0
 40
0.0
 40
0.0
 40
0.0
 40
1.0
 40
1.0
 40
1.0
 40
1.0
 10
232.9253360110373
 20
190.2664472654553
 30
0.0
 10
232.8937088546867
 20
190.3009689164355
 30
0.0
 10
232.862067919967
 20
190.3354898902925
 30
0.0
 10
232.8304138741953
 20
190.3700102198208
 30
0.0
  0
SPLINE
  5
1A5
330
1F
100
AcDbEntity
  8
BODY
  6
Continuous
370
    13
100
AcDbSpline
210
0.0
220
0.0
230
1.0
 70
     8
 71
     3
 72
    22
 73
    18
 74
     0
 42
0.000000001
 43
0.0000000001
 40
0.0
 40
0.0
 40
0.0
 40
0.0
 40
0.125
 40
0.125
 40
0.2499999999999999
 40
0.2499999999999999
 40
0.3749999999999999
 40
0.3749999999999999
 40
0.5
 40
0.5
 40
0.625
 40
0.625
 40
0.75
 40
0.75
 40
0.875
 40
0.875
 40
1.0
 40
1.0
 40
1.0
 40
1.0
 10
232.8304138741953
 20
190.3700102198208
 30
0.0
 10
232.7459957342911
 20
190.4620724487269
 30
0.0
 10
232.6466539682987
 20
190.541612214204
 30
0.0
 10
232.4308664748679
 20
190.6611889132213
 30
0.0
 10
232.3105729982231
 20
190.7029365139988
 30
0.0
 10
232.0663307674038
 20
190.7361067713297
 30
0.0
 10
231.937814189402
 20
190.7277153457524
 30
0.0
 10
231.69795386715
 20
190.6573959724333
 30
0.0
 10
231.5838274910837
 20
190.5948451413169
 30
0.0
 10
231.3914743452591
 20
190.428404619393
 30
0.0
 10
231.3127392237817
 20
190.3251563128979
 30
0.0
 10
231.1985174512151
 20
190.0944416067865
 30
0.0
 10
231.1640513429188
 20
189.9696665370863
 30
0.0
 10
231.1405773954855
 20
189.7146576686006
 30
0.0
 10
231.1519521106821
 20
189.5849503855746
 30
0.0
 10
231.2183657710933
 20
189.3380684091878
 30
0.0
 10
231.2739002537593
 20
189.2197470557576
 30
0.0
 10
231.3474005586078
 20
189.1151925519242
 30
0.0
  0
SPLINE
  5
1A6
330
1F
100
AcDbEntity
  8
BODY
  6
Continuous
370
    13
100
AcDbSpline
210
0.0
220
0.0
230
1.0
 70
     8
 71
     3
 72
     8
 73
     4
 74
     0
 42
0.000000001
 43
0.0000000001
 40
0.0
 40
0.0
 40
0.0
 40
0.0
 40
1.0
 40
1.0
 40
1.0
 40
1.0
 10
231.347400558608
 20
189.1151925519244
 30
0.0
 10
231.2778662936967
 20
188.9457875691092
 30
0.0
 10
231.2081542340443
 20
188.7769587453488
 30
0.0
 10
231.1382647920591
 20
188.6087047441997
 30
0.0
  0
SPLINE
  5
1A7
330
1F
100
AcDbEntity
  8
BODY
  6
Continuous
370
    13
100
AcDbSpline
210
0.0
220
0.0
230
1.0
 70
     8
 71
     3
 72
     8
 73
     4
 74
     0
 42
0.000000001
 43
0.0000000001
 40
0.0
 40
0.0
 40
0.0
 40
0.0
 40
1.0
 40
1.0
 40
1.0
 40
1.0
 10
231.0455507264422
 20
188.6513763424248
 30
0.0
 10
231.0764777887758
 20
188.6371854574499
 30
0.0
 10
231.1073828841955
 20
188.6229613843178
 30
0.0
 10
231.1382647920591
 20
188.6087047441997
 30
0.0
  0
SPLINE
  5
1A8
330
1F
100
AcDbEntity
  8
BODY
  6
Continuous
370
    13
100
AcDbSpline
210
0.0
220
0.0
230
1.0
 70
     8
 71
     3
 72
     8
 73
     4
 74
     0
 42
0.000000001
 43
0.0000000001
 40
0.0
 40
0.0
 40
0.0
 40
0.0
 40
1.0
 40
1.0
 40
1.0
 40
1.0
 10
231.0455507264422
 20
188.6513763424248
 30
0.0
 10
230.7414862974945
 20
187.9173626155517
 30
0.0
 10
230.4353119400021
 20
187.1972590760046
 30
0.0
 10
230.1270360672689
 20
186.4910102571485
 30
0.0
  0
SPLINE
  5
1A9
330
1F
100
AcDbEntity
  8
BODY
  6
Continuous
370
    13
100
AcDbSpline
210
0.0
220
0.0
230
1.0
 70
     8
 71
     3
 72
     8
 73
     4
 74
     0
 42
0.000000001
 43
0.0000000001
 40
0.0
 40
0.0
 40
0.0
 40
0.0
 40
1.0
 40
1.0
 40
1.0
 40
1.0
 10
230.2077512476513
 20
197.4797860734173
 30
0.0
 10
230.1808505679633
 20
197.4805897508789
 30
0.0
 10
230.1539452152489
 20
197.4814502122159
 30
0.0
 10
230.1270360672689
 20
197.4823675820517
 30
0.0
  0
SPLINE
  5
1AA
330
1F
100
AcDbEntity
  8
BODY
  6
Continuous
370
    13
100
AcDbSpline
210
0.0
220
0.0
230
1.0
 70
     8
 71
     3
 72
    18
 73
    14
 74
     0
 42
0.000000001
 43
0.0000000001
 40
0.0
 40
0.0
 40
0.0
 40
0.0
 40
0.0712584251313732
 40
0.1425143625998194
 40
0.2137680027851082
 40
0.2850195391509284
 40
0.3562691683147056
 40
0.4275170901416145
 40
0.4987635078625205
 40
0.6254449873854222
 40
0.75120982908852
 40
0.8760607182212133
 40
1.0
 40
1.0
 40
1.0
 40
1.0
 10
234.2145078511601
 20
197.7710842952078
 30
0.0
 10
234.1254611304514
 20
197.7551831987525
 30
0.0
 10
233.947370797694
 20
197.7233815609561
 30
0.0
 10
233.6755113712971
 20
197.6805107829623
 30
0.0
 10
233.4005027810823
 20
197.6412857668842
 30
0.0
 10
233.1222306881148
 20
197.6061259237813
 30
0.0
 10
232.8410370176346
 20
197.5750256602234
 30
0.0
 10
232.5571395277765
 20
197.5480552984723
 30
0.0
 10
232.196548727193
 20
197.5195088941157
 30
0.0
 10
231.7581996328481
 20
197.4935315453323
 30
0.0
 10
231.2416854562757
 20
197.4757521730716
 30
0.0
 10
230.7249389039605
 20
197.4697299445814
 30
0.0
 10
230.3797254938644
 20
197.4764422287696
 30
0.0
 10
230.2077512476513
 20
197.4797860734173
 30
0.0
  0
SPLINE
  5
1AB
330
1F
100
AcDbEntity
  8
BODY
  6
Continuous
370
    13
100
AcDbSpline
210
0.0
220
0.0
230
1.0
 70
     8
 71
     2
 72
     8
 73
     5
 74
     0
 42
0.000000001
 43
0.0000000001
 40
0.0
 40
0.0
 40
0.0
 40
0.5
 40
0.5
 40
1.0
 40
1.0
 40
1.0
 10
230.2174189815099
 20
197.5154329036244
 30
0.0
 10
231.2751780287265
 20
197.4881152976715
 30
0.0
 10
232.3007302004069
 20
197.564153944978
 30
0.0
 10
233.3203554476669
 20
197.6397531457812
 30
0.0
 10
234.2642431510537
 20
197.8137689999046
 30
0.0
  0
SPLINE
  5
1AC
330
1F
100
AcDbEntity
  8
BODY
  6
Continuous
370
    13
100
AcDbSpline
210
0.0
220
0.0
230
1.0
 70
     8
 71
     2
 72
     6
 73
     3
 74
     0
 42
0.000000001
 43
0.0000000001
 40
0.0
 40
0.0
 40
0.0
 40
1.0
 40
1.0
 40
1.0
 10
239.8509150209441
 20
197.1038026334334
 30
0.0
 10
240.1961813527959
 20
196.9214030131439
 30
0.0
 10
240.4593201165089
 20
196.7150479148349
 30
0.0
  0
SPLINE
  5
1AD
330
1F
100
AcDbEntity
  8
BODY
  6
Continuous
370
    13
100
AcDbSpline
210
0.0
220
0.0
230
1.0
 70
     8
 71
     2
 72
     6
 73
     3
 74
     0
 42
0.000000001
 43
0.0000000001
 40
0.0
 40
0.0
 40
0.0
 40
1.0
 40
1.0
 40
1.0
 10
234.2642432282391
 20
197.8137689238229
 30
0.0
 10
234.4081057994239
 20
197.8403115176694
 30
0.0
 10
234.5563761889884
 20
197.8620887508699
 30
0.0
  0
SPLINE
  5
1AE
330
1F
100
AcDbEntity
  8
BODY
  6
Continuous
370
    13
100
AcDbSpline
210
0.0
220
0.0
230
1.0
 70
     8
 71
     3
 72
     8
 73
     4
 74
     0
 42
0.000000001
 43
0.0000000001
 40
0.0
 40
0.0
 40
0.0
 40
0.0
 40
1.0
 40
1.0
 40
1.0
 40
1.0
 10
234.5310383529716
 20
197.6680813199474
 30
0.0
 10
234.4603127743884
 20
196.9224618321063
 30
0.0
 10
234.3812790785836
 20
196.1454209641262
 30
0.0
 10
234.2937048504247
 20
195.336079719715
 30
0.0
  0
SPLINE
  5
1AF
330
1F
100
AcDbEntity
  8
BODY
  6
Continuous
370
    13
100
AcDbSpline
210
0.0
220
0.0
230
1.0
 70
     8
 71
     3
 72
    14
 73
    10
 74
     0
 42
0.000000001
 43
0.0000000001
 40
0.0
 40
0.0
 40
0.0
 40
0.0
 40
0.1380937281045727
 40
0.2789083517424202
 40
0.4224449526572048
 40
0.5687046981664116
 40
0.7176888445615645
 40
0.8693987387634468
 40
1.0
 40
1.0
 40
1.0
 40
1.0
 10
241.1896585441758
 20
195.8785762763262
 30
0.0
 10
241.1725932784638
 20
195.9142340987711
 30
0.0
 10
241.1381265058079
 20
195.9862523187245
 30
0.0
 10
241.07229494498
 20
196.0943587905562
 30
0.0
 10
240.9949723877177
 20
196.2034856630513
 30
0.0
 10
240.9047154212813
 20
196.3132488110423
 30
0.0
 10
240.8013916910642
 20
196.4233039337188
 30
0.0
 10
240.6906852671557
 20
196.527504384326
 30
0.0
 10
240.6116407830015
 20
196.5943103353742
 30
0.0
 10
240.5737077728531
 20
196.6248885136557
 30
0.0
  0
SPLINE
  5
1B0
330
1F
100
AcDbEntity
  8
BODY
  6
Continuous
370
    13
100
AcDbSpline
210
0.0
220
0.0
230
1.0
 70
     8
 71
     3
 72
    29
 73
    25
 74
     0
 42
0.000000001
 43
0.0000000001
 40
0.0
 40
0.0
 40
0.0
 40
0.0
 40
0.0248191610101152
 40
0.0496786436370203
 40
0.0745796108897378
 40
0.0995235163835579
 40
0.1245120960203981
 40
0.149547356899759
 40
0.1746315635007123
 40
0.1997672212146519
 40
0.2249570573486766
 40
0.2502039997597792
 40
0.3761644879674257
 40
0.4994583278301263
 40
0.5545563441550735
 40
0.6084375618327673
 40
0.6611455874742675
 40
0.712720432547111
 40
0.7631975803484429
 40
0.8126074262688403
 40
0.8609750675915075
 40
0.9083204000975772
 40
0.9546584669171643
 40
1.0
 40
1.0
 40
1.0
 40
1.0
 10
234.2145078511601
 20
189.883137563802
 30
0.0
 10
234.2797063612101
 20
189.8628201809034
 30
0.0
 10
234.4102093038809
 20
189.8221524071521
 30
0.0
 10
234.6118223692262
 20
189.7641631591411
 30
0.0
 10
234.8174795888609
 20
189.7085168434021
 30
0.0
 10
235.0272494789141
 20
189.6555736918094
 30
0.0
 10
235.2406316375929
 20
189.6054215530063
 30
0.0
 10
235.4572572891343
 20
189.5582116353769
 30
0.0
 10
235.6767045794882
 20
189.5140672464228
 30
0.0
 10
235.8985384163415
 20
189.4731079547464
 30
0.0
 10
236.1223400387109
 20
189.435440240943
 30
0.0
 10
236.6468286050042
 20
189.355621845648
 30
0.0
 10
237.4713747863023
 20
189.2697292969782
 30
0.0
 10
238.3433300086471
 20
189.2541100248111
 30
0.0
 10
238.9575384537982
 20
189.285027102963
 30
0.0
 10
239.3596436048752
 20
189.3245009319238
 30
0.0
 10
239.7242776915928
 20
189.3800418739108
 30
0.0
 10
240.0501737803375
 20
189.4500188032068
 30
0.0
 10
240.3366762057484
 20
189.5327317635675
 30
0.0
 10
240.5836859999157
 20
189.6264599445843
 30
0.0
 10
240.7919374590061
 20
189.7294445637951
 30
0.0
 10
240.9615719375645
 20
189.840195866544
 30
0.0
 10
241.0969908465024
 20
189.9565655508947
 30
0.0
 10
241.1589944775918
 20
190.0392529111844
 30
0.0
 10
241.1896593113529
 20
190.0801471961299
 30
0.0
  0
SPLINE
  5
1B1
330
1F
100
AcDbEntity
  8
BODY
  6
Continuous
370
    13
100
AcDbSpline
210
0.0
220
0.0
230
1.0
 70
     8
 71
     3
 72
     8
 73
     4
 74
     0
 42
0.000000001
 43
0.0000000001
 40
0.0
 40
0.0
 40
0.0
 40
0.0
 40
1.0
 40
1.0
 40
1.0
 40
1.0
 10
234.5492394309544
 20
197.8260001945902
 30
0.0
 10
234.4358393243424
 20
197.809908303586
 30
0.0
 10
234.3241580672476
 20
197.7915855805868
 30
0.0
 10
234.2145078513528
 20
197.7710842983045
 30
0.0
  0
SPLINE
  5
1B2
330
1F
100
AcDbEntity
  8
BODY
  6
Continuous
370
    13
100
AcDbSpline
210
0.0
220
0.0
230
1.0
 70
     8
 71
     3
 72
     8
 73
     4
 74
     0
 42
0.000000001
 43
0.0000000001
 40
0.0
 40
0.0
 40
0.0
 40
0.0
 40
1.0
 40
1.0
 40
1.0
 40
1.0
 10
234.5492394300508
 20
197.8260001873121
 30
0.0
 10
234.5421078351216
 20
197.7734135559924
 30
0.0
 10
234.5360362839133
 20
197.7207716589122
 30
0.0
 10
234.5310383529716
 20
197.6680813199474
 30
0.0
  0
SPLINE
  5
1B3
330
1F
100
AcDbEntity
  8
BODY
  6
Continuous
370
    13
100
AcDbSpline
210
0.0
220
0.0
230
1.0
 70
     8
 71
     3
 72
     8
 73
     4
 74
     0
 42
0.000000001
 43
0.0000000001
 40
0.0
 40
0.0
 40
0.0
 40
0.0
 40
1.0
 40
1.0
 40
1.0
 40
1.0
 10
234.5563760990078
 20
197.8620887319435
 30
0.0
 10
234.5527473702215
 20
197.8502524892063
 30
0.0
 10
234.5503671120898
 20
197.8382155806833
 30
0.0
 10
234.5492394251864
 20
197.8260001583846
 30
0.0
  0
SPLINE
  5
1B4
330
1F
100
AcDbEntity
  8
BODY
  6
Continuous
370
    13
100
AcDbSpline
210
0.0
220
0.0
230
1.0
 70
    24
 71
     1
 72
     4
 73
     2
 74
     0
 42
0.000000001
 43
0.0000000001
 40
0.0
 40
0.0
 40
1.0
 40
1.0
 10
239.7416535368644
 20
194.8804128540295
 30
0.0
 10
239.7368569666023
 20
194.7958082300508
 30
0.0
  0
SPLINE
  5
1B5
330
1F
100
AcDbEntity
  8
BODY
  6
Continuous
370
    13
100
AcDbSpline
210
0.0
220
0.0
230
1.0
 70
    24
 71
     1
 72
     4
 73
     2
 74
     0
 42
0.000000001
 43
0.0000000001
 40
0.0
 40
0.0
 40
1.0
 40
1.0
 10
234.2145078511601
 20
189.883137563802
 30
0.0
 10
234.2451626395639
 20
189.7948416697392
 30
0.0
  0
SPLINE
  5
1B6
330
1F
100
AcDbEntity
  8
BODY
  6
Continuous
370
    13
100
AcDbSpline
210
0.0
220
0.0
230
1.0
 70
    24
 71
     1
 72
     4
 73
     2
 74
     0
 42
0.000000001
 43
0.0000000001
 40
0.0
 40
0.0
 40
1.0
 40
1.0
 10
233.0852158345039
 20
190.1378088408158
 30
0.0
 10
232.9253360110332
 20
190.266447265462
 30
0.0
  0
SPLINE
  5
1B7
330
1F
100
AcDbEntity
  8
BODY
  6
Continuous
370
    13
100
AcDbSpline
210
0.0
220
0.0
230
1.0
 70
     8
 71
     2
 72
     6
 73
     3
 74
     0
 42
0.000000001
 43
0.0000000001
 40
0.0
 40
0.0
 40
0.0
 40
1.0
 40
1.0
 40
1.0
 10
234.2451603804697
 20
189.7948405661316
 30
0.0
 10
233.6792225673802
 20
189.976758064495
 30
0.0
 10
233.0852147328439
 20
190.137808423213
 30
0.0
  0
SPLINE
  5
1B8
330
1F
100
AcDbEntity
  8
BODY
  6
Continuous
370
    13
100
AcDbSpline
210
0.0
220
0.0
230
1.0
 70
     8
 71
     2
 72
    17
 73
    14
 74
     0
 42
0.000000001
 43
0.0000000001
 40
0.0
 40
0.0
 40
0.0
 40
0.0368905873963922
 40
0.1744776463397648
 40
0.1744776463397648
 40
0.3120647052831373
 40
0.3120647052831373
 40
0.4496517642265098
 40
0.4496517642265098
 40
0.5872388231698826
 40
0.724825882113255
 40
0.8624129410566274
 40
0.8624129410566274
 40
1.0
 40
1.0
 40
1.0
 10
240.847337509294
 20
189.7492607145921
 30
0.0
 10
240.7940959850078
 20
189.7091087495402
 30
0.0
 10
240.5005181254801
 20
189.5280727702371
 30
0.0
 10
240.163623744562
 20
189.4238588265771
 30
0.0
 10
239.8220984328435
 20
189.3182123640361
 30
0.0
 10
239.3919177749434
 20
189.2571138725402
 30
0.0
 10
238.9594772928481
 20
189.1956944185677
 30
0.0
 10
238.4579242876904
 20
189.1818655124298
 30
0.0
 10
237.9608302990379
 20
189.1681595510657
 30
0.0
 10
236.8810577342073
 20
189.2372410469523
 30
0.0
 10
235.78296285871
 20
189.3978793568759
 30
0.0
 10
235.25259176275
 20
189.5194771690865
 30
0.0
 10
234.7274738853411
 20
189.6398705795344
 30
0.0
 10
234.2451626395639
 20
189.7948416697392
 30
0.0
  0
SPLINE
  5
1B9
330
1F
100
AcDbEntity
  8
BODY
  6
Continuous
370
    13
100
AcDbSpline
210
0.0
220
0.0
230
1.0
 70
     8
 71
     3
 72
     8
 73
     4
 74
     0
 42
0.000000001
 43
0.0000000001
 40
0.0
 40
0.0
 40
0.0
 40
0.0
 40
1.0
 40
1.0
 40
1.0
 40
1.0
 10
230.1948623127724
 20
203.3200733284121
 30
0.0
 10
230.1722648811375
 20
203.3306797097508
 30
0.0
 10
230.1496561315284
 20
203.341022642932
 30
0.0
 10
230.1270360672689
 20
203.3511022053227
 30
0.0
  0
SPLINE
  5
1BA
330
1F
100
AcDbEntity
  8
BODY
  6
Continuous
370
    13
100
AcDbSpline
210
0.0
220
0.0
230
1.0
 70
     8
 71
     3
 72
     8
 73
     4
 74
     0
 42
0.000000001
 43
0.0000000001
 40
0.0
 40
0.0
 40
0.0
 40
0.0
 40
1.0
 40
1.0
 40
1.0
 40
1.0
 10
230.2792108738178
 20
184.841259855457
 30
0.0
 10
230.3020743633
 20
184.82895431912
 30
0.0
 10
230.3251559728167
 20
184.8171069555834
 30
0.0
 10
230.3484346891764
 20
184.8057260181431
 30
0.0
  0
SPLINE
  5
1BB
330
1F
100
AcDbEntity
  8
BODY
  6
Continuous
370
    13
100
AcDbSpline
210
0.0
220
0.0
230
1.0
 70
     8
 71
     2
 72
     8
 73
     5
 74
     0
 42
0.000000001
 43
0.0000000001
 40
0.0
 40
0.0
 40
0.0
 40
0.9638470326929539
 40
0.9638470326929539
 40
1.0
 40
1.0
 40
1.0
 10
234.56520539185
 20
176.758291349076
 30
0.0
 10
235.0717689613597
 20
176.6012476996382
 30
0.0
 10
235.6282659895384
 20
176.5487352789511
 30
0.0
 10
235.6502135630616
 20
176.546664252233
 30
0.0
 10
235.6721715787743
 20
176.5447608576204
 30
0.0
  0
SPLINE
  5
1BC
330
1F
100
AcDbEntity
  8
BODY
  6
Continuous
370
    13
100
AcDbSpline
210
0.0
220
0.0
230
1.0
 70
     8
 71
     2
 72
     6
 73
     3
 74
     0
 42
0.000000001
 43
0.0000000001
 40
0.0
 40
0.0
 40
0.0
 40
1.0
 40
1.0
 40
1.0
 10
239.5946448578283
 20
177.6287796292072
 30
0.0
 10
239.6694793358715
 20
177.6858308958655
 30
0.0
 10
239.7416564390885
 20
177.7455688106957
 30
0.0
  0
SPLINE
  5
1BD
330
1F
100
AcDbEntity
  8
BODY
  6
Continuous
370
    13
100
AcDbSpline
210
0.0
220
0.0
230
1.0
 70
     8
 71
     3
 72
    18
 73
    14
 74
     0
 42
0.000000001
 43
0.0000000001
 40
0.0
 40
0.0
 40
0.0
 40
0.0
 40
0.0712584251313734
 40
0.1425143625998216
 40
0.2137680027851102
 40
0.2850195391509306
 40
0.3562691683147077
 40
0.4275170901416182
 40
0.4987635078625223
 40
0.6254449873857281
 40
0.7512098290889289
 40
0.876060718221521
 40
1.0
 40
1.0
 40
1.0
 40
1.0
 10
234.2145078511601
 20
176.6245923891725
 30
0.0
 10
234.1254611304514
 20
176.6678072193897
 30
0.0
 10
233.947370797694
 20
176.7542353711754
 30
0.0
 10
233.6755113712971
 20
176.8737920778478
 30
0.0
 10
233.4005027810823
 20
176.9858271426238
 30
0.0
 10
233.1222306881148
 20
177.0895273058933
 30
0.0
 10
232.8410370176346
 20
177.1849923360416
 30
0.0
 10
232.5571395277765
 20
177.2720933999062
 30
0.0
 10
232.1965487271926
 20
177.3711478525479
 30
0.0
 10
231.7581996328472
 20
177.4725121003287
 30
0.0
 10
231.2416854562743
 20
177.5631683691731
 30
0.0
 10
230.7249389039595
 20
177.6282730014669
 30
0.0
 10
230.379725493864
 20
177.6489196915647
 30
0.0
 10
230.2077512476513
 20
177.6592052102107
 30
0.0
  0
SPLINE
  5
1BE
330
1F
100
AcDbEntity
  8
BODY
  6
Continuous
370
    13
100
AcDbSpline
210
0.0
220
0.0
230
1.0
 70
     8
 71
     3
 72
     8
 73
     4
 74
     0
 42
0.000000001
 43
0.0000000001
 40
0.0
 40
0.0
 40
0.0
 40
0.0
 40
1.0
 40
1.0
 40
1.0
 40
1.0
 10
234.5492394309553
 20
176.4739489344609
 30
0.0
 10
234.435839324343
 20
176.5199605065538
 30
0.0
 10
234.3241580672479
 20
176.5702219006424
 30
0.0
 10
234.2145078513528
 20
176.624592389117
 30
0.0
  0
SPLINE
  5
1BF
330
1F
100
AcDbEntity
  8
BODY
  6
Continuous
370
    13
100
AcDbSpline
210
0.0
220
0.0
230
1.0
 70
     8
 71
     2
 72
     7
 73
     4
 74
     0
 42
0.000000001
 43
0.0000000001
 40
0.0
 40
0.0
 40
0.0
 40
0.5
 40
1.0
 40
1.0
 40
1.0
 10
239.8509150210874
 20
177.6748513176611
 30
0.0
 10
240.3180831532196
 20
178.1576592628426
 30
0.0
 10
240.9525194322395
 20
179.3430775099592
 30
0.0
 10
241.0950415883603
 20
180.0013081048102
 30
0.0
  0
SPLINE
  5
1C0
330
1F
100
AcDbEntity
  8
BODY
  6
Continuous
370
    13
100
AcDbSpline
210
0.0
220
0.0
230
1.0
 70
     8
 71
     3
 72
     8
 73
     4
 74
     0
 42
0.000000001
 43
0.0000000001
 40
0.0
 40
0.0
 40
0.0
 40
0.0
 40
1.0
 40
1.0
 40
1.0
 40
1.0
 10
241.1898002385956
 20
179.994549742615
 30
0.0
 10
241.1582026440371
 20
179.9967309193116
 30
0.0
 10
241.1266163431689
 20
179.9989837004774
 30
0.0
 10
241.0950415883603
 20
180.0013081048102
 30
0.0
  0
SPLINE
  5
1C1
330
1F
100
AcDbEntity
  8
BODY
  6
Continuous
370
    13
100
AcDbSpline
210
0.0
220
0.0
230
1.0
 70
     8
 71
     3
 72
     9
 73
     5
 74
     0
 42
0.000000001
 43
0.0000000001
 40
0.0
 40
0.0
 40
0.0
 40
0.0
 40
0.5024579806163038
 40
1.0
 40
1.0
 40
1.0
 40
1.0
 10
239.888460144693
 20
177.5795574167339
 30
0.0
 10
239.8825922952544
 20
177.5957894221861
 30
0.0
 10
239.8709140063926
 20
177.6280946219806
 30
0.0
 10
239.8575628333571
 20
177.6593193107312
 30
0.0
 10
239.8509200637638
 20
177.6748549054269
 30
0.0
  0
SPLINE
  5
1C2
330
1F
100
AcDbEntity
  8
BODY
  6
Continuous
370
    13
100
AcDbSpline
210
0.0
220
0.0
230
1.0
 70
     8
 71
     3
 72
    18
 73
    14
 74
     0
 42
0.000000001
 43
0.0000000001
 40
0.0
 40
0.0
 40
0.0
 40
0.0
 40
0.082745967177226
 40
0.1671222993735294
 40
0.2531296447714053
 40
0.3407687028292927
 40
0.4300402263190055
 40
0.5209450223175302
 40
0.613483952016935
 40
0.7076579292180085
 40
0.8034679173800034
 40
0.9009149251108475
 40
1.0
 40
1.0
 40
1.0
 40
1.0
 10
241.189658544176
 20
179.9945815680153
 30
0.0
 10
241.1725932788326
 20
179.9198316843379
 30
0.0
 10
241.1381265068448
 20
179.7688591008485
 30
0.0
 10
241.0722949473845
 20
179.5436175622086
 30
0.0
 10
240.994972391485
 20
179.3173111002999
 30
0.0
 10
240.9047154263082
 20
179.090903348005
 30
0.0
 10
240.8013916971082
 20
178.865145195642
 30
0.0
 10
240.6845670106461
 20
178.64091243787
 30
0.0
 10
240.5539320437076
 20
178.4191366385544
 30
0.0
 10
240.4092901840632
 20
178.2007262383836
 30
0.0
 10
240.2501951827004
 20
177.9869539468235
 30
0.0
 10
240.0774902916461
 20
177.7779366583606
 30
0.0
 10
239.9518210522484
 20
177.6460434668378
 30
0.0
 10
239.8884627148666
 20
177.5795472155123
 30
0.0
  0
SPLINE
  5
1C3
330
1F
100
AcDbEntity
  8
BODY
  6
Continuous
370
    13
100
AcDbSpline
210
0.0
220
0.0
230
1.0
 70
     8
 71
     3
 72
     8
 73
     4
 74
     0
 42
0.000000001
 43
0.0000000001
 40
0.0
 40
0.0
 40
0.0
 40
0.0
 40
1.0
 40
1.0
 40
1.0
 40
1.0
 10
230.1367041442468
 20
177.7584767537484
 30
0.0
 10
230.1636026454073
 20
177.757372626643
 30
0.0
 10
230.1905078847245
 20
177.7562642244602
 30
0.0
 10
230.2174189815099
 20
177.7551515586299
 30
0.0
  0
SPLINE
  5
1C4
330
1F
100
AcDbEntity
  8
BODY
  6
Continuous
370
    13
100
AcDbSpline
210
0.0
220
0.0
230
1.0
 70
     8
 71
     3
 72
     8
 73
     4
 74
     0
 42
0.000000001
 43
0.0000000001
 40
0.0
 40
0.0
 40
0.0
 40
0.0
 40
1.0
 40
1.0
 40
1.0
 40
1.0
 10
230.2077512476513
 20
177.6592052102107
 30
0.0
 10
230.1808505679633
 20
177.6604153354367
 30
0.0
 10
230.1539452152489
 20
177.6615171750881
 30
0.0
 10
230.1270360672689
 20
177.6625106988153
 30
0.0
  0
SPLINE
  5
1C5
330
1F
100
AcDbEntity
  8
BODY
  6
Continuous
370
    13
100
AcDbSpline
210
0.0
220
0.0
230
1.0
 70
    24
 71
     1
 72
     4
 73
     2
 74
     0
 42
0.000000001
 43
0.0000000001
 40
0.0
 40
0.0
 40
1.0
 40
1.0
 10
229.1514416843239
 20
185.004231832438
 30
0.0
 10
229.0492280101434
 20
184.9672339555851
 30
0.0
  0
SPLINE
  5
1C6
330
1F
100
AcDbEntity
  8
BODY
  6
Continuous
370
    13
100
AcDbSpline
210
0.0
220
0.0
230
1.0
 70
     8
 71
     3
 72
    10
 73
     6
 74
     0
 42
0.000000001
 43
0.0000000001
 40
0.0
 40
0.0
 40
0.0
 40
0.0
 40
0.3994158569664857
 40
0.7804984414444936
 40
1.0
 40
1.0
 40
1.0
 40
1.0
 10
222.9759877235575
 20
185.6363249736083
 30
0.0
 10
222.9600986122409
 20
185.6601378602896
 30
0.0
 10
222.9290497031844
 20
185.7066706171067
 30
0.0
 10
222.898023914534
 20
185.7728829006829
 30
0.0
 10
222.8832314711462
 20
185.8147417752697
 30
0.0
 10
222.8784032414038
 20
185.8303020580706
 30
0.0
  0
SPLINE
  5
1C7
330
1F
100
AcDbEntity
  8
BODY
  6
Continuous
370
    13
100
AcDbSpline
210
0.0
220
0.0
230
1.0
 70
     8
 71
     3
 72
     8
 73
     4
 74
     0
 42
0.000000001
 43
0.0000000001
 40
0.0
 40
0.0
 40
0.0
 40
0.0
 40
1.0
 40
1.0
 40
1.0
 40
1.0
 10
239.7368560600752
 20
177.7015763165334
 30
0.0
 10
239.7867777081931
 20
177.6387686889371
 30
0.0
 10
239.8331913379089
 20
177.6078206091763
 30
0.0
 10
239.8761586011643
 20
177.6081721591577
 30
0.0
  0
SPLINE
  5
1C8
330
1F
100
AcDbEntity
  8
BODY
  6
Continuous
370
    13
100
AcDbSpline
210
0.0
220
0.0
230
1.0
 70
    24
 71
     1
 72
     4
 73
     2
 74
     0
 42
0.000000001
 43
0.0000000001
 40
0.0
 40
0.0
 40
1.0
 40
1.0
 10
218.6238394224322
 20
186.4878015720897
 30
0.0
 10
218.613619492997
 20
186.4276518685294
 30
0.0
  0
SPLINE
  5
1C9
330
1F
100
AcDbEntity
  8
BODY
  6
Continuous
370
    13
100
AcDbSpline
210
0.0
220
0.0
230
1.0
 70
     8
 71
     3
 72
     8
 73
     4
 74
     0
 42
0.000000001
 43
0.0000000001
 40
0.0
 40
0.0
 40
0.0
 40
0.0
 40
1.0
 40
1.0
 40
1.0
 40
1.0
 10
230.2794849867674
 20
184.8410745871871
 30
0.0
 10
230.2772797935871
 20
184.8425674011621
 30
0.0
 10
230.2750780065346
 20
184.8440650424373
 30
0.0
 10
230.2728796204083
 20
184.845567493687
 30
0.0
  0
SPLINE
  5
1CA
330
1F
100
AcDbEntity
  8
BODY
  6
Continuous
370
    13
100
AcDbSpline
210
0.0
220
0.0
230
1.0
 70
     8
 71
     3
 72
    12
 73
     8
 74
     0
 42
0.000000001
 43
0.0000000001
 40
0.0
 40
0.0
 40
0.0
 40
0.0
 40
0.1913971133741498
 40
0.3868651834590685
 40
0.5866286675034706
 40
0.7909238819411915
 40
1.0
 40
1.0
 40
1.0
 40
1.0
 10
240.8386000670451
 20
183.0952272410381
 30
0.0
 10
240.8603955098246
 20
183.0473073553657
 30
0.0
 10
240.9044499776315
 20
182.9504483430474
 30
0.0
 10
240.9652916058334
 20
182.8007343659808
 30
0.0
 10
241.0225732323195
 20
182.6459565709555
 30
0.0
 10
241.075990832417
 20
182.4860264203499
 30
0.0
 10
241.1071239095261
 20
182.377178041521
 30
0.0
 10
241.1228704850467
 20
182.3221244015768
 30
0.0
  0
SPLINE
  5
1CB
330
1F
100
AcDbEntity
  8
BODY
  6
Continuous
370
    13
100
AcDbSpline
210
0.0
220
0.0
230
1.0
 70
    24
 71
     3
 72
     8
 73
     4
 74
     0
 42
0.000000001
 43
0.0000000001
 40
0.0
 40
0.0
 40
0.0
 40
0.0
 40
1.0
 40
1.0
 40
1.0
 40
1.0
 10
240.5728786042444
 20
183.6657389533928
 30
0.0
 10
240.6614524229858
 20
183.4755683867176
 30
0.0
 10
240.7500262417272
 20
183.2853978200424
 30
0.0
 10
240.8386000604687
 20
183.0952272533672
 30
0.0
  0
SPLINE
  5
1CC
330
1F
100
AcDbEntity
  8
BODY
  6
Continuous
370
    13
100
AcDbSpline
210
0.0
220
0.0
230
1.0
 70
     8
 71
     2
 72
     6
 73
     3
 74
     0
 42
0.000000001
 43
0.0000000001
 40
0.0
 40
0.0
 40
0.0
 40
1.0
 40
1.0
 40
1.0
 10
234.2642432282734
 20
176.7102977593849
 30
0.0
 10
234.4081057994417
 20
176.6389594926454
 30
0.0
 10
234.5563761889884
 20
176.5774049443708
 30
0.0
  0
SPLINE
  5
1CD
330
1F
100
AcDbEntity
  8
BODY
  6
Continuous
370
    13
100
AcDbSpline
210
0.0
220
0.0
230
1.0
 70
    24
 71
     1
 72
     4
 73
     2
 74
     0
 42
0.000000001
 43
0.0000000001
 40
0.0
 40
0.0
 40
1.0
 40
1.0
 10
239.7416535368644
 20
177.7455673749935
 30
0.0
 10
239.7368569666023
 20
177.7015687933845
 30
0.0
  0
SPLINE
  5
1CE
330
1F
100
AcDbEntity
  8
BODY
  6
Continuous
370
    13
100
AcDbSpline
210
0.0
220
0.0
230
1.0
 70
     8
 71
     3
 72
    13
 73
     9
 74
     0
 42
0.000000001
 43
0.0000000001
 40
0.0
 40
0.0
 40
0.0
 40
0.0
 40
0.2110586739718109
 40
0.4072054110106764
 40
0.5885334107609102
 40
0.7551610199489564
 40
0.9072411951187735
 40
1.0
 40
1.0
 40
1.0
 40
1.0
 10
224.2374242647282
 20
185.3136449753506
 30
0.0
 10
224.267259733576
 20
185.3268197659394
 30
0.0
 10
224.3248227046979
 20
185.3522385081104
 30
0.0
 10
224.4060499852911
 20
185.3990655558186
 30
0.0
 10
224.4792858732411
 20
185.4486749774737
 30
0.0
 10
224.5443620850795
 20
185.5003048405544
 30
0.0
 10
224.5956782484633
 20
185.5473428989319
 30
0.0
 10
224.624819335389
 20
185.5775901707728
 30
0.0
 10
224.6356501562627
 20
185.5893634136904
 30
0.0
  0
SPLINE
  5
1CF
330
1F
100
AcDbEntity
  8
BODY
  6
Continuous
370
    13
100
AcDbSpline
210
0.0
220
0.0
230
1.0
 70
    24
 71
     1
 72
     4
 73
     2
 74
     0
 42
0.000000001
 43
0.0000000001
 40
0.0
 40
0.0
 40
1.0
 40
1.0
 10
230.3484346891764
 20
184.8057260181431
 30
0.0
 10
230.3245768223829
 20
184.7966262356646
 30
0.0
  0
SPLINE
  5
1D0
330
1F
100
AcDbEntity
  8
BODY
  6
Continuous
370
    13
100
AcDbSpline
210
0.0
220
0.0
230
1.0
 70
     8
 71
     3
 72
     9
 73
     5
 74
     0
 42
0.000000001
 43
0.0000000001
 40
0.0
 40
0.0
 40
0.0
 40
0.0
 40
0.5107301835893466
 40
1.0
 40
1.0
 40
1.0
 40
1.0
 10
230.0759709285488
 20
184.7876370458343
 30
0.0
 10
230.1109779757071
 20
184.7951727596493
 30
0.0
 10
230.1795211092111
 20
184.8099275441855
 30
0.0
 10
230.2464603230504
 20
184.8309667190208
 30
0.0
 10
230.2792116599162
 20
184.8412605522299
 30
0.0
  0
SPLINE
  5
1D1
330
1F
100
AcDbEntity
  8
BODY
  6
Continuous
370
    13
100
AcDbSpline
210
0.0
220
0.0
230
1.0
 70
    24
 71
     1
 72
     4
 73
     2
 74
     0
 42
0.000000001
 43
0.0000000001
 40
0.0
 40
0.0
 40
1.0
 40
1.0
 10
230.0759709285488
 20
184.7876370458343
 30
0.0
 10
230.0900627563528
 20
184.7281531794915
 30
0.0
  0
SPLINE
  5
1D2
330
1F
100
AcDbEntity
  8
BODY
  6
Continuous
370
    13
100
AcDbSpline
210
0.0
220
0.0
230
1.0
 70
     8
 71
     3
 72
    13
 73
     9
 74
     0
 42
0.000000001
 43
0.0000000001
 40
0.0
 40
0.0
 40
0.0
 40
0.0
 40
0.1960287968090852
 40
0.4635180363420365
 40
0.5972601062748405
 40
0.7312919160092621
 40
0.8646406573777433
 40
1.0
 40
1.0
 40
1.0
 40
1.0
 10
229.033214758273
 20
184.9632654954899
 30
0.0
 10
229.0928046493561
 20
184.9257474788899
 30
0.0
 10
229.2410082721967
 20
184.8484144214246
 30
0.0
 10
229.4482580754261
 20
184.7854540512868
 30
0.0
 10
229.6399366275616
 20
184.7577723249252
 30
0.0
 10
229.7852352393047
 20
184.7525498285725
 30
0.0
 10
229.93148877422
 20
184.7604970611351
 30
0.0
 10
230.0275705672662
 20
184.7785453689366
 30
0.0
 10
230.0759709285488
 20
184.7876370458343
 30
0.0
  0
SPLINE
  5
1D3
330
1F
100
AcDbEntity
  8
BODY
  6
Continuous
370
    13
100
AcDbSpline
210
0.0
220
0.0
230
1.0
 70
     8
 71
     3
 72
    23
 73
    19
 74
     0
 42
0.000000001
 43
0.0000000001
 40
0.0
 40
0.0
 40
0.0
 40
0.0
 40
0.0506599005885504
 40
0.1010152670189749
 40
0.1511208161635503
 40
0.2010318143832798
 40
0.250803908989468
 40
0.300492952137855
 40
0.3501548199415399
 40
0.3998452297812625
 40
0.4496195588716801
 40
0.4995326671045011
 40
0.5837132409696244
 40
0.6672226413725771
 40
0.7503319867581351
 40
0.8333153624061058
 40
0.9164472626700707
 40
1.0
 40
1.0
 40
1.0
 40
1.0
 10
230.1270360672689
 20
177.6625106988153
 30
0.0
 10
230.015119076548
 20
177.6666959052124
 30
0.0
 10
229.7919578667886
 20
177.6750411592855
 30
0.0
 10
229.4593790898749
 20
177.6880477730323
 30
0.0
 10
229.1298499668773
 20
177.7014720438991
 30
0.0
 10
228.803436257336
 20
177.7154686826508
 30
0.0
 10
228.4801219931673
 20
177.7301773253267
 30
0.0
 10
228.1599130437217
 20
177.7457751676816
 30
0.0
 10
227.8428091674099
 20
177.7624627343803
 30
0.0
 10
227.5288126865136
 20
177.7804675065998
 30
0.0
 10
227.2179214487205
 20
177.800042500288
 30
0.0
 10
226.8401370287494
 20
177.826340722751
 30
0.0
 10
226.4013081567853
 20
177.8614787561904
 30
0.0
 10
225.9095837549253
 20
177.9092465592619
 30
0.0
 10
225.4358037924571
 20
177.9654449441803
 30
0.0
 10
224.9805077663948
 20
178.032174930597
 30
0.0
 10
224.5417862903752
 20
178.1099298636384
 30
0.0
 10
224.2661627515532
 20
178.1736872851363
 30
0.0
 10
224.1280030418549
 20
178.2056464816654
 30
0.0
  0
SPLINE
  5
1D4
330
1F
100
AcDbEntity
  8
BODY
  6
Continuous
370
    13
100
AcDbSpline
210
0.0
220
0.0
230
1.0
 70
     8
 71
     2
 72
     9
 73
     6
 74
     0
 42
0.000000001
 43
0.0000000001
 40
0.0
 40
0.0
 40
0.0
 40
0.25
 40
0.5
 40
0.75
 40
1.0
 40
1.0
 40
1.0
 10
224.3024979924649
 20
185.2215920860183
 30
0.0
 10
224.1344985526227
 20
185.145822519716
 30
0.0
 10
223.7585697219672
 20
185.1250265999552
 30
0.0
 10
223.3987848808677
 20
185.2373612047113
 30
0.0
 10
223.0855845183603
 20
185.4734873680044
 30
0.0
 10
222.9759877235575
 20
185.6363249736083
 30
0.0
  0
SPLINE
  5
1D5
330
1F
100
AcDbEntity
  8
BODY
  6
Continuous
370
    13
100
AcDbSpline
210
0.0
220
0.0
230
1.0
 70
     8
 71
     3
 72
     8
 73
     4
 74
     0
 42
0.000000001
 43
0.0000000001
 40
0.0
 40
0.0
 40
0.0
 40
0.0
 40
1.0
 40
1.0
 40
1.0
 40
1.0
 10
241.1896585412098
 20
183.1069670963893
 30
0.0
 10
241.1870038372576
 20
183.1167143194321
 30
0.0
 10
241.1842993795161
 20
183.1264828320625
 30
0.0
 10
241.1815451950648
 20
183.1362718887895
 30
0.0
  0
SPLINE
  5
1D6
330
1F
100
AcDbEntity
  8
BODY
  6
Continuous
370
    13
100
AcDbSpline
210
0.0
220
0.0
230
1.0
 70
     8
 71
     3
 72
     8
 73
     4
 74
     0
 42
0.000000001
 43
0.0000000001
 40
0.0
 40
0.0
 40
0.0
 40
0.0
 40
1.0
 40
1.0
 40
1.0
 40
1.0
 10
241.0950291735942
 20
182.315966366247
 30
0.0
 10
241.1043098142326
 20
182.3180182334187
 30
0.0
 10
241.1135904548712
 20
182.3200701024896
 30
0.0
 10
241.1228710955097
 20
182.3221219734598
 30
0.0
  0
SPLINE
  5
1D7
330
1F
100
AcDbEntity
  8
BODY
  6
Continuous
370
    13
100
AcDbSpline
210
0.0
220
0.0
230
1.0
 70
     8
 71
     3
 72
     8
 73
     4
 74
     0
 42
0.000000001
 43
0.0000000001
 40
0.0
 40
0.0
 40
0.0
 40
0.0
 40
1.0
 40
1.0
 40
1.0
 40
1.0
 10
241.1228688377483
 20
182.3221302131615
 30
0.0
 10
241.147505584108
 20
182.2322099620576
 30
0.0
 10
241.1698219585914
 20
182.1409598288365
 30
0.0
 10
241.1896585412098
 20
182.0482884446128
 30
0.0
  0
SPLINE
  5
1D8
330
1F
100
AcDbEntity
  8
BODY
  6
Continuous
370
    13
100
AcDbSpline
210
0.0
220
0.0
230
1.0
 70
     8
 71
     2
 72
     8
 73
     5
 74
     0
 42
0.000000001
 43
0.0000000001
 40
0.0
 40
0.0
 40
0.0
 40
0.5
 40
0.5
 40
1.0
 40
1.0
 40
1.0
 10
230.2174189815099
 20
177.7551515586299
 30
0.0
 10
231.2751780287186
 20
177.7079724044758
 30
0.0
 10
232.3007302004069
 20
177.4422530516279
 30
0.0
 10
233.3203554476596
 20
177.1780693578803
 30
0.0
 10
234.2642431510538
 20
176.7102976038805
 30
0.0
  0
SPLINE
  5
1D9
330
1F
100
AcDbEntity
  8
BODY
  6
Continuous
370
    13
100
AcDbSpline
210
0.0
220
0.0
230
1.0
 70
     8
 71
     3
 72
    12
 73
     8
 74
     0
 42
0.000000001
 43
0.0000000001
 40
0.0
 40
0.0
 40
0.0
 40
0.0
 40
0.2480880088507432
 40
0.4949702921563313
 40
0.740611158577897
 40
0.9849749340055039
 40
1.0
 40
1.0
 40
1.0
 40
1.0
 10
241.1815447418862
 20
183.1362793304189
 30
0.0
 10
241.1648643999548
 20
183.1842948484959
 30
0.0
 10
241.1315847837521
 20
183.2800925257827
 30
0.0
 10
241.0704007907938
 20
183.420548606304
 30
0.0
 10
241.0014043700819
 20
183.5579431490129
 30
0.0
 10
240.9486679237766
 20
183.6504419246548
 30
0.0
 10
240.9196960113825
 20
183.6972959160739
 30
0.0
 10
240.9180118804605
 20
183.700007867655
 30
0.0
  0
SPLINE
  5
1DA
330
1F
100
AcDbEntity
  8
BODY
  6
Continuous
370
    13
100
AcDbSpline
210
0.0
220
0.0
230
1.0
 70
     8
 71
     3
 72
    17
 73
    13
 74
     0
 42
0.000000001
 43
0.0000000001
 40
0.0
 40
0.0
 40
0.0
 40
0.0
 40
0.0539657935960936
 40
0.1117427080710753
 40
0.1733856461370108
 40
0.2389397724653439
 40
0.3528596445025163
 40
0.4924230065980559
 40
0.6212488492100292
 40
0.7501065572028555
 40
0.8772688281009555
 40
1.0
 40
1.0
 40
1.0
 40
1.0
 10
222.9328863742606
 20
185.7031720561418
 30
0.0
 10
222.9504516699876
 20
185.6802339723518
 30
0.0
 10
222.9868227410273
 20
185.6327378932643
 30
0.0
 10
223.048888504049
 20
185.5665217056197
 30
0.0
 10
223.1188512372155
 20
185.5021769891936
 30
0.0
 10
223.2150650609589
 20
185.4278225001218
 30
0.0
 10
223.3502843725743
 20
185.3467393432311
 30
0.0
 10
223.5216698174476
 20
185.2786232279164
 30
0.0
 10
223.7055202587474
 20
185.2396862869915
 30
0.0
 10
223.8875602478617
 20
185.2326422180654
 30
0.0
 10
224.0672161174425
 20
185.2533930224023
 30
0.0
 10
224.1813628974453
 20
185.2937998215339
 30
0.0
 10
224.2374242647282
 20
185.3136449753506
 30
0.0
  0
SPLINE
  5
1DB
330
1F
100
AcDbEntity
  8
BODY
  6
Continuous
370
    13
100
AcDbSpline
210
0.0
220
0.0
230
1.0
 70
     8
 71
     3
 72
     8
 73
     4
 74
     0
 42
0.000000001
 43
0.0000000001
 40
0.0
 40
0.0
 40
0.0
 40
0.0
 40
1.0
 40
1.0
 40
1.0
 40
1.0
 10
234.5492394300703
 20
176.4739489347423
 30
0.0
 10
234.5420955122427
 20
176.4762790880151
 30
0.0
 10
234.5360276381037
 20
176.4785672521233
 30
0.0
 10
234.5310383529708
 20
176.4807973419779
 30
0.0
  0
SPLINE
  5
1DC
330
1F
100
AcDbEntity
  8
BODY
  6
Continuous
370
    13
100
AcDbSpline
210
0.0
220
0.0
230
1.0
 70
     8
 71
     3
 72
     8
 73
     4
 74
     0
 42
0.000000001
 43
0.0000000001
 40
0.0
 40
0.0
 40
0.0
 40
0.0
 40
1.0
 40
1.0
 40
1.0
 40
1.0
 10
234.5563760990078
 20
176.5774049643315
 30
0.0
 10
234.5527473702215
 20
176.5428448807344
 30
0.0
 10
234.5503671120897
 20
176.5083452022835
 30
0.0
 10
234.5492394251864
 20
176.4739489982081
 30
0.0
  0
SPLINE
  5
1DD
330
1F
100
AcDbEntity
  8
BODY
  6
Continuous
370
    13
100
AcDbSpline
210
0.0
220
0.0
230
1.0
 70
     8
 71
     3
 72
     9
 73
     5
 74
     0
 42
0.000000001
 43
0.0000000001
 40
0.0
 40
0.0
 40
0.0
 40
0.0
 40
0.9475780407959664
 40
1.0
 40
1.0
 40
1.0
 40
1.0
 10
239.736857992807
 20
177.7015780667899
 30
0.0
 10
239.687524079142
 20
177.6629542284798
 30
0.0
 10
239.6354609122671
 20
177.6221936402776
 30
0.0
 10
239.5817206563179
 20
177.5823729517813
 30
0.0
 10
239.5788989532312
 20
177.5802880299877
 30
0.0
  0
SPLINE
  5
1DE
330
1F
100
AcDbEntity
  8
BODY
  6
Continuous
370
    13
100
AcDbSpline
210
0.0
220
0.0
230
1.0
 70
     8
 71
     3
 72
    12
 73
     8
 74
     0
 42
0.000000001
 43
0.0000000001
 40
0.0
 40
0.0
 40
0.0
 40
0.0
 40
0.1073233155623304
 40
0.3893540985759978
 40
0.672314930259117
 40
0.9567571874470708
 40
1.0
 40
1.0
 40
1.0
 40
1.0
 10
235.7587262390733
 20
176.5153171641045
 30
0.0
 10
235.7132918903362
 20
176.5183651163527
 30
0.0
 10
235.5492152785947
 20
176.5313137721507
 30
0.0
 10
235.2712332569351
 20
176.5653833525169
 30
0.0
 10
234.9319004142206
 20
176.6291986933677
 30
0.0
 10
234.6970000096315
 20
176.6881498779462
 30
0.0
 10
234.5753366590136
 20
176.7248431101499
 30
0.0
 10
234.5593463022099
 20
176.7297601117945
 30
0.0
  0
SPLINE
  5
1DF
330
1F
100
AcDbEntity
  8
BODY
  6
Continuous
370
    13
100
AcDbSpline
210
0.0
220
0.0
230
1.0
 70
    24
 71
     1
 72
     4
 73
     2
 74
     0
 42
0.000000001
 43
0.0000000001
 40
0.0
 40
0.0
 40
1.0
 40
1.0
 10
224.2374242647282
 20
185.3136449753506
 30
0.0
 10
224.3024979924649
 20
185.2215920860183
 30
0.0
  0
SPLINE
  5
1E0
330
1F
100
AcDbEntity
  8
BODY
  6
Continuous
370
    13
100
AcDbSpline
210
0.0
220
0.0
230
1.0
 70
    24
 71
     1
 72
     4
 73
     2
 74
     0
 42
0.000000001
 43
0.0000000001
 40
0.0
 40
0.0
 40
1.0
 40
1.0
 10
222.9328863742606
 20
185.7031720561418
 30
0.0
 10
222.9759877235575
 20
185.6363249736083
 30
0.0
  0
SPLINE
  5
1E1
330
1F
100
AcDbEntity
  8
BODY
  6
Continuous
370
    13
100
AcDbSpline
210
0.0
220
0.0
230
1.0
 70
     8
 71
     3
 72
    15
 73
    11
 74
     0
 42
0.000000001
 43
0.0000000001
 40
0.0
 40
0.0
 40
0.0
 40
0.0
 40
0.0973035000658372
 40
0.1936300648028938
 40
0.2896436997741851
 40
0.3860148790971977
 40
0.4834066928452821
 40
0.7263485770590808
 40
0.9663288864939435
 40
1.0
 40
1.0
 40
1.0
 40
1.0
 10
230.0900627563528
 20
184.7281531794915
 30
0.0
 10
230.0499788560464
 20
184.7202673735944
 30
0.0
 10
229.9702135011656
 20
184.704574935955
 30
0.0
 10
229.8491679333476
 20
184.6935445262136
 30
0.0
 10
229.7283033084067
 20
184.6919768207916
 30
0.0
 10
229.6074579129166
 20
184.7007326642413
 30
0.0
 10
229.4275020572983
 20
184.7287882425246
 30
0.0
 10
229.1949157194088
 20
184.799546837699
 30
0.0
 10
229.0077480788195
 20
184.9063057585389
 30
0.0
 10
228.9168355861084
 20
184.9742910586576
 30
0.0
 10
228.9057818193846
 20
184.9828278161399
 30
0.0
  0
SPLINE
  5
1E2
330
1F
100
AcDbEntity
  8
BODY
  6
Continuous
370
    13
100
AcDbSpline
210
0.0
220
0.0
230
1.0
 70
     8
 71
     3
 72
    12
 73
     8
 74
     0
 42
0.000000001
 43
0.0000000001
 40
0.0
 40
0.0
 40
0.0
 40
0.0
 40
0.0306348724313769
 40
0.1758679827203139
 40
0.4451040771780713
 40
0.7182769784013498
 40
1.0
 40
1.0
 40
1.0
 40
1.0
 10
224.7416812227956
 20
185.5691431013861
 30
0.0
 10
224.7378674613415
 20
185.5642477912742
 30
0.0
 10
224.7157957171332
 20
185.5363804911069
 30
0.0
 10
224.6574615054971
 20
185.4692780827525
 30
0.0
 10
224.5601203634122
 20
185.3778199897359
 30
0.0
 10
224.4353322177988
 20
185.2871134683821
 30
0.0
 10
224.3472285828756
 20
185.2436557530461
 30
0.0
 10
224.3024979924649
 20
185.2215920860183
 30
0.0
  0
SPLINE
  5
1E3
330
1F
100
AcDbEntity
  8
BODY
  6
Continuous
370
    13
100
AcDbSpline
210
0.0
220
0.0
230
1.0
 70
     8
 71
     3
 72
     9
 73
     5
 74
     0
 42
0.000000001
 43
0.0000000001
 40
0.0
 40
0.0
 40
0.0
 40
0.0
 40
0.4922371036908281
 40
1.0
 40
1.0
 40
1.0
 40
1.0
 10
230.3245767678179
 20
184.7966263833656
 30
0.0
 10
230.2866669954223
 20
184.7833620882607
 30
0.0
 10
230.2096517275537
 20
184.7564151250889
 30
0.0
 10
230.1303362254322
 20
184.7376708346792
 30
0.0
 10
230.0900627563528
 20
184.7281531794915
 30
0.0
  0
SPLINE
  5
1E4
330
1F
100
AcDbEntity
  8
BODY
  6
Continuous
370
    13
100
AcDbSpline
210
0.0
220
0.0
230
1.0
 70
    24
 71
     1
 72
     4
 73
     2
 74
     0
 42
0.000000001
 43
0.0000000001
 40
0.0
 40
0.0
 40
1.0
 40
1.0
 10
240.6018748306502
 20
183.476991938568
 30
0.0
 10
240.484598882306
 20
183.6257842206664
 30
0.0
  0
SPLINE
  5
1E5
330
1F
100
AcDbEntity
  8
BODY
  6
Continuous
370
    13
100
AcDbSpline
210
0.0
220
0.0
230
1.0
 70
    24
 71
     1
 72
     4
 73
     2
 74
     0
 42
0.000000001
 43
0.0000000001
 40
0.0
 40
0.0
 40
1.0
 40
1.0
 10
240.558709281967
 20
183.4667154658078
 30
0.0
 10
240.6018748306502
 20
183.476991938568
 30
0.0
  0
SPLINE
  5
1E6
330
1F
100
AcDbEntity
  8
BODY
  6
Continuous
370
    13
100
AcDbSpline
210
0.0
220
0.0
230
1.0
 70
     8
 71
     2
 72
     6
 73
     3
 74
     0
 42
0.000000001
 43
0.0000000001
 40
0.0
 40
0.0
 40
0.0
 40
1.0
 40
1.0
 40
1.0
 10
229.0492280795531
 20
184.9672339838676
 30
0.0
 10
223.7692852658435
 20
185.6922892899589
 30
0.0
 10
218.6136194941698
 20
186.4276518683622
 30
0.0
  0
SPLINE
  5
1E7
330
1F
100
AcDbEntity
  8
BODY
  6
Continuous
370
    13
100
AcDbSpline
210
0.0
220
0.0
230
1.0
 70
    24
 71
     1
 72
     4
 73
     2
 74
     0
 42
0.000000001
 43
0.0000000001
 40
0.0
 40
0.0
 40
1.0
 40
1.0
 10
241.0950326192662
 20
182.3159679800102
 30
0.0
 10
240.5587092973252
 20
183.4667155031898
 30
0.0
  0
SPLINE
  5
1E8
330
1F
100
AcDbEntity
  8
BODY
  6
Continuous
370
    13
100
AcDbSpline
210
0.0
220
0.0
230
1.0
 70
     8
 71
     3
 72
    20
 73
    16
 74
     0
 42
0.000000001
 43
0.0000000001
 40
0.0
 40
0.0
 40
0.0
 40
0.0
 40
0.0400426611736591
 40
0.0807331278871846
 40
0.1220786678509218
 40
0.1640862086083972
 40
0.2067623551535299
 40
0.2501134067067952
 40
0.3691656107526296
 40
0.5000744712026798
 40
0.6203850428340575
 40
0.7500127145208535
 40
0.8235108466755553
 40
0.9068396130091455
 40
1.0
 40
1.0
 40
1.0
 40
1.0
 10
224.1971494009975
 20
178.2990307743738
 30
0.0
 10
224.2622824401847
 20
178.2834644251829
 30
0.0
 10
224.3936022333318
 20
178.2520798962049
 30
0.0
 10
224.5984664421238
 20
178.2088562752965
 30
0.0
 10
224.8111741053088
 20
178.1679294250572
 30
0.0
 10
225.0322748402821
 20
178.1296009508561
 30
0.0
 10
225.2617110934288
 20
178.0937662721024
 30
0.0
 10
225.6367377889476
 20
178.0411965976859
 30
0.0
 10
226.1927417689989
 20
177.9784293342276
 30
0.0
 10
226.9268863106137
 20
177.9166779506405
 30
0.0
 10
227.7092403905765
 20
177.8658320316287
 30
0.0
 10
228.392250610536
 20
177.8302270820414
 30
0.0
 10
229.0066806644894
 20
177.8030521552826
 30
0.0
 10
229.5479355808775
 20
177.781043532723
 30
0.0
 10
229.9332923114382
 20
177.7662732805288
 30
0.0
 10
230.1367041442468
 20
177.7584767537484
 30
0.0
  0
SPLINE
  5
1E9
330
1F
100
AcDbEntity
  8
SPARE_PARTS
  6
Continuous
370
    13
100
AcDbSpline
210
0.0
220
0.0
230
1.0
 70
     8
 71
     3
 72
     8
 73
     4
 74
     0
 42
0.000000001
 43
0.0000000001
 40
0.0
 40
0.0
 40
0.0
 40
0.0
 40
1.0
 40
1.0
 40
1.0
 40
1.0
 10
235.5869805076097
 20
198.2324615926939
 30
0.0
 10
235.5656168614519
 20
198.2820067623068
 30
0.0
 10
235.5373579780978
 20
198.3290131713795
 30
0.0
 10
235.5028704052535
 20
198.3723162229068
 30
0.0
  0
SPLINE
  5
1EA
330
1F
100
AcDbEntity
  8
SPARE_PARTS
  6
Continuous
370
    13
100
AcDbSpline
210
0.0
220
0.0
230
1.0
 70
     8
 71
     3
 72
     8
 73
     4
 74
     0
 42
0.000000001
 43
0.0000000001
 40
0.0
 40
0.0
 40
0.0
 40
0.0
 40
1.0
 40
1.0
 40
1.0
 40
1.0
 10
237.5592472005841
 20
201.0912071267894
 30
0.0
 10
237.5222067036732
 20
201.1172536183844
 30
0.0
 10
237.4825979205796
 20
201.1394404879871
 30
0.0
 10
237.4410262787406
 20
201.157238827031
 30
0.0
  0
SPLINE
  5
1EB
330
1F
100
AcDbEntity
  8
SPARE_PARTS
  6
Continuous
370
    13
100
AcDbSpline
210
0.0
220
0.0
230
1.0
 70
     8
 71
     3
 72
     8
 73
     4
 74
     0
 42
0.000000001
 43
0.0000000001
 40
0.0
 40
0.0
 40
0.0
 40
0.0
 40
1.0
 40
1.0
 40
1.0
 40
1.0
 10
234.2731423666809
 20
199.3129449235623
 30
0.0
 10
234.2580137040984
 20
199.1961927962883
 30
0.0
 10
234.274414723104
 20
199.0772225908256
 30
0.0
 10
234.320057602665
 20
198.9682634459075
 30
0.0
  0
SPLINE
  5
1EC
330
1F
100
AcDbEntity
  8
SPARE_PARTS
  6
Continuous
370
    13
100
AcDbSpline
210
0.0
220
0.0
230
1.0
 70
     8
 71
     3
 72
    14
 73
    10
 74
     0
 42
0.000000001
 43
0.0000000001
 40
0.0
 40
0.0
 40
0.0
 40
0.0
 40
0.2678543522633181
 40
0.2678543522633181
 40
0.5366756522160287
 40
0.5366756522160287
 40
0.816740270473989
 40
0.816740270473989
 40
1.0
 40
1.0
 40
1.0
 40
1.0
 10
237.4410262787406
 20
201.157238827031
 30
0.0
 10
237.4310077339347
 20
201.161528132175
 30
0.0
 10
237.4201866025909
 20
201.1639668854844
 30
0.0
 10
237.3987527581829
 20
201.1649260670356
 30
0.0
 10
237.3878539768875
 20
201.1634527224292
 30
0.0
 10
237.3669634460821
 20
201.1568879693367
 30
0.0
 10
237.3567500088256
 20
201.1515676766594
 30
0.0
 10
237.3417704898447
 20
201.1402444887377
 30
0.0
 10
237.3362456907383
 20
201.1350402528041
 30
0.0
 10
237.3313174205798
 20
201.1292992556305
 30
0.0
  0
SPLINE
  5
1ED
330
1F
100
AcDbEntity
  8
SPARE_PARTS
  6
Continuous
370
    13
100
AcDbSpline
210
0.0
220
0.0
230
1.0
 70
     8
 71
     3
 72
    10
 73
     6
 74
     0
 42
0.000000001
 43
0.0000000001
 40
0.0
 40
0.0
 40
0.0
 40
0.0
 40
0.502237650079394
 40
0.502237650079394
 40
1.0
 40
1.0
 40
1.0
 40
1.0
 10
237.2718393435719
 20
201.0952626255755
 30
0.0
 10
237.2832530837246
 20
201.0970936529136
 30
0.0
 10
237.2944382130367
 20
201.1011386263337
 30
0.0
 10
237.3144924259476
 20
201.1127176343927
 30
0.0
 10
237.3236531601678
 20
201.1203710727288
 30
0.0
 10
237.3313174205798
 20
201.1292992556305
 30
0.0
  0
SPLINE
  5
1EE
330
1F
100
AcDbEntity
  8
SPARE_PARTS
  6
Continuous
370
    13
100
AcDbSpline
210
0.0
220
0.0
230
1.0
 70
     8
 71
     3
 72
    10
 73
     6
 74
     0
 42
0.000000001
 43
0.0000000001
 40
0.0
 40
0.0
 40
0.0
 40
0.0
 40
0.3760171559859593
 40
0.3760171559859593
 40
1.0
 40
1.0
 40
1.0
 40
1.0
 10
236.6483011673947
 20
201.3481022946353
 30
0.0
 10
236.7052326642301
 20
201.27663548371
 30
0.0
 10
236.774591314674
 20
201.2160822652819
 30
0.0
 10
236.9838048379932
 20
201.0975193939927
 30
0.0
 10
237.1313758071875
 20
201.0727290325821
 30
0.0
 10
237.2718393435719
 20
201.0952626255755
 30
0.0
  0
SPLINE
  5
1EF
330
1F
100
AcDbEntity
  8
SPARE_PARTS
  6
Continuous
370
    13
100
AcDbSpline
210
0.0
220
0.0
230
1.0
 70
     8
 71
     3
 72
    10
 73
     6
 74
     0
 42
0.000000001
 43
0.0000000001
 40
0.0
 40
0.0
 40
0.0
 40
0.0
 40
0.5
 40
0.5
 40
1.0
 40
1.0
 40
1.0
 40
1.0
 10
234.4144014657572
 20
199.4317056885513
 30
0.0
 10
234.5063549580625
 20
199.5444721620044
 30
0.0
 10
234.5602884808543
 20
199.686004837564
 30
0.0
 10
234.5641000758195
 20
199.9879867085305
 30
0.0
 10
234.5135581184389
 20
200.1383589709741
 30
0.0
 10
234.424467103877
 20
200.2632071981318
 30
0.0
  0
SPLINE
  5
1F0
330
1F
100
AcDbEntity
  8
SPARE_PARTS
  6
Continuous
370
    13
100
AcDbSpline
210
0.0
220
0.0
230
1.0
 70
     8
 71
     3
 72
    14
 73
    10
 74
     0
 42
0.000000001
 43
0.0000000001
 40
0.0
 40
0.0
 40
0.0
 40
0.0
 40
0.296616937661299
 40
0.296616937661299
 40
0.595447556916677
 40
0.595447556916677
 40
0.8851250132186155
 40
0.8851250132186155
 40
1.0
 40
1.0
 40
1.0
 40
1.0
 10
234.3540525803959
 20
199.3959808809073
 30
0.0
 10
234.341921401806
 20
199.3935313904887
 30
0.0
 10
234.330151560465
 20
199.3890002109327
 30
0.0
 10
234.3092078408963
 20
199.3763934728902
 30
0.0
 10
234.2997551248162
 20
199.3681035974566
 30
0.0
 10
234.2850203746316
 20
199.34919698178
 30
0.0
 10
234.2794113118164
 20
199.3383739986367
 30
0.0
 10
234.2747476226915
 20
199.3224083182598
 30
0.0
 10
234.2737588241254
 20
199.3177022983546
 30
0.0
 10
234.2731423666809
 20
199.3129449235623
 30
0.0
  0
SPLINE
  5
1F1
330
1F
100
AcDbEntity
  8
SPARE_PARTS
  6
Continuous
370
    13
100
AcDbSpline
210
0.0
220
0.0
230
1.0
 70
     8
 71
     3
 72
    10
 73
     6
 74
     0
 42
0.000000001
 43
0.0000000001
 40
0.0
 40
0.0
 40
0.0
 40
0.0
 40
0.514105886692205
 40
0.514105886692205
 40
1.0
 40
1.0
 40
1.0
 40
1.0
 10
234.3540525803959
 20
199.3959808809073
 30
0.0
 10
234.3661729853006
 20
199.3984281959363
 30
0.0
 10
234.3779325301077
 20
199.4029523309776
 30
0.0
 10
234.3982298363482
 20
199.4151672973824
 30
0.0
 10
234.407165394471
 20
199.422831786972
 30
0.0
 10
234.4144014657572
 20
199.4317056885513
 30
0.0
  0
SPLINE
  5
1F2
330
1F
100
AcDbEntity
  8
SPARE_PARTS
  6
Continuous
370
    13
100
AcDbSpline
210
0.0
220
0.0
230
1.0
 70
     8
 71
     3
 72
    10
 73
     6
 74
     0
 42
0.000000001
 43
0.0000000001
 40
0.0
 40
0.0
 40
0.0
 40
0.0
 40
0.3657993294491873
 40
0.3657993294491873
 40
1.0
 40
1.0
 40
1.0
 40
1.0
 10
236.3338513265496
 20
201.7779379886917
 30
0.0
 10
236.2532245012643
 20
201.8078211382741
 30
0.0
 10
236.1676724708056
 20
201.8229854520499
 30
0.0
 10
235.9320753263572
 20
201.8203434168088
 30
0.0
 10
235.7851672914539
 20
201.7697324264388
 30
0.0
 10
235.6655639688802
 20
201.6788558924217
 30
0.0
  0
SPLINE
  5
1F3
330
1F
100
AcDbEntity
  8
SPARE_PARTS
  6
Continuous
370
    13
100
AcDbSpline
210
0.0
220
0.0
230
1.0
 70
     8
 71
     3
 72
    10
 73
     6
 74
     0
 42
0.000000001
 43
0.0000000001
 40
0.0
 40
0.0
 40
0.0
 40
0.0
 40
0.5
 40
0.5
 40
1.0
 40
1.0
 40
1.0
 40
1.0
 10
234.8972998499544
 20
201.066613421228
 30
0.0
 10
235.0486569649594
 20
201.0476038989865
 30
0.0
 10
235.2037816304592
 20
201.0758387877044
 30
0.0
 10
235.4686729283536
 20
201.2298689108383
 30
0.0
 10
235.5694315204148
 20
201.3507748933515
 30
0.0
 10
235.626427555642
 20
201.4911004983367
 30
0.0
  0
SPLINE
  5
1F4
330
1F
100
AcDbEntity
  8
SPARE_PARTS
  6
Continuous
370
    13
100
AcDbSpline
210
0.0
220
0.0
230
1.0
 70
     8
 71
     3
 72
    10
 73
     6
 74
     0
 42
0.000000001
 43
0.0000000001
 40
0.0
 40
0.0
 40
0.0
 40
0.0
 40
0.5
 40
0.5
 40
1.0
 40
1.0
 40
1.0
 40
1.0
 10
234.7130651285788
 20
201.1243255330416
 30
0.0
 10
234.5740171353721
 20
201.0646176852852
 30
0.0
 10
234.4572872550562
 20
200.9621636809141
 30
0.0
 10
234.3045398532713
 20
200.7031275607732
 30
0.0
 10
234.2711945823319
 20
200.5500953165598
 30
0.0
 10
234.2862916525484
 20
200.3991801844175
 30
0.0
  0
SPLINE
  5
1F5
330
1F
100
AcDbEntity
  8
SPARE_PARTS
  6
Continuous
370
    13
100
AcDbSpline
210
0.0
220
0.0
230
1.0
 70
     8
 71
     3
 72
    10
 73
     6
 74
     0
 42
0.000000001
 43
0.0000000001
 40
0.0
 40
0.0
 40
0.0
 40
0.0
 40
0.501971124171149
 40
0.501971124171149
 40
1.0
 40
1.0
 40
1.0
 40
1.0
 10
235.626427555642
 20
201.4911004983367
 30
0.0
 10
235.6310563874552
 20
201.5024967932189
 30
0.0
 10
235.6336848423292
 20
201.514866696351
 30
0.0
 10
235.6347278471864
 20
201.5393632125244
 30
0.0
 10
235.6331944235189
 20
201.5518200704093
 30
0.0
 10
235.6297642019016
 20
201.5635859465387
 30
0.0
  0
SPLINE
  5
1F6
330
1F
100
AcDbEntity
  8
SPARE_PARTS
  6
Continuous
370
    13
100
AcDbSpline
210
0.0
220
0.0
230
1.0
 70
     8
 71
     3
 72
    14
 73
    10
 74
     0
 42
0.000000001
 43
0.0000000001
 40
0.0
 40
0.0
 40
0.0
 40
0.0
 40
0.2676520927850399
 40
0.2676520927850399
 40
0.5364643002598133
 40
0.5364643002598133
 40
0.8165179509799839
 40
0.8165179509799839
 40
1.0
 40
1.0
 40
1.0
 40
1.0
 10
235.6655639688802
 20
201.6788558924217
 30
0.0
 10
235.6564819018187
 20
201.67195519135
 30
0.0
 10
235.6485385012221
 20
201.6633471600543
 30
0.0
 10
235.6360886448249
 20
201.6442446257683
 30
0.0
 10
235.6314241475995
 20
201.633490179043
 30
0.0
 10
235.6256628803623
 20
201.6108903313877
 30
0.0
 10
235.624640230092
 20
201.5987204426863
 30
0.0
 10
235.6261312644895
 20
201.5789879539684
 30
0.0
 10
235.6275570139496
 20
201.5711567401883
 30
0.0
 10
235.6297642019016
 20
201.5635859465387
 30
0.0
  0
SPLINE
  5
1F7
330
1F
100
AcDbEntity
  8
SPARE_PARTS
  6
Continuous
370
    13
100
AcDbSpline
210
0.0
220
0.0
230
1.0
 70
     8
 71
     3
 72
    10
 73
     6
 74
     0
 42
0.000000001
 43
0.0000000001
 40
0.0
 40
0.0
 40
0.0
 40
0.0
 40
0.5130699146606912
 40
0.5130699146606912
 40
1.0
 40
1.0
 40
1.0
 40
1.0
 10
234.8320084923207
 20
201.0991446878056
 30
0.0
 10
234.8408955609991
 20
201.0901519007475
 30
0.0
 10
234.8514254053363
 20
201.0825485952642
 30
0.0
 10
234.8735571757685
 20
201.0716968993291
 30
0.0
 10
234.8853639800647
 20
201.0681124930367
 30
0.0
 10
234.8972998499544
 20
201.066613421228
 30
0.0
  0
SPLINE
  5
1F8
330
1F
100
AcDbEntity
  8
SPARE_PARTS
  6
Continuous
370
    13
100
AcDbSpline
210
0.0
220
0.0
230
1.0
 70
     8
 71
     3
 72
    14
 73
    10
 74
     0
 42
0.000000001
 43
0.0000000001
 40
0.0
 40
0.0
 40
0.0
 40
0.0
 40
0.2960202510437214
 40
0.2960202510437214
 40
0.594865707384626
 40
0.594865707384626
 40
0.8845721470911913
 40
0.8845721470911913
 40
1.0
 40
1.0
 40
1.0
 40
1.0
 10
234.8320084923207
 20
201.0991446878056
 30
0.0
 10
234.8231135535823
 20
201.1081454385439
 30
0.0
 10
234.812572356951
 20
201.1157538648507
 30
0.0
 10
234.789750888751
 20
201.1269380894282
 30
0.0
 10
234.7771217182803
 20
201.1306298255846
 30
0.0
 10
234.752089929697
 20
201.1332499213229
 30
0.0
 10
234.7393220937207
 20
201.1323479410351
 30
0.0
 10
234.7224538823919
 20
201.1279413847361
 30
0.0
 10
234.7176791265622
 20
201.1263068049952
 30
0.0
 10
234.7130651285788
 20
201.1243255330416
 30
0.0
  0
SPLINE
  5
1F9
330
1F
100
AcDbEntity
  8
AXES
  6
CENTER2
370
    13
100
AcDbSpline
210
0.0
220
0.0
230
1.0
 70
    24
 71
     1
 72
     5
 73
     3
 74
     0
 42
0.000000001
 43
0.0000000001
 40
0.0
 40
0.0
 40
0.0096315264684663
 40
1.0
 40
1.0
 10
38.02965854120979
 20
190.631189541642
 30
0.0
 10
40.02965854120978
 20
190.631189541642
 30
0.0
 10
245.681063180756
 20
190.631189541642
 30
0.0
  0
MTEXT
  5
1FA
330
1F
100
AcDbEntity
  8
TEXT
  6
Continuous
370
    13
100
AcDbMText
 10
139.497378
 20
275.2123459999999
 30
0.0
 40
3.5
 41
0.0
 71
     7
 72
     5
  1
\W0.7500;125N3R177C100-ISOD05-C
  7
cesky
 73
     2
 44
0.8433729999999998
1001
ACAD
1000
MTEXTBEGIN
1070
    73
1070
     2
1070
    44
1040
0.8433729999999998
1070
    74
1070
     0
1000
MTEXTEND
  0
MTEXT
  5
1FC
330
1F
100
AcDbEntity
  8
TEXT
  6
Continuous
370
    13
100
AcDbMText
 10
158.323201
 20
266.73927
 30
0.0
 40
3.5
 41
0.0
 71
     7
 72
     5
  1
\W0.7500;Z=3
  7
cesky
 73
     2
 44
0.8433729999999998
1001
ACAD
1000
MTEXTBEGIN
1070
    73
1070
     2
1070
    44
1040
0.8433729999999998
1070
    74
1070
     0
1000
MTEXTEND
  0
MTEXT
  5
1FD
102
{ACAD_REACTORS
330
23C
102
}
330
1F
100
AcDbEntity
  8
DIMENSIONS
  6
Continuous
370
    13
100
AcDbMText
 10
135.443731
 20
242.315603
 30
0.0
 40
3.5
 41
0.0
 71
     7
 72
     5
  1
\W0.7500;200,66
  7
cesky
 73
     2
 44
0.8433729999999998
1001
ACAD
1000
MTEXTBEGIN
1070
    73
1070
     2
1070
    44
1040
0.8433729999999998
1070
    74
1070
     0
1000
MTEXTEND
  0
LINE
  5
1FE
102
{ACAD_REACTORS
330
201
102
}
330
1F
100
AcDbEntity
  8
41
  6
Continuous
 62
     4
 60
     1
370
    13
100
AcDbLine
 10
242.145304
 20
242.598937
 30
0.0
 11
239.645306
 21
242.158119
 31
0.0
  0
LINE
  5
1FF
102
{ACAD_REACTORS
330
201
102
}
330
1F
100
AcDbEntity
  8
41
  6
Continuous
 62
     4
 60
     1
370
    13
100
AcDbLine
 10
239.645306
 20
242.158119
 30
0.0
 11
239.645302
 21
243.039754
 31
0.0
  0
LINE
  5
200
102
{ACAD_REACTORS
330
201
102
}
330
1F
100
AcDbEntity
  8
41
  6
Continuous
 62
     4
 60
     1
370
    13
100
AcDbLine
 10
239.645302
 20
243.039754
 30
0.0
 11
242.145304
 21
242.598937
 31
0.0
  0
HATCH
  5
201
102
{ACAD_REACTORS
330
23C
102
}
330
1F
100
AcDbEntity
  8
DIMENSIONS
  6
Continuous
370
    13
100
AcDbHatch
 10
0.0
 20
0.0
 30
0.0
210
0.0
220
0.0
230
1.0
  2
ANSI31
 70
     0
 71
     1
 91
        1
 92
        0
 93
        3
 72
     1
 10
242.1453040429776
 20
242.5989366788795
 11
239.6453056621905
 21
242.1581192271114
 72
     1
 10
239.6453056621905
 20
242.1581192271114
 11
239.6453024237647
 21
243.0397541306476
 72
     1
 10
239.6453024237647
 20
243.0397541306476
 11
242.1453040429776
 21
242.5989366788795
 97
        3
330
1FE
330
1FF
330
200
 75
     0
 76
     1
 52
0.0
 41
0.02
 77
     0
 78
     1
 53
44.99999999999945
 43
0.0
 44
0.0
 45
-0.0449012806053453
 46
0.0449012806053462
 79
     0
 98
        0
  0
LINE
  5
202
102
{ACAD_REACTORS
330
205
102
}
330
1F
100
AcDbEntity
  8
41
  6
Continuous
 62
     4
 60
     1
370
    13
100
AcDbLine
 10
41.529659
 20
242.598937
 30
0.0
 11
44.029657
 21
243.039754
 31
0.0
  0
LINE
  5
203
102
{ACAD_REACTORS
330
205
102
}
330
1F
100
AcDbEntity
  8
41
  6
Continuous
 62
     4
 60
     1
370
    13
100
AcDbLine
 10
44.029657
 20
243.039754
 30
0.0
 11
44.02966
 21
242.158119
 31
0.0
  0
LINE
  5
204
102
{ACAD_REACTORS
330
205
102
}
330
1F
100
AcDbEntity
  8
41
  6
Continuous
 62
     4
 60
     1
370
    13
100
AcDbLine
 10
44.02966
 20
242.158119
 30
0.0
 11
41.529659
 21
242.598937
 31
0.0
  0
HATCH
  5
205
102
{ACAD_REACTORS
330
23C
102
}
330
1F
100
AcDbEntity
  8
DIMENSIONS
  6
Continuous
370
    13
100
AcDbHatch
 10
0.0
 20
0.0
 30
0.0
210
0.0
220
0.0
230
1.0
  2
ANSI31
 70
     0
 71
     1
 91
        1
 92
        0
 93
        3
 72
     1
 10
41.52965854120976
 20
242.5989366788795
 11
44.02965692199684
 21
243.0397541306476
 72
     1
 10
44.02965692199684
 20
243.0397541306476
 11
44.02966016042266
 21
242.1581192271114
 72
     1
 10
44.02966016042266
 20
242.1581192271114
 11
41.52965854120976
 21
242.5989366788795
 97
        3
330
202
330
203
330
204
 75
     0
 76
     1
 52
0.0
 41
0.02
 77
     0
 78
     1
 53
44.99999999999945
 43
0.0
 44
0.0
 45
-0.0449012806053453
 46
0.0449012806053462
 79
     0
 98
        0
  0
MTEXT
  5
206
102
{ACAD_REACTORS
330
23D
102
}
330
1F
100
AcDbEntity
  8
DIMENSIONS
  6
Continuous
370
    13
100
AcDbMText
 10
231.515712
 20
220.063394
 30
0.0
 40
3.5
 41
0.0
 71
     7
 72
     5
  1
\W0.7500;45%%d
  7
cesky
 11
0.9233404766541026
 21
0.3839822446053655
 31
0.0
 73
     2
 44
0.8433729999999998
1001
ACAD
1000
MTEXTBEGIN
1070
    73
1070
     2
1070
    44
1040
0.8433729999999998
1070
    74
1070
     0
1000
MTEXTEND
  0
LINE
  5
207
102
{ACAD_REACTORS
330
20A
102
}
330
1F
100
AcDbEntity
  8
41
  6
Continuous
 62
     4
 60
     1
370
    13
100
AcDbLine
 10
227.77485
 20
217.132004
 30
0.0
 11
229.288534
 21
219.169913
 31
0.0
  0
LINE
  5
208
102
{ACAD_REACTORS
330
20A
102
}
330
1F
100
AcDbEntity
  8
41
  6
Continuous
 62
     4
 60
     1
370
    13
100
AcDbLine
 10
229.288534
 20
219.169913
 30
0.0
 11
229.894256
 21
218.529303
 31
0.0
  0
LINE
  5
209
102
{ACAD_REACTORS
330
20A
102
}
330
1F
100
AcDbEntity
  8
41
  6
Continuous
 62
     4
 60
     1
370
    13
100
AcDbLine
 10
229.894256
 20
218.529303
 30
0.0
 11
227.77485
 21
217.132004
 31
0.0
  0
HATCH
  5
20A
102
{ACAD_REACTORS
330
23D
102
}
330
1F
100
AcDbEntity
  8
DIMENSIONS
  6
Continuous
370
    13
100
AcDbHatch
 10
0.0
 20
0.0
 30
0.0
210
0.0
220
0.0
230
1.0
  2
ANSI31
 70
     0
 71
     1
 91
        1
 92
        0
 93
        3
 72
     1
 10
227.7748502201438
 20
217.1320037585876
 11
229.2885341792207
 21
219.1699126873071
 72
     1
 10
229.2885341792207
 20
219.1699126873071
 11
229.8942564332023
 21
218.5293030915508
 72
     1
 10
229.8942564332023
 20
218.5293030915508
 11
227.7748502201438
 21
217.1320037585876
 97
        3
330
207
330
208
330
209
 75
     0
 76
     1
 52
0.0
 41
0.02
 77
     0
 78
     1
 53
44.99999999999945
 43
0.0
 44
0.0
 45
-0.0449012806053453
 46
0.0449012806053462
 79
     0
 98
        0
  0
LINE
  5
20B
102
{ACAD_REACTORS
330
20E
102
}
330
1F
100
AcDbEntity
  8
41
  6
Continuous
 62
     4
 60
     1
370
    13
100
AcDbLine
 10
242.145304
 20
223.10813
 30
0.0
 11
239.660067
 21
222.590532
 31
0.0
  0
LINE
  5
20C
102
{ACAD_REACTORS
330
20E
102
}
330
1F
100
AcDbEntity
  8
41
  6
Continuous
 62
     4
 60
     1
370
    13
100
AcDbLine
 10
239.660067
 20
222.590532
 30
0.0
 11
239.632913
 21
223.471748
 31
0.0
  0
LINE
  5
20D
102
{ACAD_REACTORS
330
20E
102
}
330
1F
100
AcDbEntity
  8
41
  6
Continuous
 62
     4
 60
     1
370
    13
100
AcDbLine
 10
239.632913
 20
223.471748
 30
0.0
 11
242.145304
 21
223.10813
 31
0.0
  0
HATCH
  5
20E
102
{ACAD_REACTORS
330
23D
102
}
330
1F
100
AcDbEntity
  8
DIMENSIONS
  6
Continuous
370
    13
100
AcDbHatch
 10
0.0
 20
0.0
 30
0.0
210
0.0
220
0.0
230
1.0
  2
ANSI31
 70
     0
 71
     1
 91
        1
 92
        0
 93
        3
 72
     1
 10
242.1453040429776
 20
223.1081298511911
 11
239.6600668389425
 21
222.5905315809071
 72
     1
 10
239.6600668389425
 20
222.5905315809071
 11
239.6329127905141
 21
223.4717482176076
 72
     1
 10
239.6329127905141
 20
223.4717482176076
 11
242.1453040429776
 21
223.1081298511911
 97
        3
330
20B
330
20C
330
20D
 75
     0
 76
     1
 52
0.0
 41
0.02
 77
     0
 78
     1
 53
44.99999999999945
 43
0.0
 44
0.0
 45
-0.0449012806053453
 46
0.0449012806053462
 79
     0
 98
        0
  0
MTEXT
  5
20F
102
{ACAD_REACTORS
330
23E
102
}
330
1F
100
AcDbEntity
  8
DIMENSIONS
  6
Continuous
370
    13
100
AcDbMText
 10
270.007276
 20
179.189519
 30
0.0
 40
3.5
 41
0.0
 71
     7
 72
     5
  1
%%c
  7
cesky
 11
0.0000000000000016
 21
1.0
 31
0.0
 73
     2
 44
0.8433729999999998
1001
ACAD
1000
MTEXTBEGIN
1070
    73
1070
     2
1070
    44
1040
0.8433729999999998
1070
    74
1070
     0
1000
MTEXTEND
  0
MTEXT
  5
210
102
{ACAD_REACTORS
330
23E
102
}
330
1F
100
AcDbEntity
  8
DIMENSIONS
  6
Continuous
370
    13
100
AcDbMText
 10
269.916758
 20
186.162175
 30
0.0
 40
3.5
 41
0.0
 71
     7
 72
     5
  1
\W0.7500;31,75
  7
cesky
 11
0.0000000000000016
 21
1.0
 31
0.0
 73
     2
 44
0.8433729999999998
1001
ACAD
1000
MTEXTBEGIN
1070
    73
1070
     2
1070
    44
1040
0.8433729999999998
1070
    74
1070
     0
1000
MTEXTEND
  0
LINE
  5
211
102
{ACAD_REACTORS
330
214
102
}
330
1F
100
AcDbEntity
  8
41
  6
Continuous
 62
     4
 60
     1
370
    13
100
AcDbLine
 10
270.508425
 20
206.461737
 30
0.0
 11
270.949242
 21
203.961739
 31
0.0
  0
LINE
  5
212
102
{ACAD_REACTORS
330
214
102
}
330
1F
100
AcDbEntity
  8
41
  6
Continuous
 62
     4
 60
     1
370
    13
100
AcDbLine
 10
270.949242
 20
203.961739
 30
0.0
 11
270.067608
 21
203.961736
 31
0.0
  0
LINE
  5
213
102
{ACAD_REACTORS
330
214
102
}
330
1F
100
AcDbEntity
  8
41
  6
Continuous
 62
     4
 60
     1
370
    13
100
AcDbLine
 10
270.067608
 20
203.961736
 30
0.0
 11
270.508425
 21
206.461737
 31
0.0
  0
HATCH
  5
214
102
{ACAD_REACTORS
330
23E
102
}
330
1F
100
AcDbEntity
  8
DIMENSIONS
  6
Continuous
370
    13
100
AcDbHatch
 10
0.0
 20
0.0
 30
0.0
210
0.0
220
0.0
230
1.0
  2
ANSI31
 70
     0
 71
     1
 91
        1
 92
        0
 93
        3
 72
     1
 10
270.5084249805151
 20
206.4617372274967
 11
270.9492424322831
 21
203.9617388467096
 72
     1
 10
270.9492424322831
 20
203.9617388467096
 11
270.067607528747
 21
203.9617356082837
 72
     1
 10
270.067607528747
 20
203.9617356082837
 11
270.5084249805151
 21
206.4617372274967
 97
        3
330
211
330
212
330
213
 75
     0
 76
     1
 52
0.0
 41
0.02
 77
     0
 78
     1
 53
44.99999999999945
 43
0.0
 44
0.0
 45
-0.0449012806053453
 46
0.0449012806053462
 79
     0
 98
        0
  0
MTEXT
  5
215
102
{ACAD_REACTORS
330
23F
102
}
330
1F
100
AcDbEntity
  8
DIMENSIONS
  6
Continuous
370
    13
100
AcDbMText
 10
257.480031
 20
175.3745139999999
 30
0.0
 40
3.5
 41
0.0
 71
     7
 72
     5
  1
%%c
  7
cesky
 11
0.0000000000000016
 21
1.0
 31
0.0
 73
     2
 44
0.8433729999999998
1001
ACAD
1000
MTEXTBEGIN
1070
    73
1070
     2
1070
    44
1040
0.8433729999999998
1070
    74
1070
     0
1000
MTEXTEND
  0
MTEXT
  5
216
102
{ACAD_REACTORS
330
23F
102
}
330
1F
100
AcDbEntity
  8
DIMENSIONS
  6
Continuous
370
    13
100
AcDbMText
 10
255.858264
 20
182.347171
 30
0.0
 40
3.5
 41
0.0
 71
     7
 72
     5
  1
\W0.7500;(24,4)
  7
cesky
 11
0.0000000000000016
 21
1.0
 31
0.0
 73
     2
 44
0.8433729999999998
1001
ACAD
1000
MTEXTBEGIN
1070
    73
1070
     2
1070
    44
1040
0.8433729999999998
1070
    74
1070
     0
1000
MTEXTEND
  0
LINE
  5
217
102
{ACAD_REACTORS
330
21A
102
}
330
1F
100
AcDbEntity
  8
41
  6
Continuous
 62
     4
 60
     1
370
    13
100
AcDbLine
 10
258.63743
 20
202.842156
 30
0.0
 11
259.078248
 21
200.342158
 31
0.0
  0
LINE
  5
218
102
{ACAD_REACTORS
330
21A
102
}
330
1F
100
AcDbEntity
  8
41
  6
Continuous
 62
     4
 60
     1
370
    13
100
AcDbLine
 10
259.078248
 20
200.342158
 30
0.0
 11
258.196613
 21
200.342155
 31
0.0
  0
LINE
  5
219
102
{ACAD_REACTORS
330
21A
102
}
330
1F
100
AcDbEntity
  8
41
  6
Continuous
 62
     4
 60
     1
370
    13
100
AcDbLine
 10
258.196613
 20
200.342155
 30
0.0
 11
258.63743
 21
202.842156
 31
0.0
  0
HATCH
  5
21A
102
{ACAD_REACTORS
330
23F
102
}
330
1F
100
AcDbEntity
  8
DIMENSIONS
  6
Continuous
370
    13
100
AcDbHatch
 10
0.0
 20
0.0
 30
0.0
210
0.0
220
0.0
230
1.0
  2
ANSI31
 70
     0
 71
     1
 91
        1
 92
        0
 93
        3
 72
     1
 10
258.6374304781896
 20
202.8421563429771
 11
259.0782479299576
 21
200.34215796219
 72
     1
 10
259.0782479299576
 20
200.34215796219
 11
258.1966130264215
 21
200.3421547237642
 72
     1
 10
258.1966130264215
 20
200.3421547237642
 11
258.6374304781896
 21
202.8421563429771
 97
        3
330
217
330
218
330
219
 75
     0
 76
     1
 52
0.0
 41
0.02
 77
     0
 78
     1
 53
44.99999999999945
 43
0.0
 44
0.0
 45
-0.0449012806053453
 46
0.0449012806053462
 79
     0
 98
        0
  0
DIMENSION
  5
224
330
1F
100
AcDbEntity
  8
DIMENSIONS
  6
Continuous
370
    13
100
AcDbDimension
  2
DimnDraft3D1
 10
197.189659
 20
229.57468
 30
0.0
 11
219.667481
 21
229.57468
 31
0.0
 70
   160
  1
\C4;45
 71
     5
 42
44.955645
  3
Standard
100
AcDbAlignedDimension
 13
242.145304
 23
203.842156
 33
0.0
 14
197.189659
 24
204.32794
 34
0.0
100
AcDbRotatedDimension
1001
ACAD
1000
DSTYLE
1002
{
1070
   279
1070
     0
1070
   172
1070
     1
1070
   173
1070
     1
1070
   340
1005
1FB
1070
   271
1070
     0
1070
   272
1070
     2
1070
    77
1070
     1
1070
    73
1070
     0
1070
   171
1070
     3
1070
   274
1070
     4
1070
   177
1070
     4
1070
   176
1070
     4
1070
   178
1070
     4
1070
    78
1070
     8
1070
    48
1040
-0.005
1070
    41
1041
2.5
1070
   147
1041
1.75
1070
    42
1041
1.0
1070
    44
1041
2.0
1070
   140
1041
3.5
1070
   343
1005
0
1070
   344
1005
0
1002
}
  0
DIMENSION
  5
22E
330
1F
100
AcDbEntity
  8
DIMENSIONS
  6
Continuous
370
    13
100
AcDbDimension
  2
DimnDraft3D2
 10
238.505306
 20
215.516328
 30
0.0
 11
253.907804
 21
215.516328
 31
0.0
 70
   160
  1
\C4;3,6
 71
     5
 42
3.63999799999999
  3
Standard
100
AcDbAlignedDimension
 13
242.145304
 23
203.842156
 33
0.0
 14
238.505306
 24
207.461737
 34
0.0
100
AcDbRotatedDimension
1001
ACAD
1000
DSTYLE
1002
{
1070
   279
1070
     0
1070
   172
1070
     1
1070
   173
1070
     1
1070
   340
1005
1FB
1070
   271
1070
     1
1070
   272
1070
     2
1070
    77
1070
     1
1070
    73
1070
     0
1070
   171
1070
     3
1070
   274
1070
     4
1070
   177
1070
     4
1070
   176
1070
     4
1070
   178
1070
     4
1070
    78
1070
     8
1070
    48
1040
-0.005
1070
    41
1041
2.5
1070
   147
1041
1.75
1070
    42
1041
1.0
1070
    44
1041
2.0
1070
   140
1041
3.5
1070
   343
1005
0
1070
   344
1005
0
1002
}
  0
DIMENSION
  5
239
330
1F
100
AcDbEntity
  8
DIMENSIONS
  6
Continuous
370
    13
100
AcDbDimension
  2
DimnDraft3D3
 10
23.49497800000003
 20
177.93444
 30
0.0
 11
23.494978
 21
190.48119
 31
0.0
 70
   161
  1
\C4;%%c 25,4
 71
     5
 42
25.39349999999999
  3
Standard
100
AcDbAlignedDimension
 13
41.529659
 23
203.32794
 33
0.0
 14
41.529659
 24
177.93444
 34
0.0
1001
ACAD
1000
DSTYLE
1002
{
1070
   279
1070
     0
1070
    74
1070
     0
1070
   173
1070
     1
1070
   340
1005
1FB
1070
   271
1070
     1
1070
   272
1070
     2
1070
    77
1070
     1
1070
    73
1070
     0
1070
   171
1070
     3
1070
   274
1070
     4
1070
   177
1070
     4
1070
   176
1070
     4
1070
   178
1070
     4
1070
    78
1070
     8
1070
    48
1040
-0.005
1070
    41
1041
2.5
1070
   147
1041
1.75
1070
    42
1041
1.0
1070
    44
1041
2.0
1070
   140
1041
3.5
1070
   343
1005
0
1070
   344
1005
0
1002
}
  0
ENDSEC
  0
SECTION
  2
OBJECTS
  0
DICTIONARY
  5
C
330
0
100
AcDbDictionary
281
     1
  3
ACAD_CIP_PREVIOUS_PRODUCT_INFO
350
29D
  3
ACAD_COLOR
350
292
  3
ACAD_DETAILVIEWSTYLE
350
298
  3
ACAD_GROUP
350
D
  3
ACAD_LAYOUT
350
1A
  3
ACAD_MATERIAL
350
43
  3
ACAD_MLEADERSTYLE
350
253
  3
ACAD_MLINESTYLE
350
17
  3
ACAD_PLOTSETTINGS
350
19
  3
ACAD_PLOTSTYLENAME
350
E
  3
ACAD_SCALELIST
350
47
  3
ACAD_SECTIONVIEWSTYLE
350
296
  3
ACAD_TABLESTYLE
350
293
  3
ACAD_VISUALSTYLE
350
2A
  3
ACDB_RECOMPOSE_DATA
350
34F
  3
AcDbVariableDictionary
350
251
  0
DICTIONARY
  5
2E5
330
10
100
AcDbDictionary
280
     1
281
     1
  3
ADSK_XREC_LAYER_RECONCILED
360
2E6
  0
DICTIONARY
  5
2E7
330
70
100
AcDbDictionary
280
     1
281
     1
  3
ADSK_XREC_LAYER_RECONCILED
360
2E8
  0
DICTIONARY
  5
2E9
330
29F
100
AcDbDictionary
280
     1
281
     1
  3
ADSK_XREC_LAYER_RECONCILED
360
2EA
  0
DICTIONARY
  5
2EB
330
2A0
100
AcDbDictionary
280
     1
281
     1
  3
ADSK_XREC_LAYER_RECONCILED
360
2EC
  0
DICTIONARY
  5
2ED
330
2A1
100
AcDbDictionary
280
     1
281
     1
  3
ADSK_XREC_LAYER_RECONCILED
360
2EE
  0
DICTIONARY
  5
2EF
330
2A2
100
AcDbDictionary
280
     1
281
     1
  3
ADSK_XREC_LAYER_RECONCILED
360
2F0
  0
DICTIONARY
  5
2F1
330
2A3
100
AcDbDictionary
280
     1
281
     1
  3
ADSK_XREC_LAYER_RECONCILED
360
2F2
  0
DICTIONARY
  5
2F3
330
2A4
100
AcDbDictionary
280
     1
281
     1
  3
ADSK_XREC_LAYER_RECONCILED
360
2F4
  0
DICTIONARY
  5
2F5
330
2A5
100
AcDbDictionary
280
     1
281
     1
  3
ADSK_XREC_LAYER_RECONCILED
360
2F6
  0
DICTIONARY
  5
2F7
330
2A6
100
AcDbDictionary
280
     1
281
     1
  3
ADSK_XREC_LAYER_RECONCILED
360
2F8
  0
DICTIONARY
  5
2F9
330
2A7
100
AcDbDictionary
280
     1
281
     1
  3
ADSK_XREC_LAYER_RECONCILED
360
2FA
  0
DICTIONARY
  5
2FB
330
2A8
100
AcDbDictionary
280
     1
281
     1
  3
ADSK_XREC_LAYER_RECONCILED
360
2FC
  0
DICTIONARY
  5
2FD
330
2A9
100
AcDbDictionary
280
     1
281
     1
  3
ADSK_XREC_LAYER_RECONCILED
360
2FE
  0
XRECORD
  5
29D
102
{ACAD_REACTORS
330
C
102
}
330
C
100
AcDbXrecord
280
     1
300
ACD
300
2019
300
87084ACD_2019_0F
  0
DICTIONARY
  5
292
102
{ACAD_REACTORS
330
C
102
}
330
C
100
AcDbDictionary
281
     1
  0
DICTIONARY
  5
298
102
{ACAD_REACTORS
330
C
102
}
330
C
100
AcDbDictionary
281
     1
  3
Metric50
350
299
  0
DICTIONARY
  5
D
102
{ACAD_REACTORS
330
C
102
}
330
C
100
AcDbDictionary
281
     1
  3
CENTERLINE
350
23A
  3
CENTERLINE2
350
23B
  3
DIMENSION
350
23C
  3
DIMENSION4
350
23D
  3
DIMENSION5
350
23E
  3
DIMENSION6
350
23F
  0
DICTIONARY
  5
1A
102
{ACAD_REACTORS
330
C
102
}
330
C
100
AcDbDictionary
281
     1
  3
Layout1
350
1E
  3
Layout2
350
26
  3
Model
350
22
  0
DICTIONARY
  5
43
102
{ACAD_REACTORS
330
C
102
}
330
C
100
AcDbDictionary
281
     1
  3
ByBlock
350
45
  3
ByLayer
350
44
  3
Global
350
46
  0
DICTIONARY
  5
253
102
{ACAD_REACTORS
330
C
102
}
330
C
100
AcDbDictionary
281
     1
  3
Standard
350
295
  0
DICTIONARY
  5
17
102
{ACAD_REACTORS
330
C
102
}
330
C
100
AcDbDictionary
281
     1
  3
Standard
350
18
  0
DICTIONARY
  5
19
102
{ACAD_REACTORS
330
C
102
}
330
C
100
AcDbDictionary
281
     1
  0
ACDBDICTIONARYWDFLT
  5
E
102
{ACAD_REACTORS
330
C
102
}
330
C
100
AcDbDictionary
281
     1
  3
Normal
350
F
100
AcDbDictionaryWithDefault
340
F
  0
DICTIONARY
  5
47
102
{ACAD_REACTORS
330
C
102
}
330
C
100
AcDbDictionary
281
     1
  3
A0
350
48
  3
A1
350
49
  3
A2
350
4A
  3
A3
350
4B
  3
A4
350
4C
  3
A5
350
4D
  3
A6
350
4E
  3
A7
350
4F
  3
A8
350
50
  3
A9
350
51
  3
B0
350
52
  3
B1
350
53
  3
B2
350
54
  3
B3
350
55
  3
B4
350
56
  3
B5
350
57
  3
B6
350
58
  3
B7
350
59
  3
B8
350
5A
  3
B9
350
5B
  3
C0
350
5C
  3
C1
350
5D
  3
C2
350
5E
  3
C3
350
5F
  3
C4
350
60
  3
C5
350
61
  3
C6
350
62
  3
C7
350
63
  3
C8
350
64
  3
C9
350
65
  3
D0
350
66
  3
D1
350
67
  3
D2
350
68
  0
DICTIONARY
  5
296
102
{ACAD_REACTORS
330
C
102
}
330
C
100
AcDbDictionary
281
     1
  3
Metric50
350
297
  0
DICTIONARY
  5
293
102
{ACAD_REACTORS
330
C
102
}
330
C
100
AcDbDictionary
281
     1
  3
Standard
350
294
  0
DICTIONARY
  5
2A
102
{ACAD_REACTORS
330
C
102
}
330
C
100
AcDbDictionary
281
     1
  3
2dWireframe
350
2F
  3
Basic
350
32
  3
Brighten
350
36
  3
ColorChange
350
3A
  3
Conceptual
350
34
  3
Dim
350
35
  3
EdgeColorOff
350
3D
  3
Facepattern
350
39
  3
Flat
350
2B
  3
FlatWithEdges
350
2C
  3
Gouraud
350
2D
  3
GouraudWithEdges
350
2E
  3
Hidden
350
31
  3
JitterOff
350
3B
  3
Linepattern
350
38
  3
OverhangOff
350
3C
  3
Realistic
350
33
  3
Shaded
350
42
  3
Shaded with edges
350
41
  3
Shades of Gray
350
3E
  3
Sketchy
350
3F
  3
Thicken
350
37
  3
Wireframe
350
30
  3
X-Ray
350
40
  0
XRECORD
  5
34F
102
{ACAD_REACTORS
330
C
102
}
330
C
100
AcDbXrecord
280
     1
 90
        1
330
294
  0
DICTIONARY
  5
251
102
{ACAD_REACTORS
330
C
102
}
330
C
100
AcDbDictionary
281
     1
  3
CANNOSCALE
350
258
  3
CMLEADERSTYLE
350
300
  3
CTABLESTYLE
350
2FF
  3
CVIEWDETAILSTYLE
350
301
  3
CVIEWSECTIONSTYLE
350
302
  3
DIMASSOC
350
256
  3
HIDETEXT
350
257
  3
INDEXCTL
350
304
  3
MSLTSCALE
350
259
  3
SORTENTS
350
303
  3
XCLIPFRAME
350
34D
  0
XRECORD
  5
2E6
102
{ACAD_REACTORS
330
2E5
102
}
330
2E5
100
AcDbXrecord
280
     1
290
     1
  0
XRECORD
  5
2E8
102
{ACAD_REACTORS
330
2E7
102
}
330
2E7
100
AcDbXrecord
280
     1
290
     1
  0
XRECORD
  5
2EA
102
{ACAD_REACTORS
330
2E9
102
}
330
2E9
100
AcDbXrecord
280
     1
290
     1
  0
XRECORD
  5
2EC
102
{ACAD_REACTORS
330
2EB
102
}
330
2EB
100
AcDbXrecord
280
     1
290
     1
  0
XRECORD
  5
2EE
102
{ACAD_REACTORS
330
2ED
102
}
330
2ED
100
AcDbXrecord
280
     1
290
     1
  0
XRECORD
  5
2F0
102
{ACAD_REACTORS
330
2EF
102
}
330
2EF
100
AcDbXrecord
280
     1
290
     1
  0
XRECORD
  5
2F2
102
{ACAD_REACTORS
330
2F1
102
}
330
2F1
100
AcDbXrecord
280
     1
290
     1
  0
XRECORD
  5
2F4
102
{ACAD_REACTORS
330
2F3
102
}
330
2F3
100
AcDbXrecord
280
     1
290
     1
  0
XRECORD
  5
2F6
102
{ACAD_REACTORS
330
2F5
102
}
330
2F5
100
AcDbXrecord
280
     1
290
     1
  0
XRECORD
  5
2F8
102
{ACAD_REACTORS
330
2F7
102
}
330
2F7
100
AcDbXrecord
280
     1
290
     1
  0
XRECORD
  5
2FA
102
{ACAD_REACTORS
330
2F9
102
}
330
2F9
100
AcDbXrecord
280
     1
290
     1
  0
XRECORD
  5
2FC
102
{ACAD_REACTORS
330
2FB
102
}
330
2FB
100
AcDbXrecord
280
     1
290
     1
  0
XRECORD
  5
2FE
102
{ACAD_REACTORS
330
2FD
102
}
330
2FD
100
AcDbXrecord
280
     1
290
     1
  0
ACDBDETAILVIEWSTYLE
  5
299
102
{ACAD_XDICTIONARY
360
383
102
}
102
{ACAD_REACTORS
330
298
102
}
330
298
100
AcDbModelDocViewStyle
 70
     0
  3
Metric50
290
     0
100
AcDbDetailViewStyle
 70
     0
 71
     0
 90
        3
 71
     1
340
11
 62
   256
 40
5.0
340
0
 62
   256
 40
5.0
300

 40
0.0
280
     1
 71
     2
340
16
 90
       25
 62
   256
 71
     3
340
11
 62
   256
 40
5.0
 90
        0
 40
15.0
 90
        1
300
%<\AcVar ViewDetailId>% (%<\AcVar ViewScale \f "%sn">%)
 71
     4
340
16
 90
       25
 62
   256
340
16
 90
       25
 62
   256
280
     0
  0
GROUP
  5
23A
102
{ACAD_REACTORS
330
D
102
}
330
D
100
AcDbGroup
300

 70
     0
 71
     1
340
112
340
113
  0
GROUP
  5
23B
102
{ACAD_REACTORS
330
D
102
}
330
D
100
AcDbGroup
300

 70
     0
 71
     1
340
114
340
115
  0
GROUP
  5
23C
102
{ACAD_REACTORS
330
D
102
}
330
D
100
AcDbGroup
300

 70
     0
 71
     1
340
116
340
117
340
118
340
1FD
340
201
340
205
  0
GROUP
  5
23D
102
{ACAD_REACTORS
330
D
102
}
330
D
100
AcDbGroup
300

 70
     0
 71
     1
340
11F
340
120
340
144
340
206
340
20A
340
20E
  0
GROUP
  5
23E
102
{ACAD_REACTORS
330
D
102
}
330
D
100
AcDbGroup
300

 70
     0
 71
     1
340
127
340
128
340
20F
340
210
340
214
  0
GROUP
  5
23F
102
{ACAD_REACTORS
330
D
102
}
330
D
100
AcDbGroup
300

 70
     0
 71
     1
340
12C
340
12D
340
215
340
216
340
21A
  0
LAYOUT
  5
1E
102
{ACAD_REACTORS
330
1A
102
}
330
1A
100
AcDbPlotSettings
  1

  2
none_device
  4

  6

 40
0.0
 41
0.0
 42
0.0
 43
0.0
 44
0.0
 45
0.0
 46
0.0
 47
0.0
 48
0.0
 49
0.0
140
0.0
141
0.0
142
1.0
143
1.0
 70
   688
 72
     0
 73
     0
 74
     5
  7

 75
    16
147
1.0
 76
     0
 77
     2
 78
   300
148
0.0
149
0.0
100
AcDbLayout
  1
Layout1
 70
     1
 71
     1
 10
-0.5
 20
-0.5
 11
5.0
 21
5.0
 12
0.0
 22
0.0
 32
0.0
 14
-0.5
 24
-0.5
 34
-0.5
 15
5.0
 25
5.0
 35
5.0
146
0.0
 13
0.0
 23
0.0
 33
0.0
 16
1.0
 26
0.0
 36
0.0
 17
0.0
 27
1.0
 37
0.0
 76
     0
330
1B
  0
LAYOUT
  5
26
102
{ACAD_REACTORS
330
1A
102
}
330
1A
100
AcDbPlotSettings
  1

  2
none_device
  4

  6

 40
0.0
 41
0.0
 42
0.0
 43
0.0
 44
0.0
 45
0.0
 46
0.0
 47
0.0
 48
0.0
 49
0.0
140
0.0
141
0.0
142
1.0
143
1.0
 70
   688
 72
     0
 73
     0
 74
     5
  7

 75
    16
147
1.0
 76
     0
 77
     2
 78
   300
148
0.0
149
0.0
100
AcDbLayout
  1
Layout2
 70
     1
 71
     2
 10
0.0
 20
0.0
 11
0.0
 21
0.0
 12
0.0
 22
0.0
 32
0.0
 14
0.0
 24
0.0
 34
0.0
 15
0.0
 25
0.0
 35
0.0
146
0.0
 13
0.0
 23
0.0
 33
0.0
 16
1.0
 26
0.0
 36
0.0
 17
0.0
 27
1.0
 37
0.0
 76
     0
330
23
  0
LAYOUT
  5
22
102
{ACAD_REACTORS
330
1A
102
}
330
1A
100
AcDbPlotSettings
  1

  2
none_device
  4
Letter_(8.50_x_11.00_Inches)
  6

 40
6.349999999999998
 41
6.349999999999998
 42
6.350005
 43
6.350005
 44
215.9
 45
279.4
 46
0.0
 47
0.0
 48
0.0
 49
0.0
140
0.0
141
0.0
142
1.0
143
1.0
 70
  1712
 72
     0
 73
     0
 74
     0
  7

 75
     0
147
1.0
 76
     0
 77
     2
 78
   300
148
0.0
149
0.0
100
AcDbLayout
  1
Model
 70
     1
 71
     0
 10
-0.5
 20
-0.5
 11
5.0
 21
5.0
 12
0.0
 22
0.0
 32
0.0
 14
-0.5
 24
-0.5
 34
-0.5
 15
5.0
 25
5.0
 35
5.0
146
0.0
 13
0.0
 23
0.0
 33
0.0
 16
1.0
 26
0.0
 36
0.0
 17
0.0
 27
1.0
 37
0.0
 76
     0
330
1F
331
240
  0
MATERIAL
  5
45
102
{ACAD_XDICTIONARY
360
28C
102
}
102
{ACAD_REACTORS
330
43
102
}
330
43
100
AcDbMaterial
  1
ByBlock
  0
MATERIAL
  5
44
102
{ACAD_XDICTIONARY
360
28A
102
}
102
{ACAD_REACTORS
330
43
102
}
330
43
100
AcDbMaterial
  1
ByLayer
  0
MATERIAL
  5
46
102
{ACAD_XDICTIONARY
360
28E
102
}
102
{ACAD_REACTORS
330
43
102
}
330
43
100
AcDbMaterial
  1
Global
  0
MLEADERSTYLE
  5
295
102
{ACAD_REACTORS
330
253
102
}
330
253
100
AcDbMLeaderStyle
170
     2
171
     1
172
     0
 90
        2
 40
0.0
 41
0.0
173
     1
 91
-1056964608
340
14
 92
       -2
290
     1
 42
2.0
291
     1
 43
0.36
  3
Standard
 44
4.0
300

342
11
174
     1
178
     6
175
     1
176
     0
 93
-1056964608
 45
4.0
292
     0
297
     0
 46
4.0
 94
-1056964608
 47
1.0
 49
1.0
140
1.0
293
     1
141
0.0
294
     1
177
     0
142
1.0
295
     0
296
     0
143
0.125
1001
ACAD_MLEADERVER
1070
     2
  0
MLINESTYLE
  5
18
102
{ACAD_REACTORS
330
17
102
}
330
17
100
AcDbMlineStyle
  2
STANDARD
 70
     0
  3

 62
   256
 51
90.0
 52
90.0
 71
     2
 49
0.5
 62
   256
  6
BYLAYER
 49
-0.5
 62
   256
  6
BYLAYER
  0
ACDBPLACEHOLDER
  5
F
102
{ACAD_REACTORS
330
E
102
}
330
E
  0
SCALE
  5
48
102
{ACAD_REACTORS
330
47
102
}
330
47
100
AcDbScale
 70
     0
300
1:1
140
1.0
141
1.0
290
     1
  0
SCALE
  5
49
102
{ACAD_REACTORS
330
47
102
}
330
47
100
AcDbScale
 70
     0
300
1:2
140
1.0
141
2.0
290
     0
  0
SCALE
  5
4A
102
{ACAD_REACTORS
330
47
102
}
330
47
100
AcDbScale
 70
     0
300
1:4
140
1.0
141
4.0
290
     0
  0
SCALE
  5
4B
102
{ACAD_REACTORS
330
47
102
}
330
47
100
AcDbScale
 70
     0
300
1:5
140
1.0
141
5.0
290
     0
  0
SCALE
  5
4C
102
{ACAD_REACTORS
330
47
102
}
330
47
100
AcDbScale
 70
     0
300
1:8
140
1.0
141
8.0
290
     0
  0
SCALE
  5
4D
102
{ACAD_REACTORS
330
47
102
}
330
47
100
AcDbScale
 70
     0
300
1:10
140
1.0
141
10.0
290
     0
  0
SCALE
  5
4E
102
{ACAD_REACTORS
330
47
102
}
330
47
100
AcDbScale
 70
     0
300
1:16
140
1.0
141
16.0
290
     0
  0
SCALE
  5
4F
102
{ACAD_REACTORS
330
47
102
}
330
47
100
AcDbScale
 70
     0
300
1:20
140
1.0
141
20.0
290
     0
  0
SCALE
  5
50
102
{ACAD_REACTORS
330
47
102
}
330
47
100
AcDbScale
 70
     0
300
1:30
140
1.0
141
30.0
290
     0
  0
SCALE
  5
51
102
{ACAD_REACTORS
330
47
102
}
330
47
100
AcDbScale
 70
     0
300
1:40
140
1.0
141
40.0
290
     0
  0
SCALE
  5
52
102
{ACAD_REACTORS
330
47
102
}
330
47
100
AcDbScale
 70
     0
300
1:50
140
1.0
141
50.0
290
     0
  0
SCALE
  5
53
102
{ACAD_REACTORS
330
47
102
}
330
47
100
AcDbScale
 70
     0
300
1:100
140
1.0
141
100.0
290
     0
  0
SCALE
  5
54
102
{ACAD_REACTORS
330
47
102
}
330
47
100
AcDbScale
 70
     0
300
2:1
140
2.0
141
1.0
290
     0
  0
SCALE
  5
55
102
{ACAD_REACTORS
330
47
102
}
330
47
100
AcDbScale
 70
     0
300
4:1
140
4.0
141
1.0
290
     0
  0
SCALE
  5
56
102
{ACAD_REACTORS
330
47
102
}
330
47
100
AcDbScale
 70
     0
300
8:1
140
8.0
141
1.0
290
     0
  0
SCALE
  5
57
102
{ACAD_REACTORS
330
47
102
}
330
47
100
AcDbScale
 70
     0
300
10:1
140
10.0
141
1.0
290
     0
  0
SCALE
  5
58
102
{ACAD_REACTORS
330
47
102
}
330
47
100
AcDbScale
 70
     0
300
100:1
140
100.0
141
1.0
290
     0
  0
SCALE
  5
59
102
{ACAD_REACTORS
330
47
102
}
330
47
100
AcDbScale
 70
     0
300
1/128" = 1'-0"
140
0.007812
141
12.0
290
     0
  0
SCALE
  5
5A
102
{ACAD_REACTORS
330
47
102
}
330
47
100
AcDbScale
 70
     0
300
1/64" = 1'-0"
140
0.015625
141
12.0
290
     0
  0
SCALE
  5
5B
102
{ACAD_REACTORS
330
47
102
}
330
47
100
AcDbScale
 70
     0
300
1/32" = 1'-0"
140
0.03125
141
12.0
290
     0
  0
SCALE
  5
5C
102
{ACAD_REACTORS
330
47
102
}
330
47
100
AcDbScale
 70
     0
300
1/16" = 1'-0"
140
0.0625
141
12.0
290
     0
  0
SCALE
  5
5D
102
{ACAD_REACTORS
330
47
102
}
330
47
100
AcDbScale
 70
     0
300
3/32" = 1'-0"
140
0.09375
141
12.0
290
     0
  0
SCALE
  5
5E
102
{ACAD_REACTORS
330
47
102
}
330
47
100
AcDbScale
 70
     0
300
1/8" = 1'-0"
140
0.125
141
12.0
290
     0
  0
SCALE
  5
5F
102
{ACAD_REACTORS
330
47
102
}
330
47
100
AcDbScale
 70
     0
300
3/16" = 1'-0"
140
0.1875
141
12.0
290
     0
  0
SCALE
  5
60
102
{ACAD_REACTORS
330
47
102
}
330
47
100
AcDbScale
 70
     0
300
1/4" = 1'-0"
140
0.25
141
12.0
290
     0
  0
SCALE
  5
61
102
{ACAD_REACTORS
330
47
102
}
330
47
100
AcDbScale
 70
     0
300
3/8" = 1'-0"
140
0.375
141
12.0
290
     0
  0
SCALE
  5
62
102
{ACAD_REACTORS
330
47
102
}
330
47
100
AcDbScale
 70
     0
300
1/2" = 1'-0"
140
0.5
141
12.0
290
     0
  0
SCALE
  5
63
102
{ACAD_REACTORS
330
47
102
}
330
47
100
AcDbScale
 70
     0
300
3/4" = 1'-0"
140
0.75
141
12.0
290
     0
  0
SCALE
  5
64
102
{ACAD_REACTORS
330
47
102
}
330
47
100
AcDbScale
 70
     0
300
1" = 1'-0"
140
1.0
141
12.0
290
     0
  0
SCALE
  5
65
102
{ACAD_REACTORS
330
47
102
}
330
47
100
AcDbScale
 70
     0
300
1-1/2" = 1'-0"
140
1.5
141
12.0
290
     0
  0
SCALE
  5
66
102
{ACAD_REACTORS
330
47
102
}
330
47
100
AcDbScale
 70
     0
300
3" = 1'-0"
140
3.0
141
12.0
290
     0
  0
SCALE
  5
67
102
{ACAD_REACTORS
330
47
102
}
330
47
100
AcDbScale
 70
     0
300
6" = 1'-0"
140
6.0
141
12.0
290
     0
  0
SCALE
  5
68
102
{ACAD_REACTORS
330
47
102
}
330
47
100
AcDbScale
 70
     0
300
1'-0" = 1'-0"
140
12.0
141
12.0
290
     0
  0
ACDBSECTIONVIEWSTYLE
  5
297
102
{ACAD_XDICTIONARY
360
381
102
}
102
{ACAD_REACTORS
330
296
102
}
330
296
100
AcDbModelDocViewStyle
 70
     0
  3
Metric50
290
     0
100
AcDbSectionViewStyle
 70
     0
 71
     0
 90
      102
 71
     1
340
11
 62
   256
 40
5.0
340
0
340
0
 62
   256
 40
5.0
300
I, O, Q, S, X, Z
 40
10.0
 90
        0
 40
2.5
 90
        0
 71
     2
340
16
 90
       25
 62
   256
340
16
 90
       50
 62
   256
 40
5.0
 40
2.5
 40
5.0
 71
     3
340
11
 62
   256
 40
5.0
 90
        0
 40
15.0
 90
        1
300
%<\AcVar ViewSectionStartId>%-%<\AcVar ViewSectionEndId>% (%<\AcVar ViewScale \f "%sn">%)
 71
     4
 62
   256
 62
   257
300
ANSI31
 40
1.0
 90
        0
290
     0
290
     0
 90
        6
 40
0.0
 40
1.570796326794896
 40
0.2617993877991494
 40
1.308996938995747
 40
-0.2617993877991494
 40
1.832595714594045
  0
TABLESTYLE
  5
294
102
{ACAD_XDICTIONARY
360
307
102
}
102
{ACAD_REACTORS
330
293
102
}
330
293
100
AcDbTableStyle
  3
Standard
 70
     0
 71
     0
 40
1.5
 41
1.5
280
     0
281
     0
  7
Standard
140
4.5
170
     2
 62
     0
 63
     7
283
     0
274
    -2
284
     1
 64
     0
275
    -2
285
     1
 65
     0
276
    -2
286
     1
 66
     0
277
    -2
287
     1
 67
     0
278
    -2
288
     1
 68
     0
279
    -2
289
     1
 69
     0
  7
Standard
140
6.0
170
     5
 62
     0
 63
     7
283
     0
274
    -2
284
     1
 64
     0
275
    -2
285
     1
 65
     0
276
    -2
286
     1
 66
     0
277
    -2
287
     1
 67
     0
278
    -2
288
     1
 68
     0
279
    -2
289
     1
 69
     0
  7
Standard
140
4.5
170
     5
 62
     0
 63
     7
283
     0
274
    -2
284
     1
 64
     0
275
    -2
285
     1
 65
     0
276
    -2
286
     1
 66
     0
277
    -2
287
     1
 67
     0
278
    -2
288
     1
 68
     0
279
    -2
289
     1
 69
     0
  0
VISUALSTYLE
  5
2F
102
{ACAD_XDICTIONARY
360
358
102
}
102
{ACAD_REACTORS
330
2A
102
}
330
2A
100
AcDbVisualStyle
  2

 70
     4
 71
     0
 72
     2
 73
     0
 90
        0
 40
-0.6
 41
-30.0
 62
     5
 63
     7
 74
     1
 91
        4
 64
     7
 65
   257
 75
     1
175
     1
 42
1.0
 92
        0
 66
   257
 43
1.0
 76
     1
 77
     6
 78
     2
 67
     7
 79
     5
170
     0
171
     0
290
     0
174
     0
 93
        1
 44
0.0
173
     0
291
     0
 45
0.0
1001
ACAD
1000
AcDbSavedByObjectVersion
1070
     0
  0
VISUALSTYLE
  5
32
102
{ACAD_XDICTIONARY
360
35E
102
}
102
{ACAD_REACTORS
330
2A
102
}
330
2A
100
AcDbVisualStyle
  2

 70
     7
 71
     1
 72
     0
 73
     1
 90
        0
 40
-0.6
 41
-30.0
 62
     5
 63
     7
 74
     0
 91
        4
 64
     7
 65
   257
 75
     1
175
     1
 42
1.0
 92
        8
 66
     7
 43
1.0
 76
     1
 77
     6
 78
     2
 67
     7
 79
     5
170
     0
171
     0
290
     0
174
     0
 93
        1
 44
0.0
173
     0
291
     1
 45
0.0
1001
ACAD
1000
AcDbSavedByObjectVersion
1070
     0
  0
VISUALSTYLE
  5
36
102
{ACAD_XDICTIONARY
360
366
102
}
102
{ACAD_REACTORS
330
2A
102
}
330
2A
100
AcDbVisualStyle
  2

 70
    12
 71
     2
 72
     2
 73
     0
 90
        0
 40
-0.6
 41
-30.0
 62
     5
 63
     7
 74
     1
 91
        4
 64
     7
 65
   257
 75
     1
175
     1
 42
1.0
 92
        8
 66
     7
 43
1.0
 76
     1
 77
     6
 78
     2
 67
     7
 79
     5
170
     0
171
     0
290
     0
174
     0
 93
        1
 44
50.0
173
     0
291
     1
 45
0.0
1001
ACAD
1000
AcDbSavedByObjectVersion
1070
     0
  0
VISUALSTYLE
  5
3A
102
{ACAD_XDICTIONARY
360
36E
102
}
102
{ACAD_REACTORS
330
2A
102
}
330
2A
100
AcDbVisualStyle
  2

 70
    16
 71
     2
 72
     2
 73
     3
 90
        0
 40
-0.6
 41
-30.0
 62
     5
 63
     8
 74
     1
 91
        4
 64
     7
 65
   257
 75
     1
175
     1
 42
1.0
 92
        8
 66
     8
 43
1.0
 76
     1
 77
     6
 78
     2
 67
     7
 79
     5
170
     0
171
     0
290
     0
174
     0
 93
        1
 44
0.0
173
     0
291
     1
 45
0.0
1001
ACAD
1000
AcDbSavedByObjectVersion
1070
     0
  0
VISUALSTYLE
  5
34
102
{ACAD_XDICTIONARY
360
362
102
}
102
{ACAD_REACTORS
330
2A
102
}
330
2A
100
AcDbVisualStyle
  2

 70
     9
 71
     3
 72
     2
 73
     0
 90
        0
 40
-0.6
 41
-30.0
 62
     5
 63
     7
 74
     2
 91
        2
 64
     7
 65
   257
 75
     1
175
     1
 42
179.0
 92
        8
 66
     7
 43
1.0
 76
     1
 77
     6
 78
     2
 67
     7
 79
     3
170
     0
171
     0
290
     0
174
     0
 93
        1
 44
0.0
173
     0
291
     0
 45
0.0
1001
ACAD
1000
AcDbSavedByObjectVersion
1070
     0
  0
VISUALSTYLE
  5
35
102
{ACAD_XDICTIONARY
360
364
102
}
102
{ACAD_REACTORS
330
2A
102
}
330
2A
100
AcDbVisualStyle
  2

 70
    11
 71
     2
 72
     2
 73
     0
 90
        0
 40
-0.6
 41
-30.0
 62
     5
 63
     7
 74
     1
 91
        4
 64
     7
 65
   257
 75
     1
175
     1
 42
1.0
 92
        8
 66
     7
 43
1.0
 76
     1
 77
     6
 78
     2
 67
     7
 79
     5
170
     0
171
     0
290
     0
174
     0
 93
        1
 44
-50.0
173
     0
291
     1
 45
0.0
1001
ACAD
1000
AcDbSavedByObjectVersion
1070
     0
  0
VISUALSTYLE
  5
3D
102
{ACAD_XDICTIONARY
360
374
102
}
102
{ACAD_REACTORS
330
2A
102
}
330
2A
100
AcDbVisualStyle
  2

 70
    22
 71
     2
 72
     2
 73
     0
 90
        0
 40
-0.6
 41
-30.0
 62
     5
 63
     7
 74
     1
 91
        4
 64
     7
 65
   257
 75
     1
175
     1
 42
1.0
 92
        8
 66
     7
 43
1.0
 76
     1
 77
     6
 78
     2
 67
     7
 79
     5
170
     0
171
     0
290
     0
174
     0
 93
        1
 44
0.0
173
     0
291
     1
 45
0.0
1001
ACAD
1000
AcDbSavedByObjectVersion
1070
     0
  0
VISUALSTYLE
  5
39
102
{ACAD_XDICTIONARY
360
36C
102
}
102
{ACAD_REACTORS
330
2A
102
}
330
2A
100
AcDbVisualStyle
  2

 70
    15
 71
     2
 72
     2
 73
     0
 90
        0
 40
-0.6
 41
-30.0
 62
     5
 63
     7
 74
     1
 91
        4
 64
     7
 65
   257
 75
     1
175
     1
 42
1.0
 92
        8
 66
     7
 43
1.0
 76
     1
 77
     6
 78
     2
 67
     7
 79
     5
170
     0
171
     0
290
     0
174
     0
 93
        1
 44
0.0
173
     0
291
     1
 45
0.0
1001
ACAD
1000
AcDbSavedByObjectVersion
1070
     0
  0
VISUALSTYLE
  5
2B
102
{ACAD_XDICTIONARY
360
350
102
}
102
{ACAD_REACTORS
330
2A
102
}
330
2A
100
AcDbVisualStyle
  2

 70
     0
 71
     2
 72
     1
 73
     1
 90
        2
 40
-0.6
 41
30.0
 62
     5
 63
     7
 74
     0
 91
        0
 64
     7
 65
   257
 75
     1
175
     1
 42
1.0
 92
        8
 66
     7
 43
1.0
 76
     1
 77
     6
 78
     2
 67
     7
 79
     5
170
     0
171
     0
290
     0
174
     0
 93
       13
 44
0.0
173
     0
291
     1
 45
0.0
1001
ACAD
1000
AcDbSavedByObjectVersion
1070
     0
  0
VISUALSTYLE
  5
2C
102
{ACAD_XDICTIONARY
360
352
102
}
102
{ACAD_REACTORS
330
2A
102
}
330
2A
100
AcDbVisualStyle
  2

 70
     1
 71
     2
 72
     1
 73
     1
 90
        2
 40
-0.6
 41
30.0
 62
     5
 63
     7
 74
     1
 91
        0
 64
     7
 65
   257
 75
     1
175
     1
 42
1.0
 92
        0
 66
   257
 43
1.0
 76
     1
 77
     6
 78
     2
 67
     7
 79
     5
170
     0
171
     0
290
     0
174
     0
 93
       13
 44
0.0
173
     0
291
     1
 45
0.0
1001
ACAD
1000
AcDbSavedByObjectVersion
1070
     0
  0
VISUALSTYLE
  5
2D
102
{ACAD_XDICTIONARY
360
354
102
}
102
{ACAD_REACTORS
330
2A
102
}
330
2A
100
AcDbVisualStyle
  2

 70
     2
 71
     2
 72
     2
 73
     1
 90
        2
 40
-0.6
 41
30.0
 62
     5
 63
     7
 74
     0
 91
        0
 64
     7
 65
   257
 75
     1
175
     1
 42
1.0
 92
        0
 66
     7
 43
1.0
 76
     1
 77
     6
 78
     2
 67
     7
 79
     5
170
     0
171
     0
290
     0
174
     0
 93
       13
 44
0.0
173
     0
291
     1
 45
0.0
1001
ACAD
1000
AcDbSavedByObjectVersion
1070
     0
  0
VISUALSTYLE
  5
2E
102
{ACAD_XDICTIONARY
360
356
102
}
102
{ACAD_REACTORS
330
2A
102
}
330
2A
100
AcDbVisualStyle
  2

 70
     3
 71
     2
 72
     2
 73
     1
 90
        2
 40
-0.6
 41
30.0
 62
     5
 63
     7
 74
     1
 91
        0
 64
     7
 65
   257
 75
     1
175
     1
 42
1.0
 92
        0
 66
   257
 43
1.0
 76
     1
 77
     6
 78
     2
 67
     7
 79
     5
170
     0
171
     0
290
     0
174
     0
 93
       13
 44
0.0
173
     0
291
     1
 45
0.0
1001
ACAD
1000
AcDbSavedByObjectVersion
1070
     0
  0
VISUALSTYLE
  5
31
102
{ACAD_XDICTIONARY
360
35C
102
}
102
{ACAD_REACTORS
330
2A
102
}
330
2A
100
AcDbVisualStyle
  2

 70
     6
 71
     1
 72
     2
 73
     2
 90
        0
 40
-0.6
 41
-30.0
 62
     5
 63
     7
 74
     2
 91
        2
 64
     7
 65
   257
 75
     2
175
     1
 42
40.0
 92
        0
 66
   257
 43
1.0
 76
     1
 77
     6
 78
     2
 67
     7
 79
     3
170
     0
171
     0
290
     0
174
     0
 93
        1
 44
0.0
173
     0
291
     0
 45
0.0
1001
ACAD
1000
AcDbSavedByObjectVersion
1070
     0
  0
VISUALSTYLE
  5
3B
102
{ACAD_XDICTIONARY
360
370
102
}
102
{ACAD_REACTORS
330
2A
102
}
330
2A
100
AcDbVisualStyle
  2

 70
    20
 71
     2
 72
     2
 73
     0
 90
        0
 40
-0.6
 41
-30.0
 62
     5
 63
     7
 74
     1
 91
        4
 64
     7
 65
   257
 75
     1
175
     1
 42
1.0
 92
       10
 66
     7
 43
1.0
 76
     1
 77
     6
 78
     2
 67
     7
 79
     5
170
     0
171
     0
290
     0
174
     0
 93
        1
 44
0.0
173
     0
291
     1
 45
0.0
1001
ACAD
1000
AcDbSavedByObjectVersion
1070
     0
  0
VISUALSTYLE
  5
38
102
{ACAD_XDICTIONARY
360
36A
102
}
102
{ACAD_REACTORS
330
2A
102
}
330
2A
100
AcDbVisualStyle
  2

 70
    14
 71
     2
 72
     2
 73
     0
 90
        0
 40
-0.6
 41
-30.0
 62
     5
 63
     7
 74
     1
 91
        4
 64
     7
 65
   257
 75
     7
175
     7
 42
1.0
 92
        8
 66
     7
 43
1.0
 76
     1
 77
     6
 78
     2
 67
     7
 79
     5
170
     0
171
     0
290
     0
174
     0
 93
        1
 44
0.0
173
     0
291
     1
 45
0.0
1001
ACAD
1000
AcDbSavedByObjectVersion
1070
     0
  0
VISUALSTYLE
  5
3C
102
{ACAD_XDICTIONARY
360
372
102
}
102
{ACAD_REACTORS
330
2A
102
}
330
2A
100
AcDbVisualStyle
  2

 70
    21
 71
     2
 72
     2
 73
     0
 90
        0
 40
-0.6
 41
-30.0
 62
     5
 63
     7
 74
     1
 91
        4
 64
     7
 65
   257
 75
     1
175
     1
 42
1.0
 92
        9
 66
     7
 43
1.0
 76
     1
 77
     6
 78
     2
 67
     7
 79
     5
170
     0
171
     0
290
     0
174
     0
 93
        1
 44
0.0
173
     0
291
     1
 45
0.0
1001
ACAD
1000
AcDbSavedByObjectVersion
1070
     0
  0
VISUALSTYLE
  5
33
102
{ACAD_XDICTIONARY
360
360
102
}
102
{ACAD_REACTORS
330
2A
102
}
330
2A
100
AcDbVisualStyle
  2

 70
     8
 71
     2
 72
     3
 73
     0
 90
        2
 40
-0.6
 41
30.0
 62
     5
 63
     7
 74
     0
 91
        0
 64
     7
 65
   257
 75
     1
175
     1
 42
1.0
 92
        8
 66
   257
 43
1.0
 76
     1
 77
     6
 78
     2
 67
     7
 79
     3
170
     0
171
     0
290
     0
174
     0
 93
       13
 44
0.0
173
     0
291
     0
 45
0.0
1001
ACAD
1000
AcDbSavedByObjectVersion
1070
     0
  0
VISUALSTYLE
  5
42
102
{ACAD_XDICTIONARY
360
37E
102
}
102
{ACAD_REACTORS
330
2A
102
}
330
2A
100
AcDbVisualStyle
  2

 70
    27
 71
     2
 72
     2
 73
     1
 90
        2
 40
-0.6
 41
30.0
 62
     5
 63
     7
 74
     0
 91
        4
 64
     7
 65
   257
 75
     1
175
     1
 42
1.0
 92
        8
 66
   257
 43
1.0
 76
     1
 77
     6
 78
     2
 67
     8
 79
     3
170
     0
171
     0
290
     0
174
     0
 93
        5
 44
0.0
173
     0
291
     0
 45
0.0
1001
ACAD
1000
AcDbSavedByObjectVersion
1070
     0
  0
VISUALSTYLE
  5
41
102
{ACAD_XDICTIONARY
360
37C
102
}
102
{ACAD_REACTORS
330
2A
102
}
330
2A
100
AcDbVisualStyle
  2

 70
    26
 71
     2
 72
     2
 73
     1
 90
        2
 40
-0.6
 41
30.0
 62
     5
 63
     7
 74
     1
 91
       10
 64
     7
 65
   257
 75
     2
175
     1
 42
1.0
 92
        8
 66
   257
 43
1.0
 76
     1
 77
     6
 78
     2
 67
     7
 79
     3
170
     0
171
     0
290
     0
174
     0
 93
        5
 44
0.0
173
     0
291
     0
 45
0.0
1001
ACAD
1000
AcDbSavedByObjectVersion
1070
     0
  0
VISUALSTYLE
  5
3E
102
{ACAD_XDICTIONARY
360
376
102
}
102
{ACAD_REACTORS
330
2A
102
}
330
2A
100
AcDbVisualStyle
  2

 70
    23
 71
     2
 72
     2
 73
     3
 90
        0
 40
-0.6
 41
-30.0
 62
     5
 63
     7
 74
     2
 91
        2
 64
     7
 65
     7
 75
     1
175
     1
 42
40.0
 92
        8
 66
     7
 43
1.0
 76
     1
 77
     6
 78
     2
 67
     7
 79
     3
170
     0
171
     0
290
     0
174
     0
 93
        1
 44
0.0
173
     0
291
     0
 45
0.0
1001
ACAD
1000
AcDbSavedByObjectVersion
1070
     0
  0
VISUALSTYLE
  5
3F
102
{ACAD_XDICTIONARY
360
378
102
}
102
{ACAD_REACTORS
330
2A
102
}
330
2A
100
AcDbVisualStyle
  2

 70
    24
 71
     1
 72
     2
 73
     2
 90
        0
 40
-0.6
 41
-30.0
 62
     5
 63
     7
 74
     2
 91
        2
 64
     7
 65
     7
 75
     1
175
     1
 42
40.0
 92
       11
 66
     7
 43
1.0
 76
     1
 77
     6
 78
     2
 67
     7
 79
     6
170
     0
171
     0
290
     0
174
     0
 93
        1
 44
0.0
173
     0
291
     0
 45
0.0
1001
ACAD
1000
AcDbSavedByObjectVersion
1070
     0
  0
VISUALSTYLE
  5
37
102
{ACAD_XDICTIONARY
360
368
102
}
102
{ACAD_REACTORS
330
2A
102
}
330
2A
100
AcDbVisualStyle
  2

 70
    13
 71
     2
 72
     2
 73
     0
 90
        0
 40
-0.6
 41
-30.0
 62
     5
 63
     7
 74
     1
 91
        4
 64
     7
 65
   257
 75
     1
175
     1
 42
1.0
 92
       12
 66
     7
 43
1.0
 76
     1
 77
     6
 78
     2
 67
     7
 79
     5
170
     0
171
     0
290
     0
174
     0
 93
        1
 44
0.0
173
     0
291
     1
 45
0.0
1001
ACAD
1000
AcDbSavedByObjectVersion
1070
     0
  0
VISUALSTYLE
  5
30
102
{ACAD_XDICTIONARY
360
35A
102
}
102
{ACAD_REACTORS
330
2A
102
}
330
2A
100
AcDbVisualStyle
  2

 70
     5
 71
     0
 72
     2
 73
     0
 90
        0
 40
-0.6
 41
-30.0
 62
     5
 63
     7
 74
     1
 91
        4
 64
     7
 65
   257
 75
     1
175
     1
 42
1.0
 92
        0
 66
   257
 43
1.0
 76
     1
 77
     6
 78
     2
 67
     7
 79
     3
170
     0
171
     0
290
     0
174
     0
 93
        1
 44
0.0
173
     0
291
     0
 45
0.0
1001
ACAD
1000
AcDbSavedByObjectVersion
1070
     0
  0
VISUALSTYLE
  5
40
102
{ACAD_XDICTIONARY
360
37A
102
}
102
{ACAD_REACTORS
330
2A
102
}
330
2A
100
AcDbVisualStyle
  2

 70
    25
 71
     2
 72
     2
 73
     1
 90
        1
 40
0.5
 41
-30.0
 62
     5
 63
     7
 74
     1
 91
        0
 64
     7
 65
   257
 75
     1
175
     1
 42
1.0
 92
        8
 66
     7
 43
1.0
 76
     1
 77
     6
 78
     2
 67
     7
 79
     3
170
     0
171
     0
290
     0
174
     0
 93
       13
 44
0.0
173
     0
291
     0
 45
0.0
1001
ACAD
1000
AcDbSavedByObjectVersion
1070
     0
  0
DICTIONARYVAR
  5
258
102
{ACAD_REACTORS
330
251
102
}
330
251
100
DictionaryVariables
280
     0
  1
1:1
  0
DICTIONARYVAR
  5
300
102
{ACAD_REACTORS
330
251
102
}
330
251
100
DictionaryVariables
280
     0
  1
STANDARD
  0
DICTIONARYVAR
  5
2FF
102
{ACAD_REACTORS
330
251
102
}
330
251
100
DictionaryVariables
280
     0
  1
STANDARD
  0
DICTIONARYVAR
  5
301
102
{ACAD_REACTORS
330
251
102
}
330
251
100
DictionaryVariables
280
     0
  1
Metric50
  0
DICTIONARYVAR
  5
302
102
{ACAD_REACTORS
330
251
102
}
330
251
100
DictionaryVariables
280
     0
  1
Metric50
  0
DICTIONARYVAR
  5
256
102
{ACAD_REACTORS
330
251
102
}
330
251
100
DictionaryVariables
280
     0
  1
2
  0
DICTIONARYVAR
  5
257
102
{ACAD_REACTORS
330
251
102
}
330
251
100
DictionaryVariables
280
     0
  1
1
  0
DICTIONARYVAR
  5
304
102
{ACAD_REACTORS
330
251
102
}
330
251
100
DictionaryVariables
280
     0
  1
0
  0
DICTIONARYVAR
  5
259
102
{ACAD_REACTORS
330
251
102
}
330
251
100
DictionaryVariables
280
     0
  1
1
  0
DICTIONARYVAR
  5
303
102
{ACAD_REACTORS
330
251
102
}
330
251
100
DictionaryVariables
280
     0
  1
127
  0
DICTIONARYVAR
  5
34D
102
{ACAD_REACTORS
330
251
102
}
330
251
100
DictionaryVariables
280
     0
  1
2
  0
DICTIONARY
  5
383
330
299
100
AcDbDictionary
280
     1
281
     1
  3
ACAD_XREC_ROUNDTRIP
360
384
  0
DICTIONARY
  5
28C
330
45
100
AcDbDictionary
280
     1
281
     1
  3
ACAD_XREC_ROUNDTRIP
360
28D
  0
DICTIONARY
  5
28A
330
44
100
AcDbDictionary
280
     1
281
     1
  3
ACAD_XREC_ROUNDTRIP
360
28B
  0
DICTIONARY
  5
28E
330
46
100
AcDbDictionary
280
     1
281
     1
  3
ACAD_XREC_ROUNDTRIP
360
28F
  0
DICTIONARY
  5
381
330
297
100
AcDbDictionary
280
     1
281
     1
  3
ACAD_XREC_ROUNDTRIP
360
382
  0
DICTIONARY
  5
307
330
294
100
AcDbDictionary
280
     1
281
     1
  3
ACAD_ROUNDTRIP_2008_TABLESTYLE_CELLSTYLEMAP
360
34E
  3
ACAD_XREC_ROUNDTRIP
360
380
  0
DICTIONARY
  5
358
330
2F
100
AcDbDictionary
280
     1
281
     1
  3
ACAD_XREC_ROUNDTRIP
360
359
  0
DICTIONARY
  5
35E
330
32
100
AcDbDictionary
280
     1
281
     1
  3
ACAD_XREC_ROUNDTRIP
360
35F
  0
DICTIONARY
  5
366
330
36
100
AcDbDictionary
280
     1
281
     1
  3
ACAD_XREC_ROUNDTRIP
360
367
  0
DICTIONARY
  5
36E
330
3A
100
AcDbDictionary
280
     1
281
     1
  3
ACAD_XREC_ROUNDTRIP
360
36F
  0
DICTIONARY
  5
362
330
34
100
AcDbDictionary
280
     1
281
     1
  3
ACAD_XREC_ROUNDTRIP
360
363
  0
DICTIONARY
  5
364
330
35
100
AcDbDictionary
280
     1
281
     1
  3
ACAD_XREC_ROUNDTRIP
360
365
  0
DICTIONARY
  5
374
330
3D
100
AcDbDictionary
280
     1
281
     1
  3
ACAD_XREC_ROUNDTRIP
360
375
  0
DICTIONARY
  5
36C
330
39
100
AcDbDictionary
280
     1
281
     1
  3
ACAD_XREC_ROUNDTRIP
360
36D
  0
DICTIONARY
  5
350
330
2B
100
AcDbDictionary
280
     1
281
     1
  3
ACAD_XREC_ROUNDTRIP
360
351
  0
DICTIONARY
  5
352
330
2C
100
AcDbDictionary
280
     1
281
     1
  3
ACAD_XREC_ROUNDTRIP
360
353
  0
DICTIONARY
  5
354
330
2D
100
AcDbDictionary
280
     1
281
     1
  3
ACAD_XREC_ROUNDTRIP
360
355
  0
DICTIONARY
  5
356
330
2E
100
AcDbDictionary
280
     1
281
     1
  3
ACAD_XREC_ROUNDTRIP
360
357
  0
DICTIONARY
  5
35C
330
31
100
AcDbDictionary
280
     1
281
     1
  3
ACAD_XREC_ROUNDTRIP
360
35D
  0
DICTIONARY
  5
370
330
3B
100
AcDbDictionary
280
     1
281
     1
  3
ACAD_XREC_ROUNDTRIP
360
371
  0
DICTIONARY
  5
36A
330
38
100
AcDbDictionary
280
     1
281
     1
  3
ACAD_XREC_ROUNDTRIP
360
36B
  0
DICTIONARY
  5
372
330
3C
100
AcDbDictionary
280
     1
281
     1
  3
ACAD_XREC_ROUNDTRIP
360
373
  0
DICTIONARY
  5
360
330
33
100
AcDbDictionary
280
     1
281
     1
  3
ACAD_XREC_ROUNDTRIP
360
361
  0
DICTIONARY
  5
37E
330
42
100
AcDbDictionary
280
     1
281
     1
  3
ACAD_XREC_ROUNDTRIP
360
37F
  0
DICTIONARY
  5
37C
330
41
100
AcDbDictionary
280
     1
281
     1
  3
ACAD_XREC_ROUNDTRIP
360
37D
  0
DICTIONARY
  5
376
330
3E
100
AcDbDictionary
280
     1
281
     1
  3
ACAD_XREC_ROUNDTRIP
360
377
  0
DICTIONARY
  5
378
330
3F
100
AcDbDictionary
280
     1
281
     1
  3
ACAD_XREC_ROUNDTRIP
360
379
  0
DICTIONARY
  5
368
330
37
100
AcDbDictionary
280
     1
281
     1
  3
ACAD_XREC_ROUNDTRIP
360
369
  0
DICTIONARY
  5
35A
330
30
100
AcDbDictionary
280
     1
281
     1
  3
ACAD_XREC_ROUNDTRIP
360
35B
  0
DICTIONARY
  5
37A
330
40
100
AcDbDictionary
280
     1
281
     1
  3
ACAD_XREC_ROUNDTRIP
360
37B
  0
XRECORD
  5
384
102
{ACAD_REACTORS
330
383
102
}
330
383
100
AcDbXrecord
280
     1
102
DISPLAYNAME
  1
Metric50
102
FLAGS
 90
        0
  0
XRECORD
  5
28D
102
{ACAD_REACTORS
330
28C
102
}
330
28C
100
AcDbXrecord
280
     1
102
MATERIAL
148
0.0
149
0.0
149
0.0
 93
        0
 94
      127
282
     0
 72
     1
 77
     1
171
     1
175
     1
179
     1
273
     0
  0
XRECORD
  5
28B
102
{ACAD_REACTORS
330
28A
102
}
330
28A
100
AcDbXrecord
280
     1
102
MATERIAL
148
0.0
149
0.0
149
0.0
 93
        0
 94
      127
282
     0
 72
     1
 77
     1
171
     1
175
     1
179
     1
273
     0
  0
XRECORD
  5
28F
102
{ACAD_REACTORS
330
28E
102
}
330
28E
100
AcDbXrecord
280
     1
102
MATERIAL
148
0.0
149
0.0
149
0.0
 93
        0
 94
      127
282
     0
 72
     1
 77
     1
171
     1
175
     1
179
     1
273
     0
  0
XRECORD
  5
382
102
{ACAD_REACTORS
330
381
102
}
330
381
100
AcDbXrecord
280
     1
102
DISPLAYNAME
  1
Metric50
102
FLAGS
 90
        0
  0
CELLSTYLEMAP
  5
34E
102
{ACAD_REACTORS
330
307
102
}
330
307
100
AcDbCellStyleMap
 90
        3
300
CELLSTYLE
  1
TABLEFORMAT_BEGIN
 90
        5
170
     1
 91
        0
 92
    32768
 62
   257
 93
        1
300
CONTENTFORMAT
  1
CONTENTFORMAT_BEGIN
 90
        0
 91
        0
 92
      512
 93
        0
300

 40
0.0
140
1.0
 94
        5
 62
     0
340
11
144
6.0
309
CONTENTFORMAT_END
171
     1
301
MARGIN
  1
CELLMARGIN_BEGIN
 40
1.5
 40
1.5
 40
1.5
 40
1.5
 40
0.18
 40
0.18
309
CELLMARGIN_END
 94
        6
 95
        1
302
GRIDFORMAT
  1
GRIDFORMAT_BEGIN
 90
        0
 91
        1
 62
     0
 92
       -2
340
0
 93
        0
 40
1.125
309
GRIDFORMAT_END
 95
        2
302
GRIDFORMAT
  1
GRIDFORMAT_BEGIN
 90
        0
 91
        1
 62
     0
 92
       -2
340
0
 93
        0
 40
1.125
309
GRIDFORMAT_END
 95
        4
302
GRIDFORMAT
  1
GRIDFORMAT_BEGIN
 90
        0
 91
        1
 62
     0
 92
       -2
340
0
 93
        0
 40
1.125
309
GRIDFORMAT_END
 95
        8
302
GRIDFORMAT
  1
GRIDFORMAT_BEGIN
 90
        0
 91
        1
 62
     0
 92
       -2
340
0
 93
        0
 40
1.125
309
GRIDFORMAT_END
 95
       16
302
GRIDFORMAT
  1
GRIDFORMAT_BEGIN
 90
        0
 91
        1
 62
     0
 92
       -2
340
0
 93
        0
 40
1.125
309
GRIDFORMAT_END
 95
       32
302
GRIDFORMAT
  1
GRIDFORMAT_BEGIN
 90
        0
 91
        1
 62
     0
 92
       -2
340
0
 93
        0
 40
1.125
309
GRIDFORMAT_END
309
TABLEFORMAT_END
  1
CELLSTYLE_BEGIN
 90
        1
 91
        1
300
_TITLE
309
CELLSTYLE_END
300
CELLSTYLE
  1
TABLEFORMAT_BEGIN
 90
        5
170
     1
 91
        0
 92
        0
 62
   257
 93
        1
300
CONTENTFORMAT
  1
CONTENTFORMAT_BEGIN
 90
        0
 91
        0
 92
      512
 93
        0
300

 40
0.0
140
1.0
 94
        5
 62
     0
340
11
144
4.5
309
CONTENTFORMAT_END
171
     1
301
MARGIN
  1
CELLMARGIN_BEGIN
 40
1.5
 40
1.5
 40
1.5
 40
1.5
 40
0.18
 40
0.18
309
CELLMARGIN_END
 94
        6
 95
        1
302
GRIDFORMAT
  1
GRIDFORMAT_BEGIN
 90
        0
 91
        1
 62
     0
 92
       -2
340
0
 93
        0
 40
1.125
309
GRIDFORMAT_END
 95
        2
302
GRIDFORMAT
  1
GRIDFORMAT_BEGIN
 90
        0
 91
        1
 62
     0
 92
       -2
340
0
 93
        0
 40
1.125
309
GRIDFORMAT_END
 95
        4
302
GRIDFORMAT
  1
GRIDFORMAT_BEGIN
 90
        0
 91
        1
 62
     0
 92
       -2
340
0
 93
        0
 40
1.125
309
GRIDFORMAT_END
 95
        8
302
GRIDFORMAT
  1
GRIDFORMAT_BEGIN
 90
        0
 91
        1
 62
     0
 92
       -2
340
0
 93
        0
 40
1.125
309
GRIDFORMAT_END
 95
       16
302
GRIDFORMAT
  1
GRIDFORMAT_BEGIN
 90
        0
 91
        1
 62
     0
 92
       -2
340
0
 93
        0
 40
1.125
309
GRIDFORMAT_END
 95
       32
302
GRIDFORMAT
  1
GRIDFORMAT_BEGIN
 90
        0
 91
        1
 62
     0
 92
       -2
340
0
 93
        0
 40
1.125
309
GRIDFORMAT_END
309
TABLEFORMAT_END
  1
CELLSTYLE_BEGIN
 90
        2
 91
        1
300
_HEADER
309
CELLSTYLE_END
300
CELLSTYLE
  1
TABLEFORMAT_BEGIN
 90
        5
170
     1
 91
        0
 92
        0
 62
   257
 93
        1
300
CONTENTFORMAT
  1
CONTENTFORMAT_BEGIN
 90
        0
 91
        0
 92
      512
 93
        0
300

 40
0.0
140
1.0
 94
        2
 62
     0
340
11
144
4.5
309
CONTENTFORMAT_END
171
     1
301
MARGIN
  1
CELLMARGIN_BEGIN
 40
1.5
 40
1.5
 40
1.5
 40
1.5
 40
0.18
 40
0.18
309
CELLMARGIN_END
 94
        6
 95
        1
302
GRIDFORMAT
  1
GRIDFORMAT_BEGIN
 90
        0
 91
        1
 62
     0
 92
       -2
340
0
 93
        0
 40
1.125
309
GRIDFORMAT_END
 95
        2
302
GRIDFORMAT
  1
GRIDFORMAT_BEGIN
 90
        0
 91
        1
 62
     0
 92
       -2
340
0
 93
        0
 40
1.125
309
GRIDFORMAT_END
 95
        4
302
GRIDFORMAT
  1
GRIDFORMAT_BEGIN
 90
        0
 91
        1
 62
     0
 92
       -2
340
0
 93
        0
 40
1.125
309
GRIDFORMAT_END
 95
        8
302
GRIDFORMAT
  1
GRIDFORMAT_BEGIN
 90
        0
 91
        1
 62
     0
 92
       -2
340
0
 93
        0
 40
1.125
309
GRIDFORMAT_END
 95
       16
302
GRIDFORMAT
  1
GRIDFORMAT_BEGIN
 90
        0
 91
        1
 62
     0
 92
       -2
340
0
 93
        0
 40
1.125
309
GRIDFORMAT_END
 95
       32
302
GRIDFORMAT
  1
GRIDFORMAT_BEGIN
 90
        0
 91
        1
 62
     0
 92
       -2
340
0
 93
        0
 40
1.125
309
GRIDFORMAT_END
309
TABLEFORMAT_END
  1
CELLSTYLE_BEGIN
 90
        3
 91
        2
300
_DATA
309
CELLSTYLE_END
  0
XRECORD
  5
380
102
{ACAD_REACTORS
330
307
102
}
330
307
100
AcDbXrecord
280
     1
102
ACAD_ROUNDTRIP_PRE2007_TABLESTYLE
 90
      512
 91
        0
  1

 92
      512
 93
        0
  2

 94
      512
 95
        0
  3

  0
XRECORD
  5
359
102
{ACAD_REACTORS
330
358
102
}
330
358
100
AcDbXrecord
280
     1
102
RTVSPost2010Prop28
280
     1
102
RTVSPost2010PropOp28
 70
     1
102
RTVSPost2010Prop29
280
     1
102
RTVSPost2010PropOp29
 70
     1
102
RTVSPost2010Prop30
280
     0
102
RTVSPost2010PropOp30
 70
     1
102
RTVSPost2010Prop31
280
     0
102
RTVSPost2010PropOp31
 70
     1
102
RTVSPost2010Prop32
280
     0
102
RTVSPost2010PropOp32
 70
     1
102
RTVSPost2010Prop33
280
     0
102
RTVSPost2010PropOp33
 70
     1
102
RTVSPost2010Prop34
280
     0
102
RTVSPost2010PropOp34
 70
     1
102
RTVSPost2010Prop35
280
     0
102
RTVSPost2010PropOp35
 70
     1
102
RTVSPost2010Prop36
280
     0
102
RTVSPost2010PropOp36
 70
     1
102
RTVSPost2010Prop37
 90
       50
102
RTVSPost2010PropOp37
 70
     1
102
RTVSPost2010Prop38
140
0.0
102
RTVSPost2010PropOp38
 70
     1
102
RTVSPost2010Prop39
140
1.0
102
RTVSPost2010PropOp39
 70
     1
102
RTVSPost2010Prop40
 90
        0
102
RTVSPost2010PropOp40
 70
     1
102
RTVSPost2010Prop41ColorIndex
 90
       18
102
RTVSPost2010Prop41ColorRGB
 90
        0
102
RTVSPost2010PropOp41
 70
     1
102
RTVSPost2010Prop42
 90
       50
102
RTVSPost2010PropOp42
 70
     1
102
RTVSPost2010Prop43
 90
        3
102
RTVSPost2010PropOp43
 70
     1
102
RTVSPost2010Prop44ColorIndex
 90
        5
102
RTVSPost2010Prop44ColorRGB
 90
      255
102
RTVSPost2010PropOp44
 70
     1
102
RTVSPost2010Prop45
280
     0
102
RTVSPost2010PropOp45
 70
     1
102
RTVSPost2010Prop46
 90
       50
102
RTVSPost2010PropOp46
 70
     1
102
RTVSPost2010Prop47
 90
       50
102
RTVSPost2010PropOp47
 70
     1
102
RTVSPost2010Prop48
 90
       50
102
RTVSPost2010PropOp48
 70
     1
102
RTVSPost2010Prop49
280
     0
102
RTVSPost2010PropOp49
 70
     1
102
RTVSPost2010Prop50
 90
       50
102
RTVSPost2010PropOp50
 70
     1
102
RTVSPost2010Prop51ColorIndex
 90
      256
102
RTVSPost2010Prop51ColorRGB
 90
-16777216
102
RTVSPost2010PropOp51
 70
     0
102
RTVSPost2010Prop52
140
1.0
102
RTVSPost2010PropOp52
 70
     0
102
RTVSPost2010Prop53
 90
        2
102
RTVSPost2010PropOp53
 70
     1
102
RTVSPost2010Prop54
  1
strokes_ogs.tif
102
RTVSPost2010PropOp54
 70
     1
102
RTVSPost2010Prop55
280
     0
102
RTVSPost2010PropOp55
 70
     1
102
RTVSPost2010Prop56
140
1.0
102
RTVSPost2010PropOp56
 70
     1
102
RTVSPost2010Prop57
140
1.0
102
RTVSPost2010PropOp57
 70
     1
102
RTVSPropertyOp0
 70
     1
102
RTVSPropertyOp1
 70
     1
102
RTVSPropertyOp2
 70
     1
102
RTVSPropertyOp3
 70
     1
102
RTVSPropertyOp4
 70
     1
102
RTVSPropertyOp5
 70
     1
102
RTVSPropertyOp6
 70
     1
102
RTVSPropertyOp7
 70
     1
102
RTVSPropertyOp8
 70
     1
102
RTVSPropertyOp9
 70
     1
102
RTVSPropertyOp10
 70
     1
102
RTVSPropertyOp11
 70
     1
102
RTVSPropertyOp12
 70
     1
102
RTVSPropertyOp13
 70
     1
102
RTVSPropertyOp14
 70
     1
102
RTVSPropertyOp15
 70
     1
102
RTVSPropertyOp16
 70
     1
102
RTVSPropertyOp17
 70
     1
102
RTVSPropertyOp18
 70
     1
102
RTVSPropertyOp19
 70
     1
102
RTVSPropertyOp20
 70
     1
102
RTVSPropertyOp21
 70
     1
102
RTVSPropertyOp22
 70
     1
102
RTVSPropertyOp23
 70
     1
102
RTVSPropertyOp24
 70
     1
102
RTVSPropertyOp25
 70
     1
102
RTVSPropertyOp26
 70
     1
102
RTVSPropertyOp27
 70
     1
102
RTVSPropertyOp28
 70
     1
102
RTVSPropertyOp29
 70
     1
102
RTVSPropertyOp30
 70
     1
102
RTVSPropertyOp31
 70
     1
102
RTVSPropertyOp32
 70
     1
102
RTVSPropertyOp33
 70
     1
102
RTVSPropertyOp34
 70
     1
102
RTVSPropertyOp35
 70
     1
102
RTVSPropertyOp36
 70
     1
102
RTVSPropertyOp37
 70
     1
102
RTVSPropertyOp38
 70
     1
102
RTVSPropertyOp39
 70
     1
102
RTVSPropertyOp40
 70
     1
102
RTVSPropertyOp41
 70
     1
102
RTVSPropertyOp42
 70
     1
102
RTVSPropertyOp43
 70
     1
102
RTVSPropertyOp44
 70
     1
102
RTVSPropertyOp45
 70
     1
102
RTVSPropertyOp46
 70
     1
102
RTVSPropertyOp47
 70
     1
102
RTVSPropertyOp48
 70
     1
102
RTVSPropertyOp49
 70
     1
102
RTVSPropertyOp50
 70
     1
102
RTVSPropertyOp51
 70
     0
102
RTVSPropertyOp52
 70
     0
102
RTVSPropertyOp53
 70
     1
102
RTVSPropertyOp54
 70
     1
102
RTVSPropertyOp55
 70
     1
102
RTVSPropertyOp56
 70
     1
102
RTVSPropertyOp57
 70
     1
102
RTVSPropertyOp58
 70
     1
102
RTVSPropertyOp59
 70
     1
102
RTVSPropertyOp60
 70
     1
102
RTVSPropertyOp61
 70
     1
102
RTVSPropertyOp62
 70
     1
  0
XRECORD
  5
35F
102
{ACAD_REACTORS
330
35E
102
}
330
35E
100
AcDbXrecord
280
     1
102
RTVSPost2010Prop28
280
     0
102
RTVSPost2010PropOp28
 70
     1
102
RTVSPost2010Prop29
280
     1
102
RTVSPost2010PropOp29
 70
     1
102
RTVSPost2010Prop30
280
     1
102
RTVSPost2010PropOp30
 70
     1
102
RTVSPost2010Prop31
280
     0
102
RTVSPost2010PropOp31
 70
     1
102
RTVSPost2010Prop32
280
     0
102
RTVSPost2010PropOp32
 70
     1
102
RTVSPost2010Prop33
280
     0
102
RTVSPost2010PropOp33
 70
     1
102
RTVSPost2010Prop34
280
     0
102
RTVSPost2010PropOp34
 70
     1
102
RTVSPost2010Prop35
280
     0
102
RTVSPost2010PropOp35
 70
     1
102
RTVSPost2010Prop36
280
     0
102
RTVSPost2010PropOp36
 70
     1
102
RTVSPost2010Prop37
 90
       50
102
RTVSPost2010PropOp37
 70
     1
102
RTVSPost2010Prop38
140
0.0
102
RTVSPost2010PropOp38
 70
     1
102
RTVSPost2010Prop39
140
1.0
102
RTVSPost2010PropOp39
 70
     1
102
RTVSPost2010Prop40
 90
        0
102
RTVSPost2010PropOp40
 70
     1
102
RTVSPost2010Prop41ColorIndex
 90
       18
102
RTVSPost2010Prop41ColorRGB
 90
        0
102
RTVSPost2010PropOp41
 70
     1
102
RTVSPost2010Prop42
 90
       50
102
RTVSPost2010PropOp42
 70
     1
102
RTVSPost2010Prop43
 90
        3
102
RTVSPost2010PropOp43
 70
     1
102
RTVSPost2010Prop44ColorIndex
 90
        5
102
RTVSPost2010Prop44ColorRGB
 90
      255
102
RTVSPost2010PropOp44
 70
     1
102
RTVSPost2010Prop45
280
     0
102
RTVSPost2010PropOp45
 70
     1
102
RTVSPost2010Prop46
 90
       50
102
RTVSPost2010PropOp46
 70
     1
102
RTVSPost2010Prop47
 90
       50
102
RTVSPost2010PropOp47
 70
     1
102
RTVSPost2010Prop48
 90
       50
102
RTVSPost2010PropOp48
 70
     1
102
RTVSPost2010Prop49
280
     0
102
RTVSPost2010PropOp49
 70
     1
102
RTVSPost2010Prop50
 90
       50
102
RTVSPost2010PropOp50
 70
     1
102
RTVSPost2010Prop51ColorIndex
 90
      256
102
RTVSPost2010Prop51ColorRGB
 90
-16777216
102
RTVSPost2010PropOp51
 70
     0
102
RTVSPost2010Prop52
140
1.0
102
RTVSPost2010PropOp52
 70
     0
102
RTVSPost2010Prop53
 90
        2
102
RTVSPost2010PropOp53
 70
     1
102
RTVSPost2010Prop54
  1
strokes_ogs.tif
102
RTVSPost2010PropOp54
 70
     1
102
RTVSPost2010Prop55
280
     0
102
RTVSPost2010PropOp55
 70
     1
102
RTVSPost2010Prop56
140
1.0
102
RTVSPost2010PropOp56
 70
     1
102
RTVSPost2010Prop57
140
1.0
102
RTVSPost2010PropOp57
 70
     1
102
RTVSPropertyOp0
 70
     1
102
RTVSPropertyOp1
 70
     1
102
RTVSPropertyOp2
 70
     1
102
RTVSPropertyOp3
 70
     1
102
RTVSPropertyOp4
 70
     1
102
RTVSPropertyOp5
 70
     1
102
RTVSPropertyOp6
 70
     1
102
RTVSPropertyOp7
 70
     1
102
RTVSPropertyOp8
 70
     1
102
RTVSPropertyOp9
 70
     1
102
RTVSPropertyOp10
 70
     1
102
RTVSPropertyOp11
 70
     1
102
RTVSPropertyOp12
 70
     1
102
RTVSPropertyOp13
 70
     1
102
RTVSPropertyOp14
 70
     1
102
RTVSPropertyOp15
 70
     1
102
RTVSPropertyOp16
 70
     1
102
RTVSPropertyOp17
 70
     1
102
RTVSPropertyOp18
 70
     1
102
RTVSPropertyOp19
 70
     1
102
RTVSPropertyOp20
 70
     1
102
RTVSPropertyOp21
 70
     1
102
RTVSPropertyOp22
 70
     1
102
RTVSPropertyOp23
 70
     1
102
RTVSPropertyOp24
 70
     1
102
RTVSPropertyOp25
 70
     1
102
RTVSPropertyOp26
 70
     1
102
RTVSPropertyOp27
 70
     1
102
RTVSPropertyOp28
 70
     1
102
RTVSPropertyOp29
 70
     1
102
RTVSPropertyOp30
 70
     1
102
RTVSPropertyOp31
 70
     1
102
RTVSPropertyOp32
 70
     1
102
RTVSPropertyOp33
 70
     1
102
RTVSPropertyOp34
 70
     1
102
RTVSPropertyOp35
 70
     1
102
RTVSPropertyOp36
 70
     1
102
RTVSPropertyOp37
 70
     1
102
RTVSPropertyOp38
 70
     1
102
RTVSPropertyOp39
 70
     1
102
RTVSPropertyOp40
 70
     1
102
RTVSPropertyOp41
 70
     1
102
RTVSPropertyOp42
 70
     1
102
RTVSPropertyOp43
 70
     1
102
RTVSPropertyOp44
 70
     1
102
RTVSPropertyOp45
 70
     1
102
RTVSPropertyOp46
 70
     1
102
RTVSPropertyOp47
 70
     1
102
RTVSPropertyOp48
 70
     1
102
RTVSPropertyOp49
 70
     1
102
RTVSPropertyOp50
 70
     1
102
RTVSPropertyOp51
 70
     0
102
RTVSPropertyOp52
 70
     0
102
RTVSPropertyOp53
 70
     1
102
RTVSPropertyOp54
 70
     1
102
RTVSPropertyOp55
 70
     1
102
RTVSPropertyOp56
 70
     1
102
RTVSPropertyOp57
 70
     1
102
RTVSPropertyOp58
 70
     1
102
RTVSPropertyOp59
 70
     1
102
RTVSPropertyOp60
 70
     1
102
RTVSPropertyOp61
 70
     1
102
RTVSPropertyOp62
 70
     1
  0
XRECORD
  5
367
102
{ACAD_REACTORS
330
366
102
}
330
366
100
AcDbXrecord
280
     1
102
RTVSPost2010Prop28
280
     0
102
RTVSPost2010PropOp28
 70
     1
102
RTVSPost2010Prop29
280
     1
102
RTVSPost2010PropOp29
 70
     1
102
RTVSPost2010Prop30
280
     1
102
RTVSPost2010PropOp30
 70
     1
102
RTVSPost2010Prop31
280
     0
102
RTVSPost2010PropOp31
 70
     1
102
RTVSPost2010Prop32
280
     0
102
RTVSPost2010PropOp32
 70
     1
102
RTVSPost2010Prop33
280
     0
102
RTVSPost2010PropOp33
 70
     1
102
RTVSPost2010Prop34
280
     0
102
RTVSPost2010PropOp34
 70
     1
102
RTVSPost2010Prop35
280
     0
102
RTVSPost2010PropOp35
 70
     1
102
RTVSPost2010Prop36
280
     0
102
RTVSPost2010PropOp36
 70
     1
102
RTVSPost2010Prop37
 90
       50
102
RTVSPost2010PropOp37
 70
     1
102
RTVSPost2010Prop38
140
0.0
102
RTVSPost2010PropOp38
 70
     1
102
RTVSPost2010Prop39
140
1.0
102
RTVSPost2010PropOp39
 70
     1
102
RTVSPost2010Prop40
 90
        0
102
RTVSPost2010PropOp40
 70
     1
102
RTVSPost2010Prop41ColorIndex
 90
       18
102
RTVSPost2010Prop41ColorRGB
 90
        0
102
RTVSPost2010PropOp41
 70
     1
102
RTVSPost2010Prop42
 90
       50
102
RTVSPost2010PropOp42
 70
     1
102
RTVSPost2010Prop43
 90
        3
102
RTVSPost2010PropOp43
 70
     1
102
RTVSPost2010Prop44ColorIndex
 90
        5
102
RTVSPost2010Prop44ColorRGB
 90
      255
102
RTVSPost2010PropOp44
 70
     1
102
RTVSPost2010Prop45
280
     0
102
RTVSPost2010PropOp45
 70
     1
102
RTVSPost2010Prop46
 90
       50
102
RTVSPost2010PropOp46
 70
     1
102
RTVSPost2010Prop47
 90
       50
102
RTVSPost2010PropOp47
 70
     1
102
RTVSPost2010Prop48
 90
       50
102
RTVSPost2010PropOp48
 70
     1
102
RTVSPost2010Prop49
280
     0
102
RTVSPost2010PropOp49
 70
     1
102
RTVSPost2010Prop50
 90
       50
102
RTVSPost2010PropOp50
 70
     1
102
RTVSPost2010Prop51ColorIndex
 90
      256
102
RTVSPost2010Prop51ColorRGB
 90
-16777216
102
RTVSPost2010PropOp51
 70
     0
102
RTVSPost2010Prop52
140
1.0
102
RTVSPost2010PropOp52
 70
     0
102
RTVSPost2010Prop53
 90
        2
102
RTVSPost2010PropOp53
 70
     1
102
RTVSPost2010Prop54
  1
strokes_ogs.tif
102
RTVSPost2010PropOp54
 70
     1
102
RTVSPost2010Prop55
280
     0
102
RTVSPost2010PropOp55
 70
     1
102
RTVSPost2010Prop56
140
1.0
102
RTVSPost2010PropOp56
 70
     1
102
RTVSPost2010Prop57
140
1.0
102
RTVSPost2010PropOp57
 70
     1
102
RTVSPropertyOp0
 70
     1
102
RTVSPropertyOp1
 70
     1
102
RTVSPropertyOp2
 70
     1
102
RTVSPropertyOp3
 70
     1
102
RTVSPropertyOp4
 70
     1
102
RTVSPropertyOp5
 70
     1
102
RTVSPropertyOp6
 70
     1
102
RTVSPropertyOp7
 70
     1
102
RTVSPropertyOp8
 70
     1
102
RTVSPropertyOp9
 70
     1
102
RTVSPropertyOp10
 70
     1
102
RTVSPropertyOp11
 70
     1
102
RTVSPropertyOp12
 70
     1
102
RTVSPropertyOp13
 70
     1
102
RTVSPropertyOp14
 70
     1
102
RTVSPropertyOp15
 70
     1
102
RTVSPropertyOp16
 70
     1
102
RTVSPropertyOp17
 70
     1
102
RTVSPropertyOp18
 70
     1
102
RTVSPropertyOp19
 70
     1
102
RTVSPropertyOp20
 70
     1
102
RTVSPropertyOp21
 70
     1
102
RTVSPropertyOp22
 70
     1
102
RTVSPropertyOp23
 70
     1
102
RTVSPropertyOp24
 70
     1
102
RTVSPropertyOp25
 70
     1
102
RTVSPropertyOp26
 70
     1
102
RTVSPropertyOp27
 70
     1
102
RTVSPropertyOp28
 70
     1
102
RTVSPropertyOp29
 70
     1
102
RTVSPropertyOp30
 70
     1
102
RTVSPropertyOp31
 70
     1
102
RTVSPropertyOp32
 70
     1
102
RTVSPropertyOp33
 70
     1
102
RTVSPropertyOp34
 70
     1
102
RTVSPropertyOp35
 70
     1
102
RTVSPropertyOp36
 70
     1
102
RTVSPropertyOp37
 70
     1
102
RTVSPropertyOp38
 70
     1
102
RTVSPropertyOp39
 70
     1
102
RTVSPropertyOp40
 70
     1
102
RTVSPropertyOp41
 70
     1
102
RTVSPropertyOp42
 70
     1
102
RTVSPropertyOp43
 70
     1
102
RTVSPropertyOp44
 70
     1
102
RTVSPropertyOp45
 70
     1
102
RTVSPropertyOp46
 70
     1
102
RTVSPropertyOp47
 70
     1
102
RTVSPropertyOp48
 70
     1
102
RTVSPropertyOp49
 70
     1
102
RTVSPropertyOp50
 70
     1
102
RTVSPropertyOp51
 70
     0
102
RTVSPropertyOp52
 70
     0
102
RTVSPropertyOp53
 70
     1
102
RTVSPropertyOp54
 70
     1
102
RTVSPropertyOp55
 70
     1
102
RTVSPropertyOp56
 70
     1
102
RTVSPropertyOp57
 70
     1
102
RTVSPropertyOp58
 70
     1
102
RTVSPropertyOp59
 70
     1
102
RTVSPropertyOp60
 70
     1
102
RTVSPropertyOp61
 70
     1
102
RTVSPropertyOp62
 70
     1
  0
XRECORD
  5
36F
102
{ACAD_REACTORS
330
36E
102
}
330
36E
100
AcDbXrecord
280
     1
102
RTVSPost2010Prop28
280
     0
102
RTVSPost2010PropOp28
 70
     1
102
RTVSPost2010Prop29
280
     1
102
RTVSPost2010PropOp29
 70
     1
102
RTVSPost2010Prop30
280
     1
102
RTVSPost2010PropOp30
 70
     1
102
RTVSPost2010Prop31
280
     0
102
RTVSPost2010PropOp31
 70
     1
102
RTVSPost2010Prop32
280
     0
102
RTVSPost2010PropOp32
 70
     1
102
RTVSPost2010Prop33
280
     0
102
RTVSPost2010PropOp33
 70
     1
102
RTVSPost2010Prop34
280
     0
102
RTVSPost2010PropOp34
 70
     1
102
RTVSPost2010Prop35
280
     0
102
RTVSPost2010PropOp35
 70
     1
102
RTVSPost2010Prop36
280
     0
102
RTVSPost2010PropOp36
 70
     1
102
RTVSPost2010Prop37
 90
       50
102
RTVSPost2010PropOp37
 70
     1
102
RTVSPost2010Prop38
140
0.0
102
RTVSPost2010PropOp38
 70
     1
102
RTVSPost2010Prop39
140
1.0
102
RTVSPost2010PropOp39
 70
     1
102
RTVSPost2010Prop40
 90
        0
102
RTVSPost2010PropOp40
 70
     1
102
RTVSPost2010Prop41ColorIndex
 90
       18
102
RTVSPost2010Prop41ColorRGB
 90
        0
102
RTVSPost2010PropOp41
 70
     1
102
RTVSPost2010Prop42
 90
       50
102
RTVSPost2010PropOp42
 70
     1
102
RTVSPost2010Prop43
 90
        3
102
RTVSPost2010PropOp43
 70
     1
102
RTVSPost2010Prop44ColorIndex
 90
        5
102
RTVSPost2010Prop44ColorRGB
 90
      255
102
RTVSPost2010PropOp44
 70
     1
102
RTVSPost2010Prop45
280
     0
102
RTVSPost2010PropOp45
 70
     1
102
RTVSPost2010Prop46
 90
       50
102
RTVSPost2010PropOp46
 70
     1
102
RTVSPost2010Prop47
 90
       50
102
RTVSPost2010PropOp47
 70
     1
102
RTVSPost2010Prop48
 90
       50
102
RTVSPost2010PropOp48
 70
     1
102
RTVSPost2010Prop49
280
     0
102
RTVSPost2010PropOp49
 70
     1
102
RTVSPost2010Prop50
 90
       50
102
RTVSPost2010PropOp50
 70
     1
102
RTVSPost2010Prop51ColorIndex
 90
      256
102
RTVSPost2010Prop51ColorRGB
 90
-16777216
102
RTVSPost2010PropOp51
 70
     0
102
RTVSPost2010Prop52
140
1.0
102
RTVSPost2010PropOp52
 70
     0
102
RTVSPost2010Prop53
 90
        2
102
RTVSPost2010PropOp53
 70
     1
102
RTVSPost2010Prop54
  1
strokes_ogs.tif
102
RTVSPost2010PropOp54
 70
     1
102
RTVSPost2010Prop55
280
     0
102
RTVSPost2010PropOp55
 70
     1
102
RTVSPost2010Prop56
140
1.0
102
RTVSPost2010PropOp56
 70
     1
102
RTVSPost2010Prop57
140
1.0
102
RTVSPost2010PropOp57
 70
     1
102
RTVSPropertyOp0
 70
     1
102
RTVSPropertyOp1
 70
     1
102
RTVSPropertyOp2
 70
     1
102
RTVSPropertyOp3
 70
     1
102
RTVSPropertyOp4
 70
     1
102
RTVSPropertyOp5
 70
     1
102
RTVSPropertyOp6
 70
     1
102
RTVSPropertyOp7
 70
     1
102
RTVSPropertyOp8
 70
     1
102
RTVSPropertyOp9
 70
     1
102
RTVSPropertyOp10
 70
     1
102
RTVSPropertyOp11
 70
     1
102
RTVSPropertyOp12
 70
     1
102
RTVSPropertyOp13
 70
     1
102
RTVSPropertyOp14
 70
     1
102
RTVSPropertyOp15
 70
     1
102
RTVSPropertyOp16
 70
     1
102
RTVSPropertyOp17
 70
     1
102
RTVSPropertyOp18
 70
     1
102
RTVSPropertyOp19
 70
     1
102
RTVSPropertyOp20
 70
     1
102
RTVSPropertyOp21
 70
     1
102
RTVSPropertyOp22
 70
     1
102
RTVSPropertyOp23
 70
     1
102
RTVSPropertyOp24
 70
     1
102
RTVSPropertyOp25
 70
     1
102
RTVSPropertyOp26
 70
     1
102
RTVSPropertyOp27
 70
     1
102
RTVSPropertyOp28
 70
     1
102
RTVSPropertyOp29
 70
     1
102
RTVSPropertyOp30
 70
     1
102
RTVSPropertyOp31
 70
     1
102
RTVSPropertyOp32
 70
     1
102
RTVSPropertyOp33
 70
     1
102
RTVSPropertyOp34
 70
     1
102
RTVSPropertyOp35
 70
     1
102
RTVSPropertyOp36
 70
     1
102
RTVSPropertyOp37
 70
     1
102
RTVSPropertyOp38
 70
     1
102
RTVSPropertyOp39
 70
     1
102
RTVSPropertyOp40
 70
     1
102
RTVSPropertyOp41
 70
     1
102
RTVSPropertyOp42
 70
     1
102
RTVSPropertyOp43
 70
     1
102
RTVSPropertyOp44
 70
     1
102
RTVSPropertyOp45
 70
     1
102
RTVSPropertyOp46
 70
     1
102
RTVSPropertyOp47
 70
     1
102
RTVSPropertyOp48
 70
     1
102
RTVSPropertyOp49
 70
     1
102
RTVSPropertyOp50
 70
     1
102
RTVSPropertyOp51
 70
     0
102
RTVSPropertyOp52
 70
     0
102
RTVSPropertyOp53
 70
     1
102
RTVSPropertyOp54
 70
     1
102
RTVSPropertyOp55
 70
     1
102
RTVSPropertyOp56
 70
     1
102
RTVSPropertyOp57
 70
     1
102
RTVSPropertyOp58
 70
     1
102
RTVSPropertyOp59
 70
     1
102
RTVSPropertyOp60
 70
     1
102
RTVSPropertyOp61
 70
     1
102
RTVSPropertyOp62
 70
     1
  0
XRECORD
  5
363
102
{ACAD_REACTORS
330
362
102
}
330
362
100
AcDbXrecord
280
     1
102
RTVSPost2010Prop28
280
     0
102
RTVSPost2010PropOp28
 70
     1
102
RTVSPost2010Prop29
280
     1
102
RTVSPost2010PropOp29
 70
     1
102
RTVSPost2010Prop30
280
     1
102
RTVSPost2010PropOp30
 70
     1
102
RTVSPost2010Prop31
280
     0
102
RTVSPost2010PropOp31
 70
     1
102
RTVSPost2010Prop32
280
     0
102
RTVSPost2010PropOp32
 70
     1
102
RTVSPost2010Prop33
280
     0
102
RTVSPost2010PropOp33
 70
     1
102
RTVSPost2010Prop34
280
     0
102
RTVSPost2010PropOp34
 70
     1
102
RTVSPost2010Prop35
280
     0
102
RTVSPost2010PropOp35
 70
     1
102
RTVSPost2010Prop36
280
     0
102
RTVSPost2010PropOp36
 70
     1
102
RTVSPost2010Prop37
 90
       50
102
RTVSPost2010PropOp37
 70
     1
102
RTVSPost2010Prop38
140
0.0
102
RTVSPost2010PropOp38
 70
     1
102
RTVSPost2010Prop39
140
1.0
102
RTVSPost2010PropOp39
 70
     1
102
RTVSPost2010Prop40
 90
        0
102
RTVSPost2010PropOp40
 70
     1
102
RTVSPost2010Prop41ColorIndex
 90
       18
102
RTVSPost2010Prop41ColorRGB
 90
        0
102
RTVSPost2010PropOp41
 70
     1
102
RTVSPost2010Prop42
 90
       50
102
RTVSPost2010PropOp42
 70
     1
102
RTVSPost2010Prop43
 90
        3
102
RTVSPost2010PropOp43
 70
     1
102
RTVSPost2010Prop44ColorIndex
 90
        5
102
RTVSPost2010Prop44ColorRGB
 90
      255
102
RTVSPost2010PropOp44
 70
     1
102
RTVSPost2010Prop45
280
     0
102
RTVSPost2010PropOp45
 70
     1
102
RTVSPost2010Prop46
 90
       50
102
RTVSPost2010PropOp46
 70
     1
102
RTVSPost2010Prop47
 90
       50
102
RTVSPost2010PropOp47
 70
     1
102
RTVSPost2010Prop48
 90
       50
102
RTVSPost2010PropOp48
 70
     1
102
RTVSPost2010Prop49
280
     0
102
RTVSPost2010PropOp49
 70
     1
102
RTVSPost2010Prop50
 90
       50
102
RTVSPost2010PropOp50
 70
     1
102
RTVSPost2010Prop51ColorIndex
 90
      256
102
RTVSPost2010Prop51ColorRGB
 90
-16777216
102
RTVSPost2010PropOp51
 70
     0
102
RTVSPost2010Prop52
140
1.0
102
RTVSPost2010PropOp52
 70
     0
102
RTVSPost2010Prop53
 90
        2
102
RTVSPost2010PropOp53
 70
     1
102
RTVSPost2010Prop54
  1
strokes_ogs.tif
102
RTVSPost2010PropOp54
 70
     1
102
RTVSPost2010Prop55
280
     0
102
RTVSPost2010PropOp55
 70
     1
102
RTVSPost2010Prop56
140
1.0
102
RTVSPost2010PropOp56
 70
     1
102
RTVSPost2010Prop57
140
1.0
102
RTVSPost2010PropOp57
 70
     1
102
RTVSPropertyOp0
 70
     1
102
RTVSPropertyOp1
 70
     1
102
RTVSPropertyOp2
 70
     1
102
RTVSPropertyOp3
 70
     1
102
RTVSPropertyOp4
 70
     1
102
RTVSPropertyOp5
 70
     1
102
RTVSPropertyOp6
 70
     1
102
RTVSPropertyOp7
 70
     1
102
RTVSPropertyOp8
 70
     1
102
RTVSPropertyOp9
 70
     1
102
RTVSPropertyOp10
 70
     1
102
RTVSPropertyOp11
 70
     1
102
RTVSPropertyOp12
 70
     1
102
RTVSPropertyOp13
 70
     1
102
RTVSPropertyOp14
 70
     1
102
RTVSPropertyOp15
 70
     1
102
RTVSPropertyOp16
 70
     1
102
RTVSPropertyOp17
 70
     1
102
RTVSPropertyOp18
 70
     1
102
RTVSPropertyOp19
 70
     1
102
RTVSPropertyOp20
 70
     1
102
RTVSPropertyOp21
 70
     1
102
RTVSPropertyOp22
 70
     1
102
RTVSPropertyOp23
 70
     1
102
RTVSPropertyOp24
 70
     1
102
RTVSPropertyOp25
 70
     1
102
RTVSPropertyOp26
 70
     1
102
RTVSPropertyOp27
 70
     1
102
RTVSPropertyOp28
 70
     1
102
RTVSPropertyOp29
 70
     1
102
RTVSPropertyOp30
 70
     1
102
RTVSPropertyOp31
 70
     1
102
RTVSPropertyOp32
 70
     1
102
RTVSPropertyOp33
 70
     1
102
RTVSPropertyOp34
 70
     1
102
RTVSPropertyOp35
 70
     1
102
RTVSPropertyOp36
 70
     1
102
RTVSPropertyOp37
 70
     1
102
RTVSPropertyOp38
 70
     1
102
RTVSPropertyOp39
 70
     1
102
RTVSPropertyOp40
 70
     1
102
RTVSPropertyOp41
 70
     1
102
RTVSPropertyOp42
 70
     1
102
RTVSPropertyOp43
 70
     1
102
RTVSPropertyOp44
 70
     1
102
RTVSPropertyOp45
 70
     1
102
RTVSPropertyOp46
 70
     1
102
RTVSPropertyOp47
 70
     1
102
RTVSPropertyOp48
 70
     1
102
RTVSPropertyOp49
 70
     1
102
RTVSPropertyOp50
 70
     1
102
RTVSPropertyOp51
 70
     0
102
RTVSPropertyOp52
 70
     0
102
RTVSPropertyOp53
 70
     1
102
RTVSPropertyOp54
 70
     1
102
RTVSPropertyOp55
 70
     1
102
RTVSPropertyOp56
 70
     1
102
RTVSPropertyOp57
 70
     1
102
RTVSPropertyOp58
 70
     1
102
RTVSPropertyOp59
 70
     1
102
RTVSPropertyOp60
 70
     1
102
RTVSPropertyOp61
 70
     1
102
RTVSPropertyOp62
 70
     1
  0
XRECORD
  5
365
102
{ACAD_REACTORS
330
364
102
}
330
364
100
AcDbXrecord
280
     1
102
RTVSPost2010Prop28
280
     0
102
RTVSPost2010PropOp28
 70
     1
102
RTVSPost2010Prop29
280
     1
102
RTVSPost2010PropOp29
 70
     1
102
RTVSPost2010Prop30
280
     1
102
RTVSPost2010PropOp30
 70
     1
102
RTVSPost2010Prop31
280
     0
102
RTVSPost2010PropOp31
 70
     1
102
RTVSPost2010Prop32
280
     0
102
RTVSPost2010PropOp32
 70
     1
102
RTVSPost2010Prop33
280
     0
102
RTVSPost2010PropOp33
 70
     1
102
RTVSPost2010Prop34
280
     0
102
RTVSPost2010PropOp34
 70
     1
102
RTVSPost2010Prop35
280
     0
102
RTVSPost2010PropOp35
 70
     1
102
RTVSPost2010Prop36
280
     0
102
RTVSPost2010PropOp36
 70
     1
102
RTVSPost2010Prop37
 90
       50
102
RTVSPost2010PropOp37
 70
     1
102
RTVSPost2010Prop38
140
0.0
102
RTVSPost2010PropOp38
 70
     1
102
RTVSPost2010Prop39
140
1.0
102
RTVSPost2010PropOp39
 70
     1
102
RTVSPost2010Prop40
 90
        0
102
RTVSPost2010PropOp40
 70
     1
102
RTVSPost2010Prop41ColorIndex
 90
       18
102
RTVSPost2010Prop41ColorRGB
 90
        0
102
RTVSPost2010PropOp41
 70
     1
102
RTVSPost2010Prop42
 90
       50
102
RTVSPost2010PropOp42
 70
     1
102
RTVSPost2010Prop43
 90
        3
102
RTVSPost2010PropOp43
 70
     1
102
RTVSPost2010Prop44ColorIndex
 90
        5
102
RTVSPost2010Prop44ColorRGB
 90
      255
102
RTVSPost2010PropOp44
 70
     1
102
RTVSPost2010Prop45
280
     0
102
RTVSPost2010PropOp45
 70
     1
102
RTVSPost2010Prop46
 90
       50
102
RTVSPost2010PropOp46
 70
     1
102
RTVSPost2010Prop47
 90
       50
102
RTVSPost2010PropOp47
 70
     1
102
RTVSPost2010Prop48
 90
       50
102
RTVSPost2010PropOp48
 70
     1
102
RTVSPost2010Prop49
280
     0
102
RTVSPost2010PropOp49
 70
     1
102
RTVSPost2010Prop50
 90
       50
102
RTVSPost2010PropOp50
 70
     1
102
RTVSPost2010Prop51ColorIndex
 90
      256
102
RTVSPost2010Prop51ColorRGB
 90
-16777216
102
RTVSPost2010PropOp51
 70
     0
102
RTVSPost2010Prop52
140
1.0
102
RTVSPost2010PropOp52
 70
     0
102
RTVSPost2010Prop53
 90
        2
102
RTVSPost2010PropOp53
 70
     1
102
RTVSPost2010Prop54
  1
strokes_ogs.tif
102
RTVSPost2010PropOp54
 70
     1
102
RTVSPost2010Prop55
280
     0
102
RTVSPost2010PropOp55
 70
     1
102
RTVSPost2010Prop56
140
1.0
102
RTVSPost2010PropOp56
 70
     1
102
RTVSPost2010Prop57
140
1.0
102
RTVSPost2010PropOp57
 70
     1
102
RTVSPropertyOp0
 70
     1
102
RTVSPropertyOp1
 70
     1
102
RTVSPropertyOp2
 70
     1
102
RTVSPropertyOp3
 70
     1
102
RTVSPropertyOp4
 70
     1
102
RTVSPropertyOp5
 70
     1
102
RTVSPropertyOp6
 70
     1
102
RTVSPropertyOp7
 70
     1
102
RTVSPropertyOp8
 70
     1
102
RTVSPropertyOp9
 70
     1
102
RTVSPropertyOp10
 70
     1
102
RTVSPropertyOp11
 70
     1
102
RTVSPropertyOp12
 70
     1
102
RTVSPropertyOp13
 70
     1
102
RTVSPropertyOp14
 70
     1
102
RTVSPropertyOp15
 70
     1
102
RTVSPropertyOp16
 70
     1
102
RTVSPropertyOp17
 70
     1
102
RTVSPropertyOp18
 70
     1
102
RTVSPropertyOp19
 70
     1
102
RTVSPropertyOp20
 70
     1
102
RTVSPropertyOp21
 70
     1
102
RTVSPropertyOp22
 70
     1
102
RTVSPropertyOp23
 70
     1
102
RTVSPropertyOp24
 70
     1
102
RTVSPropertyOp25
 70
     1
102
RTVSPropertyOp26
 70
     1
102
RTVSPropertyOp27
 70
     1
102
RTVSPropertyOp28
 70
     1
102
RTVSPropertyOp29
 70
     1
102
RTVSPropertyOp30
 70
     1
102
RTVSPropertyOp31
 70
     1
102
RTVSPropertyOp32
 70
     1
102
RTVSPropertyOp33
 70
     1
102
RTVSPropertyOp34
 70
     1
102
RTVSPropertyOp35
 70
     1
102
RTVSPropertyOp36
 70
     1
102
RTVSPropertyOp37
 70
     1
102
RTVSPropertyOp38
 70
     1
102
RTVSPropertyOp39
 70
     1
102
RTVSPropertyOp40
 70
     1
102
RTVSPropertyOp41
 70
     1
102
RTVSPropertyOp42
 70
     1
102
RTVSPropertyOp43
 70
     1
102
RTVSPropertyOp44
 70
     1
102
RTVSPropertyOp45
 70
     1
102
RTVSPropertyOp46
 70
     1
102
RTVSPropertyOp47
 70
     1
102
RTVSPropertyOp48
 70
     1
102
RTVSPropertyOp49
 70
     1
102
RTVSPropertyOp50
 70
     1
102
RTVSPropertyOp51
 70
     0
102
RTVSPropertyOp52
 70
     0
102
RTVSPropertyOp53
 70
     1
102
RTVSPropertyOp54
 70
     1
102
RTVSPropertyOp55
 70
     1
102
RTVSPropertyOp56
 70
     1
102
RTVSPropertyOp57
 70
     1
102
RTVSPropertyOp58
 70
     1
102
RTVSPropertyOp59
 70
     1
102
RTVSPropertyOp60
 70
     1
102
RTVSPropertyOp61
 70
     1
102
RTVSPropertyOp62
 70
     1
  0
XRECORD
  5
375
102
{ACAD_REACTORS
330
374
102
}
330
374
100
AcDbXrecord
280
     1
102
RTVSPost2010Prop28
280
     0
102
RTVSPost2010PropOp28
 70
     0
102
RTVSPost2010Prop29
280
     1
102
RTVSPost2010PropOp29
 70
     0
102
RTVSPost2010Prop30
280
     1
102
RTVSPost2010PropOp30
 70
     0
102
RTVSPost2010Prop31
280
     0
102
RTVSPost2010PropOp31
 70
     0
102
RTVSPost2010Prop32
280
     0
102
RTVSPost2010PropOp32
 70
     0
102
RTVSPost2010Prop33
280
     0
102
RTVSPost2010PropOp33
 70
     0
102
RTVSPost2010Prop34
280
     0
102
RTVSPost2010PropOp34
 70
     0
102
RTVSPost2010Prop35
280
     0
102
RTVSPost2010PropOp35
 70
     0
102
RTVSPost2010Prop36
280
     0
102
RTVSPost2010PropOp36
 70
     0
102
RTVSPost2010Prop37
 90
       50
102
RTVSPost2010PropOp37
 70
     0
102
RTVSPost2010Prop38
140
0.0
102
RTVSPost2010PropOp38
 70
     0
102
RTVSPost2010Prop39
140
1.0
102
RTVSPost2010PropOp39
 70
     0
102
RTVSPost2010Prop40
 90
        0
102
RTVSPost2010PropOp40
 70
     0
102
RTVSPost2010Prop41ColorIndex
 90
       18
102
RTVSPost2010Prop41ColorRGB
 90
        0
102
RTVSPost2010PropOp41
 70
     0
102
RTVSPost2010Prop42
 90
       50
102
RTVSPost2010PropOp42
 70
     0
102
RTVSPost2010Prop43
 90
        3
102
RTVSPost2010PropOp43
 70
     0
102
RTVSPost2010Prop44ColorIndex
 90
        5
102
RTVSPost2010Prop44ColorRGB
 90
      255
102
RTVSPost2010PropOp44
 70
     0
102
RTVSPost2010Prop45
280
     0
102
RTVSPost2010PropOp45
 70
     0
102
RTVSPost2010Prop46
 90
       50
102
RTVSPost2010PropOp46
 70
     0
102
RTVSPost2010Prop47
 90
       50
102
RTVSPost2010PropOp47
 70
     0
102
RTVSPost2010Prop48
 90
       50
102
RTVSPost2010PropOp48
 70
     0
102
RTVSPost2010Prop49
280
     0
102
RTVSPost2010PropOp49
 70
     0
102
RTVSPost2010Prop50
 90
       50
102
RTVSPost2010PropOp50
 70
     0
102
RTVSPost2010Prop51ColorIndex
 90
      256
102
RTVSPost2010Prop51ColorRGB
 90
-16777216
102
RTVSPost2010PropOp51
 70
     0
102
RTVSPost2010Prop52
140
1.0
102
RTVSPost2010PropOp52
 70
     0
102
RTVSPost2010Prop53
 90
        2
102
RTVSPost2010PropOp53
 70
     0
102
RTVSPost2010Prop54
  1
strokes_ogs.tif
102
RTVSPost2010PropOp54
 70
     0
102
RTVSPost2010Prop55
280
     0
102
RTVSPost2010PropOp55
 70
     0
102
RTVSPost2010Prop56
140
1.0
102
RTVSPost2010PropOp56
 70
     0
102
RTVSPost2010Prop57
140
1.0
102
RTVSPost2010PropOp57
 70
     0
102
RTVSPropertyOp0
 70
     0
102
RTVSPropertyOp1
 70
     0
102
RTVSPropertyOp2
 70
     0
102
RTVSPropertyOp3
 70
     0
102
RTVSPropertyOp4
 70
     0
102
RTVSPropertyOp5
 70
     0
102
RTVSPropertyOp6
 70
     0
102
RTVSPropertyOp7
 70
     0
102
RTVSPropertyOp8
 70
     0
102
RTVSPropertyOp9
 70
     0
102
RTVSPropertyOp10
 70
     0
102
RTVSPropertyOp11
 70
     0
102
RTVSPropertyOp12
 70
     0
102
RTVSPropertyOp13
 70
     0
102
RTVSPropertyOp14
 70
     2
102
RTVSPropertyOp15
 70
     0
102
RTVSPropertyOp16
 70
     0
102
RTVSPropertyOp17
 70
     0
102
RTVSPropertyOp18
 70
     0
102
RTVSPropertyOp19
 70
     0
102
RTVSPropertyOp20
 70
     0
102
RTVSPropertyOp21
 70
     0
102
RTVSPropertyOp22
 70
     0
102
RTVSPropertyOp23
 70
     0
102
RTVSPropertyOp24
 70
     0
102
RTVSPropertyOp25
 70
     0
102
RTVSPropertyOp26
 70
     0
102
RTVSPropertyOp27
 70
     0
102
RTVSPropertyOp28
 70
     0
102
RTVSPropertyOp29
 70
     0
102
RTVSPropertyOp30
 70
     0
102
RTVSPropertyOp31
 70
     0
102
RTVSPropertyOp32
 70
     0
102
RTVSPropertyOp33
 70
     0
102
RTVSPropertyOp34
 70
     0
102
RTVSPropertyOp35
 70
     0
102
RTVSPropertyOp36
 70
     0
102
RTVSPropertyOp37
 70
     0
102
RTVSPropertyOp38
 70
     0
102
RTVSPropertyOp39
 70
     0
102
RTVSPropertyOp40
 70
     0
102
RTVSPropertyOp41
 70
     0
102
RTVSPropertyOp42
 70
     0
102
RTVSPropertyOp43
 70
     0
102
RTVSPropertyOp44
 70
     0
102
RTVSPropertyOp45
 70
     0
102
RTVSPropertyOp46
 70
     0
102
RTVSPropertyOp47
 70
     0
102
RTVSPropertyOp48
 70
     0
102
RTVSPropertyOp49
 70
     0
102
RTVSPropertyOp50
 70
     0
102
RTVSPropertyOp51
 70
     0
102
RTVSPropertyOp52
 70
     0
102
RTVSPropertyOp53
 70
     0
102
RTVSPropertyOp54
 70
     0
102
RTVSPropertyOp55
 70
     0
102
RTVSPropertyOp56
 70
     0
102
RTVSPropertyOp57
 70
     0
102
RTVSPropertyOp58
 70
     1
102
RTVSPropertyOp59
 70
     1
102
RTVSPropertyOp60
 70
     1
102
RTVSPropertyOp61
 70
     1
102
RTVSPropertyOp62
 70
     1
  0
XRECORD
  5
36D
102
{ACAD_REACTORS
330
36C
102
}
330
36C
100
AcDbXrecord
280
     1
102
RTVSPost2010Prop28
280
     0
102
RTVSPost2010PropOp28
 70
     1
102
RTVSPost2010Prop29
280
     1
102
RTVSPost2010PropOp29
 70
     1
102
RTVSPost2010Prop30
280
     1
102
RTVSPost2010PropOp30
 70
     1
102
RTVSPost2010Prop31
280
     0
102
RTVSPost2010PropOp31
 70
     1
102
RTVSPost2010Prop32
280
     0
102
RTVSPost2010PropOp32
 70
     1
102
RTVSPost2010Prop33
280
     0
102
RTVSPost2010PropOp33
 70
     1
102
RTVSPost2010Prop34
280
     0
102
RTVSPost2010PropOp34
 70
     1
102
RTVSPost2010Prop35
280
     0
102
RTVSPost2010PropOp35
 70
     1
102
RTVSPost2010Prop36
280
     0
102
RTVSPost2010PropOp36
 70
     1
102
RTVSPost2010Prop37
 90
       50
102
RTVSPost2010PropOp37
 70
     1
102
RTVSPost2010Prop38
140
0.0
102
RTVSPost2010PropOp38
 70
     1
102
RTVSPost2010Prop39
140
1.0
102
RTVSPost2010PropOp39
 70
     1
102
RTVSPost2010Prop40
 90
        0
102
RTVSPost2010PropOp40
 70
     1
102
RTVSPost2010Prop41ColorIndex
 90
       18
102
RTVSPost2010Prop41ColorRGB
 90
        0
102
RTVSPost2010PropOp41
 70
     1
102
RTVSPost2010Prop42
 90
       50
102
RTVSPost2010PropOp42
 70
     1
102
RTVSPost2010Prop43
 90
        3
102
RTVSPost2010PropOp43
 70
     1
102
RTVSPost2010Prop44ColorIndex
 90
        5
102
RTVSPost2010Prop44ColorRGB
 90
      255
102
RTVSPost2010PropOp44
 70
     1
102
RTVSPost2010Prop45
280
     0
102
RTVSPost2010PropOp45
 70
     1
102
RTVSPost2010Prop46
 90
       50
102
RTVSPost2010PropOp46
 70
     1
102
RTVSPost2010Prop47
 90
       50
102
RTVSPost2010PropOp47
 70
     1
102
RTVSPost2010Prop48
 90
       50
102
RTVSPost2010PropOp48
 70
     1
102
RTVSPost2010Prop49
280
     0
102
RTVSPost2010PropOp49
 70
     1
102
RTVSPost2010Prop50
 90
       50
102
RTVSPost2010PropOp50
 70
     1
102
RTVSPost2010Prop51ColorIndex
 90
      256
102
RTVSPost2010Prop51ColorRGB
 90
-16777216
102
RTVSPost2010PropOp51
 70
     0
102
RTVSPost2010Prop52
140
1.0
102
RTVSPost2010PropOp52
 70
     0
102
RTVSPost2010Prop53
 90
        2
102
RTVSPost2010PropOp53
 70
     1
102
RTVSPost2010Prop54
  1
strokes_ogs.tif
102
RTVSPost2010PropOp54
 70
     1
102
RTVSPost2010Prop55
280
     0
102
RTVSPost2010PropOp55
 70
     1
102
RTVSPost2010Prop56
140
1.0
102
RTVSPost2010PropOp56
 70
     1
102
RTVSPost2010Prop57
140
1.0
102
RTVSPost2010PropOp57
 70
     1
102
RTVSPropertyOp0
 70
     1
102
RTVSPropertyOp1
 70
     1
102
RTVSPropertyOp2
 70
     1
102
RTVSPropertyOp3
 70
     1
102
RTVSPropertyOp4
 70
     1
102
RTVSPropertyOp5
 70
     1
102
RTVSPropertyOp6
 70
     1
102
RTVSPropertyOp7
 70
     1
102
RTVSPropertyOp8
 70
     1
102
RTVSPropertyOp9
 70
     1
102
RTVSPropertyOp10
 70
     1
102
RTVSPropertyOp11
 70
     1
102
RTVSPropertyOp12
 70
     1
102
RTVSPropertyOp13
 70
     1
102
RTVSPropertyOp14
 70
     1
102
RTVSPropertyOp15
 70
     1
102
RTVSPropertyOp16
 70
     1
102
RTVSPropertyOp17
 70
     1
102
RTVSPropertyOp18
 70
     1
102
RTVSPropertyOp19
 70
     1
102
RTVSPropertyOp20
 70
     1
102
RTVSPropertyOp21
 70
     1
102
RTVSPropertyOp22
 70
     1
102
RTVSPropertyOp23
 70
     1
102
RTVSPropertyOp24
 70
     1
102
RTVSPropertyOp25
 70
     1
102
RTVSPropertyOp26
 70
     1
102
RTVSPropertyOp27
 70
     1
102
RTVSPropertyOp28
 70
     1
102
RTVSPropertyOp29
 70
     1
102
RTVSPropertyOp30
 70
     1
102
RTVSPropertyOp31
 70
     1
102
RTVSPropertyOp32
 70
     1
102
RTVSPropertyOp33
 70
     1
102
RTVSPropertyOp34
 70
     1
102
RTVSPropertyOp35
 70
     1
102
RTVSPropertyOp36
 70
     1
102
RTVSPropertyOp37
 70
     1
102
RTVSPropertyOp38
 70
     1
102
RTVSPropertyOp39
 70
     1
102
RTVSPropertyOp40
 70
     1
102
RTVSPropertyOp41
 70
     1
102
RTVSPropertyOp42
 70
     1
102
RTVSPropertyOp43
 70
     1
102
RTVSPropertyOp44
 70
     1
102
RTVSPropertyOp45
 70
     1
102
RTVSPropertyOp46
 70
     1
102
RTVSPropertyOp47
 70
     1
102
RTVSPropertyOp48
 70
     1
102
RTVSPropertyOp49
 70
     1
102
RTVSPropertyOp50
 70
     1
102
RTVSPropertyOp51
 70
     0
102
RTVSPropertyOp52
 70
     0
102
RTVSPropertyOp53
 70
     1
102
RTVSPropertyOp54
 70
     1
102
RTVSPropertyOp55
 70
     1
102
RTVSPropertyOp56
 70
     1
102
RTVSPropertyOp57
 70
     1
102
RTVSPropertyOp58
 70
     1
102
RTVSPropertyOp59
 70
     1
102
RTVSPropertyOp60
 70
     1
102
RTVSPropertyOp61
 70
     1
102
RTVSPropertyOp62
 70
     1
  0
XRECORD
  5
351
102
{ACAD_REACTORS
330
350
102
}
330
350
100
AcDbXrecord
280
     1
102
RTVSPost2010Prop28
280
     0
102
RTVSPost2010PropOp28
 70
     1
102
RTVSPost2010Prop29
280
     1
102
RTVSPost2010PropOp29
 70
     1
102
RTVSPost2010Prop30
280
     1
102
RTVSPost2010PropOp30
 70
     1
102
RTVSPost2010Prop31
280
     0
102
RTVSPost2010PropOp31
 70
     1
102
RTVSPost2010Prop32
280
     0
102
RTVSPost2010PropOp32
 70
     1
102
RTVSPost2010Prop33
280
     0
102
RTVSPost2010PropOp33
 70
     1
102
RTVSPost2010Prop34
280
     0
102
RTVSPost2010PropOp34
 70
     1
102
RTVSPost2010Prop35
280
     0
102
RTVSPost2010PropOp35
 70
     1
102
RTVSPost2010Prop36
280
     0
102
RTVSPost2010PropOp36
 70
     1
102
RTVSPost2010Prop37
 90
       50
102
RTVSPost2010PropOp37
 70
     1
102
RTVSPost2010Prop38
140
0.0
102
RTVSPost2010PropOp38
 70
     1
102
RTVSPost2010Prop39
140
1.0
102
RTVSPost2010PropOp39
 70
     1
102
RTVSPost2010Prop40
 90
        0
102
RTVSPost2010PropOp40
 70
     1
102
RTVSPost2010Prop41ColorIndex
 90
       18
102
RTVSPost2010Prop41ColorRGB
 90
        0
102
RTVSPost2010PropOp41
 70
     1
102
RTVSPost2010Prop42
 90
       50
102
RTVSPost2010PropOp42
 70
     1
102
RTVSPost2010Prop43
 90
        3
102
RTVSPost2010PropOp43
 70
     1
102
RTVSPost2010Prop44ColorIndex
 90
        5
102
RTVSPost2010Prop44ColorRGB
 90
      255
102
RTVSPost2010PropOp44
 70
     1
102
RTVSPost2010Prop45
280
     0
102
RTVSPost2010PropOp45
 70
     1
102
RTVSPost2010Prop46
 90
       50
102
RTVSPost2010PropOp46
 70
     1
102
RTVSPost2010Prop47
 90
       50
102
RTVSPost2010PropOp47
 70
     1
102
RTVSPost2010Prop48
 90
       50
102
RTVSPost2010PropOp48
 70
     1
102
RTVSPost2010Prop49
280
     0
102
RTVSPost2010PropOp49
 70
     1
102
RTVSPost2010Prop50
 90
       50
102
RTVSPost2010PropOp50
 70
     1
102
RTVSPost2010Prop51ColorIndex
 90
      256
102
RTVSPost2010Prop51ColorRGB
 90
-16777216
102
RTVSPost2010PropOp51
 70
     0
102
RTVSPost2010Prop52
140
1.0
102
RTVSPost2010PropOp52
 70
     0
102
RTVSPost2010Prop53
 90
        2
102
RTVSPost2010PropOp53
 70
     1
102
RTVSPost2010Prop54
  1
strokes_ogs.tif
102
RTVSPost2010PropOp54
 70
     1
102
RTVSPost2010Prop55
280
     0
102
RTVSPost2010PropOp55
 70
     1
102
RTVSPost2010Prop56
140
1.0
102
RTVSPost2010PropOp56
 70
     1
102
RTVSPost2010Prop57
140
1.0
102
RTVSPost2010PropOp57
 70
     1
102
RTVSPropertyOp0
 70
     1
102
RTVSPropertyOp1
 70
     1
102
RTVSPropertyOp2
 70
     1
102
RTVSPropertyOp3
 70
     1
102
RTVSPropertyOp4
 70
     1
102
RTVSPropertyOp5
 70
     1
102
RTVSPropertyOp6
 70
     1
102
RTVSPropertyOp7
 70
     1
102
RTVSPropertyOp8
 70
     1
102
RTVSPropertyOp9
 70
     1
102
RTVSPropertyOp10
 70
     1
102
RTVSPropertyOp11
 70
     1
102
RTVSPropertyOp12
 70
     1
102
RTVSPropertyOp13
 70
     1
102
RTVSPropertyOp14
 70
     1
102
RTVSPropertyOp15
 70
     1
102
RTVSPropertyOp16
 70
     1
102
RTVSPropertyOp17
 70
     1
102
RTVSPropertyOp18
 70
     1
102
RTVSPropertyOp19
 70
     1
102
RTVSPropertyOp20
 70
     1
102
RTVSPropertyOp21
 70
     1
102
RTVSPropertyOp22
 70
     1
102
RTVSPropertyOp23
 70
     1
102
RTVSPropertyOp24
 70
     1
102
RTVSPropertyOp25
 70
     1
102
RTVSPropertyOp26
 70
     1
102
RTVSPropertyOp27
 70
     1
102
RTVSPropertyOp28
 70
     1
102
RTVSPropertyOp29
 70
     1
102
RTVSPropertyOp30
 70
     1
102
RTVSPropertyOp31
 70
     1
102
RTVSPropertyOp32
 70
     1
102
RTVSPropertyOp33
 70
     1
102
RTVSPropertyOp34
 70
     1
102
RTVSPropertyOp35
 70
     1
102
RTVSPropertyOp36
 70
     1
102
RTVSPropertyOp37
 70
     1
102
RTVSPropertyOp38
 70
     1
102
RTVSPropertyOp39
 70
     1
102
RTVSPropertyOp40
 70
     1
102
RTVSPropertyOp41
 70
     1
102
RTVSPropertyOp42
 70
     1
102
RTVSPropertyOp43
 70
     1
102
RTVSPropertyOp44
 70
     1
102
RTVSPropertyOp45
 70
     1
102
RTVSPropertyOp46
 70
     1
102
RTVSPropertyOp47
 70
     1
102
RTVSPropertyOp48
 70
     1
102
RTVSPropertyOp49
 70
     1
102
RTVSPropertyOp50
 70
     1
102
RTVSPropertyOp51
 70
     0
102
RTVSPropertyOp52
 70
     0
102
RTVSPropertyOp53
 70
     1
102
RTVSPropertyOp54
 70
     1
102
RTVSPropertyOp55
 70
     1
102
RTVSPropertyOp56
 70
     1
102
RTVSPropertyOp57
 70
     1
102
RTVSPropertyOp58
 70
     1
102
RTVSPropertyOp59
 70
     1
102
RTVSPropertyOp60
 70
     1
102
RTVSPropertyOp61
 70
     1
102
RTVSPropertyOp62
 70
     1
  0
XRECORD
  5
353
102
{ACAD_REACTORS
330
352
102
}
330
352
100
AcDbXrecord
280
     1
102
RTVSPost2010Prop28
280
     0
102
RTVSPost2010PropOp28
 70
     1
102
RTVSPost2010Prop29
280
     1
102
RTVSPost2010PropOp29
 70
     1
102
RTVSPost2010Prop30
280
     1
102
RTVSPost2010PropOp30
 70
     1
102
RTVSPost2010Prop31
280
     0
102
RTVSPost2010PropOp31
 70
     1
102
RTVSPost2010Prop32
280
     0
102
RTVSPost2010PropOp32
 70
     1
102
RTVSPost2010Prop33
280
     0
102
RTVSPost2010PropOp33
 70
     1
102
RTVSPost2010Prop34
280
     0
102
RTVSPost2010PropOp34
 70
     1
102
RTVSPost2010Prop35
280
     0
102
RTVSPost2010PropOp35
 70
     1
102
RTVSPost2010Prop36
280
     0
102
RTVSPost2010PropOp36
 70
     1
102
RTVSPost2010Prop37
 90
       50
102
RTVSPost2010PropOp37
 70
     1
102
RTVSPost2010Prop38
140
0.0
102
RTVSPost2010PropOp38
 70
     1
102
RTVSPost2010Prop39
140
1.0
102
RTVSPost2010PropOp39
 70
     1
102
RTVSPost2010Prop40
 90
        0
102
RTVSPost2010PropOp40
 70
     1
102
RTVSPost2010Prop41ColorIndex
 90
       18
102
RTVSPost2010Prop41ColorRGB
 90
        0
102
RTVSPost2010PropOp41
 70
     1
102
RTVSPost2010Prop42
 90
       50
102
RTVSPost2010PropOp42
 70
     1
102
RTVSPost2010Prop43
 90
        3
102
RTVSPost2010PropOp43
 70
     1
102
RTVSPost2010Prop44ColorIndex
 90
        5
102
RTVSPost2010Prop44ColorRGB
 90
      255
102
RTVSPost2010PropOp44
 70
     1
102
RTVSPost2010Prop45
280
     0
102
RTVSPost2010PropOp45
 70
     1
102
RTVSPost2010Prop46
 90
       50
102
RTVSPost2010PropOp46
 70
     1
102
RTVSPost2010Prop47
 90
       50
102
RTVSPost2010PropOp47
 70
     1
102
RTVSPost2010Prop48
 90
       50
102
RTVSPost2010PropOp48
 70
     1
102
RTVSPost2010Prop49
280
     0
102
RTVSPost2010PropOp49
 70
     1
102
RTVSPost2010Prop50
 90
       50
102
RTVSPost2010PropOp50
 70
     1
102
RTVSPost2010Prop51ColorIndex
 90
      256
102
RTVSPost2010Prop51ColorRGB
 90
-16777216
102
RTVSPost2010PropOp51
 70
     0
102
RTVSPost2010Prop52
140
1.0
102
RTVSPost2010PropOp52
 70
     0
102
RTVSPost2010Prop53
 90
        2
102
RTVSPost2010PropOp53
 70
     1
102
RTVSPost2010Prop54
  1
strokes_ogs.tif
102
RTVSPost2010PropOp54
 70
     1
102
RTVSPost2010Prop55
280
     0
102
RTVSPost2010PropOp55
 70
     1
102
RTVSPost2010Prop56
140
1.0
102
RTVSPost2010PropOp56
 70
     1
102
RTVSPost2010Prop57
140
1.0
102
RTVSPost2010PropOp57
 70
     1
102
RTVSPropertyOp0
 70
     1
102
RTVSPropertyOp1
 70
     1
102
RTVSPropertyOp2
 70
     1
102
RTVSPropertyOp3
 70
     1
102
RTVSPropertyOp4
 70
     1
102
RTVSPropertyOp5
 70
     1
102
RTVSPropertyOp6
 70
     1
102
RTVSPropertyOp7
 70
     1
102
RTVSPropertyOp8
 70
     1
102
RTVSPropertyOp9
 70
     1
102
RTVSPropertyOp10
 70
     1
102
RTVSPropertyOp11
 70
     1
102
RTVSPropertyOp12
 70
     1
102
RTVSPropertyOp13
 70
     1
102
RTVSPropertyOp14
 70
     1
102
RTVSPropertyOp15
 70
     1
102
RTVSPropertyOp16
 70
     1
102
RTVSPropertyOp17
 70
     1
102
RTVSPropertyOp18
 70
     1
102
RTVSPropertyOp19
 70
     1
102
RTVSPropertyOp20
 70
     1
102
RTVSPropertyOp21
 70
     1
102
RTVSPropertyOp22
 70
     1
102
RTVSPropertyOp23
 70
     1
102
RTVSPropertyOp24
 70
     1
102
RTVSPropertyOp25
 70
     1
102
RTVSPropertyOp26
 70
     1
102
RTVSPropertyOp27
 70
     1
102
RTVSPropertyOp28
 70
     1
102
RTVSPropertyOp29
 70
     1
102
RTVSPropertyOp30
 70
     1
102
RTVSPropertyOp31
 70
     1
102
RTVSPropertyOp32
 70
     1
102
RTVSPropertyOp33
 70
     1
102
RTVSPropertyOp34
 70
     1
102
RTVSPropertyOp35
 70
     1
102
RTVSPropertyOp36
 70
     1
102
RTVSPropertyOp37
 70
     1
102
RTVSPropertyOp38
 70
     1
102
RTVSPropertyOp39
 70
     1
102
RTVSPropertyOp40
 70
     1
102
RTVSPropertyOp41
 70
     1
102
RTVSPropertyOp42
 70
     1
102
RTVSPropertyOp43
 70
     1
102
RTVSPropertyOp44
 70
     1
102
RTVSPropertyOp45
 70
     1
102
RTVSPropertyOp46
 70
     1
102
RTVSPropertyOp47
 70
     1
102
RTVSPropertyOp48
 70
     1
102
RTVSPropertyOp49
 70
     1
102
RTVSPropertyOp50
 70
     1
102
RTVSPropertyOp51
 70
     0
102
RTVSPropertyOp52
 70
     0
102
RTVSPropertyOp53
 70
     1
102
RTVSPropertyOp54
 70
     1
102
RTVSPropertyOp55
 70
     1
102
RTVSPropertyOp56
 70
     1
102
RTVSPropertyOp57
 70
     1
102
RTVSPropertyOp58
 70
     1
102
RTVSPropertyOp59
 70
     1
102
RTVSPropertyOp60
 70
     1
102
RTVSPropertyOp61
 70
     1
102
RTVSPropertyOp62
 70
     1
  0
XRECORD
  5
355
102
{ACAD_REACTORS
330
354
102
}
330
354
100
AcDbXrecord
280
     1
102
RTVSPost2010Prop28
280
     0
102
RTVSPost2010PropOp28
 70
     1
102
RTVSPost2010Prop29
280
     1
102
RTVSPost2010PropOp29
 70
     1
102
RTVSPost2010Prop30
280
     1
102
RTVSPost2010PropOp30
 70
     1
102
RTVSPost2010Prop31
280
     0
102
RTVSPost2010PropOp31
 70
     1
102
RTVSPost2010Prop32
280
     0
102
RTVSPost2010PropOp32
 70
     1
102
RTVSPost2010Prop33
280
     0
102
RTVSPost2010PropOp33
 70
     1
102
RTVSPost2010Prop34
280
     0
102
RTVSPost2010PropOp34
 70
     1
102
RTVSPost2010Prop35
280
     0
102
RTVSPost2010PropOp35
 70
     1
102
RTVSPost2010Prop36
280
     0
102
RTVSPost2010PropOp36
 70
     1
102
RTVSPost2010Prop37
 90
       50
102
RTVSPost2010PropOp37
 70
     1
102
RTVSPost2010Prop38
140
0.0
102
RTVSPost2010PropOp38
 70
     1
102
RTVSPost2010Prop39
140
1.0
102
RTVSPost2010PropOp39
 70
     1
102
RTVSPost2010Prop40
 90
        0
102
RTVSPost2010PropOp40
 70
     1
102
RTVSPost2010Prop41ColorIndex
 90
       18
102
RTVSPost2010Prop41ColorRGB
 90
        0
102
RTVSPost2010PropOp41
 70
     1
102
RTVSPost2010Prop42
 90
       50
102
RTVSPost2010PropOp42
 70
     1
102
RTVSPost2010Prop43
 90
        3
102
RTVSPost2010PropOp43
 70
     1
102
RTVSPost2010Prop44ColorIndex
 90
        5
102
RTVSPost2010Prop44ColorRGB
 90
      255
102
RTVSPost2010PropOp44
 70
     1
102
RTVSPost2010Prop45
280
     0
102
RTVSPost2010PropOp45
 70
     1
102
RTVSPost2010Prop46
 90
       50
102
RTVSPost2010PropOp46
 70
     1
102
RTVSPost2010Prop47
 90
       50
102
RTVSPost2010PropOp47
 70
     1
102
RTVSPost2010Prop48
 90
       50
102
RTVSPost2010PropOp48
 70
     1
102
RTVSPost2010Prop49
280
     0
102
RTVSPost2010PropOp49
 70
     1
102
RTVSPost2010Prop50
 90
       50
102
RTVSPost2010PropOp50
 70
     1
102
RTVSPost2010Prop51ColorIndex
 90
      256
102
RTVSPost2010Prop51ColorRGB
 90
-16777216
102
RTVSPost2010PropOp51
 70
     0
102
RTVSPost2010Prop52
140
1.0
102
RTVSPost2010PropOp52
 70
     0
102
RTVSPost2010Prop53
 90
        2
102
RTVSPost2010PropOp53
 70
     1
102
RTVSPost2010Prop54
  1
strokes_ogs.tif
102
RTVSPost2010PropOp54
 70
     1
102
RTVSPost2010Prop55
280
     0
102
RTVSPost2010PropOp55
 70
     1
102
RTVSPost2010Prop56
140
1.0
102
RTVSPost2010PropOp56
 70
     1
102
RTVSPost2010Prop57
140
1.0
102
RTVSPost2010PropOp57
 70
     1
102
RTVSPropertyOp0
 70
     1
102
RTVSPropertyOp1
 70
     1
102
RTVSPropertyOp2
 70
     1
102
RTVSPropertyOp3
 70
     1
102
RTVSPropertyOp4
 70
     1
102
RTVSPropertyOp5
 70
     1
102
RTVSPropertyOp6
 70
     1
102
RTVSPropertyOp7
 70
     1
102
RTVSPropertyOp8
 70
     1
102
RTVSPropertyOp9
 70
     1
102
RTVSPropertyOp10
 70
     1
102
RTVSPropertyOp11
 70
     1
102
RTVSPropertyOp12
 70
     1
102
RTVSPropertyOp13
 70
     1
102
RTVSPropertyOp14
 70
     1
102
RTVSPropertyOp15
 70
     1
102
RTVSPropertyOp16
 70
     1
102
RTVSPropertyOp17
 70
     1
102
RTVSPropertyOp18
 70
     1
102
RTVSPropertyOp19
 70
     1
102
RTVSPropertyOp20
 70
     1
102
RTVSPropertyOp21
 70
     1
102
RTVSPropertyOp22
 70
     1
102
RTVSPropertyOp23
 70
     1
102
RTVSPropertyOp24
 70
     1
102
RTVSPropertyOp25
 70
     1
102
RTVSPropertyOp26
 70
     1
102
RTVSPropertyOp27
 70
     1
102
RTVSPropertyOp28
 70
     1
102
RTVSPropertyOp29
 70
     1
102
RTVSPropertyOp30
 70
     1
102
RTVSPropertyOp31
 70
     1
102
RTVSPropertyOp32
 70
     1
102
RTVSPropertyOp33
 70
     1
102
RTVSPropertyOp34
 70
     1
102
RTVSPropertyOp35
 70
     1
102
RTVSPropertyOp36
 70
     1
102
RTVSPropertyOp37
 70
     1
102
RTVSPropertyOp38
 70
     1
102
RTVSPropertyOp39
 70
     1
102
RTVSPropertyOp40
 70
     1
102
RTVSPropertyOp41
 70
     1
102
RTVSPropertyOp42
 70
     1
102
RTVSPropertyOp43
 70
     1
102
RTVSPropertyOp44
 70
     1
102
RTVSPropertyOp45
 70
     1
102
RTVSPropertyOp46
 70
     1
102
RTVSPropertyOp47
 70
     1
102
RTVSPropertyOp48
 70
     1
102
RTVSPropertyOp49
 70
     1
102
RTVSPropertyOp50
 70
     1
102
RTVSPropertyOp51
 70
     0
102
RTVSPropertyOp52
 70
     0
102
RTVSPropertyOp53
 70
     1
102
RTVSPropertyOp54
 70
     1
102
RTVSPropertyOp55
 70
     1
102
RTVSPropertyOp56
 70
     1
102
RTVSPropertyOp57
 70
     1
102
RTVSPropertyOp58
 70
     1
102
RTVSPropertyOp59
 70
     1
102
RTVSPropertyOp60
 70
     1
102
RTVSPropertyOp61
 70
     1
102
RTVSPropertyOp62
 70
     1
  0
XRECORD
  5
357
102
{ACAD_REACTORS
330
356
102
}
330
356
100
AcDbXrecord
280
     1
102
RTVSPost2010Prop28
280
     0
102
RTVSPost2010PropOp28
 70
     1
102
RTVSPost2010Prop29
280
     1
102
RTVSPost2010PropOp29
 70
     1
102
RTVSPost2010Prop30
280
     1
102
RTVSPost2010PropOp30
 70
     1
102
RTVSPost2010Prop31
280
     0
102
RTVSPost2010PropOp31
 70
     1
102
RTVSPost2010Prop32
280
     0
102
RTVSPost2010PropOp32
 70
     1
102
RTVSPost2010Prop33
280
     0
102
RTVSPost2010PropOp33
 70
     1
102
RTVSPost2010Prop34
280
     0
102
RTVSPost2010PropOp34
 70
     1
102
RTVSPost2010Prop35
280
     0
102
RTVSPost2010PropOp35
 70
     1
102
RTVSPost2010Prop36
280
     0
102
RTVSPost2010PropOp36
 70
     1
102
RTVSPost2010Prop37
 90
       50
102
RTVSPost2010PropOp37
 70
     1
102
RTVSPost2010Prop38
140
0.0
102
RTVSPost2010PropOp38
 70
     1
102
RTVSPost2010Prop39
140
1.0
102
RTVSPost2010PropOp39
 70
     1
102
RTVSPost2010Prop40
 90
        0
102
RTVSPost2010PropOp40
 70
     1
102
RTVSPost2010Prop41ColorIndex
 90
       18
102
RTVSPost2010Prop41ColorRGB
 90
        0
102
RTVSPost2010PropOp41
 70
     1
102
RTVSPost2010Prop42
 90
       50
102
RTVSPost2010PropOp42
 70
     1
102
RTVSPost2010Prop43
 90
        3
102
RTVSPost2010PropOp43
 70
     1
102
RTVSPost2010Prop44ColorIndex
 90
        5
102
RTVSPost2010Prop44ColorRGB
 90
      255
102
RTVSPost2010PropOp44
 70
     1
102
RTVSPost2010Prop45
280
     0
102
RTVSPost2010PropOp45
 70
     1
102
RTVSPost2010Prop46
 90
       50
102
RTVSPost2010PropOp46
 70
     1
102
RTVSPost2010Prop47
 90
       50
102
RTVSPost2010PropOp47
 70
     1
102
RTVSPost2010Prop48
 90
       50
102
RTVSPost2010PropOp48
 70
     1
102
RTVSPost2010Prop49
280
     0
102
RTVSPost2010PropOp49
 70
     1
102
RTVSPost2010Prop50
 90
       50
102
RTVSPost2010PropOp50
 70
     1
102
RTVSPost2010Prop51ColorIndex
 90
      256
102
RTVSPost2010Prop51ColorRGB
 90
-16777216
102
RTVSPost2010PropOp51
 70
     0
102
RTVSPost2010Prop52
140
1.0
102
RTVSPost2010PropOp52
 70
     0
102
RTVSPost2010Prop53
 90
        2
102
RTVSPost2010PropOp53
 70
     1
102
RTVSPost2010Prop54
  1
strokes_ogs.tif
102
RTVSPost2010PropOp54
 70
     1
102
RTVSPost2010Prop55
280
     0
102
RTVSPost2010PropOp55
 70
     1
102
RTVSPost2010Prop56
140
1.0
102
RTVSPost2010PropOp56
 70
     1
102
RTVSPost2010Prop57
140
1.0
102
RTVSPost2010PropOp57
 70
     1
102
RTVSPropertyOp0
 70
     1
102
RTVSPropertyOp1
 70
     1
102
RTVSPropertyOp2
 70
     1
102
RTVSPropertyOp3
 70
     1
102
RTVSPropertyOp4
 70
     1
102
RTVSPropertyOp5
 70
     1
102
RTVSPropertyOp6
 70
     1
102
RTVSPropertyOp7
 70
     1
102
RTVSPropertyOp8
 70
     1
102
RTVSPropertyOp9
 70
     1
102
RTVSPropertyOp10
 70
     1
102
RTVSPropertyOp11
 70
     1
102
RTVSPropertyOp12
 70
     1
102
RTVSPropertyOp13
 70
     1
102
RTVSPropertyOp14
 70
     1
102
RTVSPropertyOp15
 70
     1
102
RTVSPropertyOp16
 70
     1
102
RTVSPropertyOp17
 70
     1
102
RTVSPropertyOp18
 70
     1
102
RTVSPropertyOp19
 70
     1
102
RTVSPropertyOp20
 70
     1
102
RTVSPropertyOp21
 70
     1
102
RTVSPropertyOp22
 70
     1
102
RTVSPropertyOp23
 70
     1
102
RTVSPropertyOp24
 70
     1
102
RTVSPropertyOp25
 70
     1
102
RTVSPropertyOp26
 70
     1
102
RTVSPropertyOp27
 70
     1
102
RTVSPropertyOp28
 70
     1
102
RTVSPropertyOp29
 70
     1
102
RTVSPropertyOp30
 70
     1
102
RTVSPropertyOp31
 70
     1
102
RTVSPropertyOp32
 70
     1
102
RTVSPropertyOp33
 70
     1
102
RTVSPropertyOp34
 70
     1
102
RTVSPropertyOp35
 70
     1
102
RTVSPropertyOp36
 70
     1
102
RTVSPropertyOp37
 70
     1
102
RTVSPropertyOp38
 70
     1
102
RTVSPropertyOp39
 70
     1
102
RTVSPropertyOp40
 70
     1
102
RTVSPropertyOp41
 70
     1
102
RTVSPropertyOp42
 70
     1
102
RTVSPropertyOp43
 70
     1
102
RTVSPropertyOp44
 70
     1
102
RTVSPropertyOp45
 70
     1
102
RTVSPropertyOp46
 70
     1
102
RTVSPropertyOp47
 70
     1
102
RTVSPropertyOp48
 70
     1
102
RTVSPropertyOp49
 70
     1
102
RTVSPropertyOp50
 70
     1
102
RTVSPropertyOp51
 70
     0
102
RTVSPropertyOp52
 70
     0
102
RTVSPropertyOp53
 70
     1
102
RTVSPropertyOp54
 70
     1
102
RTVSPropertyOp55
 70
     1
102
RTVSPropertyOp56
 70
     1
102
RTVSPropertyOp57
 70
     1
102
RTVSPropertyOp58
 70
     1
102
RTVSPropertyOp59
 70
     1
102
RTVSPropertyOp60
 70
     1
102
RTVSPropertyOp61
 70
     1
102
RTVSPropertyOp62
 70
     1
  0
XRECORD
  5
35D
102
{ACAD_REACTORS
330
35C
102
}
330
35C
100
AcDbXrecord
280
     1
102
RTVSPost2010Prop28
280
     0
102
RTVSPost2010PropOp28
 70
     1
102
RTVSPost2010Prop29
280
     1
102
RTVSPost2010PropOp29
 70
     1
102
RTVSPost2010Prop30
280
     1
102
RTVSPost2010PropOp30
 70
     1
102
RTVSPost2010Prop31
280
     0
102
RTVSPost2010PropOp31
 70
     1
102
RTVSPost2010Prop32
280
     0
102
RTVSPost2010PropOp32
 70
     1
102
RTVSPost2010Prop33
280
     0
102
RTVSPost2010PropOp33
 70
     1
102
RTVSPost2010Prop34
280
     0
102
RTVSPost2010PropOp34
 70
     1
102
RTVSPost2010Prop35
280
     0
102
RTVSPost2010PropOp35
 70
     1
102
RTVSPost2010Prop36
280
     0
102
RTVSPost2010PropOp36
 70
     1
102
RTVSPost2010Prop37
 90
       50
102
RTVSPost2010PropOp37
 70
     1
102
RTVSPost2010Prop38
140
0.0
102
RTVSPost2010PropOp38
 70
     1
102
RTVSPost2010Prop39
140
1.0
102
RTVSPost2010PropOp39
 70
     1
102
RTVSPost2010Prop40
 90
        0
102
RTVSPost2010PropOp40
 70
     1
102
RTVSPost2010Prop41ColorIndex
 90
       18
102
RTVSPost2010Prop41ColorRGB
 90
        0
102
RTVSPost2010PropOp41
 70
     1
102
RTVSPost2010Prop42
 90
       50
102
RTVSPost2010PropOp42
 70
     1
102
RTVSPost2010Prop43
 90
        3
102
RTVSPost2010PropOp43
 70
     1
102
RTVSPost2010Prop44ColorIndex
 90
        5
102
RTVSPost2010Prop44ColorRGB
 90
      255
102
RTVSPost2010PropOp44
 70
     1
102
RTVSPost2010Prop45
280
     0
102
RTVSPost2010PropOp45
 70
     1
102
RTVSPost2010Prop46
 90
       50
102
RTVSPost2010PropOp46
 70
     1
102
RTVSPost2010Prop47
 90
       50
102
RTVSPost2010PropOp47
 70
     1
102
RTVSPost2010Prop48
 90
       50
102
RTVSPost2010PropOp48
 70
     1
102
RTVSPost2010Prop49
280
     0
102
RTVSPost2010PropOp49
 70
     1
102
RTVSPost2010Prop50
 90
       50
102
RTVSPost2010PropOp50
 70
     1
102
RTVSPost2010Prop51ColorIndex
 90
      256
102
RTVSPost2010Prop51ColorRGB
 90
-16777216
102
RTVSPost2010PropOp51
 70
     0
102
RTVSPost2010Prop52
140
1.0
102
RTVSPost2010PropOp52
 70
     0
102
RTVSPost2010Prop53
 90
        2
102
RTVSPost2010PropOp53
 70
     1
102
RTVSPost2010Prop54
  1
strokes_ogs.tif
102
RTVSPost2010PropOp54
 70
     1
102
RTVSPost2010Prop55
280
     0
102
RTVSPost2010PropOp55
 70
     1
102
RTVSPost2010Prop56
140
1.0
102
RTVSPost2010PropOp56
 70
     1
102
RTVSPost2010Prop57
140
1.0
102
RTVSPost2010PropOp57
 70
     1
102
RTVSPropertyOp0
 70
     1
102
RTVSPropertyOp1
 70
     1
102
RTVSPropertyOp2
 70
     1
102
RTVSPropertyOp3
 70
     1
102
RTVSPropertyOp4
 70
     1
102
RTVSPropertyOp5
 70
     1
102
RTVSPropertyOp6
 70
     1
102
RTVSPropertyOp7
 70
     1
102
RTVSPropertyOp8
 70
     1
102
RTVSPropertyOp9
 70
     1
102
RTVSPropertyOp10
 70
     1
102
RTVSPropertyOp11
 70
     1
102
RTVSPropertyOp12
 70
     1
102
RTVSPropertyOp13
 70
     1
102
RTVSPropertyOp14
 70
     1
102
RTVSPropertyOp15
 70
     1
102
RTVSPropertyOp16
 70
     1
102
RTVSPropertyOp17
 70
     1
102
RTVSPropertyOp18
 70
     1
102
RTVSPropertyOp19
 70
     1
102
RTVSPropertyOp20
 70
     1
102
RTVSPropertyOp21
 70
     1
102
RTVSPropertyOp22
 70
     1
102
RTVSPropertyOp23
 70
     1
102
RTVSPropertyOp24
 70
     1
102
RTVSPropertyOp25
 70
     1
102
RTVSPropertyOp26
 70
     1
102
RTVSPropertyOp27
 70
     1
102
RTVSPropertyOp28
 70
     1
102
RTVSPropertyOp29
 70
     1
102
RTVSPropertyOp30
 70
     1
102
RTVSPropertyOp31
 70
     1
102
RTVSPropertyOp32
 70
     1
102
RTVSPropertyOp33
 70
     1
102
RTVSPropertyOp34
 70
     1
102
RTVSPropertyOp35
 70
     1
102
RTVSPropertyOp36
 70
     1
102
RTVSPropertyOp37
 70
     1
102
RTVSPropertyOp38
 70
     1
102
RTVSPropertyOp39
 70
     1
102
RTVSPropertyOp40
 70
     1
102
RTVSPropertyOp41
 70
     1
102
RTVSPropertyOp42
 70
     1
102
RTVSPropertyOp43
 70
     1
102
RTVSPropertyOp44
 70
     1
102
RTVSPropertyOp45
 70
     1
102
RTVSPropertyOp46
 70
     1
102
RTVSPropertyOp47
 70
     1
102
RTVSPropertyOp48
 70
     1
102
RTVSPropertyOp49
 70
     1
102
RTVSPropertyOp50
 70
     1
102
RTVSPropertyOp51
 70
     0
102
RTVSPropertyOp52
 70
     0
102
RTVSPropertyOp53
 70
     1
102
RTVSPropertyOp54
 70
     1
102
RTVSPropertyOp55
 70
     1
102
RTVSPropertyOp56
 70
     1
102
RTVSPropertyOp57
 70
     1
102
RTVSPropertyOp58
 70
     1
102
RTVSPropertyOp59
 70
     1
102
RTVSPropertyOp60
 70
     1
102
RTVSPropertyOp61
 70
     1
102
RTVSPropertyOp62
 70
     1
  0
XRECORD
  5
371
102
{ACAD_REACTORS
330
370
102
}
330
370
100
AcDbXrecord
280
     1
102
RTVSPost2010Prop28
280
     0
102
RTVSPost2010PropOp28
 70
     0
102
RTVSPost2010Prop29
280
     1
102
RTVSPost2010PropOp29
 70
     0
102
RTVSPost2010Prop30
280
     1
102
RTVSPost2010PropOp30
 70
     0
102
RTVSPost2010Prop31
280
     0
102
RTVSPost2010PropOp31
 70
     0
102
RTVSPost2010Prop32
280
     0
102
RTVSPost2010PropOp32
 70
     0
102
RTVSPost2010Prop33
280
     0
102
RTVSPost2010PropOp33
 70
     0
102
RTVSPost2010Prop34
280
     0
102
RTVSPost2010PropOp34
 70
     0
102
RTVSPost2010Prop35
280
     0
102
RTVSPost2010PropOp35
 70
     0
102
RTVSPost2010Prop36
280
     0
102
RTVSPost2010PropOp36
 70
     0
102
RTVSPost2010Prop37
 90
       50
102
RTVSPost2010PropOp37
 70
     0
102
RTVSPost2010Prop38
140
0.0
102
RTVSPost2010PropOp38
 70
     0
102
RTVSPost2010Prop39
140
1.0
102
RTVSPost2010PropOp39
 70
     0
102
RTVSPost2010Prop40
 90
        0
102
RTVSPost2010PropOp40
 70
     0
102
RTVSPost2010Prop41ColorIndex
 90
       18
102
RTVSPost2010Prop41ColorRGB
 90
        0
102
RTVSPost2010PropOp41
 70
     0
102
RTVSPost2010Prop42
 90
       50
102
RTVSPost2010PropOp42
 70
     0
102
RTVSPost2010Prop43
 90
        3
102
RTVSPost2010PropOp43
 70
     0
102
RTVSPost2010Prop44ColorIndex
 90
        5
102
RTVSPost2010Prop44ColorRGB
 90
      255
102
RTVSPost2010PropOp44
 70
     0
102
RTVSPost2010Prop45
280
     0
102
RTVSPost2010PropOp45
 70
     0
102
RTVSPost2010Prop46
 90
       50
102
RTVSPost2010PropOp46
 70
     0
102
RTVSPost2010Prop47
 90
       50
102
RTVSPost2010PropOp47
 70
     0
102
RTVSPost2010Prop48
 90
       50
102
RTVSPost2010PropOp48
 70
     0
102
RTVSPost2010Prop49
280
     0
102
RTVSPost2010PropOp49
 70
     0
102
RTVSPost2010Prop50
 90
       50
102
RTVSPost2010PropOp50
 70
     0
102
RTVSPost2010Prop51ColorIndex
 90
      256
102
RTVSPost2010Prop51ColorRGB
 90
-16777216
102
RTVSPost2010PropOp51
 70
     0
102
RTVSPost2010Prop52
140
1.0
102
RTVSPost2010PropOp52
 70
     0
102
RTVSPost2010Prop53
 90
        2
102
RTVSPost2010PropOp53
 70
     0
102
RTVSPost2010Prop54
  1
strokes_ogs.tif
102
RTVSPost2010PropOp54
 70
     0
102
RTVSPost2010Prop55
280
     0
102
RTVSPost2010PropOp55
 70
     0
102
RTVSPost2010Prop56
140
1.0
102
RTVSPost2010PropOp56
 70
     0
102
RTVSPost2010Prop57
140
1.0
102
RTVSPost2010PropOp57
 70
     0
102
RTVSPropertyOp0
 70
     0
102
RTVSPropertyOp1
 70
     0
102
RTVSPropertyOp2
 70
     0
102
RTVSPropertyOp3
 70
     0
102
RTVSPropertyOp4
 70
     0
102
RTVSPropertyOp5
 70
     0
102
RTVSPropertyOp6
 70
     0
102
RTVSPropertyOp7
 70
     0
102
RTVSPropertyOp8
 70
     0
102
RTVSPropertyOp9
 70
     0
102
RTVSPropertyOp10
 70
     0
102
RTVSPropertyOp11
 70
     0
102
RTVSPropertyOp12
 70
     0
102
RTVSPropertyOp13
 70
     0
102
RTVSPropertyOp14
 70
     2
102
RTVSPropertyOp15
 70
     0
102
RTVSPropertyOp16
 70
     0
102
RTVSPropertyOp17
 70
     0
102
RTVSPropertyOp18
 70
     0
102
RTVSPropertyOp19
 70
     0
102
RTVSPropertyOp20
 70
     0
102
RTVSPropertyOp21
 70
     0
102
RTVSPropertyOp22
 70
     0
102
RTVSPropertyOp23
 70
     0
102
RTVSPropertyOp24
 70
     0
102
RTVSPropertyOp25
 70
     0
102
RTVSPropertyOp26
 70
     0
102
RTVSPropertyOp27
 70
     0
102
RTVSPropertyOp28
 70
     0
102
RTVSPropertyOp29
 70
     0
102
RTVSPropertyOp30
 70
     0
102
RTVSPropertyOp31
 70
     0
102
RTVSPropertyOp32
 70
     0
102
RTVSPropertyOp33
 70
     0
102
RTVSPropertyOp34
 70
     0
102
RTVSPropertyOp35
 70
     0
102
RTVSPropertyOp36
 70
     0
102
RTVSPropertyOp37
 70
     0
102
RTVSPropertyOp38
 70
     0
102
RTVSPropertyOp39
 70
     0
102
RTVSPropertyOp40
 70
     0
102
RTVSPropertyOp41
 70
     0
102
RTVSPropertyOp42
 70
     0
102
RTVSPropertyOp43
 70
     0
102
RTVSPropertyOp44
 70
     0
102
RTVSPropertyOp45
 70
     0
102
RTVSPropertyOp46
 70
     0
102
RTVSPropertyOp47
 70
     0
102
RTVSPropertyOp48
 70
     0
102
RTVSPropertyOp49
 70
     0
102
RTVSPropertyOp50
 70
     0
102
RTVSPropertyOp51
 70
     0
102
RTVSPropertyOp52
 70
     0
102
RTVSPropertyOp53
 70
     0
102
RTVSPropertyOp54
 70
     0
102
RTVSPropertyOp55
 70
     0
102
RTVSPropertyOp56
 70
     0
102
RTVSPropertyOp57
 70
     0
102
RTVSPropertyOp58
 70
     1
102
RTVSPropertyOp59
 70
     1
102
RTVSPropertyOp60
 70
     1
102
RTVSPropertyOp61
 70
     1
102
RTVSPropertyOp62
 70
     1
  0
XRECORD
  5
36B
102
{ACAD_REACTORS
330
36A
102
}
330
36A
100
AcDbXrecord
280
     1
102
RTVSPost2010Prop28
280
     0
102
RTVSPost2010PropOp28
 70
     1
102
RTVSPost2010Prop29
280
     1
102
RTVSPost2010PropOp29
 70
     1
102
RTVSPost2010Prop30
280
     1
102
RTVSPost2010PropOp30
 70
     1
102
RTVSPost2010Prop31
280
     0
102
RTVSPost2010PropOp31
 70
     1
102
RTVSPost2010Prop32
280
     0
102
RTVSPost2010PropOp32
 70
     1
102
RTVSPost2010Prop33
280
     0
102
RTVSPost2010PropOp33
 70
     1
102
RTVSPost2010Prop34
280
     0
102
RTVSPost2010PropOp34
 70
     1
102
RTVSPost2010Prop35
280
     0
102
RTVSPost2010PropOp35
 70
     1
102
RTVSPost2010Prop36
280
     0
102
RTVSPost2010PropOp36
 70
     1
102
RTVSPost2010Prop37
 90
       50
102
RTVSPost2010PropOp37
 70
     1
102
RTVSPost2010Prop38
140
0.0
102
RTVSPost2010PropOp38
 70
     1
102
RTVSPost2010Prop39
140
1.0
102
RTVSPost2010PropOp39
 70
     1
102
RTVSPost2010Prop40
 90
        0
102
RTVSPost2010PropOp40
 70
     1
102
RTVSPost2010Prop41ColorIndex
 90
       18
102
RTVSPost2010Prop41ColorRGB
 90
        0
102
RTVSPost2010PropOp41
 70
     1
102
RTVSPost2010Prop42
 90
       50
102
RTVSPost2010PropOp42
 70
     1
102
RTVSPost2010Prop43
 90
        3
102
RTVSPost2010PropOp43
 70
     1
102
RTVSPost2010Prop44ColorIndex
 90
        5
102
RTVSPost2010Prop44ColorRGB
 90
      255
102
RTVSPost2010PropOp44
 70
     1
102
RTVSPost2010Prop45
280
     0
102
RTVSPost2010PropOp45
 70
     1
102
RTVSPost2010Prop46
 90
       50
102
RTVSPost2010PropOp46
 70
     1
102
RTVSPost2010Prop47
 90
       50
102
RTVSPost2010PropOp47
 70
     1
102
RTVSPost2010Prop48
 90
       50
102
RTVSPost2010PropOp48
 70
     1
102
RTVSPost2010Prop49
280
     0
102
RTVSPost2010PropOp49
 70
     1
102
RTVSPost2010Prop50
 90
       50
102
RTVSPost2010PropOp50
 70
     1
102
RTVSPost2010Prop51ColorIndex
 90
      256
102
RTVSPost2010Prop51ColorRGB
 90
-16777216
102
RTVSPost2010PropOp51
 70
     0
102
RTVSPost2010Prop52
140
1.0
102
RTVSPost2010PropOp52
 70
     0
102
RTVSPost2010Prop53
 90
        2
102
RTVSPost2010PropOp53
 70
     1
102
RTVSPost2010Prop54
  1
strokes_ogs.tif
102
RTVSPost2010PropOp54
 70
     1
102
RTVSPost2010Prop55
280
     0
102
RTVSPost2010PropOp55
 70
     1
102
RTVSPost2010Prop56
140
1.0
102
RTVSPost2010PropOp56
 70
     1
102
RTVSPost2010Prop57
140
1.0
102
RTVSPost2010PropOp57
 70
     1
102
RTVSPropertyOp0
 70
     1
102
RTVSPropertyOp1
 70
     1
102
RTVSPropertyOp2
 70
     1
102
RTVSPropertyOp3
 70
     1
102
RTVSPropertyOp4
 70
     1
102
RTVSPropertyOp5
 70
     1
102
RTVSPropertyOp6
 70
     1
102
RTVSPropertyOp7
 70
     1
102
RTVSPropertyOp8
 70
     1
102
RTVSPropertyOp9
 70
     1
102
RTVSPropertyOp10
 70
     1
102
RTVSPropertyOp11
 70
     1
102
RTVSPropertyOp12
 70
     1
102
RTVSPropertyOp13
 70
     1
102
RTVSPropertyOp14
 70
     1
102
RTVSPropertyOp15
 70
     1
102
RTVSPropertyOp16
 70
     1
102
RTVSPropertyOp17
 70
     1
102
RTVSPropertyOp18
 70
     1
102
RTVSPropertyOp19
 70
     1
102
RTVSPropertyOp20
 70
     1
102
RTVSPropertyOp21
 70
     1
102
RTVSPropertyOp22
 70
     1
102
RTVSPropertyOp23
 70
     1
102
RTVSPropertyOp24
 70
     1
102
RTVSPropertyOp25
 70
     1
102
RTVSPropertyOp26
 70
     1
102
RTVSPropertyOp27
 70
     1
102
RTVSPropertyOp28
 70
     1
102
RTVSPropertyOp29
 70
     1
102
RTVSPropertyOp30
 70
     1
102
RTVSPropertyOp31
 70
     1
102
RTVSPropertyOp32
 70
     1
102
RTVSPropertyOp33
 70
     1
102
RTVSPropertyOp34
 70
     1
102
RTVSPropertyOp35
 70
     1
102
RTVSPropertyOp36
 70
     1
102
RTVSPropertyOp37
 70
     1
102
RTVSPropertyOp38
 70
     1
102
RTVSPropertyOp39
 70
     1
102
RTVSPropertyOp40
 70
     1
102
RTVSPropertyOp41
 70
     1
102
RTVSPropertyOp42
 70
     1
102
RTVSPropertyOp43
 70
     1
102
RTVSPropertyOp44
 70
     1
102
RTVSPropertyOp45
 70
     1
102
RTVSPropertyOp46
 70
     1
102
RTVSPropertyOp47
 70
     1
102
RTVSPropertyOp48
 70
     1
102
RTVSPropertyOp49
 70
     1
102
RTVSPropertyOp50
 70
     1
102
RTVSPropertyOp51
 70
     0
102
RTVSPropertyOp52
 70
     0
102
RTVSPropertyOp53
 70
     1
102
RTVSPropertyOp54
 70
     1
102
RTVSPropertyOp55
 70
     1
102
RTVSPropertyOp56
 70
     1
102
RTVSPropertyOp57
 70
     1
102
RTVSPropertyOp58
 70
     1
102
RTVSPropertyOp59
 70
     1
102
RTVSPropertyOp60
 70
     1
102
RTVSPropertyOp61
 70
     1
102
RTVSPropertyOp62
 70
     1
  0
XRECORD
  5
373
102
{ACAD_REACTORS
330
372
102
}
330
372
100
AcDbXrecord
280
     1
102
RTVSPost2010Prop28
280
     0
102
RTVSPost2010PropOp28
 70
     0
102
RTVSPost2010Prop29
280
     1
102
RTVSPost2010PropOp29
 70
     0
102
RTVSPost2010Prop30
280
     1
102
RTVSPost2010PropOp30
 70
     0
102
RTVSPost2010Prop31
280
     0
102
RTVSPost2010PropOp31
 70
     0
102
RTVSPost2010Prop32
280
     0
102
RTVSPost2010PropOp32
 70
     0
102
RTVSPost2010Prop33
280
     0
102
RTVSPost2010PropOp33
 70
     0
102
RTVSPost2010Prop34
280
     0
102
RTVSPost2010PropOp34
 70
     0
102
RTVSPost2010Prop35
280
     0
102
RTVSPost2010PropOp35
 70
     0
102
RTVSPost2010Prop36
280
     0
102
RTVSPost2010PropOp36
 70
     0
102
RTVSPost2010Prop37
 90
       50
102
RTVSPost2010PropOp37
 70
     0
102
RTVSPost2010Prop38
140
0.0
102
RTVSPost2010PropOp38
 70
     0
102
RTVSPost2010Prop39
140
1.0
102
RTVSPost2010PropOp39
 70
     0
102
RTVSPost2010Prop40
 90
        0
102
RTVSPost2010PropOp40
 70
     0
102
RTVSPost2010Prop41ColorIndex
 90
       18
102
RTVSPost2010Prop41ColorRGB
 90
        0
102
RTVSPost2010PropOp41
 70
     0
102
RTVSPost2010Prop42
 90
       50
102
RTVSPost2010PropOp42
 70
     0
102
RTVSPost2010Prop43
 90
        3
102
RTVSPost2010PropOp43
 70
     0
102
RTVSPost2010Prop44ColorIndex
 90
        5
102
RTVSPost2010Prop44ColorRGB
 90
      255
102
RTVSPost2010PropOp44
 70
     0
102
RTVSPost2010Prop45
280
     0
102
RTVSPost2010PropOp45
 70
     0
102
RTVSPost2010Prop46
 90
       50
102
RTVSPost2010PropOp46
 70
     0
102
RTVSPost2010Prop47
 90
       50
102
RTVSPost2010PropOp47
 70
     0
102
RTVSPost2010Prop48
 90
       50
102
RTVSPost2010PropOp48
 70
     0
102
RTVSPost2010Prop49
280
     0
102
RTVSPost2010PropOp49
 70
     0
102
RTVSPost2010Prop50
 90
       50
102
RTVSPost2010PropOp50
 70
     0
102
RTVSPost2010Prop51ColorIndex
 90
      256
102
RTVSPost2010Prop51ColorRGB
 90
-16777216
102
RTVSPost2010PropOp51
 70
     0
102
RTVSPost2010Prop52
140
1.0
102
RTVSPost2010PropOp52
 70
     0
102
RTVSPost2010Prop53
 90
        2
102
RTVSPost2010PropOp53
 70
     0
102
RTVSPost2010Prop54
  1
strokes_ogs.tif
102
RTVSPost2010PropOp54
 70
     0
102
RTVSPost2010Prop55
280
     0
102
RTVSPost2010PropOp55
 70
     0
102
RTVSPost2010Prop56
140
1.0
102
RTVSPost2010PropOp56
 70
     0
102
RTVSPost2010Prop57
140
1.0
102
RTVSPost2010PropOp57
 70
     0
102
RTVSPropertyOp0
 70
     0
102
RTVSPropertyOp1
 70
     0
102
RTVSPropertyOp2
 70
     0
102
RTVSPropertyOp3
 70
     0
102
RTVSPropertyOp4
 70
     0
102
RTVSPropertyOp5
 70
     0
102
RTVSPropertyOp6
 70
     0
102
RTVSPropertyOp7
 70
     0
102
RTVSPropertyOp8
 70
     0
102
RTVSPropertyOp9
 70
     0
102
RTVSPropertyOp10
 70
     0
102
RTVSPropertyOp11
 70
     0
102
RTVSPropertyOp12
 70
     0
102
RTVSPropertyOp13
 70
     0
102
RTVSPropertyOp14
 70
     2
102
RTVSPropertyOp15
 70
     0
102
RTVSPropertyOp16
 70
     0
102
RTVSPropertyOp17
 70
     0
102
RTVSPropertyOp18
 70
     0
102
RTVSPropertyOp19
 70
     0
102
RTVSPropertyOp20
 70
     0
102
RTVSPropertyOp21
 70
     0
102
RTVSPropertyOp22
 70
     0
102
RTVSPropertyOp23
 70
     0
102
RTVSPropertyOp24
 70
     0
102
RTVSPropertyOp25
 70
     0
102
RTVSPropertyOp26
 70
     0
102
RTVSPropertyOp27
 70
     0
102
RTVSPropertyOp28
 70
     0
102
RTVSPropertyOp29
 70
     0
102
RTVSPropertyOp30
 70
     0
102
RTVSPropertyOp31
 70
     0
102
RTVSPropertyOp32
 70
     0
102
RTVSPropertyOp33
 70
     0
102
RTVSPropertyOp34
 70
     0
102
RTVSPropertyOp35
 70
     0
102
RTVSPropertyOp36
 70
     0
102
RTVSPropertyOp37
 70
     0
102
RTVSPropertyOp38
 70
     0
102
RTVSPropertyOp39
 70
     0
102
RTVSPropertyOp40
 70
     0
102
RTVSPropertyOp41
 70
     0
102
RTVSPropertyOp42
 70
     0
102
RTVSPropertyOp43
 70
     0
102
RTVSPropertyOp44
 70
     0
102
RTVSPropertyOp45
 70
     0
102
RTVSPropertyOp46
 70
     0
102
RTVSPropertyOp47
 70
     0
102
RTVSPropertyOp48
 70
     0
102
RTVSPropertyOp49
 70
     0
102
RTVSPropertyOp50
 70
     0
102
RTVSPropertyOp51
 70
     0
102
RTVSPropertyOp52
 70
     0
102
RTVSPropertyOp53
 70
     0
102
RTVSPropertyOp54
 70
     0
102
RTVSPropertyOp55
 70
     0
102
RTVSPropertyOp56
 70
     0
102
RTVSPropertyOp57
 70
     0
102
RTVSPropertyOp58
 70
     1
102
RTVSPropertyOp59
 70
     1
102
RTVSPropertyOp60
 70
     1
102
RTVSPropertyOp61
 70
     1
102
RTVSPropertyOp62
 70
     1
  0
XRECORD
  5
361
102
{ACAD_REACTORS
330
360
102
}
330
360
100
AcDbXrecord
280
     1
102
RTVSPost2010Prop28
280
     0
102
RTVSPost2010PropOp28
 70
     1
102
RTVSPost2010Prop29
280
     1
102
RTVSPost2010PropOp29
 70
     1
102
RTVSPost2010Prop30
280
     1
102
RTVSPost2010PropOp30
 70
     1
102
RTVSPost2010Prop31
280
     0
102
RTVSPost2010PropOp31
 70
     1
102
RTVSPost2010Prop32
280
     0
102
RTVSPost2010PropOp32
 70
     1
102
RTVSPost2010Prop33
280
     0
102
RTVSPost2010PropOp33
 70
     1
102
RTVSPost2010Prop34
280
     0
102
RTVSPost2010PropOp34
 70
     1
102
RTVSPost2010Prop35
280
     0
102
RTVSPost2010PropOp35
 70
     1
102
RTVSPost2010Prop36
280
     0
102
RTVSPost2010PropOp36
 70
     1
102
RTVSPost2010Prop37
 90
       50
102
RTVSPost2010PropOp37
 70
     1
102
RTVSPost2010Prop38
140
0.0
102
RTVSPost2010PropOp38
 70
     1
102
RTVSPost2010Prop39
140
1.0
102
RTVSPost2010PropOp39
 70
     1
102
RTVSPost2010Prop40
 90
        0
102
RTVSPost2010PropOp40
 70
     1
102
RTVSPost2010Prop41ColorIndex
 90
       18
102
RTVSPost2010Prop41ColorRGB
 90
        0
102
RTVSPost2010PropOp41
 70
     1
102
RTVSPost2010Prop42
 90
       50
102
RTVSPost2010PropOp42
 70
     1
102
RTVSPost2010Prop43
 90
        3
102
RTVSPost2010PropOp43
 70
     1
102
RTVSPost2010Prop44ColorIndex
 90
        5
102
RTVSPost2010Prop44ColorRGB
 90
      255
102
RTVSPost2010PropOp44
 70
     1
102
RTVSPost2010Prop45
280
     0
102
RTVSPost2010PropOp45
 70
     1
102
RTVSPost2010Prop46
 90
       50
102
RTVSPost2010PropOp46
 70
     1
102
RTVSPost2010Prop47
 90
       50
102
RTVSPost2010PropOp47
 70
     1
102
RTVSPost2010Prop48
 90
       50
102
RTVSPost2010PropOp48
 70
     1
102
RTVSPost2010Prop49
280
     0
102
RTVSPost2010PropOp49
 70
     1
102
RTVSPost2010Prop50
 90
       50
102
RTVSPost2010PropOp50
 70
     1
102
RTVSPost2010Prop51ColorIndex
 90
      256
102
RTVSPost2010Prop51ColorRGB
 90
-16777216
102
RTVSPost2010PropOp51
 70
     0
102
RTVSPost2010Prop52
140
1.0
102
RTVSPost2010PropOp52
 70
     0
102
RTVSPost2010Prop53
 90
        2
102
RTVSPost2010PropOp53
 70
     1
102
RTVSPost2010Prop54
  1
strokes_ogs.tif
102
RTVSPost2010PropOp54
 70
     1
102
RTVSPost2010Prop55
280
     0
102
RTVSPost2010PropOp55
 70
     1
102
RTVSPost2010Prop56
140
1.0
102
RTVSPost2010PropOp56
 70
     1
102
RTVSPost2010Prop57
140
1.0
102
RTVSPost2010PropOp57
 70
     1
102
RTVSPropertyOp0
 70
     1
102
RTVSPropertyOp1
 70
     1
102
RTVSPropertyOp2
 70
     1
102
RTVSPropertyOp3
 70
     1
102
RTVSPropertyOp4
 70
     1
102
RTVSPropertyOp5
 70
     1
102
RTVSPropertyOp6
 70
     1
102
RTVSPropertyOp7
 70
     1
102
RTVSPropertyOp8
 70
     1
102
RTVSPropertyOp9
 70
     1
102
RTVSPropertyOp10
 70
     1
102
RTVSPropertyOp11
 70
     1
102
RTVSPropertyOp12
 70
     1
102
RTVSPropertyOp13
 70
     1
102
RTVSPropertyOp14
 70
     1
102
RTVSPropertyOp15
 70
     1
102
RTVSPropertyOp16
 70
     1
102
RTVSPropertyOp17
 70
     1
102
RTVSPropertyOp18
 70
     1
102
RTVSPropertyOp19
 70
     1
102
RTVSPropertyOp20
 70
     1
102
RTVSPropertyOp21
 70
     1
102
RTVSPropertyOp22
 70
     1
102
RTVSPropertyOp23
 70
     1
102
RTVSPropertyOp24
 70
     1
102
RTVSPropertyOp25
 70
     1
102
RTVSPropertyOp26
 70
     1
102
RTVSPropertyOp27
 70
     1
102
RTVSPropertyOp28
 70
     1
102
RTVSPropertyOp29
 70
     1
102
RTVSPropertyOp30
 70
     1
102
RTVSPropertyOp31
 70
     1
102
RTVSPropertyOp32
 70
     1
102
RTVSPropertyOp33
 70
     1
102
RTVSPropertyOp34
 70
     1
102
RTVSPropertyOp35
 70
     1
102
RTVSPropertyOp36
 70
     1
102
RTVSPropertyOp37
 70
     1
102
RTVSPropertyOp38
 70
     1
102
RTVSPropertyOp39
 70
     1
102
RTVSPropertyOp40
 70
     1
102
RTVSPropertyOp41
 70
     1
102
RTVSPropertyOp42
 70
     1
102
RTVSPropertyOp43
 70
     1
102
RTVSPropertyOp44
 70
     1
102
RTVSPropertyOp45
 70
     1
102
RTVSPropertyOp46
 70
     1
102
RTVSPropertyOp47
 70
     1
102
RTVSPropertyOp48
 70
     1
102
RTVSPropertyOp49
 70
     1
102
RTVSPropertyOp50
 70
     1
102
RTVSPropertyOp51
 70
     0
102
RTVSPropertyOp52
 70
     0
102
RTVSPropertyOp53
 70
     1
102
RTVSPropertyOp54
 70
     1
102
RTVSPropertyOp55
 70
     1
102
RTVSPropertyOp56
 70
     1
102
RTVSPropertyOp57
 70
     1
102
RTVSPropertyOp58
 70
     1
102
RTVSPropertyOp59
 70
     1
102
RTVSPropertyOp60
 70
     1
102
RTVSPropertyOp61
 70
     1
102
RTVSPropertyOp62
 70
     1
  0
XRECORD
  5
37F
102
{ACAD_REACTORS
330
37E
102
}
330
37E
100
AcDbXrecord
280
     1
102
RTVSPost2010Prop28
280
     0
102
RTVSPost2010PropOp28
 70
     1
102
RTVSPost2010Prop29
280
     1
102
RTVSPost2010PropOp29
 70
     1
102
RTVSPost2010Prop30
280
     1
102
RTVSPost2010PropOp30
 70
     1
102
RTVSPost2010Prop31
280
     0
102
RTVSPost2010PropOp31
 70
     1
102
RTVSPost2010Prop32
280
     0
102
RTVSPost2010PropOp32
 70
     1
102
RTVSPost2010Prop33
280
     0
102
RTVSPost2010PropOp33
 70
     1
102
RTVSPost2010Prop34
280
     0
102
RTVSPost2010PropOp34
 70
     1
102
RTVSPost2010Prop35
280
     0
102
RTVSPost2010PropOp35
 70
     1
102
RTVSPost2010Prop36
280
     0
102
RTVSPost2010PropOp36
 70
     1
102
RTVSPost2010Prop37
 90
       50
102
RTVSPost2010PropOp37
 70
     1
102
RTVSPost2010Prop38
140
0.0
102
RTVSPost2010PropOp38
 70
     1
102
RTVSPost2010Prop39
140
1.0
102
RTVSPost2010PropOp39
 70
     1
102
RTVSPost2010Prop40
 90
        0
102
RTVSPost2010PropOp40
 70
     1
102
RTVSPost2010Prop41ColorIndex
 90
       18
102
RTVSPost2010Prop41ColorRGB
 90
        0
102
RTVSPost2010PropOp41
 70
     1
102
RTVSPost2010Prop42
 90
       50
102
RTVSPost2010PropOp42
 70
     1
102
RTVSPost2010Prop43
 90
        3
102
RTVSPost2010PropOp43
 70
     1
102
RTVSPost2010Prop44ColorIndex
 90
        5
102
RTVSPost2010Prop44ColorRGB
 90
      255
102
RTVSPost2010PropOp44
 70
     1
102
RTVSPost2010Prop45
280
     0
102
RTVSPost2010PropOp45
 70
     1
102
RTVSPost2010Prop46
 90
       50
102
RTVSPost2010PropOp46
 70
     1
102
RTVSPost2010Prop47
 90
       50
102
RTVSPost2010PropOp47
 70
     1
102
RTVSPost2010Prop48
 90
       50
102
RTVSPost2010PropOp48
 70
     1
102
RTVSPost2010Prop49
280
     0
102
RTVSPost2010PropOp49
 70
     1
102
RTVSPost2010Prop50
 90
       50
102
RTVSPost2010PropOp50
 70
     1
102
RTVSPost2010Prop51ColorIndex
 90
      256
102
RTVSPost2010Prop51ColorRGB
 90
-16777216
102
RTVSPost2010PropOp51
 70
     0
102
RTVSPost2010Prop52
140
1.0
102
RTVSPost2010PropOp52
 70
     0
102
RTVSPost2010Prop53
 90
        2
102
RTVSPost2010PropOp53
 70
     1
102
RTVSPost2010Prop54
  1
strokes_ogs.tif
102
RTVSPost2010PropOp54
 70
     1
102
RTVSPost2010Prop55
280
     0
102
RTVSPost2010PropOp55
 70
     1
102
RTVSPost2010Prop56
140
1.0
102
RTVSPost2010PropOp56
 70
     1
102
RTVSPost2010Prop57
140
1.0
102
RTVSPost2010PropOp57
 70
     1
102
RTVSPropertyOp0
 70
     1
102
RTVSPropertyOp1
 70
     1
102
RTVSPropertyOp2
 70
     1
102
RTVSPropertyOp3
 70
     1
102
RTVSPropertyOp4
 70
     1
102
RTVSPropertyOp5
 70
     1
102
RTVSPropertyOp6
 70
     1
102
RTVSPropertyOp7
 70
     1
102
RTVSPropertyOp8
 70
     1
102
RTVSPropertyOp9
 70
     1
102
RTVSPropertyOp10
 70
     1
102
RTVSPropertyOp11
 70
     1
102
RTVSPropertyOp12
 70
     1
102
RTVSPropertyOp13
 70
     1
102
RTVSPropertyOp14
 70
     1
102
RTVSPropertyOp15
 70
     1
102
RTVSPropertyOp16
 70
     1
102
RTVSPropertyOp17
 70
     1
102
RTVSPropertyOp18
 70
     1
102
RTVSPropertyOp19
 70
     1
102
RTVSPropertyOp20
 70
     1
102
RTVSPropertyOp21
 70
     1
102
RTVSPropertyOp22
 70
     1
102
RTVSPropertyOp23
 70
     1
102
RTVSPropertyOp24
 70
     1
102
RTVSPropertyOp25
 70
     1
102
RTVSPropertyOp26
 70
     1
102
RTVSPropertyOp27
 70
     1
102
RTVSPropertyOp28
 70
     1
102
RTVSPropertyOp29
 70
     1
102
RTVSPropertyOp30
 70
     1
102
RTVSPropertyOp31
 70
     1
102
RTVSPropertyOp32
 70
     1
102
RTVSPropertyOp33
 70
     1
102
RTVSPropertyOp34
 70
     1
102
RTVSPropertyOp35
 70
     1
102
RTVSPropertyOp36
 70
     1
102
RTVSPropertyOp37
 70
     1
102
RTVSPropertyOp38
 70
     1
102
RTVSPropertyOp39
 70
     1
102
RTVSPropertyOp40
 70
     1
102
RTVSPropertyOp41
 70
     1
102
RTVSPropertyOp42
 70
     1
102
RTVSPropertyOp43
 70
     1
102
RTVSPropertyOp44
 70
     1
102
RTVSPropertyOp45
 70
     1
102
RTVSPropertyOp46
 70
     1
102
RTVSPropertyOp47
 70
     1
102
RTVSPropertyOp48
 70
     1
102
RTVSPropertyOp49
 70
     1
102
RTVSPropertyOp50
 70
     1
102
RTVSPropertyOp51
 70
     0
102
RTVSPropertyOp52
 70
     0
102
RTVSPropertyOp53
 70
     1
102
RTVSPropertyOp54
 70
     1
102
RTVSPropertyOp55
 70
     1
102
RTVSPropertyOp56
 70
     1
102
RTVSPropertyOp57
 70
     1
102
RTVSPropertyOp58
 70
     1
102
RTVSPropertyOp59
 70
     1
102
RTVSPropertyOp60
 70
     1
102
RTVSPropertyOp61
 70
     1
102
RTVSPropertyOp62
 70
     1
  0
XRECORD
  5
37D
102
{ACAD_REACTORS
330
37C
102
}
330
37C
100
AcDbXrecord
280
     1
102
RTVSPost2010Prop28
280
     0
102
RTVSPost2010PropOp28
 70
     1
102
RTVSPost2010Prop29
280
     1
102
RTVSPost2010PropOp29
 70
     1
102
RTVSPost2010Prop30
280
     1
102
RTVSPost2010PropOp30
 70
     1
102
RTVSPost2010Prop31
280
     0
102
RTVSPost2010PropOp31
 70
     1
102
RTVSPost2010Prop32
280
     0
102
RTVSPost2010PropOp32
 70
     1
102
RTVSPost2010Prop33
280
     0
102
RTVSPost2010PropOp33
 70
     1
102
RTVSPost2010Prop34
280
     0
102
RTVSPost2010PropOp34
 70
     1
102
RTVSPost2010Prop35
280
     0
102
RTVSPost2010PropOp35
 70
     1
102
RTVSPost2010Prop36
280
     0
102
RTVSPost2010PropOp36
 70
     1
102
RTVSPost2010Prop37
 90
       50
102
RTVSPost2010PropOp37
 70
     1
102
RTVSPost2010Prop38
140
0.0
102
RTVSPost2010PropOp38
 70
     1
102
RTVSPost2010Prop39
140
1.0
102
RTVSPost2010PropOp39
 70
     1
102
RTVSPost2010Prop40
 90
        0
102
RTVSPost2010PropOp40
 70
     1
102
RTVSPost2010Prop41ColorIndex
 90
       18
102
RTVSPost2010Prop41ColorRGB
 90
        0
102
RTVSPost2010PropOp41
 70
     1
102
RTVSPost2010Prop42
 90
       50
102
RTVSPost2010PropOp42
 70
     1
102
RTVSPost2010Prop43
 90
        3
102
RTVSPost2010PropOp43
 70
     1
102
RTVSPost2010Prop44ColorIndex
 90
        5
102
RTVSPost2010Prop44ColorRGB
 90
      255
102
RTVSPost2010PropOp44
 70
     1
102
RTVSPost2010Prop45
280
     0
102
RTVSPost2010PropOp45
 70
     1
102
RTVSPost2010Prop46
 90
       50
102
RTVSPost2010PropOp46
 70
     1
102
RTVSPost2010Prop47
 90
       50
102
RTVSPost2010PropOp47
 70
     1
102
RTVSPost2010Prop48
 90
       50
102
RTVSPost2010PropOp48
 70
     1
102
RTVSPost2010Prop49
280
     0
102
RTVSPost2010PropOp49
 70
     1
102
RTVSPost2010Prop50
 90
       50
102
RTVSPost2010PropOp50
 70
     1
102
RTVSPost2010Prop51ColorIndex
 90
      256
102
RTVSPost2010Prop51ColorRGB
 90
-16777216
102
RTVSPost2010PropOp51
 70
     0
102
RTVSPost2010Prop52
140
1.0
102
RTVSPost2010PropOp52
 70
     0
102
RTVSPost2010Prop53
 90
        2
102
RTVSPost2010PropOp53
 70
     1
102
RTVSPost2010Prop54
  1
strokes_ogs.tif
102
RTVSPost2010PropOp54
 70
     1
102
RTVSPost2010Prop55
280
     0
102
RTVSPost2010PropOp55
 70
     1
102
RTVSPost2010Prop56
140
1.0
102
RTVSPost2010PropOp56
 70
     1
102
RTVSPost2010Prop57
140
1.0
102
RTVSPost2010PropOp57
 70
     1
102
RTVSPropertyOp0
 70
     1
102
RTVSPropertyOp1
 70
     1
102
RTVSPropertyOp2
 70
     1
102
RTVSPropertyOp3
 70
     1
102
RTVSPropertyOp4
 70
     1
102
RTVSPropertyOp5
 70
     1
102
RTVSPropertyOp6
 70
     1
102
RTVSPropertyOp7
 70
     1
102
RTVSPropertyOp8
 70
     1
102
RTVSPropertyOp9
 70
     1
102
RTVSPropertyOp10
 70
     1
102
RTVSPropertyOp11
 70
     1
102
RTVSPropertyOp12
 70
     1
102
RTVSPropertyOp13
 70
     1
102
RTVSPropertyOp14
 70
     1
102
RTVSPropertyOp15
 70
     1
102
RTVSPropertyOp16
 70
     1
102
RTVSPropertyOp17
 70
     1
102
RTVSPropertyOp18
 70
     1
102
RTVSPropertyOp19
 70
     1
102
RTVSPropertyOp20
 70
     1
102
RTVSPropertyOp21
 70
     1
102
RTVSPropertyOp22
 70
     1
102
RTVSPropertyOp23
 70
     1
102
RTVSPropertyOp24
 70
     1
102
RTVSPropertyOp25
 70
     1
102
RTVSPropertyOp26
 70
     1
102
RTVSPropertyOp27
 70
     1
102
RTVSPropertyOp28
 70
     1
102
RTVSPropertyOp29
 70
     1
102
RTVSPropertyOp30
 70
     1
102
RTVSPropertyOp31
 70
     1
102
RTVSPropertyOp32
 70
     1
102
RTVSPropertyOp33
 70
     1
102
RTVSPropertyOp34
 70
     1
102
RTVSPropertyOp35
 70
     1
102
RTVSPropertyOp36
 70
     1
102
RTVSPropertyOp37
 70
     1
102
RTVSPropertyOp38
 70
     1
102
RTVSPropertyOp39
 70
     1
102
RTVSPropertyOp40
 70
     1
102
RTVSPropertyOp41
 70
     1
102
RTVSPropertyOp42
 70
     1
102
RTVSPropertyOp43
 70
     1
102
RTVSPropertyOp44
 70
     1
102
RTVSPropertyOp45
 70
     1
102
RTVSPropertyOp46
 70
     1
102
RTVSPropertyOp47
 70
     1
102
RTVSPropertyOp48
 70
     1
102
RTVSPropertyOp49
 70
     1
102
RTVSPropertyOp50
 70
     1
102
RTVSPropertyOp51
 70
     0
102
RTVSPropertyOp52
 70
     0
102
RTVSPropertyOp53
 70
     1
102
RTVSPropertyOp54
 70
     1
102
RTVSPropertyOp55
 70
     1
102
RTVSPropertyOp56
 70
     1
102
RTVSPropertyOp57
 70
     1
102
RTVSPropertyOp58
 70
     1
102
RTVSPropertyOp59
 70
     1
102
RTVSPropertyOp60
 70
     1
102
RTVSPropertyOp61
 70
     1
102
RTVSPropertyOp62
 70
     1
  0
XRECORD
  5
377
102
{ACAD_REACTORS
330
376
102
}
330
376
100
AcDbXrecord
280
     1
102
RTVSPost2010Prop28
280
     0
102
RTVSPost2010PropOp28
 70
     1
102
RTVSPost2010Prop29
280
     1
102
RTVSPost2010PropOp29
 70
     1
102
RTVSPost2010Prop30
280
     1
102
RTVSPost2010PropOp30
 70
     1
102
RTVSPost2010Prop31
280
     0
102
RTVSPost2010PropOp31
 70
     1
102
RTVSPost2010Prop32
280
     0
102
RTVSPost2010PropOp32
 70
     1
102
RTVSPost2010Prop33
280
     0
102
RTVSPost2010PropOp33
 70
     1
102
RTVSPost2010Prop34
280
     0
102
RTVSPost2010PropOp34
 70
     1
102
RTVSPost2010Prop35
280
     0
102
RTVSPost2010PropOp35
 70
     1
102
RTVSPost2010Prop36
280
     0
102
RTVSPost2010PropOp36
 70
     1
102
RTVSPost2010Prop37
 90
       50
102
RTVSPost2010PropOp37
 70
     1
102
RTVSPost2010Prop38
140
0.0
102
RTVSPost2010PropOp38
 70
     1
102
RTVSPost2010Prop39
140
1.0
102
RTVSPost2010PropOp39
 70
     1
102
RTVSPost2010Prop40
 90
        0
102
RTVSPost2010PropOp40
 70
     1
102
RTVSPost2010Prop41ColorIndex
 90
       18
102
RTVSPost2010Prop41ColorRGB
 90
        0
102
RTVSPost2010PropOp41
 70
     1
102
RTVSPost2010Prop42
 90
       50
102
RTVSPost2010PropOp42
 70
     1
102
RTVSPost2010Prop43
 90
        3
102
RTVSPost2010PropOp43
 70
     1
102
RTVSPost2010Prop44ColorIndex
 90
        5
102
RTVSPost2010Prop44ColorRGB
 90
      255
102
RTVSPost2010PropOp44
 70
     1
102
RTVSPost2010Prop45
280
     0
102
RTVSPost2010PropOp45
 70
     1
102
RTVSPost2010Prop46
 90
       50
102
RTVSPost2010PropOp46
 70
     1
102
RTVSPost2010Prop47
 90
       50
102
RTVSPost2010PropOp47
 70
     1
102
RTVSPost2010Prop48
 90
       50
102
RTVSPost2010PropOp48
 70
     1
102
RTVSPost2010Prop49
280
     0
102
RTVSPost2010PropOp49
 70
     1
102
RTVSPost2010Prop50
 90
       50
102
RTVSPost2010PropOp50
 70
     1
102
RTVSPost2010Prop51ColorIndex
 90
      256
102
RTVSPost2010Prop51ColorRGB
 90
-16777216
102
RTVSPost2010PropOp51
 70
     0
102
RTVSPost2010Prop52
140
1.0
102
RTVSPost2010PropOp52
 70
     0
102
RTVSPost2010Prop53
 90
        2
102
RTVSPost2010PropOp53
 70
     1
102
RTVSPost2010Prop54
  1
strokes_ogs.tif
102
RTVSPost2010PropOp54
 70
     1
102
RTVSPost2010Prop55
280
     0
102
RTVSPost2010PropOp55
 70
     1
102
RTVSPost2010Prop56
140
1.0
102
RTVSPost2010PropOp56
 70
     1
102
RTVSPost2010Prop57
140
1.0
102
RTVSPost2010PropOp57
 70
     1
102
RTVSPropertyOp0
 70
     1
102
RTVSPropertyOp1
 70
     1
102
RTVSPropertyOp2
 70
     1
102
RTVSPropertyOp3
 70
     1
102
RTVSPropertyOp4
 70
     1
102
RTVSPropertyOp5
 70
     1
102
RTVSPropertyOp6
 70
     1
102
RTVSPropertyOp7
 70
     1
102
RTVSPropertyOp8
 70
     1
102
RTVSPropertyOp9
 70
     1
102
RTVSPropertyOp10
 70
     1
102
RTVSPropertyOp11
 70
     1
102
RTVSPropertyOp12
 70
     1
102
RTVSPropertyOp13
 70
     1
102
RTVSPropertyOp14
 70
     1
102
RTVSPropertyOp15
 70
     1
102
RTVSPropertyOp16
 70
     1
102
RTVSPropertyOp17
 70
     1
102
RTVSPropertyOp18
 70
     1
102
RTVSPropertyOp19
 70
     1
102
RTVSPropertyOp20
 70
     1
102
RTVSPropertyOp21
 70
     1
102
RTVSPropertyOp22
 70
     1
102
RTVSPropertyOp23
 70
     1
102
RTVSPropertyOp24
 70
     1
102
RTVSPropertyOp25
 70
     1
102
RTVSPropertyOp26
 70
     1
102
RTVSPropertyOp27
 70
     1
102
RTVSPropertyOp28
 70
     1
102
RTVSPropertyOp29
 70
     1
102
RTVSPropertyOp30
 70
     1
102
RTVSPropertyOp31
 70
     1
102
RTVSPropertyOp32
 70
     1
102
RTVSPropertyOp33
 70
     1
102
RTVSPropertyOp34
 70
     1
102
RTVSPropertyOp35
 70
     1
102
RTVSPropertyOp36
 70
     1
102
RTVSPropertyOp37
 70
     1
102
RTVSPropertyOp38
 70
     1
102
RTVSPropertyOp39
 70
     1
102
RTVSPropertyOp40
 70
     1
102
RTVSPropertyOp41
 70
     1
102
RTVSPropertyOp42
 70
     1
102
RTVSPropertyOp43
 70
     1
102
RTVSPropertyOp44
 70
     1
102
RTVSPropertyOp45
 70
     1
102
RTVSPropertyOp46
 70
     1
102
RTVSPropertyOp47
 70
     1
102
RTVSPropertyOp48
 70
     1
102
RTVSPropertyOp49
 70
     1
102
RTVSPropertyOp50
 70
     1
102
RTVSPropertyOp51
 70
     0
102
RTVSPropertyOp52
 70
     0
102
RTVSPropertyOp53
 70
     1
102
RTVSPropertyOp54
 70
     1
102
RTVSPropertyOp55
 70
     1
102
RTVSPropertyOp56
 70
     1
102
RTVSPropertyOp57
 70
     1
102
RTVSPropertyOp58
 70
     1
102
RTVSPropertyOp59
 70
     1
102
RTVSPropertyOp60
 70
     1
102
RTVSPropertyOp61
 70
     1
102
RTVSPropertyOp62
 70
     1
  0
XRECORD
  5
379
102
{ACAD_REACTORS
330
378
102
}
330
378
100
AcDbXrecord
280
     1
102
RTVSPost2010Prop28
280
     0
102
RTVSPost2010PropOp28
 70
     1
102
RTVSPost2010Prop29
280
     1
102
RTVSPost2010PropOp29
 70
     1
102
RTVSPost2010Prop30
280
     1
102
RTVSPost2010PropOp30
 70
     1
102
RTVSPost2010Prop31
280
     0
102
RTVSPost2010PropOp31
 70
     1
102
RTVSPost2010Prop32
280
     0
102
RTVSPost2010PropOp32
 70
     1
102
RTVSPost2010Prop33
280
     0
102
RTVSPost2010PropOp33
 70
     1
102
RTVSPost2010Prop34
280
     0
102
RTVSPost2010PropOp34
 70
     1
102
RTVSPost2010Prop35
280
     0
102
RTVSPost2010PropOp35
 70
     1
102
RTVSPost2010Prop36
280
     0
102
RTVSPost2010PropOp36
 70
     1
102
RTVSPost2010Prop37
 90
       50
102
RTVSPost2010PropOp37
 70
     1
102
RTVSPost2010Prop38
140
0.0
102
RTVSPost2010PropOp38
 70
     1
102
RTVSPost2010Prop39
140
1.0
102
RTVSPost2010PropOp39
 70
     1
102
RTVSPost2010Prop40
 90
        0
102
RTVSPost2010PropOp40
 70
     1
102
RTVSPost2010Prop41ColorIndex
 90
       18
102
RTVSPost2010Prop41ColorRGB
 90
        0
102
RTVSPost2010PropOp41
 70
     1
102
RTVSPost2010Prop42
 90
       50
102
RTVSPost2010PropOp42
 70
     1
102
RTVSPost2010Prop43
 90
        3
102
RTVSPost2010PropOp43
 70
     1
102
RTVSPost2010Prop44ColorIndex
 90
        5
102
RTVSPost2010Prop44ColorRGB
 90
      255
102
RTVSPost2010PropOp44
 70
     1
102
RTVSPost2010Prop45
280
     0
102
RTVSPost2010PropOp45
 70
     1
102
RTVSPost2010Prop46
 90
       50
102
RTVSPost2010PropOp46
 70
     1
102
RTVSPost2010Prop47
 90
       50
102
RTVSPost2010PropOp47
 70
     1
102
RTVSPost2010Prop48
 90
       50
102
RTVSPost2010PropOp48
 70
     1
102
RTVSPost2010Prop49
280
     0
102
RTVSPost2010PropOp49
 70
     1
102
RTVSPost2010Prop50
 90
       50
102
RTVSPost2010PropOp50
 70
     1
102
RTVSPost2010Prop51ColorIndex
 90
      256
102
RTVSPost2010Prop51ColorRGB
 90
-16777216
102
RTVSPost2010PropOp51
 70
     0
102
RTVSPost2010Prop52
140
1.0
102
RTVSPost2010PropOp52
 70
     0
102
RTVSPost2010Prop53
 90
        2
102
RTVSPost2010PropOp53
 70
     1
102
RTVSPost2010Prop54
  1
strokes_ogs.tif
102
RTVSPost2010PropOp54
 70
     1
102
RTVSPost2010Prop55
280
     0
102
RTVSPost2010PropOp55
 70
     1
102
RTVSPost2010Prop56
140
1.0
102
RTVSPost2010PropOp56
 70
     1
102
RTVSPost2010Prop57
140
1.0
102
RTVSPost2010PropOp57
 70
     1
102
RTVSPropertyOp0
 70
     1
102
RTVSPropertyOp1
 70
     1
102
RTVSPropertyOp2
 70
     1
102
RTVSPropertyOp3
 70
     1
102
RTVSPropertyOp4
 70
     1
102
RTVSPropertyOp5
 70
     1
102
RTVSPropertyOp6
 70
     1
102
RTVSPropertyOp7
 70
     1
102
RTVSPropertyOp8
 70
     1
102
RTVSPropertyOp9
 70
     1
102
RTVSPropertyOp10
 70
     1
102
RTVSPropertyOp11
 70
     1
102
RTVSPropertyOp12
 70
     1
102
RTVSPropertyOp13
 70
     1
102
RTVSPropertyOp14
 70
     1
102
RTVSPropertyOp15
 70
     1
102
RTVSPropertyOp16
 70
     1
102
RTVSPropertyOp17
 70
     1
102
RTVSPropertyOp18
 70
     1
102
RTVSPropertyOp19
 70
     1
102
RTVSPropertyOp20
 70
     1
102
RTVSPropertyOp21
 70
     1
102
RTVSPropertyOp22
 70
     1
102
RTVSPropertyOp23
 70
     1
102
RTVSPropertyOp24
 70
     1
102
RTVSPropertyOp25
 70
     1
102
RTVSPropertyOp26
 70
     1
102
RTVSPropertyOp27
 70
     1
102
RTVSPropertyOp28
 70
     1
102
RTVSPropertyOp29
 70
     1
102
RTVSPropertyOp30
 70
     1
102
RTVSPropertyOp31
 70
     1
102
RTVSPropertyOp32
 70
     1
102
RTVSPropertyOp33
 70
     1
102
RTVSPropertyOp34
 70
     1
102
RTVSPropertyOp35
 70
     1
102
RTVSPropertyOp36
 70
     1
102
RTVSPropertyOp37
 70
     1
102
RTVSPropertyOp38
 70
     1
102
RTVSPropertyOp39
 70
     1
102
RTVSPropertyOp40
 70
     1
102
RTVSPropertyOp41
 70
     1
102
RTVSPropertyOp42
 70
     1
102
RTVSPropertyOp43
 70
     1
102
RTVSPropertyOp44
 70
     1
102
RTVSPropertyOp45
 70
     1
102
RTVSPropertyOp46
 70
     1
102
RTVSPropertyOp47
 70
     1
102
RTVSPropertyOp48
 70
     1
102
RTVSPropertyOp49
 70
     1
102
RTVSPropertyOp50
 70
     1
102
RTVSPropertyOp51
 70
     0
102
RTVSPropertyOp52
 70
     0
102
RTVSPropertyOp53
 70
     1
102
RTVSPropertyOp54
 70
     1
102
RTVSPropertyOp55
 70
     1
102
RTVSPropertyOp56
 70
     1
102
RTVSPropertyOp57
 70
     1
102
RTVSPropertyOp58
 70
     1
102
RTVSPropertyOp59
 70
     1
102
RTVSPropertyOp60
 70
     1
102
RTVSPropertyOp61
 70
     1
102
RTVSPropertyOp62
 70
     1
  0
XRECORD
  5
369
102
{ACAD_REACTORS
330
368
102
}
330
368
100
AcDbXrecord
280
     1
102
RTVSPost2010Prop28
280
     0
102
RTVSPost2010PropOp28
 70
     1
102
RTVSPost2010Prop29
280
     1
102
RTVSPost2010PropOp29
 70
     1
102
RTVSPost2010Prop30
280
     1
102
RTVSPost2010PropOp30
 70
     1
102
RTVSPost2010Prop31
280
     0
102
RTVSPost2010PropOp31
 70
     1
102
RTVSPost2010Prop32
280
     0
102
RTVSPost2010PropOp32
 70
     1
102
RTVSPost2010Prop33
280
     0
102
RTVSPost2010PropOp33
 70
     1
102
RTVSPost2010Prop34
280
     0
102
RTVSPost2010PropOp34
 70
     1
102
RTVSPost2010Prop35
280
     0
102
RTVSPost2010PropOp35
 70
     1
102
RTVSPost2010Prop36
280
     0
102
RTVSPost2010PropOp36
 70
     1
102
RTVSPost2010Prop37
 90
       50
102
RTVSPost2010PropOp37
 70
     1
102
RTVSPost2010Prop38
140
0.0
102
RTVSPost2010PropOp38
 70
     1
102
RTVSPost2010Prop39
140
1.0
102
RTVSPost2010PropOp39
 70
     1
102
RTVSPost2010Prop40
 90
        0
102
RTVSPost2010PropOp40
 70
     1
102
RTVSPost2010Prop41ColorIndex
 90
       18
102
RTVSPost2010Prop41ColorRGB
 90
        0
102
RTVSPost2010PropOp41
 70
     1
102
RTVSPost2010Prop42
 90
       50
102
RTVSPost2010PropOp42
 70
     1
102
RTVSPost2010Prop43
 90
        3
102
RTVSPost2010PropOp43
 70
     1
102
RTVSPost2010Prop44ColorIndex
 90
        5
102
RTVSPost2010Prop44ColorRGB
 90
      255
102
RTVSPost2010PropOp44
 70
     1
102
RTVSPost2010Prop45
280
     0
102
RTVSPost2010PropOp45
 70
     1
102
RTVSPost2010Prop46
 90
       50
102
RTVSPost2010PropOp46
 70
     1
102
RTVSPost2010Prop47
 90
       50
102
RTVSPost2010PropOp47
 70
     1
102
RTVSPost2010Prop48
 90
       50
102
RTVSPost2010PropOp48
 70
     1
102
RTVSPost2010Prop49
280
     0
102
RTVSPost2010PropOp49
 70
     1
102
RTVSPost2010Prop50
 90
       50
102
RTVSPost2010PropOp50
 70
     1
102
RTVSPost2010Prop51ColorIndex
 90
      256
102
RTVSPost2010Prop51ColorRGB
 90
-16777216
102
RTVSPost2010PropOp51
 70
     0
102
RTVSPost2010Prop52
140
1.0
102
RTVSPost2010PropOp52
 70
     0
102
RTVSPost2010Prop53
 90
        2
102
RTVSPost2010PropOp53
 70
     1
102
RTVSPost2010Prop54
  1
strokes_ogs.tif
102
RTVSPost2010PropOp54
 70
     1
102
RTVSPost2010Prop55
280
     0
102
RTVSPost2010PropOp55
 70
     1
102
RTVSPost2010Prop56
140
1.0
102
RTVSPost2010PropOp56
 70
     1
102
RTVSPost2010Prop57
140
1.0
102
RTVSPost2010PropOp57
 70
     1
102
RTVSPropertyOp0
 70
     1
102
RTVSPropertyOp1
 70
     1
102
RTVSPropertyOp2
 70
     1
102
RTVSPropertyOp3
 70
     1
102
RTVSPropertyOp4
 70
     1
102
RTVSPropertyOp5
 70
     1
102
RTVSPropertyOp6
 70
     1
102
RTVSPropertyOp7
 70
     1
102
RTVSPropertyOp8
 70
     1
102
RTVSPropertyOp9
 70
     1
102
RTVSPropertyOp10
 70
     1
102
RTVSPropertyOp11
 70
     1
102
RTVSPropertyOp12
 70
     1
102
RTVSPropertyOp13
 70
     1
102
RTVSPropertyOp14
 70
     1
102
RTVSPropertyOp15
 70
     1
102
RTVSPropertyOp16
 70
     1
102
RTVSPropertyOp17
 70
     1
102
RTVSPropertyOp18
 70
     1
102
RTVSPropertyOp19
 70
     1
102
RTVSPropertyOp20
 70
     1
102
RTVSPropertyOp21
 70
     1
102
RTVSPropertyOp22
 70
     1
102
RTVSPropertyOp23
 70
     1
102
RTVSPropertyOp24
 70
     1
102
RTVSPropertyOp25
 70
     1
102
RTVSPropertyOp26
 70
     1
102
RTVSPropertyOp27
 70
     1
102
RTVSPropertyOp28
 70
     1
102
RTVSPropertyOp29
 70
     1
102
RTVSPropertyOp30
 70
     1
102
RTVSPropertyOp31
 70
     1
102
RTVSPropertyOp32
 70
     1
102
RTVSPropertyOp33
 70
     1
102
RTVSPropertyOp34
 70
     1
102
RTVSPropertyOp35
 70
     1
102
RTVSPropertyOp36
 70
     1
102
RTVSPropertyOp37
 70
     1
102
RTVSPropertyOp38
 70
     1
102
RTVSPropertyOp39
 70
     1
102
RTVSPropertyOp40
 70
     1
102
RTVSPropertyOp41
 70
     1
102
RTVSPropertyOp42
 70
     1
102
RTVSPropertyOp43
 70
     1
102
RTVSPropertyOp44
 70
     1
102
RTVSPropertyOp45
 70
     1
102
RTVSPropertyOp46
 70
     1
102
RTVSPropertyOp47
 70
     1
102
RTVSPropertyOp48
 70
     1
102
RTVSPropertyOp49
 70
     1
102
RTVSPropertyOp50
 70
     1
102
RTVSPropertyOp51
 70
     0
102
RTVSPropertyOp52
 70
     0
102
RTVSPropertyOp53
 70
     1
102
RTVSPropertyOp54
 70
     1
102
RTVSPropertyOp55
 70
     1
102
RTVSPropertyOp56
 70
     1
102
RTVSPropertyOp57
 70
     1
102
RTVSPropertyOp58
 70
     1
102
RTVSPropertyOp59
 70
     1
102
RTVSPropertyOp60
 70
     1
102
RTVSPropertyOp61
 70
     1
102
RTVSPropertyOp62
 70
     1
  0
XRECORD
  5
35B
102
{ACAD_REACTORS
330
35A
102
}
330
35A
100
AcDbXrecord
280
     1
102
RTVSPost2010Prop28
280
     0
102
RTVSPost2010PropOp28
 70
     1
102
RTVSPost2010Prop29
280
     1
102
RTVSPost2010PropOp29
 70
     1
102
RTVSPost2010Prop30
280
     1
102
RTVSPost2010PropOp30
 70
     1
102
RTVSPost2010Prop31
280
     0
102
RTVSPost2010PropOp31
 70
     1
102
RTVSPost2010Prop32
280
     0
102
RTVSPost2010PropOp32
 70
     1
102
RTVSPost2010Prop33
280
     0
102
RTVSPost2010PropOp33
 70
     1
102
RTVSPost2010Prop34
280
     0
102
RTVSPost2010PropOp34
 70
     1
102
RTVSPost2010Prop35
280
     0
102
RTVSPost2010PropOp35
 70
     1
102
RTVSPost2010Prop36
280
     0
102
RTVSPost2010PropOp36
 70
     1
102
RTVSPost2010Prop37
 90
       50
102
RTVSPost2010PropOp37
 70
     1
102
RTVSPost2010Prop38
140
0.0
102
RTVSPost2010PropOp38
 70
     1
102
RTVSPost2010Prop39
140
1.0
102
RTVSPost2010PropOp39
 70
     1
102
RTVSPost2010Prop40
 90
        0
102
RTVSPost2010PropOp40
 70
     1
102
RTVSPost2010Prop41ColorIndex
 90
       18
102
RTVSPost2010Prop41ColorRGB
 90
        0
102
RTVSPost2010PropOp41
 70
     1
102
RTVSPost2010Prop42
 90
       50
102
RTVSPost2010PropOp42
 70
     1
102
RTVSPost2010Prop43
 90
        3
102
RTVSPost2010PropOp43
 70
     1
102
RTVSPost2010Prop44ColorIndex
 90
        5
102
RTVSPost2010Prop44ColorRGB
 90
      255
102
RTVSPost2010PropOp44
 70
     1
102
RTVSPost2010Prop45
280
     0
102
RTVSPost2010PropOp45
 70
     1
102
RTVSPost2010Prop46
 90
       50
102
RTVSPost2010PropOp46
 70
     1
102
RTVSPost2010Prop47
 90
       50
102
RTVSPost2010PropOp47
 70
     1
102
RTVSPost2010Prop48
 90
       50
102
RTVSPost2010PropOp48
 70
     1
102
RTVSPost2010Prop49
280
     0
102
RTVSPost2010PropOp49
 70
     1
102
RTVSPost2010Prop50
 90
       50
102
RTVSPost2010PropOp50
 70
     1
102
RTVSPost2010Prop51ColorIndex
 90
      256
102
RTVSPost2010Prop51ColorRGB
 90
-16777216
102
RTVSPost2010PropOp51
 70
     0
102
RTVSPost2010Prop52
140
1.0
102
RTVSPost2010PropOp52
 70
     0
102
RTVSPost2010Prop53
 90
        2
102
RTVSPost2010PropOp53
 70
     1
102
RTVSPost2010Prop54
  1
strokes_ogs.tif
102
RTVSPost2010PropOp54
 70
     1
102
RTVSPost2010Prop55
280
     0
102
RTVSPost2010PropOp55
 70
     1
102
RTVSPost2010Prop56
140
1.0
102
RTVSPost2010PropOp56
 70
     1
102
RTVSPost2010Prop57
140
1.0
102
RTVSPost2010PropOp57
 70
     1
102
RTVSPropertyOp0
 70
     1
102
RTVSPropertyOp1
 70
     1
102
RTVSPropertyOp2
 70
     1
102
RTVSPropertyOp3
 70
     1
102
RTVSPropertyOp4
 70
     1
102
RTVSPropertyOp5
 70
     1
102
RTVSPropertyOp6
 70
     1
102
RTVSPropertyOp7
 70
     1
102
RTVSPropertyOp8
 70
     1
102
RTVSPropertyOp9
 70
     1
102
RTVSPropertyOp10
 70
     1
102
RTVSPropertyOp11
 70
     1
102
RTVSPropertyOp12
 70
     1
102
RTVSPropertyOp13
 70
     1
102
RTVSPropertyOp14
 70
     1
102
RTVSPropertyOp15
 70
     1
102
RTVSPropertyOp16
 70
     1
102
RTVSPropertyOp17
 70
     1
102
RTVSPropertyOp18
 70
     1
102
RTVSPropertyOp19
 70
     1
102
RTVSPropertyOp20
 70
     1
102
RTVSPropertyOp21
 70
     1
102
RTVSPropertyOp22
 70
     1
102
RTVSPropertyOp23
 70
     1
102
RTVSPropertyOp24
 70
     1
102
RTVSPropertyOp25
 70
     1
102
RTVSPropertyOp26
 70
     1
102
RTVSPropertyOp27
 70
     1
102
RTVSPropertyOp28
 70
     1
102
RTVSPropertyOp29
 70
     1
102
RTVSPropertyOp30
 70
     1
102
RTVSPropertyOp31
 70
     1
102
RTVSPropertyOp32
 70
     1
102
RTVSPropertyOp33
 70
     1
102
RTVSPropertyOp34
 70
     1
102
RTVSPropertyOp35
 70
     1
102
RTVSPropertyOp36
 70
     1
102
RTVSPropertyOp37
 70
     1
102
RTVSPropertyOp38
 70
     1
102
RTVSPropertyOp39
 70
     1
102
RTVSPropertyOp40
 70
     1
102
RTVSPropertyOp41
 70
     1
102
RTVSPropertyOp42
 70
     1
102
RTVSPropertyOp43
 70
     1
102
RTVSPropertyOp44
 70
     1
102
RTVSPropertyOp45
 70
     1
102
RTVSPropertyOp46
 70
     1
102
RTVSPropertyOp47
 70
     1
102
RTVSPropertyOp48
 70
     1
102
RTVSPropertyOp49
 70
     1
102
RTVSPropertyOp50
 70
     1
102
RTVSPropertyOp51
 70
     0
102
RTVSPropertyOp52
 70
     0
102
RTVSPropertyOp53
 70
     1
102
RTVSPropertyOp54
 70
     1
102
RTVSPropertyOp55
 70
     1
102
RTVSPropertyOp56
 70
     1
102
RTVSPropertyOp57
 70
     1
102
RTVSPropertyOp58
 70
     1
102
RTVSPropertyOp59
 70
     1
102
RTVSPropertyOp60
 70
     1
102
RTVSPropertyOp61
 70
     1
102
RTVSPropertyOp62
 70
     1
  0
XRECORD
  5
37B
102
{ACAD_REACTORS
330
37A
102
}
330
37A
100
AcDbXrecord
280
     1
102
RTVSPost2010Prop28
280
     0
102
RTVSPost2010PropOp28
 70
     1
102
RTVSPost2010Prop29
280
     1
102
RTVSPost2010PropOp29
 70
     1
102
RTVSPost2010Prop30
280
     1
102
RTVSPost2010PropOp30
 70
     1
102
RTVSPost2010Prop31
280
     0
102
RTVSPost2010PropOp31
 70
     1
102
RTVSPost2010Prop32
280
     0
102
RTVSPost2010PropOp32
 70
     1
102
RTVSPost2010Prop33
280
     0
102
RTVSPost2010PropOp33
 70
     1
102
RTVSPost2010Prop34
280
     0
102
RTVSPost2010PropOp34
 70
     1
102
RTVSPost2010Prop35
280
     0
102
RTVSPost2010PropOp35
 70
     1
102
RTVSPost2010Prop36
280
     0
102
RTVSPost2010PropOp36
 70
     1
102
RTVSPost2010Prop37
 90
       50
102
RTVSPost2010PropOp37
 70
     1
102
RTVSPost2010Prop38
140
0.0
102
RTVSPost2010PropOp38
 70
     1
102
RTVSPost2010Prop39
140
1.0
102
RTVSPost2010PropOp39
 70
     1
102
RTVSPost2010Prop40
 90
        0
102
RTVSPost2010PropOp40
 70
     1
102
RTVSPost2010Prop41ColorIndex
 90
       18
102
RTVSPost2010Prop41ColorRGB
 90
        0
102
RTVSPost2010PropOp41
 70
     1
102
RTVSPost2010Prop42
 90
       50
102
RTVSPost2010PropOp42
 70
     1
102
RTVSPost2010Prop43
 90
        3
102
RTVSPost2010PropOp43
 70
     1
102
RTVSPost2010Prop44ColorIndex
 90
        5
102
RTVSPost2010Prop44ColorRGB
 90
      255
102
RTVSPost2010PropOp44
 70
     1
102
RTVSPost2010Prop45
280
     0
102
RTVSPost2010PropOp45
 70
     1
102
RTVSPost2010Prop46
 90
       50
102
RTVSPost2010PropOp46
 70
     1
102
RTVSPost2010Prop47
 90
       50
102
RTVSPost2010PropOp47
 70
     1
102
RTVSPost2010Prop48
 90
       50
102
RTVSPost2010PropOp48
 70
     1
102
RTVSPost2010Prop49
280
     0
102
RTVSPost2010PropOp49
 70
     1
102
RTVSPost2010Prop50
 90
       50
102
RTVSPost2010PropOp50
 70
     1
102
RTVSPost2010Prop51ColorIndex
 90
      256
102
RTVSPost2010Prop51ColorRGB
 90
-16777216
102
RTVSPost2010PropOp51
 70
     0
102
RTVSPost2010Prop52
140
1.0
102
RTVSPost2010PropOp52
 70
     0
102
RTVSPost2010Prop53
 90
        2
102
RTVSPost2010PropOp53
 70
     1
102
RTVSPost2010Prop54
  1
strokes_ogs.tif
102
RTVSPost2010PropOp54
 70
     1
102
RTVSPost2010Prop55
280
     0
102
RTVSPost2010PropOp55
 70
     1
102
RTVSPost2010Prop56
140
1.0
102
RTVSPost2010PropOp56
 70
     1
102
RTVSPost2010Prop57
140
1.0
102
RTVSPost2010PropOp57
 70
     1
102
RTVSPropertyOp0
 70
     1
102
RTVSPropertyOp1
 70
     1
102
RTVSPropertyOp2
 70
     1
102
RTVSPropertyOp3
 70
     1
102
RTVSPropertyOp4
 70
     1
102
RTVSPropertyOp5
 70
     1
102
RTVSPropertyOp6
 70
     1
102
RTVSPropertyOp7
 70
     1
102
RTVSPropertyOp8
 70
     1
102
RTVSPropertyOp9
 70
     1
102
RTVSPropertyOp10
 70
     1
102
RTVSPropertyOp11
 70
     1
102
RTVSPropertyOp12
 70
     1
102
RTVSPropertyOp13
 70
     1
102
RTVSPropertyOp14
 70
     1
102
RTVSPropertyOp15
 70
     1
102
RTVSPropertyOp16
 70
     1
102
RTVSPropertyOp17
 70
     1
102
RTVSPropertyOp18
 70
     1
102
RTVSPropertyOp19
 70
     1
102
RTVSPropertyOp20
 70
     1
102
RTVSPropertyOp21
 70
     1
102
RTVSPropertyOp22
 70
     1
102
RTVSPropertyOp23
 70
     1
102
RTVSPropertyOp24
 70
     1
102
RTVSPropertyOp25
 70
     1
102
RTVSPropertyOp26
 70
     1
102
RTVSPropertyOp27
 70
     1
102
RTVSPropertyOp28
 70
     1
102
RTVSPropertyOp29
 70
     1
102
RTVSPropertyOp30
 70
     1
102
RTVSPropertyOp31
 70
     1
102
RTVSPropertyOp32
 70
     1
102
RTVSPropertyOp33
 70
     1
102
RTVSPropertyOp34
 70
     1
102
RTVSPropertyOp35
 70
     1
102
RTVSPropertyOp36
 70
     1
102
RTVSPropertyOp37
 70
     1
102
RTVSPropertyOp38
 70
     1
102
RTVSPropertyOp39
 70
     1
102
RTVSPropertyOp40
 70
     1
102
RTVSPropertyOp41
 70
     1
102
RTVSPropertyOp42
 70
     1
102
RTVSPropertyOp43
 70
     1
102
RTVSPropertyOp44
 70
     1
102
RTVSPropertyOp45
 70
     1
102
RTVSPropertyOp46
 70
     1
102
RTVSPropertyOp47
 70
     1
102
RTVSPropertyOp48
 70
     1
102
RTVSPropertyOp49
 70
     1
102
RTVSPropertyOp50
 70
     1
102
RTVSPropertyOp51
 70
     0
102
RTVSPropertyOp52
 70
     0
102
RTVSPropertyOp53
 70
     1
102
RTVSPropertyOp54
 70
     1
102
RTVSPropertyOp55
 70
     1
102
RTVSPropertyOp56
 70
     1
102
RTVSPropertyOp57
 70
     1
102
RTVSPropertyOp58
 70
     1
102
RTVSPropertyOp59
 70
     1
102
RTVSPropertyOp60
 70
     1
102
RTVSPropertyOp61
 70
     1
102
RTVSPropertyOp62
 70
     1
  0
ENDSEC
  0
EOF
