  0
SECTION
  2
HEADER
  9
$ACADVER
  1
AC1015
  9
$ACADMAINTVER
 70
    20
  9
$DWGCODEPAGE
  3
ANSI_1250
  9
$INSBASE
 10
0.0
 20
0.0
 30
0.0
  9
$EXTMIN
 10
-72.02587572623919
 20
-9.525000341245696
 30
0.0
  9
$EXTMAX
 10
84.65504799999999
 20
62.8924017262392
 30
0.0
  9
$LIMMIN
 10
-0.5
 20
-0.5
  9
$LIMMAX
 10
5.0
 20
5.0
  9
$ORTHOMODE
 70
     0
  9
$REGENMODE
 70
     1
  9
$FILLMODE
 70
     1
  9
$QTEXTMODE
 70
     0
  9
$MIRRTEXT
 70
     1
  9
$LTSCALE
 40
1.0
  9
$ATTMODE
 70
     1
  9
$TEXTSIZE
 40
0.2
  9
$TRACEWID
 40
0.05
  9
$TEXTSTYLE
  7
Standard
  9
$CLAYER
  8
0
  9
$CELTYPE
  6
ByLayer
  9
$CECOLOR
 62
   256
  9
$CELTSCALE
 40
1.0
  9
$DISPSILH
 70
     0
  9
$DIMSCALE
 40
1.0
  9
$DIMASZ
 40
0.18
  9
$DIMEXO
 40
0.0625
  9
$DIMDLI
 40
0.38
  9
$DIMRND
 40
0.0
  9
$DIMDLE
 40
0.0
  9
$DIMEXE
 40
0.18
  9
$DIMTP
 40
0.0
  9
$DIMTM
 40
0.0
  9
$DIMTXT
 40
0.18
  9
$DIMCEN
 40
0.09
  9
$DIMTSZ
 40
0.0
  9
$DIMTOL
 70
     0
  9
$DIMLIM
 70
     0
  9
$DIMTIH
 70
     1
  9
$DIMTOH
 70
     1
  9
$DIMSE1
 70
     0
  9
$DIMSE2
 70
     0
  9
$DIMTAD
 70
     0
  9
$DIMZIN
 70
     0
  9
$DIMBLK
  1

  9
$DIMASO
 70
     1
  9
$DIMSHO
 70
     1
  9
$DIMPOST
  1

  9
$DIMAPOST
  1

  9
$DIMALT
 70
     0
  9
$DIMALTD
 70
     2
  9
$DIMALTF
 40
25.4
  9
$DIMLFAC
 40
1.0
  9
$DIMTOFL
 70
     0
  9
$DIMTVP
 40
0.0
  9
$DIMTIX
 70
     0
  9
$DIMSOXD
 70
     0
  9
$DIMSAH
 70
     0
  9
$DIMBLK1
  1

  9
$DIMBLK2
  1

  9
$DIMSTYLE
  2
Standard
  9
$DIMCLRD
 70
     0
  9
$DIMCLRE
 70
     0
  9
$DIMCLRT
 70
     0
  9
$DIMTFAC
 40
1.0
  9
$DIMGAP
 40
0.09
  9
$DIMJUST
 70
     0
  9
$DIMSD1
 70
     0
  9
$DIMSD2
 70
     0
  9
$DIMTOLJ
 70
     1
  9
$DIMTZIN
 70
     0
  9
$DIMALTZ
 70
     0
  9
$DIMALTTZ
 70
     0
  9
$DIMUPT
 70
     0
  9
$DIMDEC
 70
     4
  9
$DIMTDEC
 70
     4
  9
$DIMALTU
 70
     2
  9
$DIMALTTD
 70
     2
  9
$DIMTXSTY
  7
Standard
  9
$DIMAUNIT
 70
     0
  9
$DIMADEC
 70
     0
  9
$DIMALTRND
 40
0.0
  9
$DIMAZIN
 70
     0
  9
$DIMDSEP
 70
    46
  9
$DIMATFIT
 70
     3
  9
$DIMFRAC
 70
     0
  9
$DIMLDRBLK
  1

  9
$DIMLUNIT
 70
     2
  9
$DIMLWD
 70
    -2
  9
$DIMLWE
 70
    -2
  9
$DIMTMOVE
 70
     0
  9
$LUNITS
 70
     2
  9
$LUPREC
 70
     4
  9
$SKETCHINC
 40
0.1
  9
$FILLETRAD
 40
0.5
  9
$AUNITS
 70
     0
  9
$AUPREC
 70
     0
  9
$MENU
  1
.
  9
$ELEVATION
 40
0.0
  9
$PELEVATION
 40
0.0
  9
$THICKNESS
 40
0.0
  9
$LIMCHECK
 70
     0
  9
$CHAMFERA
 40
0.0
  9
$CHAMFERB
 40
0.0
  9
$CHAMFERC
 40
0.0
  9
$CHAMFERD
 40
0.0
  9
$SKPOLY
 70
     0
  9
$TDCREATE
 40
2459025.333842593
  9
$TDUCREATE
 40
2459025.250517986
  9
$TDUPDATE
 40
2459025.335381945
  9
$TDUUPDATE
 40
2459025.252048611
  9
$TDINDWG
 40
0.0009375116
  9
$TDUSRTIMER
 40
0.0009375116
  9
$USRTIMER
 70
     1
  9
$ANGBASE
 50
0.0
  9
$ANGDIR
 70
     0
  9
$PDMODE
 70
     0
  9
$PDSIZE
 40
0.0
  9
$PLINEWID
 40
0.0
  9
$SPLFRAME
 70
     0
  9
$SPLINETYPE
 70
     6
  9
$SPLINESEGS
 70
     8
  9
$HANDSEED
  5
680
  9
$SURFTAB1
 70
     6
  9
$SURFTAB2
 70
     6
  9
$SURFTYPE
 70
     6
  9
$SURFU
 70
     6
  9
$SURFV
 70
     6
  9
$UCSBASE
  2

  9
$UCSNAME
  2

  9
$UCSORG
 10
0.0
 20
0.0
 30
0.0
  9
$UCSXDIR
 10
1.0
 20
0.0
 30
0.0
  9
$UCSYDIR
 10
0.0
 20
1.0
 30
0.0
  9
$UCSORTHOREF
  2

  9
$UCSORTHOVIEW
 70
     0
  9
$UCSORGTOP
 10
0.0
 20
0.0
 30
0.0
  9
$UCSORGBOTTOM
 10
0.0
 20
0.0
 30
0.0
  9
$UCSORGLEFT
 10
0.0
 20
0.0
 30
0.0
  9
$UCSORGRIGHT
 10
0.0
 20
0.0
 30
0.0
  9
$UCSORGFRONT
 10
0.0
 20
0.0
 30
0.0
  9
$UCSORGBACK
 10
0.0
 20
0.0
 30
0.0
  9
$PUCSBASE
  2

  9
$PUCSNAME
  2

  9
$PUCSORG
 10
0.0
 20
0.0
 30
0.0
  9
$PUCSXDIR
 10
1.0
 20
0.0
 30
0.0
  9
$PUCSYDIR
 10
0.0
 20
1.0
 30
0.0
  9
$PUCSORTHOREF
  2

  9
$PUCSORTHOVIEW
 70
     0
  9
$PUCSORGTOP
 10
0.0
 20
0.0
 30
0.0
  9
$PUCSORGBOTTOM
 10
0.0
 20
0.0
 30
0.0
  9
$PUCSORGLEFT
 10
0.0
 20
0.0
 30
0.0
  9
$PUCSORGRIGHT
 10
0.0
 20
0.0
 30
0.0
  9
$PUCSORGFRONT
 10
0.0
 20
0.0
 30
0.0
  9
$PUCSORGBACK
 10
0.0
 20
0.0
 30
0.0
  9
$USERI1
 70
     0
  9
$USERI2
 70
     0
  9
$USERI3
 70
     0
  9
$USERI4
 70
     0
  9
$USERI5
 70
     0
  9
$USERR1
 40
0.0
  9
$USERR2
 40
0.0
  9
$USERR3
 40
0.0
  9
$USERR4
 40
0.0
  9
$USERR5
 40
0.0
  9
$WORLDVIEW
 70
     1
  9
$SHADEDGE
 70
     3
  9
$SHADEDIF
 70
    70
  9
$TILEMODE
 70
     1
  9
$MAXACTVP
 70
    64
  9
$PINSBASE
 10
0.0
 20
0.0
 30
0.0
  9
$PLIMCHECK
 70
     0
  9
$PEXTMIN
 10
-0.5
 20
-0.5
 30
-0.5
  9
$PEXTMAX
 10
5.0
 20
5.0
 30
5.0
  9
$PLIMMIN
 10
-0.5
 20
-0.5
  9
$PLIMMAX
 10
5.0
 20
5.0
  9
$UNITMODE
 70
     0
  9
$VISRETAIN
 70
     1
  9
$PLINEGEN
 70
     0
  9
$PSLTSCALE
 70
     1
  9
$TREEDEPTH
 70
  3020
  9
$CMLSTYLE
  2
Standard
  9
$CMLJUST
 70
     0
  9
$CMLSCALE
 40
1.0
  9
$PROXYGRAPHICS
 70
     1
  9
$MEASUREMENT
 70
     1
  9
$CELWEIGHT
370
    18
  9
$ENDCAPS
280
     0
  9
$JOINSTYLE
280
     0
  9
$LWDISPLAY
290
     1
  9
$INSUNITS
 70
     4
  9
$HYPERLINKBASE
  1

  9
$STYLESHEET
  1

  9
$XEDIT
290
     1
  9
$CEPSNTYPE
380
     0
  9
$PSTYLEMODE
290
     1
  9
$FINGERPRINTGUID
  2
{EA14290D-1E83-4AC1-B227-233606F154F1}
  9
$VERSIONGUID
  2
{0BA11675-DB52-984D-9442-76A7005AC3C0}
  9
$EXTNAMES
290
     1
  9
$PSVPSCALE
 40
0.0
  9
$OLESTARTUP
290
     0
  0
ENDSEC
  0
SECTION
  2
CLASSES
  0
CLASS
  1
ACDBDICTIONARYWDFLT
  2
AcDbDictionaryWithDefault
  3
ObjectDBX Classes
 90
        0
280
     0
281
     0
  0
CLASS
  1
VISUALSTYLE
  2
AcDbVisualStyle
  3
ObjectDBX Classes
 90
     4095
280
     0
281
     0
  0
CLASS
  1
MATERIAL
  2
AcDbMaterial
  3
ObjectDBX Classes
 90
     1153
280
     0
281
     0
  0
CLASS
  1
SCALE
  2
AcDbScale
  3
ObjectDBX Classes
 90
     1153
280
     0
281
     0
  0
CLASS
  1
TABLESTYLE
  2
AcDbTableStyle
  3
ObjectDBX Classes
 90
     4095
280
     0
281
     0
  0
CLASS
  1
MLEADERSTYLE
  2
AcDbMLeaderStyle
  3
ACDB_MLEADERSTYLE_CLASS
 90
     4095
280
     0
281
     0
  0
CLASS
  1
SUN
  2
AcDbSun
  3
SCENEOE
 90
    33921
280
     0
281
     0
  0
CLASS
  1
DIMASSOC
  2
AcDbDimAssoc
  3
"AcDbDimAssoc|Product Desc:     AcDim ARX App For Dimension|Company:          Autodesk, Inc.|WEB Address:      www.autodesk.com"
 90
        0
280
     0
281
     0
  0
CLASS
  1
DICTIONARYVAR
  2
AcDbDictionaryVar
  3
ObjectDBX Classes
 90
        0
280
     0
281
     0
  0
CLASS
  1
CELLSTYLEMAP
  2
AcDbCellStyleMap
  3
ObjectDBX Classes
 90
     1152
280
     0
281
     0
  0
CLASS
  1
ACDBSECTIONVIEWSTYLE
  2
AcDbSectionViewStyle
  3
ObjectDBX Classes
 90
     1025
280
     0
281
     0
  0
CLASS
  1
ACDBDETAILVIEWSTYLE
  2
AcDbDetailViewStyle
  3
ObjectDBX Classes
 90
     1025
280
     0
281
     0
  0
CLASS
  1
ACDBPLACEHOLDER
  2
AcDbPlaceHolder
  3
ObjectDBX Classes
 90
        0
280
     0
281
     0
  0
CLASS
  1
LAYOUT
  2
AcDbLayout
  3
ObjectDBX Classes
 90
        0
280
     0
281
     0
  0
ENDSEC
  0
SECTION
  2
TABLES
  0
TABLE
  2
VPORT
  5
8
330
0
100
AcDbSymbolTable
 70
    16
  0
VPORT
  5
29
330
8
100
AcDbSymbolTableRecord
100
AcDbViewportTableRecord
  2
*Active
 70
     0
 10
0.0
 20
0.0
 11
1.0
 21
1.0
 12
127.8209137465469
 22
15.86590376820314
 13
0.0
 23
0.0
 14
0.5
 24
0.5
 15
0.5
 25
0.5
 16
0.0
 26
0.0
 36
1.0
 17
0.0
 27
0.0
 37
0.0
 40
273.5422614655107
 41
2.292712066905615
 42
50.0
 43
265.969659
 44
-265.969659
 50
0.0
 51
0.0
 71
     0
 72
   100
 73
     1
 74
     3
 75
     0
 76
     0
 77
     0
 78
     0
281
     0
 65
     1
110
0.0
120
0.0
130
0.0
111
1.0
121
0.0
131
0.0
112
0.0
122
1.0
132
0.0
 79
     0
146
0.0
1001
ACAD_NAV_VCDISPLAY
1070
     3
  0
VPORT
  5
34C
330
8
100
AcDbSymbolTableRecord
100
AcDbViewportTableRecord
  2
L1
 70
     0
 10
0.0
 20
0.0
 11
1.0
 21
1.0
 12
6.331119999999999
 22
25.021317
 13
0.0
 23
0.0
 14
0.5
 24
0.5
 15
0.5
 25
0.5
 16
0.0
 26
0.0
 36
1.0
 17
0.0
 27
0.0
 37
0.0
 40
207.433333
 41
0.085602
 42
50.0
 43
265.969659
 44
-265.969659
 50
0.0
 51
0.0
 71
     0
 72
   100
 73
     1
 74
     3
 75
     0
 76
     0
 77
     0
 78
     0
281
     0
 65
     1
110
0.0
120
0.0
130
0.0
111
1.0
121
0.0
131
0.0
112
0.0
122
1.0
132
0.0
 79
     0
146
0.0
  0
VPORT
  5
34D
330
8
100
AcDbSymbolTableRecord
100
AcDbViewportTableRecord
  2
L2
 70
     0
 10
0.0
 20
0.0
 11
0.5
 21
1.0
 12
0.0
 22
0.0
 13
0.0
 23
0.0
 14
0.5
 24
0.5
 15
0.5
 25
0.5
 16
0.0
 26
-1.0
 36
0.0
 17
0.0
 27
0.0
 37
0.0
 40
1352.580743
 41
0.013128
 42
50.0
 43
697.6196049999999
 44
-697.6196049999999
 50
0.0
 51
0.0
 71
     0
 72
   100
 73
     1
 74
     3
 75
     0
 76
     0
 77
     0
 78
     0
281
     0
 65
     1
110
0.0
120
0.0
130
0.0
111
1.0
121
0.0
131
0.0
112
0.0
122
1.0
132
0.0
 79
     0
146
0.0
  0
VPORT
  5
34E
330
8
100
AcDbSymbolTableRecord
100
AcDbViewportTableRecord
  2
L2
 70
     0
 10
0.5
 20
0.0
 11
1.0
 21
1.0
 12
0.0
 22
0.0
 13
0.0
 23
0.0
 14
0.5
 24
0.5
 15
0.5
 25
0.5
 16
1.0
 26
0.0
 36
0.0
 17
0.0
 27
0.0
 37
0.0
 40
1352.580743
 41
0.013128
 42
50.0
 43
684.197204
 44
-684.197204
 50
0.0
 51
0.0
 71
     0
 72
   100
 73
     1
 74
     3
 75
     0
 76
     0
 77
     0
 78
     0
281
     0
 65
     1
110
0.0
120
0.0
130
0.0
111
1.0
121
0.0
131
0.0
112
0.0
122
1.0
132
0.0
 79
     0
146
0.0
  0
VPORT
  5
34F
330
8
100
AcDbSymbolTableRecord
100
AcDbViewportTableRecord
  2
L3
 70
     0
 10
0.0
 20
0.5
 11
1.0
 21
1.0
 12
6.331119999999999
 22
25.021317
 13
0.0
 23
0.0
 14
0.5
 24
0.5
 15
0.5
 25
0.5
 16
0.0
 26
0.0
 36
1.0
 17
0.0
 27
0.0
 37
0.0
 40
207.433333
 41
0.085602
 42
50.0
 43
265.969659
 44
-265.969659
 50
0.0
 51
0.0
 71
     0
 72
   100
 73
     1
 74
     3
 75
     0
 76
     0
 77
     0
 78
     0
281
     0
 65
     1
110
0.0
120
0.0
130
0.0
111
1.0
121
0.0
131
0.0
112
0.0
122
1.0
132
0.0
 79
     0
146
0.0
  0
VPORT
  5
350
330
8
100
AcDbSymbolTableRecord
100
AcDbViewportTableRecord
  2
L3
 70
     0
 10
0.0
 20
0.0
 11
1.0
 21
0.5
 12
0.0
 22
0.0
 13
0.0
 23
0.0
 14
0.5
 24
0.5
 15
0.5
 25
0.5
 16
0.0
 26
-1.0
 36
0.0
 17
0.0
 27
0.0
 37
0.0
 40
1352.580743
 41
0.013128
 42
50.0
 43
697.6196049999999
 44
-697.6196049999999
 50
0.0
 51
0.0
 71
     0
 72
   100
 73
     1
 74
     3
 75
     0
 76
     0
 77
     0
 78
     0
281
     0
 65
     1
110
0.0
120
0.0
130
0.0
111
1.0
121
0.0
131
0.0
112
0.0
122
1.0
132
0.0
 79
     0
146
0.0
  0
VPORT
  5
351
330
8
100
AcDbSymbolTableRecord
100
AcDbViewportTableRecord
  2
L4
 70
     0
 10
0.0
 20
0.5
 11
0.5
 21
1.0
 12
6.331119999999999
 22
25.021317
 13
0.0
 23
0.0
 14
0.5
 24
0.5
 15
0.5
 25
0.5
 16
0.0
 26
0.0
 36
1.0
 17
0.0
 27
0.0
 37
0.0
 40
207.433333
 41
0.085602
 42
50.0
 43
265.969659
 44
-265.969659
 50
0.0
 51
0.0
 71
     0
 72
   100
 73
     1
 74
     3
 75
     0
 76
     0
 77
     0
 78
     0
281
     0
 65
     1
110
0.0
120
0.0
130
0.0
111
1.0
121
0.0
131
0.0
112
0.0
122
1.0
132
0.0
 79
     0
146
0.0
  0
VPORT
  5
352
330
8
100
AcDbSymbolTableRecord
100
AcDbViewportTableRecord
  2
L4
 70
     0
 10
0.0
 20
0.0
 11
0.5
 21
0.5
 12
0.0
 22
0.0
 13
0.0
 23
0.0
 14
0.5
 24
0.5
 15
0.5
 25
0.5
 16
0.0
 26
-1.0
 36
0.0
 17
0.0
 27
0.0
 37
0.0
 40
1352.580743
 41
0.013128
 42
50.0
 43
697.6196049999999
 44
-697.6196049999999
 50
0.0
 51
0.0
 71
     0
 72
   100
 73
     1
 74
     3
 75
     0
 76
     0
 77
     0
 78
     0
281
     0
 65
     1
110
0.0
120
0.0
130
0.0
111
1.0
121
0.0
131
0.0
112
0.0
122
1.0
132
0.0
 79
     0
146
0.0
  0
VPORT
  5
353
330
8
100
AcDbSymbolTableRecord
100
AcDbViewportTableRecord
  2
L4
 70
     0
 10
0.5
 20
0.0
 11
1.0
 21
0.5
 12
0.0
 22
0.0
 13
0.0
 23
0.0
 14
0.5
 24
0.5
 15
0.5
 25
0.5
 16
1.0
 26
0.0
 36
0.0
 17
0.0
 27
0.0
 37
0.0
 40
1352.580743
 41
0.013128
 42
50.0
 43
684.197204
 44
-684.197204
 50
0.0
 51
0.0
 71
     0
 72
   100
 73
     1
 74
     3
 75
     0
 76
     0
 77
     0
 78
     0
281
     0
 65
     1
110
0.0
120
0.0
130
0.0
111
1.0
121
0.0
131
0.0
112
0.0
122
1.0
132
0.0
 79
     0
146
0.0
  0
VPORT
  5
354
330
8
100
AcDbSymbolTableRecord
100
AcDbViewportTableRecord
  2
L4
 70
     0
 10
0.5
 20
0.5
 11
1.0
 21
1.0
 12
0.0
 22
0.0
 13
0.0
 23
0.0
 14
0.5
 24
0.5
 15
0.5
 25
0.5
 16
0.5773502691896259
 26
-0.5773502691896259
 36
0.5773502691896259
 17
0.0
 27
0.0
 37
0.0
 40
1328.834164
 41
0.013363
 42
50.0
 43
692.2684709999999
 44
-692.2684709999999
 50
0.0
 51
0.0
 71
     0
 72
   100
 73
     1
 74
     3
 75
     0
 76
     0
 77
     0
 78
     0
281
     0
 65
     1
110
0.0
120
0.0
130
0.0
111
1.0
121
0.0
131
0.0
112
0.0
122
1.0
132
0.0
 79
     0
146
0.0
  0
VPORT
  5
355
330
8
100
AcDbSymbolTableRecord
100
AcDbViewportTableRecord
  2
L6
 70
     0
 10
0.0
 20
0.5
 11
0.333333
 21
1.0
 12
0.0
 22
0.0
 13
0.0
 23
0.0
 14
0.5
 24
0.5
 15
0.5
 25
0.5
 16
0.7188730927569434
 26
-0.5850486126764433
 36
0.3754192287502549
 17
0.0
 27
0.0
 37
0.0
 40
1402.492696
 41
0.012661
 42
50.0
 43
726.139223
 44
-726.139223
 50
0.0
 51
0.0
 71
     0
 72
   100
 73
     1
 74
     3
 75
     0
 76
     0
 77
     0
 78
     0
281
     0
 65
     1
110
0.0
120
0.0
130
0.0
111
1.0
121
0.0
131
0.0
112
0.0
122
1.0
132
0.0
 79
     0
146
0.0
  0
VPORT
  5
356
330
8
100
AcDbSymbolTableRecord
100
AcDbViewportTableRecord
  2
L6
 70
     0
 10
0.0
 20
0.0
 11
0.333333
 21
0.5
 12
0.0
 22
0.0
 13
0.0
 23
0.0
 14
0.5
 24
0.5
 15
0.5
 25
0.5
 16
-1.0
 26
0.0
 36
0.0
 17
0.0
 27
0.0
 37
0.0
 40
1352.580743
 41
0.013128
 42
50.0
 43
684.197204
 44
-684.197204
 50
0.0
 51
0.0
 71
     0
 72
   100
 73
     1
 74
     3
 75
     0
 76
     0
 77
     0
 78
     0
281
     0
 65
     1
110
0.0
120
0.0
130
0.0
111
1.0
121
0.0
131
0.0
112
0.0
122
1.0
132
0.0
 79
     0
146
0.0
  0
VPORT
  5
357
330
8
100
AcDbSymbolTableRecord
100
AcDbViewportTableRecord
  2
L6
 70
     0
 10
0.333333
 20
0.5
 11
0.666667
 21
1.0
 12
6.331119999999999
 22
25.021317
 13
0.0
 23
0.0
 14
0.5
 24
0.5
 15
0.5
 25
0.5
 16
0.0
 26
0.0
 36
1.0
 17
0.0
 27
0.0
 37
0.0
 40
207.433333
 41
0.085602
 42
50.0
 43
265.969659
 44
-265.969659
 50
0.0
 51
0.0
 71
     0
 72
   100
 73
     1
 74
     3
 75
     0
 76
     0
 77
     0
 78
     0
281
     0
 65
     1
110
0.0
120
0.0
130
0.0
111
1.0
121
0.0
131
0.0
112
0.0
122
1.0
132
0.0
 79
     0
146
0.0
  0
VPORT
  5
358
330
8
100
AcDbSymbolTableRecord
100
AcDbViewportTableRecord
  2
L6
 70
     0
 10
0.333333
 20
0.0
 11
0.666667
 21
0.5
 12
0.0
 22
0.0
 13
0.0
 23
0.0
 14
0.5
 24
0.5
 15
0.5
 25
0.5
 16
0.0
 26
-1.0
 36
0.0
 17
0.0
 27
0.0
 37
0.0
 40
1352.580743
 41
0.013128
 42
50.0
 43
697.6196049999999
 44
-697.6196049999999
 50
0.0
 51
0.0
 71
     0
 72
   100
 73
     1
 74
     3
 75
     0
 76
     0
 77
     0
 78
     0
281
     0
 65
     1
110
0.0
120
0.0
130
0.0
111
1.0
121
0.0
131
0.0
112
0.0
122
1.0
132
0.0
 79
     0
146
0.0
  0
VPORT
  5
359
330
8
100
AcDbSymbolTableRecord
100
AcDbViewportTableRecord
  2
L6
 70
     0
 10
0.666667
 20
0.5
 11
1.0
 21
1.0
 12
0.0
 22
0.0
 13
0.0
 23
0.0
 14
0.5
 24
0.5
 15
0.5
 25
0.5
 16
0.5773502691896259
 26
-0.5773502691896259
 36
0.5773502691896259
 17
0.0
 27
0.0
 37
0.0
 40
1328.834164
 41
0.013363
 42
50.0
 43
692.2684709999999
 44
-692.2684709999999
 50
0.0
 51
0.0
 71
     0
 72
   100
 73
     1
 74
     3
 75
     0
 76
     0
 77
     0
 78
     0
281
     0
 65
     1
110
0.0
120
0.0
130
0.0
111
1.0
121
0.0
131
0.0
112
0.0
122
1.0
132
0.0
 79
     0
146
0.0
  0
VPORT
  5
35A
330
8
100
AcDbSymbolTableRecord
100
AcDbViewportTableRecord
  2
L6
 70
     0
 10
0.666667
 20
0.0
 11
1.0
 21
0.5
 12
0.0
 22
0.0
 13
0.0
 23
0.0
 14
0.5
 24
0.5
 15
0.5
 25
0.5
 16
1.0
 26
0.0
 36
0.0
 17
0.0
 27
0.0
 37
0.0
 40
1352.580743
 41
0.013128
 42
50.0
 43
684.197204
 44
-684.197204
 50
0.0
 51
0.0
 71
     0
 72
   100
 73
     1
 74
     3
 75
     0
 76
     0
 77
     0
 78
     0
281
     0
 65
     1
110
0.0
120
0.0
130
0.0
111
1.0
121
0.0
131
0.0
112
0.0
122
1.0
132
0.0
 79
     0
146
0.0
  0
ENDTAB
  0
TABLE
  2
LTYPE
  5
5
330
0
100
AcDbSymbolTable
 70
     6
  0
LTYPE
  5
14
330
5
100
AcDbSymbolTableRecord
100
AcDbLinetypeTableRecord
  2
ByBlock
 70
     0
  3

 72
    65
 73
     0
 40
0.0
  0
LTYPE
  5
15
330
5
100
AcDbSymbolTableRecord
100
AcDbLinetypeTableRecord
  2
ByLayer
 70
     0
  3

 72
    65
 73
     0
 40
0.0
  0
LTYPE
  5
16
330
5
100
AcDbSymbolTableRecord
100
AcDbLinetypeTableRecord
  2
Continuous
 70
     0
  3
Solid line
 72
    65
 73
     0
 40
0.0
  0
LTYPE
  5
6E
330
5
100
AcDbSymbolTableRecord
100
AcDbLinetypeTableRecord
  2
CENTER
 70
     0
  3
____ _ ____ _ ____ _ ____
 72
    65
 73
     4
 40
47.4
 49
22.0
 74
     4
 75
     0
340
0
 46
0.0
 50
0.0
 44
0.0
 45
0.0
 49
-8.5
 74
     4
 75
     0
340
0
 46
0.0
 50
0.0
 44
0.0
 45
0.0
 49
8.5
 74
     4
 75
     0
340
0
 46
0.0
 50
0.0
 44
0.0
 45
0.0
 49
-8.5
 74
     4
 75
     0
340
0
 46
0.0
 50
0.0
 44
0.0
 45
0.0
  0
LTYPE
  5
6F
330
5
100
AcDbSymbolTableRecord
100
AcDbLinetypeTableRecord
  2
DASHDOT
 70
     0
  3
_._._._._._._._._._._._._._._._.
 72
    65
 73
     4
 40
70.0
 49
31.0
 74
     4
 75
     0
340
0
 46
0.0
 50
0.0
 44
0.0
 45
0.0
 49
-13.0
 74
     4
 75
     0
340
0
 46
0.0
 50
0.0
 44
0.0
 45
0.0
 49
13.0
 74
     4
 75
     0
340
0
 46
0.0
 50
0.0
 44
0.0
 45
0.0
 49
-13.0
 74
     4
 75
     0
340
0
 46
0.0
 50
0.0
 44
0.0
 45
0.0
  0
LTYPE
  5
70
330
5
100
AcDbSymbolTableRecord
100
AcDbLinetypeTableRecord
  2
DASHED
 70
     0
  3
__ __ __ __ __ __ __ __ __
 72
    65
 73
     2
 40
25.72
 49
12.86
 74
     4
 75
     0
340
0
 46
0.0
 50
0.0
 44
0.0
 45
0.0
 49
-12.86
 74
     4
 75
     0
340
0
 46
0.0
 50
0.0
 44
0.0
 45
0.0
  0
LTYPE
  5
71
330
5
100
AcDbSymbolTableRecord
100
AcDbLinetypeTableRecord
  2
DOT
 70
     0
  3
.........................
 72
    65
 73
     2
 40
10.0
 49
0.0
 74
     4
 75
     0
340
0
 46
0.0
 50
0.0
 44
0.0
 45
0.0
 49
-10.0
 74
     4
 75
     0
340
0
 46
0.0
 50
0.0
 44
0.0
 45
0.0
  0
LTYPE
  5
72
330
5
100
AcDbSymbolTableRecord
100
AcDbLinetypeTableRecord
  2
PHANTOM
 70
     0
  3
____ _ _ ____ _ _ _____ _ _ ____
 72
    65
 73
     6
 40
50.5
 49
18.0
 74
     4
 75
     0
340
0
 46
0.0
 50
0.0
 44
0.0
 45
0.0
 49
-6.5
 74
     4
 75
     0
340
0
 46
0.0
 50
0.0
 44
0.0
 45
0.0
 49
6.5
 74
     4
 75
     0
340
0
 46
0.0
 50
0.0
 44
0.0
 45
0.0
 49
-6.5
 74
     4
 75
     0
340
0
 46
0.0
 50
0.0
 44
0.0
 45
0.0
 49
6.5
 74
     4
 75
     0
340
0
 46
0.0
 50
0.0
 44
0.0
 45
0.0
 49
-6.5
 74
     4
 75
     0
340
0
 46
0.0
 50
0.0
 44
0.0
 45
0.0
  0
ENDTAB
  0
TABLE
  2
LAYER
  5
2
330
0
100
AcDbSymbolTable
 70
    14
  0
LAYER
  5
10
102
{ACAD_XDICTIONARY
360
60E
102
}
330
2
100
AcDbSymbolTableRecord
100
AcDbLayerTableRecord
  2
0
 70
     0
 62
     7
  6
Continuous
370
    -3
390
F
  0
LAYER
  5
601
102
{ACAD_XDICTIONARY
360
610
102
}
330
2
100
AcDbSymbolTableRecord
100
AcDbLayerTableRecord
  2
1
 70
     0
 62
     4
  6
Continuous
370
    -3
390
F
  0
LAYER
  5
602
102
{ACAD_XDICTIONARY
360
612
102
}
330
2
100
AcDbSymbolTableRecord
100
AcDbLayerTableRecord
  2
2
 70
     0
 62
     7
  6
Continuous
370
    -3
390
F
  0
LAYER
  5
603
102
{ACAD_XDICTIONARY
360
614
102
}
330
2
100
AcDbSymbolTableRecord
100
AcDbLayerTableRecord
  2
4
 70
     0
 62
     2
  6
CENTER
370
    -3
390
F
  0
LAYER
  5
605
102
{ACAD_XDICTIONARY
360
616
102
}
330
2
100
AcDbSymbolTableRecord
100
AcDbLayerTableRecord
  2
SK2
 70
     0
 62
     7
  6
Continuous
370
    -3
390
F
  0
LAYER
  5
606
102
{ACAD_XDICTIONARY
360
618
102
}
330
2
100
AcDbSymbolTableRecord
100
AcDbLayerTableRecord
  2
SK3
 70
     0
 62
     1
  6
DASHED
370
    -3
390
F
  0
LAYER
  5
607
102
{ACAD_XDICTIONARY
360
61A
102
}
330
2
100
AcDbSymbolTableRecord
100
AcDbLayerTableRecord
  2
SK4
 70
     0
 62
     2
  6
CENTER
370
    -3
390
F
  0
LAYER
  5
608
102
{ACAD_XDICTIONARY
360
61C
102
}
330
2
100
AcDbSymbolTableRecord
100
AcDbLayerTableRecord
  2
SK6
 70
     0
 62
     5
  6
Continuous
370
    -3
390
F
  0
LAYER
  5
609
102
{ACAD_XDICTIONARY
360
61E
102
}
330
2
100
AcDbSymbolTableRecord
100
AcDbLayerTableRecord
  2
CUT
 70
     0
 62
     1
  6
Continuous
370
    -3
390
F
  0
LAYER
  5
60A
102
{ACAD_XDICTIONARY
360
620
102
}
330
2
100
AcDbSymbolTableRecord
100
AcDbLayerTableRecord
  2
NOCUT
 70
     0
 62
     7
  6
Continuous
370
    -3
390
F
  0
LAYER
  5
60B
102
{ACAD_XDICTIONARY
360
622
102
}
330
2
100
AcDbSymbolTableRecord
100
AcDbLayerTableRecord
  2
80
 70
     0
 62
     6
  6
Continuous
370
    -3
390
F
  0
LAYER
  5
60C
102
{ACAD_XDICTIONARY
360
624
102
}
330
2
100
AcDbSymbolTableRecord
100
AcDbLayerTableRecord
  2
81
 70
     0
 62
     3
  6
Continuous
370
    -3
390
F
  0
LAYER
  5
60D
102
{ACAD_XDICTIONARY
360
626
102
}
330
2
100
AcDbSymbolTableRecord
100
AcDbLayerTableRecord
  2
SK1
 70
     0
 62
     4
  6
Continuous
370
    -3
390
F
  0
LAYER
  5
3A7
330
2
100
AcDbSymbolTableRecord
100
AcDbLayerTableRecord
  2
Defpoints
 70
     0
 62
     7
  6
Continuous
290
     0
370
    -3
390
F
  0
ENDTAB
  0
TABLE
  2
STYLE
  5
3
330
0
100
AcDbSymbolTable
 70
     2
  0
STYLE
  5
11
330
3
100
AcDbSymbolTableRecord
100
AcDbTextStyleTableRecord
  2
Standard
 70
     0
 40
0.0
 41
1.0
 50
0.0
 71
     0
 42
0.2
  3
txt
  4

  0
STYLE
  5
2B0
330
3
100
AcDbSymbolTableRecord
100
AcDbTextStyleTableRecord
  2
Arial
 70
     0
 40
0.0
 41
1.0
 50
0.0
 71
     0
 42
0.2
  3
Arial
  4

1001
ACAD
1000
Arial
1071
        0
  0
ENDTAB
  0
TABLE
  2
VIEW
  5
6
330
0
100
AcDbSymbolTable
 70
     8
  0
VIEW
  5
344
330
6
100
AcDbSymbolTableRecord
100
AcDbViewTableRecord
  2
Top
 70
     0
 40
207.433333
 10
6.331119999999999
 20
25.021317
 41
342.370833
 11
0.0
 21
0.0
 31
1.0
 12
0.0
 22
0.0
 32
0.0
 42
50.0
 43
265.969659
 44
-265.969659
 50
0.0
 71
     0
281
     0
 72
     0
  0
VIEW
  5
345
330
6
100
AcDbSymbolTableRecord
100
AcDbViewTableRecord
  2
Front
 70
     0
 40
1352.580743
 10
0.0
 20
0.0
 41
342.370833
 11
0.0
 21
-1.0
 31
0.0
 12
0.0
 22
0.0
 32
0.0
 42
50.0
 43
697.6196049999999
 44
-697.6196049999999
 50
0.0
 71
     0
281
     0
 72
     0
  0
VIEW
  5
346
330
6
100
AcDbSymbolTableRecord
100
AcDbViewTableRecord
  2
Right
 70
     0
 40
1352.580743
 10
0.0
 20
0.0
 41
207.433333
 11
1.0
 21
0.0
 31
0.0
 12
0.0
 22
0.0
 32
0.0
 42
50.0
 43
684.197204
 44
-684.197204
 50
0.0
 71
     0
281
     0
 72
     0
  0
VIEW
  5
347
330
6
100
AcDbSymbolTableRecord
100
AcDbViewTableRecord
  2
Back
 70
     0
 40
1352.580743
 10
0.0
 20
0.0
 41
342.370833
 11
0.0
 21
1.0
 31
0.0
 12
0.0
 22
0.0
 32
0.0
 42
50.0
 43
697.6196049999999
 44
-697.6196049999999
 50
0.0
 71
     0
281
     0
 72
     0
  0
VIEW
  5
348
330
6
100
AcDbSymbolTableRecord
100
AcDbViewTableRecord
  2
Bottom
 70
     0
 40
207.433333
 10
0.0
 20
0.0
 41
342.370833
 11
0.0
 21
0.0
 31
-1.0
 12
0.0
 22
0.0
 32
0.0
 42
50.0
 43
676.2903719999999
 44
-676.2903719999999
 50
180.0
 71
     0
281
     0
 72
     0
  0
VIEW
  5
349
330
6
100
AcDbSymbolTableRecord
100
AcDbViewTableRecord
  2
Left
 70
     0
 40
1352.580743
 10
0.0
 20
0.0
 41
207.433333
 11
-1.0
 21
0.0
 31
0.0
 12
0.0
 22
0.0
 32
0.0
 42
50.0
 43
684.197204
 44
-684.197204
 50
0.0
 71
     0
281
     0
 72
     0
  0
VIEW
  5
34A
330
6
100
AcDbSymbolTableRecord
100
AcDbViewTableRecord
  2
Isometric
 70
     0
 40
1328.834164
 10
0.0
 20
0.0
 41
388.770255
 11
0.5773502691896259
 21
-0.5773502691896259
 31
0.5773502691896259
 12
0.0
 22
0.0
 32
0.0
 42
50.0
 43
692.2684709999999
 44
-692.2684709999999
 50
0.0
 71
     0
281
     0
 72
     0
  0
VIEW
  5
34B
330
6
100
AcDbSymbolTableRecord
100
AcDbViewTableRecord
  2
Trimetric
 70
     0
 40
1402.492696
 10
0.0
 20
0.0
 41
376.997243
 11
0.7188730927569434
 21
-0.5850486126764433
 31
0.3754192287502549
 12
0.0
 22
0.0
 32
0.0
 42
50.0
 43
726.139223
 44
-726.139223
 50
0.0
 71
     0
281
     0
 72
     0
  0
ENDTAB
  0
TABLE
  2
UCS
  5
7
330
0
100
AcDbSymbolTable
 70
     0
  0
ENDTAB
  0
TABLE
  2
APPID
  5
9
330
0
100
AcDbSymbolTable
 70
     7
  0
APPID
  5
12
330
9
100
AcDbSymbolTableRecord
100
AcDbRegAppTableRecord
  2
ACAD
 70
     0
  0
APPID
  5
2B1
330
9
100
AcDbSymbolTableRecord
100
AcDbRegAppTableRecord
  2
ACAD_DSTYLE_DIMBREAK
 70
     0
  0
APPID
  5
35B
330
9
100
AcDbSymbolTableRecord
100
AcDbRegAppTableRecord
  2
ACAD_DSTYLE_DIM_LINETYPE
 70
     0
  0
APPID
  5
35C
330
9
100
AcDbSymbolTableRecord
100
AcDbRegAppTableRecord
  2
ACAD_DSTYLE_DIM_EXT1_LINETYPE
 70
     0
  0
APPID
  5
35D
330
9
100
AcDbSymbolTableRecord
100
AcDbRegAppTableRecord
  2
ACAD_DSTYLE_DIM_EXT2_LINETYPE
 70
     0
  0
APPID
  5
39D
330
9
100
AcDbSymbolTableRecord
100
AcDbRegAppTableRecord
  2
ACAD_MLEADERVER
 70
     0
  0
APPID
  5
641
330
9
100
AcDbSymbolTableRecord
100
AcDbRegAppTableRecord
  2
ACAD_NAV_VCDISPLAY
 70
     0
  0
ENDTAB
  0
TABLE
  2
DIMSTYLE
  5
A
330
0
100
AcDbSymbolTable
 70
     1
100
AcDbDimStyleTable
 71
     0
  0
DIMSTYLE
105
27
102
{ACAD_REACTORS
330
2B2
330
2CB
330
2E4
330
2FE
330
314
330
32C
102
}
330
A
100
AcDbSymbolTableRecord
100
AcDbDimStyleTableRecord
  2
Standard
 70
     0
340
11
1001
ACAD_DSTYLE_DIMBREAK
1070
   391
1040
6.349999999999999
  0
ENDTAB
  0
TABLE
  2
BLOCK_RECORD
  5
1
330
0
100
AcDbSymbolTable
 70
    13
  0
BLOCK_RECORD
  5
1F
330
1
100
AcDbSymbolTableRecord
100
AcDbBlockTableRecord
  2
*Model_Space
340
22
  0
BLOCK_RECORD
  5
1B
330
1
100
AcDbSymbolTableRecord
100
AcDbBlockTableRecord
  2
*Paper_Space
340
1E
  0
BLOCK_RECORD
  5
23
330
1
100
AcDbSymbolTableRecord
100
AcDbBlockTableRecord
  2
*Paper_Space0
340
26
  0
BLOCK_RECORD
  5
2B6
330
1
100
AcDbSymbolTableRecord
100
AcDbBlockTableRecord
  2
*D1
340
0
  0
BLOCK_RECORD
  5
2C2
330
1
100
AcDbSymbolTableRecord
100
AcDbBlockTableRecord
  2
_U0
340
0
  0
BLOCK_RECORD
  5
2CE
330
1
100
AcDbSymbolTableRecord
100
AcDbBlockTableRecord
  2
*D3
340
0
  0
BLOCK_RECORD
  5
2DA
330
1
100
AcDbSymbolTableRecord
100
AcDbBlockTableRecord
  2
_U1
340
0
  0
BLOCK_RECORD
  5
2E7
330
1
100
AcDbSymbolTableRecord
100
AcDbBlockTableRecord
  2
*D5
340
0
  0
BLOCK_RECORD
  5
2F5
330
1
100
AcDbSymbolTableRecord
100
AcDbBlockTableRecord
  2
_U2
340
0
  0
BLOCK_RECORD
  5
301
330
1
100
AcDbSymbolTableRecord
100
AcDbBlockTableRecord
  2
*D7
340
0
  0
BLOCK_RECORD
  5
30C
330
1
100
AcDbSymbolTableRecord
100
AcDbBlockTableRecord
  2
_U3
340
0
  0
BLOCK_RECORD
  5
317
330
1
100
AcDbSymbolTableRecord
100
AcDbBlockTableRecord
  2
*D9
340
0
  0
BLOCK_RECORD
  5
323
330
1
100
AcDbSymbolTableRecord
100
AcDbBlockTableRecord
  2
_U4
340
0
  0
BLOCK_RECORD
  5
32F
330
1
100
AcDbSymbolTableRecord
100
AcDbBlockTableRecord
  2
*D11
340
0
  0
BLOCK_RECORD
  5
33B
330
1
100
AcDbSymbolTableRecord
100
AcDbBlockTableRecord
  2
_U5
340
0
  0
ENDTAB
  0
ENDSEC
  0
SECTION
  2
BLOCKS
  0
BLOCK
  5
20
330
1F
100
AcDbEntity
  8
0
100
AcDbBlockBegin
  2
*Model_Space
 70
     0
 10
0.0
 20
0.0
 30
0.0
  3
*Model_Space
  1

  0
ENDBLK
  5
21
330
1F
100
AcDbEntity
  8
0
100
AcDbBlockEnd
  0
BLOCK
  5
1C
330
1B
100
AcDbEntity
 67
     1
  8
0
100
AcDbBlockBegin
  2
*Paper_Space
 70
     0
 10
0.0
 20
0.0
 30
0.0
  3
*Paper_Space
  1

  0
ENDBLK
  5
1D
330
1B
100
AcDbEntity
 67
     1
  8
0
100
AcDbBlockEnd
  0
BLOCK
  5
24
330
23
100
AcDbEntity
 67
     1
  8
0
100
AcDbBlockBegin
  2
*Paper_Space0
 70
     0
 10
0.0
 20
0.0
 30
0.0
  3
*Paper_Space0
  1

  0
ENDBLK
  5
25
330
23
100
AcDbEntity
 67
     1
  8
0
100
AcDbBlockEnd
  0
BLOCK
  5
2B7
330
2B6
100
AcDbEntity
  8
0
100
AcDbBlockBegin
  2
*D1
 70
     1
 10
0.0
 20
0.0
 30
0.0
  3
*D1
  1

  0
LINE
  5
2B9
330
2B6
100
AcDbEntity
  8
SK2
370
    -2
100
AcDbLine
 10
-54.2
 20
10.025
 30
0.0
 11
-54.2
 21
49.019884
 31
0.0
  0
LINE
  5
2BA
330
2B6
100
AcDbEntity
  8
SK2
370
    -2
100
AcDbLine
 10
70.8
 20
11.525
 30
0.0
 11
70.8
 21
49.019884
 31
0.0
  0
LINE
  5
2BB
330
2B6
100
AcDbEntity
  8
SK2
370
    -2
100
AcDbLine
 10
-51.7
 20
47.019884
 30
0.0
 11
68.3
 21
47.019884
 31
0.0
  0
SOLID
  5
2BC
330
2B6
100
AcDbEntity
  8
SK2
100
AcDbTrace
 10
-51.7
 20
47.436551
 30
0.0
 11
-51.7
 21
46.60321699999999
 31
0.0
 12
-54.2
 22
47.019884
 32
0.0
 13
-54.2
 23
47.019884
 33
0.0
  0
SOLID
  5
2BD
330
2B6
100
AcDbEntity
  8
SK2
100
AcDbTrace
 10
68.3
 20
46.60321699999999
 30
0.0
 11
68.3
 21
47.436551
 31
0.0
 12
70.8
 22
47.019884
 32
0.0
 13
70.8
 23
47.019884
 33
0.0
  0
MTEXT
  5
2BE
330
2B6
100
AcDbEntity
  8
SK2
370
    18
100
AcDbMText
 10
8.3
 20
50.796134
 30
0.0
 40
2.5
 41
0.0
 71
     5
 72
     1
  1
\A1;125
  7
Arial
 73
     1
 44
1.0
1001
ACAD
1000
MTEXTBEGIN
1070
    73
1070
     1
1070
    44
1040
1.0
1070
    74
1070
     0
1000
MTEXTEND
  0
POINT
  5
2BF
330
2B6
100
AcDbEntity
  8
Defpoints
 62
     0
100
AcDbPoint
 10
-54.2
 20
9.025
 30
0.0
  0
POINT
  5
2C0
330
2B6
100
AcDbEntity
  8
Defpoints
 62
     0
100
AcDbPoint
 10
70.8
 20
10.525
 30
0.0
  0
POINT
  5
2C1
330
2B6
100
AcDbEntity
  8
Defpoints
 62
     0
100
AcDbPoint
 10
70.8
 20
47.019884
 30
0.0
  0
ENDBLK
  5
2B8
330
2B6
100
AcDbEntity
  8
0
100
AcDbBlockEnd
  0
BLOCK
  5
2C9
330
2C2
100
AcDbEntity
  8
0
100
AcDbBlockBegin
  2
_U0
 70
     0
 10
0.0
 20
0.0
 30
0.0
  3
_U0
  1

  0
MTEXT
  5
2C3
330
2C2
100
AcDbEntity
  8
SK2
370
    13
100
AcDbMText
 10
5.268959999999999
 20
47.642288
 30
0.0
 40
2.5
 41
0.0
 71
     7
 72
     5
  1
\fArial|b0|i0;\W1.0000;125
  7
Arial
 73
     2
 44
1.047437
1001
ACAD
1000
MTEXTBEGIN
1070
    73
1070
     2
1070
    44
1040
1.047437
1070
    74
1070
     0
1000
MTEXTEND
  0
LINE
  5
2C4
330
2C2
100
AcDbEntity
  8
SK2
370
    13
100
AcDbLine
 10
-54.2
 20
10.025
 30
0.0
 11
-54.2
 21
49.019884
 31
0.0
  0
LINE
  5
2C5
330
2C2
100
AcDbEntity
  8
SK2
370
    13
100
AcDbLine
 10
70.8
 20
11.525
 30
0.0
 11
70.8
 21
49.019884
 31
0.0
  0
LINE
  5
2C6
330
2C2
100
AcDbEntity
  8
SK2
370
    13
100
AcDbLine
 10
-54.2
 20
47.019884
 30
0.0
 11
70.8
 21
47.019884
 31
0.0
  0
SOLID
  5
2C7
330
2C2
100
AcDbEntity
  8
SK2
370
    18
100
AcDbTrace
 10
-54.2
 20
47.019884
 30
0.0
 11
-51.700002
 21
47.46070099999999
 31
0.0
 12
-51.699998
 22
46.57906699999999
 32
0.0
 13
-51.699998
 23
46.57906699999999
 33
0.0
  0
SOLID
  5
2C8
330
2C2
100
AcDbEntity
  8
SK2
370
    18
100
AcDbTrace
 10
70.8
 20
47.019884
 30
0.0
 11
68.300002
 21
46.57906699999999
 31
0.0
 12
68.299998
 22
47.46070099999999
 32
0.0
 13
68.299998
 23
47.46070099999999
 33
0.0
  0
ENDBLK
  5
2CA
330
2C2
100
AcDbEntity
  8
0
100
AcDbBlockEnd
  0
BLOCK
  5
2CF
330
2CE
100
AcDbEntity
  8
0
100
AcDbBlockBegin
  2
*D3
 70
     1
 10
0.0
 20
0.0
 30
0.0
  3
*D3
  1

  0
LINE
  5
2D1
330
2CE
100
AcDbEntity
  8
SK2
370
    -2
100
AcDbLine
 10
49.8
 20
9.525
 30
0.0
 11
-69.157196
 21
9.525
 31
0.0
  0
LINE
  5
2D2
330
2CE
100
AcDbEntity
  8
SK2
370
    -2
100
AcDbLine
 10
-54.7
 20
-9.525
 30
0.0
 11
-69.157196
 21
-9.525
 31
0.0
  0
LINE
  5
2D3
330
2CE
100
AcDbEntity
  8
SK2
370
    -2
100
AcDbLine
 10
-67.15719599999999
 20
7.025
 30
0.0
 11
-67.15719599999999
 21
-7.025
 31
0.0
  0
SOLID
  5
2D4
330
2CE
100
AcDbEntity
  8
SK2
100
AcDbTrace
 10
-66.74052900000001
 20
7.025
 30
0.0
 11
-67.573863
 21
7.025
 31
0.0
 12
-67.15719599999999
 22
9.525
 32
0.0
 13
-67.15719599999999
 23
9.525
 33
0.0
  0
SOLID
  5
2D5
330
2CE
100
AcDbEntity
  8
SK2
100
AcDbTrace
 10
-67.573863
 20
-7.025
 30
0.0
 11
-66.74052900000001
 21
-7.025
 31
0.0
 12
-67.15719599999999
 22
-9.525
 32
0.0
 13
-67.15719599999999
 23
-9.525
 33
0.0
  0
MTEXT
  5
2D6
330
2CE
100
AcDbEntity
  8
SK2
370
    18
100
AcDbMText
 10
-70.93344599999999
 20
0.0
 30
0.0
 40
2.5
 41
0.0
 71
     5
 72
     1
  1
\A1;19.1
  7
Arial
 11
0.0
 21
1.0
 31
0.0
 73
     1
 44
1.0
1001
ACAD
1000
MTEXTBEGIN
1070
    73
1070
     1
1070
    44
1040
1.0
1070
    74
1070
     0
1000
MTEXTEND
  0
POINT
  5
2D7
330
2CE
100
AcDbEntity
  8
Defpoints
 62
     0
100
AcDbPoint
 10
50.8
 20
9.525
 30
0.0
  0
POINT
  5
2D8
330
2CE
100
AcDbEntity
  8
Defpoints
 62
     0
100
AcDbPoint
 10
-53.7
 20
-9.525
 30
0.0
  0
POINT
  5
2D9
330
2CE
100
AcDbEntity
  8
Defpoints
 62
     0
100
AcDbPoint
 10
-67.15719599999999
 20
-9.525
 30
0.0
  0
ENDBLK
  5
2D0
330
2CE
100
AcDbEntity
  8
0
100
AcDbBlockEnd
  0
BLOCK
  5
2E2
330
2DA
100
AcDbEntity
  8
0
100
AcDbBlockBegin
  2
_U1
 70
     0
 10
0.0
 20
0.0
 30
0.0
  3
_U1
  1

  0
MTEXT
  5
2DB
330
2DA
100
AcDbEntity
  8
SK2
370
    13
100
AcDbMText
 10
-68.030878
 20
0.15277
 30
0.0
 40
2.5
 41
0.0
 71
     7
 72
     5
  1
\fArial|b0|i0;\W1.0000;19
  7
Arial
 11
0.0000000000000001
 21
1.0
 31
0.0
 73
     2
 44
1.047437
1001
ACAD
1000
MTEXTBEGIN
1070
    73
1070
     2
1070
    44
1040
1.047437
1070
    74
1070
     0
1000
MTEXTEND
  0
MTEXT
  5
2DC
330
2DA
100
AcDbEntity
  8
SK2
370
    13
100
AcDbMText
 10
-68.030878
 20
-4.06249
 30
0.0
 40
2.5
 41
0.0
 71
     7
 72
     5
  1
\fArial|b0|i0;%%c
  7
Arial
 11
0.0000000000000001
 21
1.0
 31
0.0
 73
     2
 44
1.047437
1001
ACAD
1000
MTEXTBEGIN
1070
    73
1070
     2
1070
    44
1040
1.047437
1070
    74
1070
     0
1000
MTEXTEND
  0
LINE
  5
2DD
330
2DA
100
AcDbEntity
  8
SK2
370
    13
100
AcDbLine
 10
-54.7
 20
9.525
 30
0.0
 11
-69.157196
 21
9.525
 31
0.0
  0
LINE
  5
2DE
330
2DA
100
AcDbEntity
  8
SK2
370
    13
100
AcDbLine
 10
-54.7
 20
-9.525
 30
0.0
 11
-69.157196
 21
-9.525
 31
0.0
  0
LINE
  5
2DF
330
2DA
100
AcDbEntity
  8
SK2
370
    13
100
AcDbLine
 10
-67.15719599999999
 20
9.525
 30
0.0
 11
-67.15719599999999
 21
-9.525
 31
0.0
  0
SOLID
  5
2E0
330
2DA
100
AcDbEntity
  8
SK2
370
    18
100
AcDbTrace
 10
-67.15719599999999
 20
9.525
 30
0.0
 11
-66.716379
 21
7.025002
 31
0.0
 12
-67.59801299999999
 22
7.024997999999999
 32
0.0
 13
-67.59801299999999
 23
7.024997999999999
 33
0.0
  0
SOLID
  5
2E1
330
2DA
100
AcDbEntity
  8
SK2
370
    18
100
AcDbTrace
 10
-67.15719599999999
 20
-9.525
 30
0.0
 11
-67.59801299999999
 21
-7.025002
 31
0.0
 12
-66.716379
 22
-7.024997999999999
 32
0.0
 13
-66.716379
 23
-7.024997999999999
 33
0.0
  0
ENDBLK
  5
2E3
330
2DA
100
AcDbEntity
  8
0
100
AcDbBlockEnd
  0
BLOCK
  5
2E8
330
2E7
100
AcDbEntity
  8
0
100
AcDbBlockBegin
  2
*D5
 70
     1
 10
0.0
 20
0.0
 30
0.0
  3
*D5
  1

  0
LINE
  5
2EA
330
2E7
100
AcDbEntity
  8
2
370
    -2
100
AcDbLine
 10
68.3
 20
10.466102
 30
0.0
 11
68.3
 21
17.019884
 31
0.0
  0
LINE
  5
2EB
330
2E7
100
AcDbEntity
  8
2
370
    -2
100
AcDbLine
 10
70.8
 20
11.525
 30
0.0
 11
70.8
 21
17.019884
 31
0.0
  0
LINE
  5
2EC
330
2E7
100
AcDbEntity
  8
2
370
    -2
100
AcDbLine
 10
70.8
 20
15.019884
 30
0.0
 11
86.78127399999999
 21
15.019884
 31
0.0
  0
LINE
  5
2ED
330
2E7
100
AcDbEntity
  8
2
370
    -2
100
AcDbLine
 10
65.8
 20
15.019884
 30
0.0
 11
63.3
 21
15.019884
 31
0.0
  0
LINE
  5
2EE
330
2E7
100
AcDbEntity
  8
2
370
    -2
100
AcDbLine
 10
73.3
 20
15.019884
 30
0.0
 11
75.8
 21
15.019884
 31
0.0
  0
SOLID
  5
2EF
330
2E7
100
AcDbEntity
  8
2
100
AcDbTrace
 10
65.8
 20
14.603217
 30
0.0
 11
65.8
 21
15.436551
 31
0.0
 12
68.3
 22
15.019884
 32
0.0
 13
68.3
 23
15.019884
 33
0.0
  0
SOLID
  5
2F0
330
2E7
100
AcDbEntity
  8
2
100
AcDbTrace
 10
73.3
 20
15.436551
 30
0.0
 11
73.3
 21
14.603217
 31
0.0
 12
70.8
 22
15.019884
 32
0.0
 13
70.8
 23
15.019884
 33
0.0
  0
MTEXT
  5
2F1
330
2E7
100
AcDbEntity
  8
2
370
    18
100
AcDbMText
 10
81.977524
 20
18.796134
 30
0.0
 40
2.5
 41
0.0
 71
     5
 72
     1
  1
\A1;2.5
  7
Arial
 73
     1
 44
1.0
1001
ACAD
1000
MTEXTBEGIN
1070
    73
1070
     1
1070
    44
1040
1.0
1070
    74
1070
     0
1000
MTEXTEND
  0
POINT
  5
2F2
330
2E7
100
AcDbEntity
  8
Defpoints
 62
     0
100
AcDbPoint
 10
68.3
 20
9.466102000000001
 30
0.0
  0
POINT
  5
2F3
330
2E7
100
AcDbEntity
  8
Defpoints
 62
     0
100
AcDbPoint
 10
70.8
 20
10.525
 30
0.0
  0
POINT
  5
2F4
330
2E7
100
AcDbEntity
  8
Defpoints
 62
     0
100
AcDbPoint
 10
70.8
 20
15.019884
 30
0.0
  0
ENDBLK
  5
2E9
330
2E7
100
AcDbEntity
  8
0
100
AcDbBlockEnd
  0
BLOCK
  5
2FC
330
2F5
100
AcDbEntity
  8
0
100
AcDbBlockBegin
  2
_U2
 70
     0
 10
0.0
 20
0.0
 30
0.0
  3
_U2
  1

  0
LINE
  5
62F
330
2F5
100
AcDbEntity
  8
2
  6
Continuous
 62
   254
370
    13
100
AcDbLine
 10
65.79265815281928
 20
10.34234670926321
 30
0.0
 11
65.79265815281928
 21
17.019884
 31
0.0
  0
LINE
  5
630
330
2F5
100
AcDbEntity
  8
2
  6
Continuous
 62
   254
370
    13
100
AcDbLine
 10
70.8
 20
11.525
 30
0.0
 11
70.8
 21
17.019884
 31
0.0
  0
LINE
  5
631
330
2F5
100
AcDbEntity
  8
2
  6
Continuous
 62
   254
370
    13
100
AcDbLine
 10
63.29265815281928
 20
15.019884
 30
0.0
 11
60.79265815281928
 21
15.019884
 31
0.0
  0
LINE
  5
632
330
2F5
100
AcDbEntity
  8
2
  6
Continuous
 62
   254
370
    13
100
AcDbLine
 10
73.3
 20
15.019884
 30
0.0
 11
84.05630981173262
 21
15.019884
 31
0.0
  0
LINE
  5
633
330
2F5
100
AcDbEntity
  8
2
  6
Continuous
 62
   254
370
    13
100
AcDbLine
 10
65.79265815281928
 20
15.019884
 30
0.0
 11
70.8
 21
15.019884
 31
0.0
  0
SOLID
  5
634
330
2F5
100
AcDbEntity
  8
2
 62
   254
370
    18
100
AcDbTrace
 10
63.29265815281928
 20
15.43655066666666
 30
0.0
 11
63.29265815281928
 21
14.60321733333333
 31
0.0
 12
65.79265815281928
 22
15.019884
 32
0.0
 13
65.79265815281928
 23
15.019884
 33
0.0
  0
SOLID
  5
635
330
2F5
100
AcDbEntity
  8
2
 62
   254
370
    18
100
AcDbTrace
 10
73.3
 20
15.43655066666666
 30
0.0
 11
73.3
 21
14.60321733333333
 31
0.0
 12
70.8
 22
15.019884
 32
0.0
 13
70.8
 23
15.019884
 33
0.0
  0
MTEXT
  5
636
330
2F5
100
AcDbEntity
  8
2
 62
   254
370
    13
100
AcDbMText
 10
81.1487381882674
 20
18.81251701500682
 30
0.0
 40
2.5
 41
0.0
 71
     1
 72
     1
  1
\A1;5
  7
Arial
 73
     1
 44
1.0
1001
ACAD
1000
MTEXTBEGIN
1070
    73
1070
     1
1070
    44
1040
1.0
1070
    74
1070
     0
1000
MTEXTEND
  0
POINT
  5
637
330
2F5
100
AcDbEntity
  8
Defpoints
 62
     0
370
    18
100
AcDbPoint
 10
65.79265815281928
 20
9.34234670926321
 30
0.0
  0
POINT
  5
638
330
2F5
100
AcDbEntity
  8
Defpoints
 62
     0
370
    18
100
AcDbPoint
 10
70.8
 20
10.525
 30
0.0
  0
POINT
  5
639
330
2F5
100
AcDbEntity
  8
Defpoints
 62
     0
370
    18
100
AcDbPoint
 10
70.8
 20
15.019884
 30
0.0
  0
ENDBLK
  5
2FD
330
2F5
100
AcDbEntity
  8
0
100
AcDbBlockEnd
  0
BLOCK
  5
302
330
301
100
AcDbEntity
  8
0
100
AcDbBlockBegin
  2
*D7
 70
     1
 10
0.0
 20
0.0
 30
0.0
  3
*D7
  1

  0
LINE
  5
304
330
301
100
AcDbEntity
  8
2
370
    -2
100
AcDbLine
 10
70.8
 20
9.525
 30
0.0
 11
83.84280399999999
 21
9.525
 31
0.0
  0
LINE
  5
305
330
301
100
AcDbEntity
  8
2
370
    -2
100
AcDbLine
 10
71.79999999999999
 20
-9.525
 30
0.0
 11
83.84280399999999
 21
-9.525
 31
0.0
  0
LINE
  5
306
330
301
100
AcDbEntity
  8
2
370
    -2
100
AcDbLine
 10
81.842804
 20
7.025
 30
0.0
 11
81.842804
 21
-6.605
 31
0.0
  0
SOLID
  5
307
330
301
100
AcDbEntity
  8
2
100
AcDbTrace
 10
82.25947099999999
 20
7.025
 30
0.0
 11
81.426137
 21
7.025
 31
0.0
 12
81.842804
 22
9.525
 32
0.0
 13
81.842804
 23
9.525
 33
0.0
  0
MTEXT
  5
308
330
301
100
AcDbEntity
  8
2
370
    18
100
AcDbMText
 10
78.06655400000001
 20
0.0
 30
0.0
 40
2.5
 41
0.0
 71
     5
 72
     1
  1
\A1;19.05
  7
Arial
 11
0.0
 21
1.0
 31
0.0
 73
     1
 44
1.0
1001
ACAD
1000
MTEXTBEGIN
1070
    73
1070
     1
1070
    44
1040
1.0
1070
    74
1070
     0
1000
MTEXTEND
  0
POINT
  5
309
330
301
100
AcDbEntity
  8
Defpoints
 62
     0
100
AcDbPoint
 10
69.8
 20
9.525
 30
0.0
  0
POINT
  5
30A
330
301
100
AcDbEntity
  8
Defpoints
 62
     0
100
AcDbPoint
 10
70.8
 20
-9.525
 30
0.0
  0
POINT
  5
30B
330
301
100
AcDbEntity
  8
Defpoints
 62
     0
100
AcDbPoint
 10
81.842804
 20
-9.525
 30
0.0
  0
ENDBLK
  5
303
330
301
100
AcDbEntity
  8
0
100
AcDbBlockEnd
  0
BLOCK
  5
312
330
30C
100
AcDbEntity
  8
0
100
AcDbBlockBegin
  2
_U3
 70
     0
 10
0.0
 20
0.0
 30
0.0
  3
_U3
  1

  0
MTEXT
  5
30D
330
30C
100
AcDbEntity
  8
2
370
    13
100
AcDbMText
 10
80.969122
 20
-2.649754
 30
0.0
 40
2.5
 41
0.0
 71
     7
 72
     5
  1
\fArial|b0|i0;\W1.0000;19,05
  7
Arial
 11
0.0000000000000001
 21
1.0
 31
0.0
 73
     2
 44
1.047437
1001
ACAD
1000
MTEXTBEGIN
1070
    73
1070
     2
1070
    44
1040
1.047437
1070
    74
1070
     0
1000
MTEXTEND
  0
MTEXT
  5
30E
330
30C
100
AcDbEntity
  8
2
370
    13
100
AcDbMText
 10
80.969122
 20
-6.865013999999999
 30
0.0
 40
2.5
 41
0.0
 71
     7
 72
     5
  1
\fArial|b0|i0;%%c
  7
Arial
 11
0.0000000000000001
 21
1.0
 31
0.0
 73
     2
 44
1.047437
1001
ACAD
1000
MTEXTBEGIN
1070
    73
1070
     2
1070
    44
1040
1.047437
1070
    74
1070
     0
1000
MTEXTEND
  0
LINE
  5
30F
330
30C
100
AcDbEntity
  8
2
370
    13
100
AcDbLine
 10
72.8
 20
9.525
 30
0.0
 11
83.84280399999999
 21
9.525
 31
0.0
  0
LINE
  5
310
330
30C
100
AcDbEntity
  8
2
370
    13
100
AcDbLine
 10
81.842804
 20
15.775
 30
0.0
 11
81.842804
 21
9.525
 31
0.0
  0
SOLID
  5
311
330
30C
100
AcDbEntity
  8
2
370
    18
100
AcDbTrace
 10
81.842804
 20
9.525
 30
0.0
 11
81.401987
 21
12.024998
 31
0.0
 12
82.283621
 22
12.025002
 32
0.0
 13
82.283621
 23
12.025002
 33
0.0
  0
ENDBLK
  5
313
330
30C
100
AcDbEntity
  8
0
100
AcDbBlockEnd
  0
BLOCK
  5
318
330
317
100
AcDbEntity
  8
0
100
AcDbBlockBegin
  2
*D9
 70
     1
 10
0.0
 20
0.0
 30
0.0
  3
*D9
  1

  0
LINE
  5
31A
330
317
100
AcDbEntity
  8
2
370
    -2
100
AcDbLine
 10
50.8
 20
10.525
 30
0.0
 11
50.8
 21
33.01988400000001
 31
0.0
  0
LINE
  5
31B
330
317
100
AcDbEntity
  8
2
370
    -2
100
AcDbLine
 10
70.8
 20
11.525
 30
0.0
 11
70.8
 21
33.01988400000001
 31
0.0
  0
LINE
  5
31C
330
317
100
AcDbEntity
  8
2
370
    -2
100
AcDbLine
 10
53.3
 20
31.019884
 30
0.0
 11
68.3
 21
31.019884
 31
0.0
  0
SOLID
  5
31D
330
317
100
AcDbEntity
  8
2
100
AcDbTrace
 10
53.3
 20
31.436551
 30
0.0
 11
53.3
 21
30.603217
 31
0.0
 12
50.8
 22
31.019884
 32
0.0
 13
50.8
 23
31.019884
 33
0.0
  0
SOLID
  5
31E
330
317
100
AcDbEntity
  8
2
100
AcDbTrace
 10
68.3
 20
30.603217
 30
0.0
 11
68.3
 21
31.436551
 31
0.0
 12
70.8
 22
31.019884
 32
0.0
 13
70.8
 23
31.019884
 33
0.0
  0
MTEXT
  5
31F
330
317
100
AcDbEntity
  8
2
370
    18
100
AcDbMText
 10
60.8
 20
34.796134
 30
0.0
 40
2.5
 41
0.0
 71
     5
 72
     1
  1
\A1;20
  7
Arial
 73
     1
 44
1.0
1001
ACAD
1000
MTEXTBEGIN
1070
    73
1070
     1
1070
    44
1040
1.0
1070
    74
1070
     0
1000
MTEXTEND
  0
POINT
  5
320
330
317
100
AcDbEntity
  8
Defpoints
 62
     0
100
AcDbPoint
 10
50.8
 20
9.525
 30
0.0
  0
POINT
  5
321
330
317
100
AcDbEntity
  8
Defpoints
 62
     0
100
AcDbPoint
 10
70.8
 20
10.525
 30
0.0
  0
POINT
  5
322
330
317
100
AcDbEntity
  8
Defpoints
 62
     0
100
AcDbPoint
 10
70.8
 20
31.019884
 30
0.0
  0
ENDBLK
  5
319
330
317
100
AcDbEntity
  8
0
100
AcDbBlockEnd
  0
BLOCK
  5
32A
330
323
100
AcDbEntity
  8
0
100
AcDbBlockBegin
  2
_U4
 70
     0
 10
0.0
 20
0.0
 30
0.0
  3
_U4
  1

  0
MTEXT
  5
324
330
323
100
AcDbEntity
  8
2
370
    13
100
AcDbMText
 10
58.86514
 20
31.642288
 30
0.0
 40
2.5
 41
0.0
 71
     7
 72
     5
  1
\fArial|b0|i0;\W1.0000;20
  7
Arial
 73
     2
 44
1.047437
1001
ACAD
1000
MTEXTBEGIN
1070
    73
1070
     2
1070
    44
1040
1.047437
1070
    74
1070
     0
1000
MTEXTEND
  0
LINE
  5
325
330
323
100
AcDbEntity
  8
2
370
    13
100
AcDbLine
 10
50.8
 20
10.525
 30
0.0
 11
50.8
 21
33.01988400000001
 31
0.0
  0
LINE
  5
326
330
323
100
AcDbEntity
  8
2
370
    13
100
AcDbLine
 10
70.8
 20
11.525
 30
0.0
 11
70.8
 21
33.01988400000001
 31
0.0
  0
LINE
  5
327
330
323
100
AcDbEntity
  8
2
370
    13
100
AcDbLine
 10
50.8
 20
31.019884
 30
0.0
 11
70.8
 21
31.019884
 31
0.0
  0
SOLID
  5
328
330
323
100
AcDbEntity
  8
2
370
    18
100
AcDbTrace
 10
50.8
 20
31.019884
 30
0.0
 11
53.29999799999999
 21
31.460701
 31
0.0
 12
53.300002
 22
30.579067
 32
0.0
 13
53.300002
 23
30.579067
 33
0.0
  0
SOLID
  5
329
330
323
100
AcDbEntity
  8
2
370
    18
100
AcDbTrace
 10
70.8
 20
31.019884
 30
0.0
 11
68.300002
 21
30.579067
 31
0.0
 12
68.299998
 22
31.460701
 32
0.0
 13
68.299998
 23
31.460701
 33
0.0
  0
ENDBLK
  5
32B
330
323
100
AcDbEntity
  8
0
100
AcDbBlockEnd
  0
BLOCK
  5
330
330
32F
100
AcDbEntity
  8
0
100
AcDbBlockBegin
  2
*D11
 70
     1
 10
0.0
 20
0.0
 30
0.0
  3
*D11
  1

  0
LINE
  5
332
330
32F
100
AcDbEntity
  8
SK2
370
    -2
100
AcDbLine
 10
0.0
 20
2.0
 30
0.0
 11
0.0
 21
41.019884
 31
0.0
  0
LINE
  5
333
330
32F
100
AcDbEntity
  8
SK2
370
    -2
100
AcDbLine
 10
70.8
 20
11.525
 30
0.0
 11
70.8
 21
41.019884
 31
0.0
  0
LINE
  5
334
330
32F
100
AcDbEntity
  8
SK2
370
    -2
100
AcDbLine
 10
2.5
 20
39.019884
 30
0.0
 11
68.3
 21
39.019884
 31
0.0
  0
SOLID
  5
335
330
32F
100
AcDbEntity
  8
SK2
100
AcDbTrace
 10
2.5
 20
39.436551
 30
0.0
 11
2.5
 21
38.603217
 31
0.0
 12
0.0
 22
39.019884
 32
0.0
 13
0.0
 23
39.019884
 33
0.0
  0
SOLID
  5
336
330
32F
100
AcDbEntity
  8
SK2
100
AcDbTrace
 10
68.3
 20
38.603217
 30
0.0
 11
68.3
 21
39.436551
 31
0.0
 12
70.8
 22
39.019884
 32
0.0
 13
70.8
 23
39.019884
 33
0.0
  0
MTEXT
  5
337
330
32F
100
AcDbEntity
  8
SK2
370
    18
100
AcDbMText
 10
35.4
 20
42.796134
 30
0.0
 40
2.5
 41
0.0
 71
     5
 72
     1
  1
\A1;70.8
  7
Arial
 73
     1
 44
1.0
1001
ACAD
1000
MTEXTBEGIN
1070
    73
1070
     1
1070
    44
1040
1.0
1070
    74
1070
     0
1000
MTEXTEND
  0
POINT
  5
338
330
32F
100
AcDbEntity
  8
Defpoints
 62
     0
100
AcDbPoint
 10
0.0
 20
1.0
 30
0.0
  0
POINT
  5
339
330
32F
100
AcDbEntity
  8
Defpoints
 62
     0
100
AcDbPoint
 10
70.8
 20
10.525
 30
0.0
  0
POINT
  5
33A
330
32F
100
AcDbEntity
  8
Defpoints
 62
     0
100
AcDbPoint
 10
70.8
 20
39.019884
 30
0.0
  0
ENDBLK
  5
331
330
32F
100
AcDbEntity
  8
0
100
AcDbBlockEnd
  0
BLOCK
  5
342
330
33B
100
AcDbEntity
  8
0
100
AcDbBlockBegin
  2
_U5
 70
     0
 10
0.0
 20
0.0
 30
0.0
  3
_U5
  1

  0
MTEXT
  5
33C
330
33B
100
AcDbEntity
  8
SK2
370
    13
100
AcDbMText
 10
31.758796
 20
39.642288
 30
0.0
 40
2.5
 41
0.0
 71
     7
 72
     5
  1
\fArial|b0|i0;\W1.0000;70,8
  7
Arial
 73
     2
 44
1.047437
1001
ACAD
1000
MTEXTBEGIN
1070
    73
1070
     2
1070
    44
1040
1.047437
1070
    74
1070
     0
1000
MTEXTEND
  0
LINE
  5
33D
330
33B
100
AcDbEntity
  8
SK2
370
    13
100
AcDbLine
 10
0.0
 20
2.0
 30
0.0
 11
0.0
 21
41.019884
 31
0.0
  0
LINE
  5
33E
330
33B
100
AcDbEntity
  8
SK2
370
    13
100
AcDbLine
 10
70.8
 20
11.525
 30
0.0
 11
70.8
 21
41.019884
 31
0.0
  0
LINE
  5
33F
330
33B
100
AcDbEntity
  8
SK2
370
    13
100
AcDbLine
 10
0.0
 20
39.019884
 30
0.0
 11
70.8
 21
39.019884
 31
0.0
  0
SOLID
  5
340
330
33B
100
AcDbEntity
  8
SK2
370
    18
100
AcDbTrace
 10
0.0
 20
39.019884
 30
0.0
 11
2.499998
 21
39.460701
 31
0.0
 12
2.500001999999999
 22
38.579067
 32
0.0
 13
2.500001999999999
 23
38.579067
 33
0.0
  0
SOLID
  5
341
330
33B
100
AcDbEntity
  8
SK2
370
    18
100
AcDbTrace
 10
70.8
 20
39.019884
 30
0.0
 11
68.300002
 21
38.579067
 31
0.0
 12
68.299998
 22
39.460701
 32
0.0
 13
68.299998
 23
39.460701
 33
0.0
  0
ENDBLK
  5
343
330
33B
100
AcDbEntity
  8
0
100
AcDbBlockEnd
  0
ENDSEC
  0
SECTION
  2
ENTITIES
  0
LINE
  5
76
330
1F
100
AcDbEntity
  8
1
370
    18
100
AcDbLine
 10
70.43673299999999
 20
-6.035501999999999
 30
0.0
 11
70.48558400000001
 21
-6.354529
 31
0.0
  0
LINE
  5
78
330
1F
100
AcDbEntity
  8
1
370
    18
100
AcDbLine
 10
70.780951
 20
-8.021024999999999
 30
0.0
 11
70.766533
 21
-7.937205999999999
 31
0.0
  0
LINE
  5
79
330
1F
100
AcDbEntity
  8
4
370
    18
100
AcDbLine
 10
48.79999999999999
 20
0.0
 30
0.0
 11
73.79999999999999
 21
0.0
 31
0.0
  0
LINE
  5
7A
330
1F
100
AcDbEntity
  8
SK4
370
    18
100
AcDbLine
 10
-56.2
 20
0.0
 30
0.0
 11
52.8
 21
0.0
 31
0.0
  0
LINE
  5
7B
330
1F
100
AcDbEntity
  8
1
370
    18
100
AcDbLine
 10
70.79429399999999
 20
-8.24929
 30
0.0
 11
70.793336
 21
-8.156777999999999
 31
0.0
  0
LINE
  5
7C
330
1F
100
AcDbEntity
  8
1
370
    18
100
AcDbLine
 10
68.00508499999999
 20
4.129767
 30
0.0
 11
67.711885
 21
4.172255999999999
 31
0.0
  0
LINE
  5
7E
330
1F
100
AcDbEntity
  8
1
370
    18
100
AcDbLine
 10
67.96489300000001
 20
4.145526
 30
0.0
 11
67.71322099999999
 21
4.181810999999999
 31
0.0
  0
LINE
  5
7F
330
1F
100
AcDbEntity
  8
1
370
    18
100
AcDbLine
 10
70.766533
 20
7.952921
 30
0.0
 11
70.780951
 21
8.037547999999999
 31
0.0
  0
LINE
  5
80
330
1F
100
AcDbEntity
  8
1
370
    18
100
AcDbLine
 10
70.793336
 20
8.173783
 30
0.0
 11
70.79429399999999
 21
8.266069999999999
 31
0.0
  0
LINE
  5
81
330
1F
100
AcDbEntity
  8
1
370
    18
100
AcDbLine
 10
70.48558400000001
 20
6.351391
 30
0.0
 11
70.43673299999999
 21
6.031787
 31
0.0
  0
LINE
  5
82
330
1F
100
AcDbEntity
  8
1
370
    18
100
AcDbLine
 10
68.17735
 20
8.291449999999999
 30
0.0
 11
68.12108000000001
 21
8.343308
 31
0.0
  0
LINE
  5
83
330
1F
100
AcDbEntity
  8
1
370
    18
100
AcDbLine
 10
67.23941700000001
 20
8.573498999999999
 30
0.0
 11
66.960015
 21
8.540974999999999
 31
0.0
  0
LINE
  5
84
330
1F
100
AcDbEntity
  8
1
370
    18
100
AcDbLine
 10
66.43148499999999
 20
5.924498
 30
0.0
 11
66.56756800000001
 21
5.844662999999999
 31
0.0
  0
LINE
  5
85
330
1F
100
AcDbEntity
  8
1
370
    18
100
AcDbLine
 10
68.42541700000001
 20
7.971064999999999
 30
0.0
 11
68.19734100000001
 21
8.225490999999999
 31
0.0
  0
LINE
  5
86
330
1F
100
AcDbEntity
  8
1
370
    18
100
AcDbLine
 10
63.398722
 20
6.585986
 30
0.0
 11
63.378011
 21
6.506857
 31
0.0
  0
LINE
  5
87
330
1F
100
AcDbEntity
  8
1
370
    18
100
AcDbLine
 10
63.359711
 20
6.37579
 30
0.0
 11
63.357591
 21
6.284518
 31
0.0
  0
LINE
  5
88
330
1F
100
AcDbEntity
  8
1
370
    18
100
AcDbLine
 10
63.818649
 20
8.066097
 30
0.0
 11
63.877478
 21
8.376983
 31
0.0
  0
LINE
  5
89
330
1F
100
AcDbEntity
  8
1
370
    18
100
AcDbLine
 10
63.877478
 20
0.696462
 30
0.0
 11
63.818649
 21
0.6571730000000001
 31
0.0
  0
LINE
  5
8A
330
1F
100
AcDbEntity
  8
1
370
    18
100
AcDbLine
 10
66.22709300000001
 20
0.147011
 30
0.0
 11
66.69522499999999
 21
0.074413
 31
0.0
  0
LINE
  5
8B
330
1F
100
AcDbEntity
  8
1
370
    18
100
AcDbLine
 10
66.38344899999999
 20
0.13055
 30
0.0
 11
66.56801299999999
 21
0.10154
 31
0.0
  0
LINE
  5
8C
330
1F
100
AcDbEntity
  8
1
370
    18
100
AcDbLine
 10
67.871672
 20
2.060652999999999
 30
0.0
 11
67.344862
 21
2.133882999999999
 31
0.0
  0
LINE
  5
8D
330
1F
100
AcDbEntity
  8
1
370
    18
100
AcDbLine
 10
65.030619
 20
2.454705
 30
0.0
 11
64.796311
 21
2.480033
 31
0.0
  0
LINE
  5
8E
330
1F
100
AcDbEntity
  8
1
370
    18
100
AcDbLine
 10
64.35136999999999
 20
1.860661999999999
 30
0.0
 11
64.04546899999999
 21
0.992872
 31
0.0
  0
LINE
  5
90
330
1F
100
AcDbEntity
  8
1
370
    18
100
AcDbLine
 10
64.392342
 20
1.914742999999999
 30
0.0
 11
64.404877
 21
1.864809999999999
 31
0.0
  0
LINE
  5
91
330
1F
100
AcDbEntity
  8
1
370
    18
100
AcDbLine
 10
62.458486
 20
0.031062
 30
0.0
 11
62.59436899999999
 21
-0.19505
 31
0.0
  0
LINE
  5
92
330
1F
100
AcDbEntity
  8
1
370
    18
100
AcDbLine
 10
68.72450999999999
 20
3.940069
 30
0.0
 11
67.537052
 21
4.103911
 31
0.0
  0
LINE
  5
93
330
1F
100
AcDbEntity
  8
1
370
    18
100
AcDbLine
 10
68.953403
 20
5.578491
 30
0.0
 11
68.72450999999999
 21
3.940069
 31
0.0
  0
LINE
  5
94
330
1F
100
AcDbEntity
  8
1
370
    18
100
AcDbLine
 10
66.721965
 20
5.506183
 30
0.0
 11
66.545106
 21
4.240248999999999
 31
0.0
  0
LINE
  5
95
330
1F
100
AcDbEntity
  8
1
370
    18
100
AcDbLine
 10
67.514374
 20
4.107033
 30
0.0
 11
66.545106
 21
4.240248999999999
 31
0.0
  0
LINE
  5
96
330
1F
100
AcDbEntity
  8
1
370
    18
100
AcDbLine
 10
68.651718
 20
5.493457
 30
0.0
 11
68.955792
 21
5.595394999999999
 31
0.0
  0
LINE
  5
97
330
1F
100
AcDbEntity
  8
1
370
    18
100
AcDbLine
 10
67.537052
 20
-7.891313
 30
0.0
 11
68.72450999999999
 21
-7.952155
 31
0.0
  0
LINE
  5
98
330
1F
100
AcDbEntity
  8
1
370
    18
100
AcDbLine
 10
68.72450999999999
 20
-7.952155
 30
0.0
 11
68.82155799999999
 21
-7.547003999999999
 31
0.0
  0
LINE
  5
99
330
1F
100
AcDbEntity
  8
1
370
    18
100
AcDbLine
 10
66.545106
 20
-7.825417999999999
 30
0.0
 11
67.514374
 21
-7.889974999999999
 31
0.0
  0
LINE
  5
9A
330
1F
100
AcDbEntity
  8
1
370
    18
100
AcDbLine
 10
66.545106
 20
-7.825417999999999
 30
0.0
 11
66.588437
 21
-7.640594
 31
0.0
  0
LINE
  5
9B
330
1F
100
AcDbEntity
  8
1
370
    18
100
AcDbLine
 10
64.04546899999999
 20
-8.963974
 30
0.0
 11
64.35136999999999
 21
-8.791527
 31
0.0
  0
LINE
  5
9C
330
1F
100
AcDbEntity
  8
1
370
    18
100
AcDbLine
 10
64.404877
 20
-8.606866999999999
 30
0.0
 11
64.392342
 21
-8.703393
 31
0.0
  0
LINE
  5
9D
330
1F
100
AcDbEntity
  8
1
370
    18
100
AcDbLine
 10
62.458486
 20
5.638339
 30
0.0
 11
62.493503
 21
5.32204
 31
0.0
  0
LINE
  5
9E
330
1F
100
AcDbEntity
  8
1
370
    18
100
AcDbLine
 10
66.645326
 20
7.744044999999999
 30
0.0
 11
66.93472599999999
 21
7.91463
 31
0.0
  0
LINE
  5
9F
330
1F
100
AcDbEntity
  8
1
370
    18
100
AcDbLine
 10
66.59384799999999
 20
7.762722999999999
 30
0.0
 11
66.645326
 21
7.744044999999999
 31
0.0
  0
LINE
  5
A0
330
1F
100
AcDbEntity
  8
1
370
    18
100
AcDbLine
 10
66.59384799999999
 20
7.762722999999999
 30
0.0
 11
66.50984499999999
 21
7.769783
 31
0.0
  0
LINE
  5
A1
330
1F
100
AcDbEntity
  8
1
370
    18
100
AcDbLine
 10
66.50984499999999
 20
7.769783
 30
0.0
 11
66.341871
 21
7.478446
 31
0.0
  0
LINE
  5
A2
330
1F
100
AcDbEntity
  8
1
370
    18
100
AcDbLine
 10
66.341871
 20
7.478446
 30
0.0
 11
66.390574
 21
7.410158
 31
0.0
  0
LINE
  5
A3
330
1F
100
AcDbEntity
  8
1
370
    18
100
AcDbLine
 10
66.43288599999999
 20
7.375583999999999
 30
0.0
 11
66.390574
 21
7.410158
 31
0.0
  0
LINE
  5
A4
330
1F
100
AcDbEntity
  8
1
370
    18
100
AcDbLine
 10
66.431348
 20
7.041557
 30
0.0
 11
66.43288599999999
 21
7.375583999999999
 31
0.0
  0
LINE
  5
A5
330
1F
100
AcDbEntity
  8
1
370
    18
100
AcDbLine
 10
66.388712
 20
7.005932
 30
0.0
 11
66.431348
 21
7.041557
 31
0.0
  0
LINE
  5
A6
330
1F
100
AcDbEntity
  8
1
370
    18
100
AcDbLine
 10
66.388712
 20
7.005932
 30
0.0
 11
66.339375
 21
6.936430999999999
 31
0.0
  0
LINE
  5
A7
330
1F
100
AcDbEntity
  8
1
370
    18
100
AcDbLine
 10
66.339375
 20
6.936430999999999
 30
0.0
 11
66.504684
 21
6.649217
 31
0.0
  0
LINE
  5
A8
330
1F
100
AcDbEntity
  8
1
370
    18
100
AcDbLine
 10
66.504684
 20
6.649217
 30
0.0
 11
66.588762
 21
6.658357
 31
0.0
  0
LINE
  5
A9
330
1F
100
AcDbEntity
  8
1
370
    18
100
AcDbLine
 10
66.640417
 20
6.678310999999999
 30
0.0
 11
66.588762
 21
6.658357
 31
0.0
  0
LINE
  5
AA
330
1F
100
AcDbEntity
  8
1
370
    18
100
AcDbLine
 10
66.92827900000001
 20
6.514869
 30
0.0
 11
66.640417
 21
6.678310999999999
 31
0.0
  0
LINE
  5
AB
330
1F
100
AcDbEntity
  8
1
370
    18
100
AcDbLine
 10
66.93711999999999
 20
6.460566
 30
0.0
 11
66.92827900000001
 21
6.514869
 31
0.0
  0
LINE
  5
AC
330
1F
100
AcDbEntity
  8
1
370
    18
100
AcDbLine
 10
66.93711999999999
 20
6.460566
 30
0.0
 11
66.97178700000001
 21
6.384005
 31
0.0
  0
LINE
  5
AD
330
1F
100
AcDbEntity
  8
1
370
    18
100
AcDbLine
 10
66.97178700000001
 20
6.384005
 30
0.0
 11
67.30506899999999
 21
6.388129
 31
0.0
  0
LINE
  5
AE
330
1F
100
AcDbEntity
  8
1
370
    18
100
AcDbLine
 10
67.30506899999999
 20
6.388129
 30
0.0
 11
67.34044499999999
 21
6.465556999999999
 31
0.0
  0
LINE
  5
AF
330
1F
100
AcDbEntity
  8
1
370
    18
100
AcDbLine
 10
67.349788
 20
6.520084999999999
 30
0.0
 11
67.34044499999999
 21
6.465556999999999
 31
0.0
  0
LINE
  5
B0
330
1F
100
AcDbEntity
  8
1
370
    18
100
AcDbLine
 10
67.639188
 20
6.690669999999999
 30
0.0
 11
67.349788
 21
6.520084999999999
 31
0.0
  0
LINE
  5
B1
330
1F
100
AcDbEntity
  8
1
370
    18
100
AcDbLine
 10
67.690665
 20
6.671991999999999
 30
0.0
 11
67.639188
 21
6.690669999999999
 31
0.0
  0
LINE
  5
B2
330
1F
100
AcDbEntity
  8
1
370
    18
100
AcDbLine
 10
67.690665
 20
6.671991999999999
 30
0.0
 11
67.77466899999999
 21
6.664932
 31
0.0
  0
LINE
  5
B3
330
1F
100
AcDbEntity
  8
1
370
    18
100
AcDbLine
 10
67.77466899999999
 20
6.664932
 30
0.0
 11
67.942642
 21
6.956269999999999
 31
0.0
  0
LINE
  5
B4
330
1F
100
AcDbEntity
  8
1
370
    18
100
AcDbLine
 10
67.942642
 20
6.956269999999999
 30
0.0
 11
67.89394
 21
7.024557
 31
0.0
  0
LINE
  5
B5
330
1F
100
AcDbEntity
  8
1
370
    18
100
AcDbLine
 10
67.85162800000001
 20
7.059132
 30
0.0
 11
67.89394
 21
7.024557
 31
0.0
  0
LINE
  5
B6
330
1F
100
AcDbEntity
  8
1
370
    18
100
AcDbLine
 10
67.853166
 20
7.393158
 30
0.0
 11
67.85162800000001
 21
7.059132
 31
0.0
  0
LINE
  5
B7
330
1F
100
AcDbEntity
  8
1
370
    18
100
AcDbLine
 10
67.895802
 20
7.428783
 30
0.0
 11
67.853166
 21
7.393158
 31
0.0
  0
LINE
  5
B8
330
1F
100
AcDbEntity
  8
1
370
    18
100
AcDbLine
 10
67.895802
 20
7.428783
 30
0.0
 11
67.945139
 21
7.498283999999999
 31
0.0
  0
LINE
  5
B9
330
1F
100
AcDbEntity
  8
1
370
    18
100
AcDbLine
 10
67.945139
 20
7.498283999999999
 30
0.0
 11
67.77983
 21
7.785497999999999
 31
0.0
  0
LINE
  5
BA
330
1F
100
AcDbEntity
  8
1
370
    18
100
AcDbLine
 10
67.77983
 20
7.785497999999999
 30
0.0
 11
67.695752
 21
7.776358
 31
0.0
  0
LINE
  5
BB
330
1F
100
AcDbEntity
  8
1
370
    18
100
AcDbLine
 10
67.64409599999999
 20
7.756403999999998
 30
0.0
 11
67.695752
 21
7.776358
 31
0.0
  0
LINE
  5
BC
330
1F
100
AcDbEntity
  8
1
370
    18
100
AcDbLine
 10
67.35623499999999
 20
7.919846
 30
0.0
 11
67.64409599999999
 21
7.756403999999998
 31
0.0
  0
LINE
  5
BD
330
1F
100
AcDbEntity
  8
1
370
    18
100
AcDbLine
 10
67.34739300000001
 20
7.974149
 30
0.0
 11
67.35623499999999
 21
7.919846
 31
0.0
  0
LINE
  5
BE
330
1F
100
AcDbEntity
  8
1
370
    18
100
AcDbLine
 10
67.34739300000001
 20
7.974149
 30
0.0
 11
67.31272699999999
 21
8.05071
 31
0.0
  0
LINE
  5
BF
330
1F
100
AcDbEntity
  8
1
370
    18
100
AcDbLine
 10
67.31272699999999
 20
8.05071
 30
0.0
 11
66.979445
 21
8.046585999999999
 31
0.0
  0
LINE
  5
C0
330
1F
100
AcDbEntity
  8
1
370
    18
100
AcDbLine
 10
66.979445
 20
8.046585999999999
 30
0.0
 11
66.944069
 21
7.969158
 31
0.0
  0
LINE
  5
C1
330
1F
100
AcDbEntity
  8
1
370
    18
100
AcDbLine
 10
66.93472599999999
 20
7.91463
 30
0.0
 11
66.944069
 21
7.969158
 31
0.0
  0
LINE
  5
C2
330
1F
100
AcDbEntity
  8
CUT
370
    18
100
AcDbLine
 10
63.359711
 20
6.37579
 30
0.0
 11
63.357591
 21
6.284518
 31
0.0
  0
LINE
  5
C4
330
1F
100
AcDbEntity
  8
CUT
370
    18
100
AcDbLine
 10
70.766533
 20
7.952921
 30
0.0
 11
70.780951
 21
8.037547999999999
 31
0.0
  0
LINE
  5
C5
330
1F
100
AcDbEntity
  8
CUT
370
    18
100
AcDbLine
 10
70.793336
 20
8.173783
 30
0.0
 11
70.79429399999999
 21
8.266069999999999
 31
0.0
  0
LINE
  5
C6
330
1F
100
AcDbEntity
  8
CUT
370
    18
100
AcDbLine
 10
63.818649
 20
8.066097
 30
0.0
 11
63.877478
 21
8.376983
 31
0.0
  0
LINE
  5
C7
330
1F
100
AcDbEntity
  8
CUT
370
    18
100
AcDbLine
 10
63.398722
 20
6.585986
 30
0.0
 11
63.378011
 21
6.506857
 31
0.0
  0
LINE
  5
C8
330
1F
100
AcDbEntity
  8
CUT
370
    18
100
AcDbLine
 10
70.48558400000001
 20
6.351391
 30
0.0
 11
70.43673299999999
 21
6.031787
 31
0.0
  0
LINE
  5
C9
330
1F
100
AcDbEntity
  8
1
370
    18
100
AcDbLine
 10
65.02032199999999
 20
-8.731358999999999
 30
0.0
 11
64.694096
 21
-8.542114999999999
 31
0.0
  0
LINE
  5
CA
330
1F
100
AcDbEntity
  8
1
370
    18
100
AcDbLine
 10
70.087467
 20
-8.851456999999999
 30
0.0
 11
67.865313
 21
-8.818365
 31
0.0
  0
LINE
  5
CB
330
1F
100
AcDbEntity
  8
1
370
    18
100
AcDbLine
 10
67.86467299999999
 20
-8.818357999999999
 30
0.0
 11
67.33525799999999
 21
-8.806803999999999
 31
0.0
  0
LINE
  5
CC
330
1F
100
AcDbEntity
  8
1
370
    18
100
AcDbLine
 10
70.79817299999999
 20
-9.104739
 30
0.0
 11
70.797941
 21
-9.044821999999999
 31
0.0
  0
LINE
  5
CD
330
1F
100
AcDbEntity
  8
1
370
    18
100
AcDbLine
 10
70.48491099999999
 20
-8.018969
 30
0.0
 11
70.47524799999999
 21
-7.884432
 31
0.0
  0
LINE
  5
CE
330
1F
100
AcDbEntity
  8
1
370
    18
100
AcDbLine
 10
70.790361
 20
-8.096582000000001
 30
0.0
 11
70.793336
 21
-8.156777999999999
 31
0.0
  0
LINE
  5
CF
330
1F
100
AcDbEntity
  8
1
370
    18
100
AcDbLine
 10
70.780951
 20
-8.021024999999999
 30
0.0
 11
70.790361
 21
-8.096582000000001
 31
0.0
  0
LINE
  5
D0
330
1F
100
AcDbEntity
  8
1
370
    18
100
AcDbLine
 10
70.408881
 20
-9.497586
 30
0.0
 11
70.319867
 21
-9.498034
 31
0.0
  0
LINE
  5
D1
330
1F
100
AcDbEntity
  8
1
370
    18
100
AcDbLine
 10
64.32022499999999
 20
-9.447714999999998
 30
0.0
 11
70.31985899999999
 21
-9.498034
 31
0.0
  0
LINE
  5
D2
330
1F
100
AcDbEntity
  8
1
370
    18
100
AcDbLine
 10
70.170473
 20
-5.102391
 30
0.0
 11
70.353858
 21
-5.393620999999999
 31
0.0
  0
LINE
  5
D3
330
1F
100
AcDbEntity
  8
1
370
    18
100
AcDbLine
 10
70.69425999999999
 20
8.258530999999999
 30
0.0
 11
70.667605
 21
7.962730999999999
 31
0.0
  0
LINE
  5
D4
330
1F
100
AcDbEntity
  8
1
370
    18
100
AcDbLine
 10
70.790361
 20
8.1135
 30
0.0
 11
70.793336
 21
8.173783
 31
0.0
  0
LINE
  5
D5
330
1F
100
AcDbEntity
  8
1
370
    18
100
AcDbLine
 10
70.780951
 20
8.037547999999999
 30
0.0
 11
70.790361
 21
8.1135
 31
0.0
  0
LINE
  5
D6
330
1F
100
AcDbEntity
  8
1
370
    18
100
AcDbLine
 10
70.408881
 20
9.504286999999999
 30
0.0
 11
70.319867
 21
9.503678999999999
 31
0.0
  0
LINE
  5
D7
330
1F
100
AcDbEntity
  8
1
370
    18
100
AcDbLine
 10
70.79817299999999
 20
9.117492999999999
 30
0.0
 11
70.797941
 21
9.057872999999998
 31
0.0
  0
LINE
  5
D8
330
1F
100
AcDbEntity
  8
1
370
    18
100
AcDbLine
 10
70.141147
 20
9.472857000000001
 30
0.0
 11
70.31761
 21
9.473672
 31
0.0
  0
LINE
  5
D9
330
1F
100
AcDbEntity
  8
1
370
    18
100
AcDbLine
 10
67.127206
 20
9.434203999999999
 30
0.0
 11
70.141147
 21
9.472857000000001
 31
0.0
  0
LINE
  5
DA
330
1F
100
AcDbEntity
  8
1
370
    18
100
AcDbLine
 10
64.319901
 20
9.362363
 30
0.0
 11
67.127205
 21
9.434302
 31
0.0
  0
LINE
  5
DB
330
1F
100
AcDbEntity
  8
1
370
    18
100
AcDbLine
 10
64.32022499999999
 20
9.392061999999999
 30
0.0
 11
70.31985899999999
 21
9.503678999999999
 31
0.0
  0
LINE
  5
DC
330
1F
100
AcDbEntity
  8
1
370
    18
100
AcDbLine
 10
70.38365699999999
 20
6.347094999999999
 30
0.0
 11
70.337572
 21
6.044789999999999
 31
0.0
  0
LINE
  5
DD
330
1F
100
AcDbEntity
  8
1
370
    18
100
AcDbLine
 10
63.353805
 20
5.433014
 30
0.0
 11
63.35394399999999
 21
5.492715
 31
0.0
  0
LINE
  5
DE
330
1F
100
AcDbEntity
  8
1
370
    18
100
AcDbLine
 10
63.46164
 20
5.406400999999999
 30
0.0
 11
63.45252900000001
 21
5.500316999999999
 31
0.0
  0
LINE
  5
DF
330
1F
100
AcDbEntity
  8
1
370
    18
100
AcDbLine
 10
63.456697
 20
6.292867
 30
0.0
 11
63.49669
 21
6.577014
 31
0.0
  0
LINE
  5
E0
330
1F
100
AcDbEntity
  8
1
370
    18
100
AcDbLine
 10
63.36468299999999
 20
6.434326999999999
 30
0.0
 11
63.359711
 21
6.37579
 31
0.0
  0
LINE
  5
E1
330
1F
100
AcDbEntity
  8
1
370
    18
100
AcDbLine
 10
63.378011
 20
6.506857
 30
0.0
 11
63.36468299999999
 21
6.434326999999999
 31
0.0
  0
LINE
  5
E2
330
1F
100
AcDbEntity
  8
1
370
    18
100
AcDbLine
 10
63.920839
 20
8.070163
 30
0.0
 11
63.97695200000001
 21
8.363707000000001
 31
0.0
  0
LINE
  5
E3
330
1F
100
AcDbEntity
  8
1
370
    18
100
AcDbLine
 10
64.036641
 20
8.936746000000001
 30
0.0
 11
64.03121099999999
 21
8.884282999999999
 31
0.0
  0
LINE
  5
E4
330
1F
100
AcDbEntity
  8
1
370
    18
100
AcDbLine
 10
64.043551
 20
9.003517999999999
 30
0.0
 11
64.036641
 21
8.936746000000001
 31
0.0
  0
LINE
  5
E5
330
1F
100
AcDbEntity
  8
1
370
    18
100
AcDbLine
 10
70.134174
 20
-1.589226
 30
0.0
 11
70.186543
 21
-1.587146999999999
 31
0.0
  0
LINE
  5
E6
330
1F
100
AcDbEntity
  8
1
370
    18
100
AcDbLine
 10
70.69971800000001
 20
0.049268
 30
0.0
 11
70.798215
 21
0.8417889999999999
 31
0.0
  0
LINE
  5
E7
330
1F
100
AcDbEntity
  8
1
370
    18
100
AcDbLine
 10
70.486909
 20
-1.637487999999999
 30
0.0
 11
70.59037700000001
 21
-0.8179260000000001
 31
0.0
  0
LINE
  5
E8
330
1F
100
AcDbEntity
  8
1
370
    18
100
AcDbLine
 10
70.087467
 20
1.707195
 30
0.0
 11
67.865313
 21
2.016627
 31
0.0
  0
LINE
  5
E9
330
1F
100
AcDbEntity
  8
1
370
    18
100
AcDbLine
 10
70.408881
 20
-0.7402180000000001
 30
0.0
 11
70.319867
 21
-0.718279
 31
0.0
  0
LINE
  5
EA
330
1F
100
AcDbEntity
  8
1
370
    18
100
AcDbLine
 10
64.32022499999999
 20
0.561557
 30
0.0
 11
70.31985899999999
 21
-0.7182770000000001
 31
0.0
  0
LINE
  5
EB
330
1F
100
AcDbEntity
  8
1
370
    18
100
AcDbLine
 10
64.319901
 20
0.559964
 30
0.0
 11
67.127205
 21
-0.014819
 31
0.0
  0
LINE
  5
EC
330
1F
100
AcDbEntity
  8
1
370
    18
100
AcDbLine
 10
70.69971800000001
 20
-0.049268
 30
0.0
 11
70.798215
 21
-0.8417889999999999
 31
0.0
  0
LINE
  5
ED
330
1F
100
AcDbEntity
  8
1
370
    18
100
AcDbLine
 10
70.40886999999999
 20
-0.740215
 30
0.0
 11
70.79072499999999
 21
-0.8366379999999999
 31
0.0
  0
LINE
  5
EE
330
1F
100
AcDbEntity
  8
1
370
    18
100
AcDbLine
 10
70.60210600000001
 20
-0.793825
 30
0.0
 11
70.69702099999999
 21
-0.8318339999999999
 31
0.0
  0
LINE
  5
EF
330
1F
100
AcDbEntity
  8
1
370
    18
100
AcDbLine
 10
70.31761
 20
-0.7149830000000001
 30
0.0
 11
70.509282
 21
-0.7647149999999999
 31
0.0
  0
LINE
  5
F0
330
1F
100
AcDbEntity
  8
1
370
    18
100
AcDbLine
 10
70.48514799999999
 20
1.639114
 30
0.0
 11
70.087468
 21
1.707195
 31
0.0
  0
LINE
  5
F1
330
1F
100
AcDbEntity
  8
1
370
    18
100
AcDbLine
 10
70.486909
 20
1.637487999999999
 30
0.0
 11
70.681639
 21
0.095054
 31
0.0
  0
LINE
  5
F2
330
1F
100
AcDbEntity
  8
1
370
    18
100
AcDbLine
 10
64.180138
 20
0.5923189999999999
 30
0.0
 11
64.319901
 21
0.559964
 31
0.0
  0
LINE
  5
F3
330
1F
100
AcDbEntity
  8
1
370
    18
100
AcDbLine
 10
70.681639
 20
0.095051
 30
0.0
 11
70.69971800000001
 21
-0.049265
 31
0.0
  0
LINE
  5
F4
330
1F
100
AcDbEntity
  8
1
370
    18
100
AcDbLine
 10
67.86467299999999
 20
2.016716
 30
0.0
 11
67.33525799999999
 21
2.090308999999999
 31
0.0
  0
LINE
  5
F5
330
1F
100
AcDbEntity
  8
1
370
    18
100
AcDbLine
 10
64.74190400000001
 20
2.445700999999999
 30
0.0
 11
64.636808
 21
2.452683
 31
0.0
  0
LINE
  5
F6
330
1F
100
AcDbEntity
  8
1
370
    18
100
AcDbLine
 10
67.871672
 20
2.060652999999999
 30
0.0
 11
70.09564799999999
 21
1.750966999999999
 31
0.0
  0
LINE
  5
F7
330
1F
100
AcDbEntity
  8
1
370
    18
100
AcDbLine
 10
63.359711
 20
0.107505
 30
0.0
 11
63.557353
 21
0.573943
 31
0.0
  0
LINE
  5
F8
330
1F
100
AcDbEntity
  8
1
370
    18
100
AcDbLine
 10
68.18960200000001
 20
-0.243581
 30
0.0
 11
67.106987
 21
-0.166337
 31
0.0
  0
LINE
  5
F9
330
1F
100
AcDbEntity
  8
1
370
    18
100
AcDbLine
 10
67.106987
 20
-0.166345
 30
0.0
 11
64.02774100000001
 21
0.025912
 31
0.0
  0
LINE
  5
FA
330
1F
100
AcDbEntity
  8
1
370
    18
100
AcDbLine
 10
64.02774100000001
 20
0.025913
 30
0.0
 11
63.847088
 21
0.035937
 31
0.0
  0
LINE
  5
FB
330
1F
100
AcDbEntity
  8
1
370
    18
100
AcDbLine
 10
63.847089
 20
0.035938
 30
0.0
 11
63.45410600000001
 21
0.054598
 31
0.0
  0
LINE
  5
FC
330
1F
100
AcDbEntity
  8
1
370
    18
100
AcDbLine
 10
63.752127
 20
0.034738
 30
0.0
 11
63.84373100000001
 21
0.031352
 31
0.0
  0
LINE
  5
FD
330
1F
100
AcDbEntity
  8
1
370
    18
100
AcDbLine
 10
63.752139
 20
0.034738
 30
0.0
 11
63.355738
 21
0.070093
 31
0.0
  0
LINE
  5
FE
330
1F
100
AcDbEntity
  8
1
370
    18
100
AcDbLine
 10
68.24479699999999
 20
-0.249264
 30
0.0
 11
63.84374000000001
 21
0.031352
 31
0.0
  0
LINE
  5
FF
330
1F
100
AcDbEntity
  8
1
370
    18
100
AcDbLine
 10
53.925665
 20
-8.294327
 30
0.0
 11
54.36614200000001
 21
-8.161754
 31
0.0
  0
LINE
  5
100
330
1F
100
AcDbEntity
  8
1
370
    18
100
AcDbLine
 10
53.925665
 20
2.362702
 30
0.0
 11
54.36614200000001
 21
2.516656999999999
 31
0.0
  0
LINE
  5
101
330
1F
100
AcDbEntity
  8
1
370
    18
100
AcDbLine
 10
64.008328
 20
1.000512999999999
 30
0.0
 11
63.998064
 21
0.9464179999999998
 31
0.0
  0
LINE
  5
102
330
1F
100
AcDbEntity
  8
1
370
    18
100
AcDbLine
 10
64.39232
 20
1.914674999999999
 30
0.0
 11
64.35136999999999
 21
1.860661999999999
 31
0.0
  0
LINE
  5
103
330
1F
100
AcDbEntity
  8
1
370
    18
100
AcDbLine
 10
65.22156999999999
 20
5.455924999999999
 30
0.0
 11
64.008328
 21
5.413810999999999
 31
0.0
  0
LINE
  5
104
330
1F
100
AcDbEntity
  8
1
370
    18
100
AcDbLine
 10
63.965946
 20
0.9341779999999999
 30
0.0
 11
63.31039699999999
 21
1.010012999999999
 31
0.0
  0
LINE
  5
105
330
1F
100
AcDbEntity
  8
1
370
    18
100
AcDbLine
 10
64.046018
 20
0.9614080000000001
 30
0.0
 11
63.927936
 21
0.8744790000000001
 31
0.0
  0
LINE
  5
106
330
1F
100
AcDbEntity
  8
1
370
    18
100
AcDbLine
 10
63.85965699999999
 20
0.85334
 30
0.0
 11
63.927936
 21
0.8744790000000001
 31
0.0
  0
LINE
  5
107
330
1F
100
AcDbEntity
  8
1
370
    18
100
AcDbLine
 10
63.85965699999999
 20
0.85334
 30
0.0
 11
63.965946
 21
0.9341779999999999
 31
0.0
  0
LINE
  5
108
330
1F
100
AcDbEntity
  8
1
370
    18
100
AcDbLine
 10
62.239231
 20
1.1064
 30
0.0
 11
55.436441
 21
2.441921999999999
 31
0.0
  0
LINE
  5
109
330
1F
100
AcDbEntity
  8
1
370
    18
100
AcDbLine
 10
62.986078
 20
1.017967999999999
 30
0.0
 11
62.239231
 21
1.1064
 31
0.0
  0
LINE
  5
10A
330
1F
100
AcDbEntity
  8
1
370
    18
100
AcDbLine
 10
63.310412
 20
1.009997999999999
 30
0.0
 11
62.986078
 21
1.017967999999999
 31
0.0
  0
LINE
  5
10B
330
1F
100
AcDbEntity
  8
1
370
    18
100
AcDbLine
 10
65.22156999999999
 20
2.562786
 30
0.0
 11
65.174068
 21
2.492141999999999
 31
0.0
  0
LINE
  5
10C
330
1F
100
AcDbEntity
  8
1
370
    18
100
AcDbLine
 10
53.82078100000001
 20
-0.157262
 30
0.0
 11
54.401763
 21
-1.748454
 31
0.0
  0
LINE
  5
10D
330
1F
100
AcDbEntity
  8
1
370
    18
100
AcDbLine
 10
55.288514
 20
-3.323285999999999
 30
0.0
 11
55.472905
 21
-3.607277999999999
 31
0.0
  0
LINE
  5
10E
330
1F
100
AcDbEntity
  8
1
370
    18
100
AcDbLine
 10
54.401763
 20
-1.748454
 30
0.0
 11
55.288514
 21
-3.323285999999999
 31
0.0
  0
LINE
  5
10F
330
1F
100
AcDbEntity
  8
1
370
    18
100
AcDbLine
 10
67.537052
 20
2.193798
 30
0.0
 11
69.99737399999999
 21
1.848752999999999
 31
0.0
  0
LINE
  5
110
330
1F
100
AcDbEntity
  8
1
370
    18
100
AcDbLine
 10
69.986276
 20
1.76508
 30
0.0
 11
69.99737399999999
 21
1.848752999999999
 31
0.0
  0
LINE
  5
111
330
1F
100
AcDbEntity
  8
1
370
    18
100
AcDbLine
 10
69.986276
 20
1.76508
 30
0.0
 11
67.525954
 21
2.107534999999999
 31
0.0
  0
LINE
  5
112
330
1F
100
AcDbEntity
  8
1
370
    18
100
AcDbLine
 10
67.525954
 20
2.107534999999999
 30
0.0
 11
67.537052
 21
2.193798
 31
0.0
  0
LINE
  5
113
330
1F
100
AcDbEntity
  8
1
370
    18
100
AcDbLine
 10
69.99737399999999
 20
5.611317999999999
 30
0.0
 11
68.95337399999999
 21
5.57849
 31
0.0
  0
LINE
  5
114
330
1F
100
AcDbEntity
  8
1
370
    18
100
AcDbLine
 10
63.292786
 20
5.363476
 30
0.0
 11
62.96845199999999
 21
5.329873
 31
0.0
  0
LINE
  5
115
330
1F
100
AcDbEntity
  8
1
370
    18
100
AcDbLine
 10
62.96845199999999
 20
1.090152
 30
0.0
 11
63.292786
 21
1.081981999999999
 31
0.0
  0
LINE
  5
116
330
1F
100
AcDbEntity
  8
1
370
    18
100
AcDbLine
 10
69.99737399999999
 20
1.848752999999999
 30
0.0
 11
70.38212099999999
 21
1.783614
 31
0.0
  0
LINE
  5
117
330
1F
100
AcDbEntity
  8
1
370
    18
100
AcDbLine
 10
70.30954499999999
 20
1.708544999999999
 30
0.0
 11
70.389215
 21
1.777765
 31
0.0
  0
LINE
  5
118
330
1F
100
AcDbEntity
  8
1
370
    18
100
AcDbLine
 10
70.20060100000001
 20
1.732377
 30
0.0
 11
69.986276
 21
1.76508
 31
0.0
  0
LINE
  5
119
330
1F
100
AcDbEntity
  8
1
370
    18
100
AcDbLine
 10
64.61605
 20
2.584216999999999
 30
0.0
 11
64.858114
 21
2.482893
 31
0.0
  0
LINE
  5
11A
330
1F
100
AcDbEntity
  8
1
370
    18
100
AcDbLine
 10
65.225786
 20
2.439359
 30
0.0
 11
65.18950699999999
 21
2.477883
 31
0.0
  0
LINE
  5
11B
330
1F
100
AcDbEntity
  8
1
370
    18
100
AcDbLine
 10
66.721953
 20
5.506183
 30
0.0
 11
65.23966699999999
 21
5.456517999999999
 31
0.0
  0
LINE
  5
11C
330
1F
100
AcDbEntity
  8
1
370
    18
100
AcDbLine
 10
65.274169
 20
2.50974
 30
0.0
 11
67.514374
 21
2.196864
 31
0.0
  0
LINE
  5
11D
330
1F
100
AcDbEntity
  8
1
370
    18
100
AcDbLine
 10
65.23966699999999
 20
2.546389
 30
0.0
 11
65.274169
 21
2.509740999999999
 31
0.0
  0
LINE
  5
11E
330
1F
100
AcDbEntity
  8
1
370
    18
100
AcDbLine
 10
65.225787
 20
2.439359999999999
 30
0.0
 11
65.27416999999999
 21
2.50974
 31
0.0
  0
LINE
  5
11F
330
1F
100
AcDbEntity
  8
1
370
    18
100
AcDbLine
 10
67.50407
 20
2.110574
 30
0.0
 11
67.514374
 21
2.196864
 31
0.0
  0
LINE
  5
120
330
1F
100
AcDbEntity
  8
1
370
    18
100
AcDbLine
 10
67.50407
 20
2.110574
 30
0.0
 11
65.23545099999999
 21
2.425008
 31
0.0
  0
LINE
  5
121
330
1F
100
AcDbEntity
  8
1
370
    18
100
AcDbLine
 10
55.23364399999999
 20
2.473803999999999
 30
0.0
 11
54.374298
 21
2.452859
 31
0.0
  0
LINE
  5
122
330
1F
100
AcDbEntity
  8
1
370
    18
100
AcDbLine
 10
55.436441
 20
2.441921999999999
 30
0.0
 11
55.23364399999999
 21
2.473803999999999
 31
0.0
  0
LINE
  5
123
330
1F
100
AcDbEntity
  8
1
370
    18
100
AcDbLine
 10
65.23966699999999
 20
2.546389
 30
0.0
 11
65.18950699999999
 21
2.477883
 31
0.0
  0
LINE
  5
124
330
1F
100
AcDbEntity
  8
1
370
    18
100
AcDbLine
 10
62.366621
 20
5.288751999999999
 30
0.0
 11
62.25291
 21
5.284981
 31
0.0
  0
LINE
  5
125
330
1F
100
AcDbEntity
  8
1
370
    18
100
AcDbLine
 10
62.239231
 20
1.1064
 30
0.0
 11
62.25291
 21
1.180417
 31
0.0
  0
LINE
  5
126
330
1F
100
AcDbEntity
  8
1
370
    18
100
AcDbLine
 10
55.436441
 20
2.441921999999999
 30
0.0
 11
55.45011999999999
 21
2.526943999999999
 31
0.0
  0
LINE
  5
127
330
1F
100
AcDbEntity
  8
1
370
    18
100
AcDbLine
 10
54.36614200000001
 20
2.516656999999999
 30
0.0
 11
55.24065
 21
2.557306999999999
 31
0.0
  0
LINE
  5
128
330
1F
100
AcDbEntity
  8
1
370
    18
100
AcDbLine
 10
55.425041
 20
8.038044000000001
 30
0.0
 11
55.24065
 21
8.140940999999999
 31
0.0
  0
LINE
  5
129
330
1F
100
AcDbEntity
  8
1
370
    18
100
AcDbLine
 10
56.92503199999999
 20
6.970444999999999
 30
0.0
 11
56.038727
 21
7.714989999999999
 31
0.0
  0
LINE
  5
12A
330
1F
100
AcDbEntity
  8
1
370
    18
100
AcDbLine
 10
55.24065
 20
2.557306999999999
 30
0.0
 11
55.45011999999999
 21
2.526943999999999
 31
0.0
  0
LINE
  5
12B
330
1F
100
AcDbEntity
  8
1
370
    18
100
AcDbLine
 10
54.36614200000001
 20
-8.161754
 30
0.0
 11
55.24065
 21
-8.067027000000001
 31
0.0
  0
LINE
  5
12C
330
1F
100
AcDbEntity
  8
1
370
    18
100
AcDbLine
 10
55.47290699999999
 20
-3.607276
 30
0.0
 11
56.080676
 21
-4.329826999999999
 31
0.0
  0
LINE
  5
12D
330
1F
100
AcDbEntity
  8
1
370
    18
100
AcDbLine
 10
56.03876999999999
 20
-4.377013999999999
 30
0.0
 11
56.080606
 21
-4.329761
 31
0.0
  0
LINE
  5
12E
330
1F
100
AcDbEntity
  8
1
370
    18
100
AcDbLine
 10
56.038699
 20
-4.376946
 30
0.0
 11
55.425043
 21
-3.645576
 31
0.0
  0
LINE
  5
12F
330
1F
100
AcDbEntity
  8
1
370
    18
100
AcDbLine
 10
61.15568199999999
 20
-1.223062
 30
0.0
 11
61.48233199999999
 21
-1.494232999999999
 31
0.0
  0
LINE
  5
130
330
1F
100
AcDbEntity
  8
1
370
    18
100
AcDbLine
 10
59.973542
 20
-1.748154999999999
 30
0.0
 11
61.48233199999999
 21
-1.494232999999999
 31
0.0
  0
LINE
  5
131
330
1F
100
AcDbEntity
  8
1
370
    18
100
AcDbLine
 10
55.425041
 20
-3.645576999999999
 30
0.0
 11
55.24065
 21
-3.359244999999999
 31
0.0
  0
LINE
  5
132
330
1F
100
AcDbEntity
  8
1
370
    18
100
AcDbLine
 10
55.45011999999999
 20
-8.07765
 30
0.0
 11
62.25291
 21
-8.429821
 31
0.0
  0
LINE
  5
133
330
1F
100
AcDbEntity
  8
1
370
    18
100
AcDbLine
 10
55.24065
 20
-8.067027000000001
 30
0.0
 11
55.45011999999999
 21
-8.07765
 31
0.0
  0
LINE
  5
134
330
1F
100
AcDbEntity
  8
1
370
    18
100
AcDbLine
 10
62.251328
 20
-7.113238
 30
0.0
 11
62.368984
 21
-7.115883
 31
0.0
  0
LINE
  5
135
330
1F
100
AcDbEntity
  8
1
370
    18
100
AcDbLine
 10
60.563861
 20
-7.020680999999999
 30
0.0
 11
62.251328
 21
-7.113238
 31
0.0
  0
LINE
  5
136
330
1F
100
AcDbEntity
  8
1
370
    18
100
AcDbLine
 10
63.32148
 20
5.395156
 30
0.0
 11
64.00571600000001
 21
5.441431999999999
 31
0.0
  0
LINE
  5
137
330
1F
100
AcDbEntity
  8
1
370
    18
100
AcDbLine
 10
64.00571600000001
 20
5.441431999999999
 30
0.0
 11
65.218959
 21
5.483221
 31
0.0
  0
LINE
  5
138
330
1F
100
AcDbEntity
  8
1
370
    18
100
AcDbLine
 10
65.23642199999999
 20
5.483811
 30
0.0
 11
66.72573599999999
 21
5.533123
 31
0.0
  0
LINE
  5
139
330
1F
100
AcDbEntity
  8
1
370
    18
100
AcDbLine
 10
62.99714599999999
 20
5.361093
 30
0.0
 11
63.32148
 21
5.395156
 31
0.0
  0
LINE
  5
13A
330
1F
100
AcDbEntity
  8
1
370
    18
100
AcDbLine
 10
68.95704399999999
 20
5.604544
 30
0.0
 11
69.99333599999999
 21
5.637080999999999
 31
0.0
  0
LINE
  5
13B
330
1F
100
AcDbEntity
  8
1
370
    18
100
AcDbLine
 10
62.368984
 20
5.315083999999999
 30
0.0
 11
62.99714599999999
 21
5.361093
 31
0.0
  0
LINE
  5
13C
330
1F
100
AcDbEntity
  8
1
370
    18
100
AcDbLine
 10
63.363677
 20
-0.292236
 30
0.0
 11
63.35749599999999
 21
0.070463
 31
0.0
  0
LINE
  5
13D
330
1F
100
AcDbEntity
  8
1
370
    18
100
AcDbLine
 10
63.363677
 20
-0.292236
 30
0.0
 11
63.04837599999999
 21
-0.294113
 31
0.0
  0
LINE
  5
13E
330
1F
100
AcDbEntity
  8
1
370
    18
100
AcDbLine
 10
60.563861
 20
5.440903999999999
 30
0.0
 11
62.251328
 21
5.311246999999999
 31
0.0
  0
LINE
  5
13F
330
1F
100
AcDbEntity
  8
1
370
    18
100
AcDbLine
 10
62.251328
 20
5.311246999999999
 30
0.0
 11
62.368984
 21
5.315083999999999
 31
0.0
  0
LINE
  5
140
330
1F
100
AcDbEntity
  8
1
370
    18
100
AcDbLine
 10
61.06587199999999
 20
-1.057215999999999
 30
0.0
 11
61.15568199999999
 21
-1.223062
 31
0.0
  0
LINE
  5
141
330
1F
100
AcDbEntity
  8
1
370
    18
100
AcDbLine
 10
70.305764
 20
-6.489209999999999
 30
0.0
 11
70.08224699999999
 21
-4.458294999999999
 31
0.0
  0
LINE
  5
142
330
1F
100
AcDbEntity
  8
1
370
    18
100
AcDbLine
 10
70.154153
 20
-4.454023999999999
 30
0.0
 11
70.08224699999999
 21
-4.458294999999999
 31
0.0
  0
LINE
  5
143
330
1F
100
AcDbEntity
  8
1
370
    18
100
AcDbLine
 10
70.37767099999999
 20
-6.483756999999999
 30
0.0
 11
70.305764
 21
-6.489209999999999
 31
0.0
  0
LINE
  5
144
330
1F
100
AcDbEntity
  8
1
370
    18
100
AcDbLine
 10
62.59436899999999
 20
-0.19505
 30
0.0
 11
62.760472
 21
-0.323939
 31
0.0
  0
LINE
  5
145
330
1F
100
AcDbEntity
  8
1
370
    18
100
AcDbLine
 10
63.04837599999999
 20
-0.294113
 30
0.0
 11
62.80348899999999
 21
-0.348026
 31
0.0
  0
LINE
  5
146
330
1F
100
AcDbEntity
  8
1
370
    18
100
AcDbLine
 10
67.050915
 20
-0.4293930000000001
 30
0.0
 11
66.026382
 21
-0.090238
 31
0.0
  0
LINE
  5
147
330
1F
100
AcDbEntity
  8
1
370
    18
100
AcDbLine
 10
67.50714000000001
 20
-0.574748
 30
0.0
 11
67.084512
 21
-0.441216
 31
0.0
  0
LINE
  5
148
330
1F
100
AcDbEntity
  8
1
370
    18
100
AcDbLine
 10
64.32217299999999
 20
-0.549429
 30
0.0
 11
67.50714000000001
 21
-0.574748
 31
0.0
  0
LINE
  5
149
330
1F
100
AcDbEntity
  8
1
370
    18
100
AcDbLine
 10
64.32217299999999
 20
-0.549429
 30
0.0
 11
63.77998299999999
 21
-0.372988
 31
0.0
  0
LINE
  5
14A
330
1F
100
AcDbEntity
  8
1
370
    18
100
AcDbLine
 10
70.389215
 20
-7.031630999999999
 30
0.0
 11
70.31660399999999
 21
-7.029450999999999
 31
0.0
  0
LINE
  5
14B
330
1F
100
AcDbEntity
  8
1
370
    18
100
AcDbLine
 10
62.76874799999999
 20
-0.352621
 30
0.0
 11
62.075263
 21
-0.425282
 31
0.0
  0
LINE
  5
14C
330
1F
100
AcDbEntity
  8
1
370
    18
100
AcDbLine
 10
70.31660399999999
 20
-7.029450999999999
 30
0.0
 11
70.315118
 21
-6.643979999999999
 31
0.0
  0
LINE
  5
14D
330
1F
100
AcDbEntity
  8
1
370
    18
100
AcDbLine
 10
70.38772900000001
 20
-6.646163999999999
 30
0.0
 11
70.315118
 21
-6.643979999999999
 31
0.0
  0
LINE
  5
14E
330
1F
100
AcDbEntity
  8
1
370
    18
100
AcDbLine
 10
70.38772900000001
 20
-6.646163999999999
 30
0.0
 11
70.389215
 21
-7.031630999999999
 31
0.0
  0
LINE
  5
14F
330
1F
100
AcDbEntity
  8
1
370
    18
100
AcDbLine
 10
70.06426399999999
 20
-0.7445149999999999
 30
0.0
 11
70.063458
 21
-0.6609540000000001
 31
0.0
  0
LINE
  5
150
330
1F
100
AcDbEntity
  8
1
370
    18
100
AcDbLine
 10
67.50714000000001
 20
-0.574748
 30
0.0
 11
70.06119599999999
 21
-0.748963
 31
0.0
  0
LINE
  5
151
330
1F
100
AcDbEntity
  8
1
370
    18
100
AcDbLine
 10
70.13399200000001
 20
-0.735717
 30
0.0
 11
70.06426399999999
 21
-0.7445310000000001
 31
0.0
  0
LINE
  5
152
330
1F
100
AcDbEntity
  8
1
370
    18
100
AcDbLine
 10
70.134017
 20
-0.627146
 30
0.0
 11
70.134017
 21
-0.7356110000000001
 31
0.0
  0
LINE
  5
153
330
1F
100
AcDbEntity
  8
1
370
    18
100
AcDbLine
 10
70.08224699999999
 20
-4.458294999999999
 30
0.0
 11
70.061405
 21
-4.032302999999999
 31
0.0
  0
LINE
  5
154
330
1F
100
AcDbEntity
  8
1
370
    18
100
AcDbLine
 10
70.061405
 20
-4.032302999999999
 30
0.0
 11
70.134017
 21
-4.034748
 31
0.0
  0
LINE
  5
155
330
1F
100
AcDbEntity
  8
1
370
    18
100
AcDbLine
 10
70.315118
 20
-6.643979999999999
 30
0.0
 11
70.305764
 21
-6.489209999999999
 31
0.0
  0
LINE
  5
156
330
1F
100
AcDbEntity
  8
1
370
    18
100
AcDbLine
 10
68.82637800000001
 20
-7.485478999999999
 30
0.0
 11
69.99333599999999
 21
-7.429528999999999
 31
0.0
  0
LINE
  5
157
330
1F
100
AcDbEntity
  8
1
370
    18
100
AcDbLine
 10
65.23642199999999
 20
-7.624250999999999
 30
0.0
 11
66.59334399999998
 21
-7.578792999999999
 31
0.0
  0
LINE
  5
158
330
1F
100
AcDbEntity
  8
1
370
    18
100
AcDbLine
 10
64.00571600000001
 20
-7.652288
 30
0.0
 11
65.218959
 21
-7.624741
 31
0.0
  0
LINE
  5
159
330
1F
100
AcDbEntity
  8
1
370
    18
100
AcDbLine
 10
63.32148
 20
-7.481681
 30
0.0
 11
64.00571600000001
 21
-7.652288
 31
0.0
  0
LINE
  5
15A
330
1F
100
AcDbEntity
  8
1
370
    18
100
AcDbLine
 10
62.99714599999999
 20
-7.301397999999999
 30
0.0
 11
63.32148
 21
-7.481681
 31
0.0
  0
LINE
  5
15B
330
1F
100
AcDbEntity
  8
1
370
    18
100
AcDbLine
 10
62.368984
 20
-7.115883
 30
0.0
 11
62.99714599999999
 21
-7.301397999999999
 31
0.0
  0
LINE
  5
15C
330
1F
100
AcDbEntity
  8
1
370
    18
100
AcDbLine
 10
69.99737399999999
 20
-7.490263
 30
0.0
 11
68.821577
 21
-7.54692
 31
0.0
  0
LINE
  5
15D
330
1F
100
AcDbEntity
  8
1
370
    18
100
AcDbLine
 10
68.821577
 20
-7.54692
 30
0.0
 11
68.82637800000001
 21
-7.485478999999999
 31
0.0
  0
LINE
  5
15E
330
1F
100
AcDbEntity
  8
1
370
    18
100
AcDbLine
 10
70.37767099999999
 20
-6.483756999999999
 30
0.0
 11
70.38772900000001
 21
-6.646163999999999
 31
0.0
  0
LINE
  5
15F
330
1F
100
AcDbEntity
  8
1
370
    18
100
AcDbLine
 10
63.77998299999999
 20
-0.372988
 30
0.0
 11
63.363677
 21
-0.292236
 31
0.0
  0
LINE
  5
160
330
1F
100
AcDbEntity
  8
1
370
    18
100
AcDbLine
 10
67.537052
 20
-8.680424999999999
 30
0.0
 11
69.99737399999999
 21
-8.721828999999999
 31
0.0
  0
LINE
  5
161
330
1F
100
AcDbEntity
  8
1
370
    18
100
AcDbLine
 10
70.134017
 20
-0.7355990000000001
 30
0.0
 11
70.134017
 21
-1.292691
 31
0.0
  0
LINE
  5
162
330
1F
100
AcDbEntity
  8
1
370
    18
100
AcDbLine
 10
66.588437
 20
-7.640594
 30
0.0
 11
65.23966699999999
 21
-7.686049999999999
 31
0.0
  0
LINE
  5
163
330
1F
100
AcDbEntity
  8
1
370
    18
100
AcDbLine
 10
66.59334399999998
 20
-7.578792999999999
 30
0.0
 11
66.588437
 21
-7.640594
 31
0.0
  0
LINE
  5
164
330
1F
100
AcDbEntity
  8
1
370
    18
100
AcDbLine
 10
65.274169
 20
-8.604411999999999
 30
0.0
 11
67.514374
 21
-8.679882
 31
0.0
  0
LINE
  5
165
330
1F
100
AcDbEntity
  8
1
370
    18
100
AcDbLine
 10
65.22156999999999
 20
-7.686544999999999
 30
0.0
 11
64.008328
 21
-7.714305999999999
 31
0.0
  0
LINE
  5
166
330
1F
100
AcDbEntity
  8
1
370
    18
100
AcDbLine
 10
63.29278699999999
 20
-8.780189999999999
 30
0.0
 11
64.008328
 21
-8.962828999999999
 31
0.0
  0
LINE
  5
167
330
1F
100
AcDbEntity
  8
1
370
    18
100
AcDbLine
 10
64.008328
 20
-7.714305999999999
 30
0.0
 11
63.292786
 21
-7.537175999999999
 31
0.0
  0
LINE
  5
168
330
1F
100
AcDbEntity
  8
1
370
    18
100
AcDbLine
 10
63.32148
 20
-7.481681
 30
0.0
 11
63.292786
 21
-7.537175999999999
 31
0.0
  0
LINE
  5
169
330
1F
100
AcDbEntity
  8
1
370
    18
100
AcDbLine
 10
64.266012
 20
-8.714927000000001
 30
0.0
 11
64.33104
 21
-8.631261
 31
0.0
  0
LINE
  5
16A
330
1F
100
AcDbEntity
  8
1
370
    18
100
AcDbLine
 10
64.35136999999999
 20
-8.791527
 30
0.0
 11
64.266012
 21
-8.714927000000001
 31
0.0
  0
LINE
  5
16B
330
1F
100
AcDbEntity
  8
1
370
    18
100
AcDbLine
 10
62.96845199999999
 20
-8.615571
 30
0.0
 11
63.292786
 21
-8.780191999999999
 31
0.0
  0
LINE
  5
16C
330
1F
100
AcDbEntity
  8
1
370
    18
100
AcDbLine
 10
63.292786
 20
-7.537175999999999
 30
0.0
 11
62.96845199999999
 21
-7.356583
 31
0.0
  0
LINE
  5
16D
330
1F
100
AcDbEntity
  8
1
370
    18
100
AcDbLine
 10
62.99714599999999
 20
-7.301397999999999
 30
0.0
 11
62.96845199999999
 21
-7.356583
 31
0.0
  0
LINE
  5
16E
330
1F
100
AcDbEntity
  8
1
370
    18
100
AcDbLine
 10
62.25291
 20
-8.429821
 30
0.0
 11
62.96845199999999
 21
-8.615571
 31
0.0
  0
LINE
  5
16F
330
1F
100
AcDbEntity
  8
1
370
    18
100
AcDbLine
 10
62.366621
 20
-7.17681
 30
0.0
 11
62.25291
 21
-7.174305
 31
0.0
  0
LINE
  5
170
330
1F
100
AcDbEntity
  8
1
370
    18
100
AcDbLine
 10
62.96845199999999
 20
-7.356583
 30
0.0
 11
62.366621
 21
-7.17681
 31
0.0
  0
LINE
  5
171
330
1F
100
AcDbEntity
  8
1
370
    18
100
AcDbLine
 10
53.91299
 20
-8.298792999999999
 30
0.0
 11
53.637546
 21
-8.472279999999999
 31
0.0
  0
LINE
  5
172
330
1F
100
AcDbEntity
  8
1
370
    18
100
AcDbLine
 10
64.33534399999999
 20
-8.626880999999999
 30
0.0
 11
64.392344
 21
-8.703395
 31
0.0
  0
LINE
  5
173
330
1F
100
AcDbEntity
  8
1
370
    18
100
AcDbLine
 10
64.39232
 20
-8.7034
 30
0.0
 11
64.35136999999999
 21
-8.791527
 31
0.0
  0
LINE
  5
174
330
1F
100
AcDbEntity
  8
1
370
    18
100
AcDbLine
 10
55.288514
 20
8.123836
 30
0.0
 11
55.472905
 21
8.021778999999998
 31
0.0
  0
LINE
  5
175
330
1F
100
AcDbEntity
  8
1
370
    18
100
AcDbLine
 10
54.678738
 20
8.435433999999998
 30
0.0
 11
55.288514
 21
8.123836
 31
0.0
  0
LINE
  5
176
330
1F
100
AcDbEntity
  8
1
370
    18
100
AcDbLine
 10
54.401763
 20
-8.503116999999999
 30
0.0
 11
55.149215
 21
-8.073902999999999
 31
0.0
  0
LINE
  5
177
330
1F
100
AcDbEntity
  8
1
370
    18
100
AcDbLine
 10
62.239231
 20
8.308702
 30
0.0
 11
55.685136
 21
7.914935999999999
 31
0.0
  0
LINE
  5
178
330
1F
100
AcDbEntity
  8
1
370
    18
100
AcDbLine
 10
62.986078
 20
8.505247
 30
0.0
 11
62.239231
 21
8.308702
 31
0.0
  0
LINE
  5
179
330
1F
100
AcDbEntity
  8
1
370
    18
100
AcDbLine
 10
63.310412
 20
8.669717999999999
 30
0.0
 11
62.986078
 21
8.505247
 31
0.0
  0
LINE
  5
17A
330
1F
100
AcDbEntity
  8
1
370
    18
100
AcDbLine
 10
63.92536800000001
 20
8.843967999999998
 30
0.0
 11
63.31039699999999
 21
8.669747
 31
0.0
  0
LINE
  5
17B
330
1F
100
AcDbEntity
  8
1
370
    18
100
AcDbLine
 10
63.85965699999999
 20
8.576064
 30
0.0
 11
63.910598
 21
8.709217999999999
 31
0.0
  0
LINE
  5
17C
330
1F
100
AcDbEntity
  8
1
370
    18
100
AcDbLine
 10
63.85965699999999
 20
8.576064
 30
0.0
 11
63.927936
 21
8.543395
 31
0.0
  0
LINE
  5
17D
330
1F
100
AcDbEntity
  8
1
370
    18
100
AcDbLine
 10
63.29278699999999
 20
8.701575999999999
 30
0.0
 11
63.928989
 21
8.882636999999999
 31
0.0
  0
LINE
  5
17E
330
1F
100
AcDbEntity
  8
1
370
    18
100
AcDbLine
 10
62.25291
 20
8.347545
 30
0.0
 11
62.96845199999999
 21
8.537063999999999
 31
0.0
  0
LINE
  5
17F
330
1F
100
AcDbEntity
  8
1
370
    18
100
AcDbLine
 10
62.96845199999999
 20
8.537063999999999
 30
0.0
 11
63.292786
 21
8.701577999999999
 31
0.0
  0
LINE
  5
180
330
1F
100
AcDbEntity
  8
1
370
    18
100
AcDbLine
 10
70.216148
 20
-5.049066999999999
 30
0.0
 11
70.37767099999999
 21
-5.162274
 31
0.0
  0
LINE
  5
181
330
1F
100
AcDbEntity
  8
1
370
    18
100
AcDbLine
 10
70.37767099999999
 20
-5.162274
 30
0.0
 11
70.305764
 21
-5.238321
 31
0.0
  0
LINE
  5
182
330
1F
100
AcDbEntity
  8
1
370
    18
100
AcDbLine
 10
70.37767099999999
 20
-1.761303999999999
 30
0.0
 11
70.154153
 21
-1.736022999999999
 31
0.0
  0
LINE
  5
183
330
1F
100
AcDbEntity
  8
1
370
    18
100
AcDbLine
 10
70.38772900000001
 20
-5.180191999999999
 30
0.0
 11
70.315118
 21
-5.250154
 31
0.0
  0
LINE
  5
184
330
1F
100
AcDbEntity
  8
1
370
    18
100
AcDbLine
 10
70.37767099999999
 20
-1.761303999999999
 30
0.0
 11
70.298705
 21
-1.694163
 31
0.0
  0
LINE
  5
185
330
1F
100
AcDbEntity
  8
1
370
    18
100
AcDbLine
 10
70.134017
 20
-1.675883999999999
 30
0.0
 11
70.298705
 21
-1.694163
 31
0.0
  0
LINE
  5
186
330
1F
100
AcDbEntity
  8
1
370
    18
100
AcDbLine
 10
70.389215
 20
-5.208858
 30
0.0
 11
70.31660399999999
 21
-5.278812999999999
 31
0.0
  0
LINE
  5
187
330
1F
100
AcDbEntity
  8
1
370
    18
100
AcDbLine
 10
67.05629399999999
 20
6.356448999999999
 30
0.0
 11
67.049978
 21
6.408546
 31
0.0
  0
LINE
  5
188
330
1F
100
AcDbEntity
  8
1
370
    18
100
AcDbLine
 10
67.049978
 20
6.408546
 30
0.0
 11
66.98865999999999
 21
6.478632
 31
0.0
  0
LINE
  5
189
330
1F
100
AcDbEntity
  8
1
370
    18
100
AcDbLine
 10
67.87119399999999
 20
7.693788999999999
 30
0.0
 11
67.81492599999999
 21
7.672241
 31
0.0
  0
LINE
  5
18A
330
1F
100
AcDbEntity
  8
1
370
    18
100
AcDbLine
 10
67.765795
 20
7.650081
 30
0.0
 11
67.81492599999999
 21
7.672241
 31
0.0
  0
LINE
  5
18B
330
1F
100
AcDbEntity
  8
1
370
    18
100
AcDbLine
 10
66.45515500000001
 20
6.835278999999998
 30
0.0
 11
66.52612799999999
 21
6.638036
 31
0.0
  0
LINE
  5
18C
330
1F
100
AcDbEntity
  8
1
370
    18
100
AcDbLine
 10
66.507886
 20
6.901814999999999
 30
0.0
 11
66.45515500000001
 21
6.835278999999998
 31
0.0
  0
LINE
  5
18D
330
1F
100
AcDbEntity
  8
1
370
    18
100
AcDbLine
 10
66.553046
 20
6.935233999999999
 30
0.0
 11
66.554585
 21
7.269261
 31
0.0
  0
LINE
  5
18E
330
1F
100
AcDbEntity
  8
1
370
    18
100
AcDbLine
 10
66.507886
 20
6.901814999999999
 30
0.0
 11
66.553046
 21
6.935233999999999
 31
0.0
  0
LINE
  5
18F
330
1F
100
AcDbEntity
  8
1
370
    18
100
AcDbLine
 10
66.76702500000001
 20
7.637722
 30
0.0
 11
67.056425
 21
7.808307
 31
0.0
  0
LINE
  5
190
330
1F
100
AcDbEntity
  8
1
370
    18
100
AcDbLine
 10
67.056425
 20
7.808307
 30
0.0
 11
67.063243
 21
7.865041
 31
0.0
  0
LINE
  5
191
330
1F
100
AcDbEntity
  8
1
370
    18
100
AcDbLine
 10
67.095225
 20
7.945433999999999
 30
0.0
 11
67.063243
 21
7.865041
 31
0.0
  0
LINE
  5
192
330
1F
100
AcDbEntity
  8
1
370
    18
100
AcDbLine
 10
66.62562499999999
 20
7.668630999999999
 30
0.0
 11
66.457651
 21
7.377294
 31
0.0
  0
LINE
  5
193
330
1F
100
AcDbEntity
  8
1
370
    18
100
AcDbLine
 10
66.716234
 20
7.655619999999999
 30
0.0
 11
66.76702500000001
 21
7.637722
 31
0.0
  0
LINE
  5
194
330
1F
100
AcDbEntity
  8
1
370
    18
100
AcDbLine
 10
66.71302199999999
 20
7.658605999999999
 30
0.0
 11
66.62562499999999
 21
7.668630999999999
 31
0.0
  0
LINE
  5
195
330
1F
100
AcDbEntity
  8
1
370
    18
100
AcDbLine
 10
70.69193
 20
0.8604649999999999
 30
0.0
 11
70.59036500000001
 21
0.8179029999999999
 31
0.0
  0
LINE
  5
196
330
1F
100
AcDbEntity
  8
1
370
    18
100
AcDbLine
 10
70.402377
 20
-1.680606
 30
0.0
 11
70.45879599999999
 21
-1.646241
 31
0.0
  0
LINE
  5
197
330
1F
100
AcDbEntity
  8
1
370
    18
100
AcDbLine
 10
70.309973
 20
-1.716929999999999
 30
0.0
 11
70.402746
 21
-1.679375999999999
 31
0.0
  0
LINE
  5
198
330
1F
100
AcDbEntity
  8
1
370
    18
100
AcDbLine
 10
70.45552499999999
 20
1.647305
 30
0.0
 11
70.402439
 21
1.681442999999999
 31
0.0
  0
LINE
  5
199
330
1F
100
AcDbEntity
  8
1
370
    18
100
AcDbLine
 10
70.17389699999999
 20
1.694808
 30
0.0
 11
70.450869
 21
1.648175999999999
 31
0.0
  0
LINE
  5
19A
330
1F
100
AcDbEntity
  8
1
370
    18
100
AcDbLine
 10
70.261141
 20
1.725786999999999
 30
0.0
 11
70.093265
 21
1.75137
 31
0.0
  0
LINE
  5
19B
330
1F
100
AcDbEntity
  8
1
370
    18
100
AcDbLine
 10
70.3994
 20
-0.737879
 30
0.0
 11
70.69193
 21
-0.8604649999999999
 31
0.0
  0
LINE
  5
19C
330
1F
100
AcDbEntity
  8
1
370
    18
100
AcDbLine
 10
70.30735899999999
 20
1.696347
 30
0.0
 11
70.38615899999999
 21
1.764327999999999
 31
0.0
  0
LINE
  5
19D
330
1F
100
AcDbEntity
  8
1
370
    18
100
AcDbLine
 10
70.375275
 20
5.554902999999999
 30
0.0
 11
70.312167
 21
5.608221
 31
0.0
  0
LINE
  5
19E
330
1F
100
AcDbEntity
  8
1
370
    18
100
AcDbLine
 10
54.68535
 20
8.432422
 30
0.0
 11
54.623422
 21
8.462116999999999
 31
0.0
  0
LINE
  5
19F
330
1F
100
AcDbEntity
  8
1
370
    18
100
AcDbLine
 10
70.31388800000001
 20
-5.282602999999999
 30
0.0
 11
70.38212299999999
 21
-5.222357999999999
 31
0.0
  0
LINE
  5
1A0
330
1F
100
AcDbEntity
  8
1
370
    18
100
AcDbLine
 10
70.38615899999999
 20
-1.764327999999999
 30
0.0
 11
70.30735899999999
 21
-1.696347
 31
0.0
  0
LINE
  5
1A1
330
1F
100
AcDbEntity
  8
CUT
370
    18
100
AcDbLine
 10
63.353805
 20
5.433014
 30
0.0
 11
63.35394399999999
 21
5.492715
 31
0.0
  0
LINE
  5
1A2
330
1F
100
AcDbEntity
  8
CUT
370
    18
100
AcDbLine
 10
64.32022499999999
 20
9.392061999999999
 30
0.0
 11
70.31985899999999
 21
9.503678999999999
 31
0.0
  0
LINE
  5
1A3
330
1F
100
AcDbEntity
  8
CUT
370
    18
100
AcDbLine
 10
70.793336
 20
8.173783
 30
0.0
 11
70.780951
 21
8.037547999999999
 31
0.0
  0
LINE
  5
1A4
330
1F
100
AcDbEntity
  8
CUT
370
    18
100
AcDbLine
 10
63.84373100000001
 20
5.036674999999999
 30
0.0
 11
63.752127
 21
5.038329
 31
0.0
  0
LINE
  5
1A5
330
1F
100
AcDbEntity
  8
CUT
370
    18
100
AcDbLine
 10
69.96437199999999
 20
5.04258
 30
0.0
 11
63.84374000000001
 21
5.036673999999999
 31
0.0
  0
LINE
  5
1A6
330
1F
100
AcDbEntity
  8
CUT
370
    18
100
AcDbLine
 10
70.79817299999999
 20
9.117492999999999
 30
0.0
 11
70.797941
 21
9.057872999999998
 31
0.0
  0
LINE
  5
1A7
330
1F
100
AcDbEntity
  8
CUT
370
    18
100
AcDbLine
 10
63.359711
 20
6.37579
 30
0.0
 11
63.378011
 21
6.506857
 31
0.0
  0
LINE
  5
1A8
330
1F
100
AcDbEntity
  8
CUT
370
    18
100
AcDbLine
 10
70.319867
 20
9.503678999999999
 30
0.0
 11
70.408881
 21
9.504286999999999
 31
0.0
  0
LINE
  5
1A9
330
1F
100
AcDbEntity
  8
1
370
    18
100
AcDbLine
 10
70.681639
 20
-0.095051
 30
0.0
 11
70.69971800000001
 21
0.049265
 31
0.0
  0
LINE
  5
1AA
330
1F
100
AcDbEntity
  8
1
370
    13
100
AcDbLine
 10
68.690043
 20
3.944805999999999
 30
0.0
 11
68.69771199999999
 21
3.999755999999999
 31
0.0
  0
LINE
  5
1AB
330
1F
100
AcDbEntity
  8
1
370
    13
100
AcDbLine
 10
66.716914
 20
4.276232
 30
0.0
 11
66.708753
 21
4.217759
 31
0.0
  0
LINE
  5
1AC
330
1F
100
AcDbEntity
  8
1
370
    13
100
AcDbLine
 10
70.79405799999999
 20
0.871761
 30
0.0
 11
70.693247
 21
0.8608819999999999
 31
0.0
  0
LINE
  5
1AD
330
1F
100
AcDbEntity
  8
1
370
    13
100
AcDbLine
 10
67.34476100000001
 20
2.133969
 30
0.0
 11
65.030518
 21
2.454791999999999
 31
0.0
  0
LINE
  5
1AE
330
1F
100
AcDbEntity
  8
1
370
    13
100
AcDbLine
 10
64.76651
 20
2.480525
 30
0.0
 11
64.478647
 21
2.448612999999999
 31
0.0
  0
LINE
  5
1AF
330
1F
100
AcDbEntity
  8
1
370
    13
100
AcDbLine
 10
70.693247
 20
-0.8608819999999999
 30
0.0
 11
70.79405799999999
 21
-0.871761
 31
0.0
  0
LINE
  5
1B0
102
{ACAD_REACTORS
330
2CD
102
}
330
1F
100
AcDbEntity
  8
SK1
370
    13
100
AcDbLine
 10
-53.7
 20
-9.525
 30
0.0
 11
50.8
 21
-9.525
 31
0.0
  0
LINE
  5
1B1
102
{ACAD_REACTORS
330
2CD
102
}
330
1F
100
AcDbEntity
  8
SK1
370
    13
100
AcDbLine
 10
50.8
 20
9.525
 30
0.0
 11
-53.7
 21
9.525
 31
0.0
  0
LINE
  5
1B2
330
1F
100
AcDbEntity
  8
SK1
370
    13
100
AcDbLine
 10
-53.7
 20
9.525
 30
0.0
 11
-54.2
 21
9.025
 31
0.0
  0
LINE
  5
1B3
330
1F
100
AcDbEntity
  8
SK1
370
    13
100
AcDbLine
 10
-54.2
 20
-9.025
 30
0.0
 11
-53.7
 21
-9.525
 31
0.0
  0
LINE
  5
1B4
330
1F
100
AcDbEntity
  8
1
370
    13
100
AcDbLine
 10
51.70338
 20
-9.114524000000001
 30
0.0
 11
53.847123
 21
-8.73371
 31
0.0
  0
LINE
  5
1B5
330
1F
100
AcDbEntity
  8
1
370
    13
100
AcDbLine
 10
53.961206
 20
8.713444
 30
0.0
 11
51.70338
 21
9.114524000000001
 31
0.0
  0
LINE
  5
1B6
330
1F
100
AcDbEntity
  8
1
370
    13
100
AcDbLine
 10
66.25474200000001
 20
6.200098
 30
0.0
 11
66.378389
 21
6.092071999999999
 31
0.0
  0
LINE
  5
1B7
330
1F
100
AcDbEntity
  8
1
370
    13
100
AcDbLine
 10
68.15480500000001
 20
8.125382
 30
0.0
 11
68.03115799999999
 21
8.233407000000001
 31
0.0
  0
LINE
  5
1B8
330
1F
100
AcDbEntity
  8
1
370
    13
100
AcDbLine
 10
67.867329
 20
7.038553
 30
0.0
 11
67.941664
 21
6.973608999999999
 31
0.0
  0
LINE
  5
1B9
330
1F
100
AcDbEntity
  8
1
370
    13
100
AcDbLine
 10
66.989328
 20
6.478048
 30
0.0
 11
66.86469800000001
 21
6.586932
 31
0.0
  0
LINE
  5
1BA
330
1F
100
AcDbEntity
  8
1
370
    13
100
AcDbLine
 10
67.41981599999999
 20
7.847782999999999
 30
0.0
 11
67.54444699999999
 21
7.738899
 31
0.0
  0
LINE
  5
1BB
330
1F
100
AcDbEntity
  8
1
370
    13
100
AcDbLine
 10
66.53784399999999
 20
7.290747999999999
 30
0.0
 11
66.417185
 21
7.396161999999999
 31
0.0
  0
LINE
  5
1BC
330
1F
100
AcDbEntity
  8
1
370
    13
100
AcDbLine
 10
66.596905
 20
7.759874
 30
0.0
 11
66.71628699999999
 21
7.655574999999999
 31
0.0
  0
LINE
  5
1BD
102
{ACAD_REACTORS
330
300
102
}
330
1F
100
AcDbEntity
  8
81
370
    18
100
AcDbLine
 10
69.8
 20
9.525
 30
0.0
 11
71.79999999999999
 21
9.525
 31
0.0
  0
LINE
  5
1BF
102
{ACAD_REACTORS
330
2B4
330
2E6
330
316
330
32E
102
}
330
1F
100
AcDbEntity
  8
81
370
    18
100
AcDbLine
 10
70.8
 20
8.525
 30
0.0
 11
70.8
 21
10.525
 31
0.0
  0
LINE
  5
1C0
330
1F
100
AcDbEntity
  8
CUT
370
    18
100
AcDbLine
 10
63.35394399999999
 20
5.492715
 30
0.0
 11
63.357591
 21
6.284518
 31
0.0
  0
LINE
  5
1C1
330
1F
100
AcDbEntity
  8
CUT
370
    18
100
AcDbLine
 10
63.877478
 20
8.376983
 30
0.0
 11
63.944703
 21
9.027321999999999
 31
0.0
  0
LINE
  5
1C2
330
1F
100
AcDbEntity
  8
CUT
370
    18
100
AcDbLine
 10
70.797941
 20
9.057872999999998
 30
0.0
 11
70.79429399999999
 21
8.266069999999999
 31
0.0
  0
LINE
  5
1C3
102
{ACAD_REACTORS
330
32E
102
}
330
1F
100
AcDbEntity
  8
80
370
    18
100
AcDbLine
 10
0.0
 20
1.0
 30
0.0
 11
0.0
 21
-1.0
 31
0.0
  0
LINE
  5
1C4
330
1F
100
AcDbEntity
  8
CUT
370
    18
100
AcDbLine
 10
63.398722
 20
6.585986
 30
0.0
 11
63.818649
 21
8.066097
 31
0.0
  0
LINE
  5
1C5
330
1F
100
AcDbEntity
  8
CUT
370
    18
100
AcDbLine
 10
70.43673299999999
 20
6.031787
 30
0.0
 11
70.35385699999999
 21
5.395120999999999
 31
0.0
  0
LINE
  5
1C6
330
1F
100
AcDbEntity
  8
80
370
    18
100
AcDbLine
 10
-1.0
 20
0.0
 30
0.0
 11
1.0
 21
0.0
 31
0.0
  0
LINE
  5
1C7
330
1F
100
AcDbEntity
  8
CUT
370
    18
100
AcDbLine
 10
70.766533
 20
7.952921
 30
0.0
 11
70.48558400000001
 21
6.351391
 31
0.0
  0
LINE
  5
1C8
330
1F
100
AcDbEntity
  8
NOCUT
370
    18
100
AcDbLine
 10
62.96845199999999
 20
8.733356999999999
 30
0.0
 11
63.292786
 21
8.895524999999999
 31
0.0
  0
LINE
  5
1C9
330
1F
100
AcDbEntity
  8
NOCUT
370
    18
100
AcDbLine
 10
70.38772900000001
 20
-8.270913999999999
 30
0.0
 11
70.389215
 21
-8.591500999999999
 31
0.0
  0
LINE
  5
1CA
330
1F
100
AcDbEntity
  8
NOCUT
370
    18
100
AcDbLine
 10
70.013402
 20
4.098573
 30
0.0
 11
69.654631
 21
3.112858999999999
 31
0.0
  0
LINE
  5
1CB
330
1F
100
AcDbEntity
  8
NOCUT
370
    18
100
AcDbLine
 10
50.8
 20
-9.525
 30
0.0
 11
-53.7
 21
-9.525
 31
0.0
  0
LINE
  5
1CC
330
1F
100
AcDbEntity
  8
NOCUT
370
    18
100
AcDbLine
 10
-54.2
 20
3.654701
 30
0.0
 11
-52.2
 21
2.5
 31
0.0
  0
LINE
  5
1CD
330
1F
100
AcDbEntity
  8
NOCUT
370
    18
100
AcDbLine
 10
67.537052
 20
9.043442
 30
0.0
 11
69.99737399999999
 21
8.993271999999999
 31
0.0
  0
LINE
  5
1CE
330
1F
100
AcDbEntity
  8
NOCUT
370
    18
100
AcDbLine
 10
70.134017
 20
6.287697
 30
0.0
 11
70.134017
 21
4.782613999999999
 31
0.0
  0
LINE
  5
1CF
330
1F
100
AcDbEntity
  8
NOCUT
370
    18
100
AcDbLine
 10
55.24065
 20
8.564441
 30
0.0
 11
62.25291
 21
8.564441
 31
0.0
  0
LINE
  5
1D0
330
1F
100
AcDbEntity
  8
NOCUT
370
    18
100
AcDbLine
 10
55.8
 20
2.5
 30
0.0
 11
57.243376
 21
0.0
 31
0.0
  0
LINE
  5
1D1
330
1F
100
AcDbEntity
  8
NOCUT
370
    18
100
AcDbLine
 10
65.23966699999999
 20
9.064358999999999
 30
0.0
 11
67.514374
 21
9.043775999999999
 31
0.0
  0
LINE
  5
1D2
330
1F
100
AcDbEntity
  8
NOCUT
370
    18
100
AcDbLine
 10
70.37767099999999
 20
8.134005
 30
0.0
 11
70.154153
 21
6.570789999999999
 31
0.0
  0
LINE
  5
1D3
330
1F
100
AcDbEntity
  8
NOCUT
370
    18
100
AcDbLine
 10
54.36614200000001
 20
-8.641510999999999
 30
0.0
 11
51.70338
 21
-9.114524000000001
 31
0.0
  0
LINE
  5
1D4
330
1F
100
AcDbEntity
  8
NOCUT
370
    18
100
AcDbLine
 10
55.8
 20
-2.5
 30
0.0
 11
-52.2
 21
-2.5
 31
0.0
  0
LINE
  5
1D5
330
1F
100
AcDbEntity
  8
NOCUT
370
    18
100
AcDbLine
 10
-53.7
 20
9.525
 30
0.0
 11
-54.2
 21
9.025
 31
0.0
  0
LINE
  5
1D6
330
1F
100
AcDbEntity
  8
NOCUT
370
    18
100
AcDbLine
 10
65.22156999999999
 20
-9.064441
 30
0.0
 11
64.008328
 21
-9.064441
 31
0.0
  0
LINE
  5
1D7
330
1F
100
AcDbEntity
  8
NOCUT
370
    18
100
AcDbLine
 10
70.389215
 20
8.591500999999999
 30
0.0
 11
70.38772900000001
 21
8.270913999999999
 31
0.0
  0
LINE
  5
1D8
330
1F
100
AcDbEntity
  8
NOCUT
370
    18
100
AcDbLine
 10
69.534017
 20
2.428818999999999
 30
0.0
 11
69.534017
 21
-2.428818999999999
 31
0.0
  0
LINE
  5
1D9
330
1F
100
AcDbEntity
  8
NOCUT
370
    18
100
AcDbLine
 10
-54.2
 20
3.654701
 30
0.0
 11
-54.2
 21
9.025
 31
0.0
  0
LINE
  5
1DA
330
1F
100
AcDbEntity
  8
NOCUT
370
    18
100
AcDbLine
 10
-52.2
 20
-2.5
 30
0.0
 11
-54.2
 21
-3.654701
 31
0.0
  0
LINE
  5
1DB
330
1F
100
AcDbEntity
  8
NOCUT
370
    18
100
AcDbLine
 10
63.292786
 20
-8.895524999999999
 30
0.0
 11
62.96845199999999
 21
-8.733356999999999
 31
0.0
  0
LINE
  5
1DC
102
{ACAD_REACTORS
330
316
102
}
330
1F
100
AcDbEntity
  8
SK1
370
    13
100
AcDbLine
 10
50.8
 20
9.525
 30
0.0
 11
50.8
 21
-9.525
 31
0.0
  0
LINE
  5
1DD
330
1F
100
AcDbEntity
  8
SK1
370
    13
100
AcDbLine
 10
-53.7
 20
-9.525
 30
0.0
 11
-53.7
 21
9.525
 31
0.0
  0
LINE
  5
1DE
102
{ACAD_REACTORS
330
2B4
102
}
330
1F
100
AcDbEntity
  8
SK1
370
    13
100
AcDbLine
 10
-54.2
 20
-9.025
 30
0.0
 11
-54.2
 21
9.025
 31
0.0
  0
LINE
  5
1DF
330
1F
100
AcDbEntity
  8
1
370
    13
100
AcDbLine
 10
63.121467
 20
0.254657
 30
0.0
 11
63.85965699999999
 21
0.8533389999999998
 31
0.0
  0
LINE
  5
1E0
330
1F
100
AcDbEntity
  8
1
370
    13
100
AcDbLine
 10
70.389215
 20
5.530664999999999
 30
0.0
 11
70.389215
 21
1.777911999999999
 31
0.0
  0
LINE
  5
1E1
330
1F
100
AcDbEntity
  8
1
370
    13
100
AcDbLine
 10
63.927936
 20
0.8744790000000001
 30
0.0
 11
63.2165
 21
0.297495
 31
0.0
  0
LINE
  5
1E2
330
1F
100
AcDbEntity
  8
1
370
    13
100
AcDbLine
 10
63.2165
 20
0.297495
 30
0.0
 11
63.15675500000001
 21
0.270598
 31
0.0
  0
LINE
  5
1E3
330
1F
100
AcDbEntity
  8
1
370
    13
100
AcDbLine
 10
66.545314
 20
4.240237
 30
0.0
 11
66.722966
 21
5.513010999999999
 31
0.0
  0
LINE
  5
1E4
330
1F
100
AcDbEntity
  8
1
370
    13
100
AcDbLine
 10
70.389215
 20
-7.031630999999999
 30
0.0
 11
70.389215
 21
-8.329247999999999
 31
0.0
  0
LINE
  5
1E5
330
1F
100
AcDbEntity
  8
1
370
    13
100
AcDbLine
 10
68.826949
 20
-6.786500999999999
 30
0.0
 11
68.82637800000001
 21
-7.485478999999999
 31
0.0
  0
LINE
  5
1E6
330
1F
100
AcDbEntity
  8
1
370
    13
100
AcDbLine
 10
66.59334399999998
 20
-7.578485
 30
0.0
 11
66.593978
 21
-6.802840999999999
 31
0.0
  0
LINE
  5
1E7
330
1F
100
AcDbEntity
  8
1
370
    13
100
AcDbLine
 10
70.061405
 20
-4.032302999999999
 30
0.0
 11
70.061405
 21
-1.290245999999999
 31
0.0
  0
LINE
  5
1E8
330
1F
100
AcDbEntity
  8
1
370
    13
100
AcDbLine
 10
68.719429
 20
-6.843624
 30
0.0
 11
68.72450999999999
 21
-7.952155
 31
0.0
  0
LINE
  5
1E9
330
1F
100
AcDbEntity
  8
1
370
    13
100
AcDbLine
 10
70.134017
 20
-1.292691
 30
0.0
 11
70.134017
 21
-4.034748
 31
0.0
  0
LINE
  5
1EA
330
1F
100
AcDbEntity
  8
1
370
    13
100
AcDbLine
 10
63.121467
 20
6.598174
 30
0.0
 11
63.85965699999999
 21
8.576064
 31
0.0
  0
LINE
  5
1EB
330
1F
100
AcDbEntity
  8
1
370
    13
100
AcDbLine
 10
63.88193799999999
 20
8.420147
 30
0.0
 11
63.2165
 21
6.637189999999999
 31
0.0
  0
LINE
  5
1EC
330
1F
100
AcDbEntity
  8
1
370
    13
100
AcDbLine
 10
63.2165
 20
6.637189999999999
 30
0.0
 11
63.15675500000001
 21
6.612872999999999
 31
0.0
  0
LINE
  5
1ED
330
1F
100
AcDbEntity
  8
1
370
    13
100
AcDbLine
 10
63.41903199999999
 20
6.657569999999999
 30
0.0
 11
63.2165
 21
6.637189999999999
 31
0.0
  0
LINE
  5
1EE
330
1F
100
AcDbEntity
  8
1
370
    13
100
AcDbLine
 10
70.38772900000001
 20
-1.766602999999999
 30
0.0
 11
70.38772900000001
 21
-5.180191999999999
 31
0.0
  0
LINE
  5
1EF
330
1F
100
AcDbEntity
  8
1
370
    13
100
AcDbLine
 10
70.389215
 20
-5.208858
 30
0.0
 11
70.389215
 21
-1.777911999999999
 31
0.0
  0
LINE
  5
1F0
330
1F
100
AcDbEntity
  8
1
370
    13
100
AcDbLine
 10
63.93079799999999
 20
-8.951755
 30
0.0
 11
63.944703
 21
-9.086244999999999
 31
0.0
  0
LINE
  5
1F1
330
1F
100
AcDbEntity
  8
1
370
    13
100
AcDbLine
 10
65.02032199999999
 20
-8.731358999999999
 30
0.0
 11
67.33456499999999
 21
-8.806782
 31
0.0
  0
LINE
  5
1F2
330
1F
100
AcDbEntity
  8
1
370
    13
100
AcDbLine
 10
70.474406
 20
-7.878404999999999
 30
0.0
 11
70.38921399999999
 21
-7.268279999999999
 31
0.0
  0
LINE
  5
1F3
330
1F
100
AcDbEntity
  8
1
370
    13
100
AcDbLine
 10
70.43673299999999
 20
-6.035501999999999
 30
0.0
 11
70.35385699999999
 21
-5.393612999999999
 31
0.0
  0
LINE
  5
1F4
330
1F
100
AcDbEntity
  8
1
370
    13
100
AcDbLine
 10
70.766533
 20
-7.937205999999999
 30
0.0
 11
70.48558400000001
 21
-6.354529
 31
0.0
  0
LINE
  5
1F5
330
1F
100
AcDbEntity
  8
1
370
    13
100
AcDbLine
 10
70.484939
 20
-8.025046000000001
 30
0.0
 11
70.486909
 21
-8.454867
 31
0.0
  0
LINE
  5
1F6
330
1F
100
AcDbEntity
  8
1
370
    13
100
AcDbLine
 10
70.797941
 20
-9.044821999999999
 30
0.0
 11
70.79429399999999
 21
-8.24929
 31
0.0
  0
LINE
  5
1F7
330
1F
100
AcDbEntity
  8
1
370
    13
100
AcDbLine
 10
70.69481999999999
 20
8.275933999999999
 30
0.0
 11
70.698391
 21
9.051114
 31
0.0
  0
LINE
  5
1F8
330
1F
100
AcDbEntity
  8
1
370
    13
100
AcDbLine
 10
70.797941
 20
9.057872999999998
 30
0.0
 11
70.79429399999999
 21
8.266069999999999
 31
0.0
  0
LINE
  5
1F9
330
1F
100
AcDbEntity
  8
NOCUT
370
    18
100
AcDbLine
 10
69.99737399999999
 20
-8.993271999999999
 30
0.0
 11
67.537052
 21
-9.043442
 31
0.0
  0
LINE
  5
1FA
330
1F
100
AcDbEntity
  8
NOCUT
370
    18
100
AcDbLine
 10
69.654631
 20
-3.112858999999999
 30
0.0
 11
70.013402
 21
-4.098573
 31
0.0
  0
LINE
  5
1FB
330
1F
100
AcDbEntity
  8
NOCUT
370
    18
100
AcDbLine
 10
-53.7
 20
9.525
 30
0.0
 11
50.8
 21
9.525
 31
0.0
  0
LINE
  5
1FC
330
1F
100
AcDbEntity
  8
NOCUT
370
    18
100
AcDbLine
 10
57.243376
 20
0.0
 30
0.0
 11
55.8
 21
-2.5
 31
0.0
  0
LINE
  5
1FD
330
1F
100
AcDbEntity
  8
NOCUT
370
    18
100
AcDbLine
 10
67.514374
 20
-9.043775999999999
 30
0.0
 11
65.23966699999999
 21
-9.064358999999999
 31
0.0
  0
LINE
  5
1FE
330
1F
100
AcDbEntity
  8
NOCUT
370
    18
100
AcDbLine
 10
70.134017
 20
-4.782613999999999
 30
0.0
 11
70.134017
 21
-6.287697
 31
0.0
  0
LINE
  5
1FF
330
1F
100
AcDbEntity
  8
NOCUT
370
    18
100
AcDbLine
 10
62.25291
 20
-8.564441
 30
0.0
 11
55.24065
 21
-8.564441
 31
0.0
  0
LINE
  5
200
330
1F
100
AcDbEntity
  8
NOCUT
370
    18
100
AcDbLine
 10
-52.2
 20
2.5
 30
0.0
 11
55.8
 21
2.5
 31
0.0
  0
LINE
  5
201
330
1F
100
AcDbEntity
  8
NOCUT
370
    18
100
AcDbLine
 10
64.008328
 20
9.064441
 30
0.0
 11
65.22156999999999
 21
9.064441
 31
0.0
  0
LINE
  5
202
330
1F
100
AcDbEntity
  8
NOCUT
370
    18
100
AcDbLine
 10
70.154153
 20
-6.570789999999999
 30
0.0
 11
70.37767099999999
 21
-8.134005
 31
0.0
  0
LINE
  5
203
330
1F
100
AcDbEntity
  8
NOCUT
370
    18
100
AcDbLine
 10
51.70338
 20
9.114524000000001
 30
0.0
 11
54.36614200000001
 21
8.641510999999999
 31
0.0
  0
LINE
  5
204
330
1F
100
AcDbEntity
  8
NOCUT
370
    18
100
AcDbLine
 10
-54.2
 20
-9.025
 30
0.0
 11
-54.2
 21
-3.654701
 31
0.0
  0
LINE
  5
205
330
1F
100
AcDbEntity
  8
NOCUT
370
    18
100
AcDbLine
 10
-54.2
 20
-9.025
 30
0.0
 11
-53.7
 21
-9.525
 31
0.0
  0
LINE
  5
206
330
1F
100
AcDbEntity
  8
1
370
    13
100
AcDbLine
 10
70.38415999999999
 20
6.350136
 30
0.0
 11
70.66376099999999
 21
7.943985
 31
0.0
  0
LINE
  5
207
330
1F
100
AcDbEntity
  8
1
370
    13
100
AcDbLine
 10
70.766533
 20
7.952921
 30
0.0
 11
70.48558400000001
 21
6.351391
 31
0.0
  0
LINE
  5
208
330
1F
100
AcDbEntity
  8
1
370
    13
100
AcDbLine
 10
70.281329
 20
5.615847
 30
0.0
 11
70.33530899999999
 21
6.030532
 31
0.0
  0
LINE
  5
209
330
1F
100
AcDbEntity
  8
1
370
    13
100
AcDbLine
 10
70.43673299999999
 20
6.031787
 30
0.0
 11
70.37471899999999
 21
5.555381999999999
 31
0.0
  0
LINE
  5
20A
330
1F
100
AcDbEntity
  8
1
370
    13
100
AcDbLine
 10
63.456099
 20
6.275497
 30
0.0
 11
63.45252900000001
 21
5.500316999999999
 31
0.0
  0
LINE
  5
20B
330
1F
100
AcDbEntity
  8
1
370
    13
100
AcDbLine
 10
63.35394399999999
 20
5.492715
 30
0.0
 11
63.357591
 21
6.284518
 31
0.0
  0
LINE
  5
20C
330
1F
100
AcDbEntity
  8
1
370
    13
100
AcDbLine
 10
63.92007299999999
 20
8.067351999999999
 30
0.0
 11
63.50215999999999
 21
6.594338999999999
 31
0.0
  0
LINE
  5
20D
330
1F
100
AcDbEntity
  8
1
370
    13
100
AcDbLine
 10
63.398722
 20
6.585986
 30
0.0
 11
63.818649
 21
8.066097
 31
0.0
  0
LINE
  5
20E
330
1F
100
AcDbEntity
  8
1
370
    13
100
AcDbLine
 10
64.03121099999999
 20
8.884282999999999
 30
0.0
 11
63.978902
 21
8.378237999999999
 31
0.0
  0
LINE
  5
20F
330
1F
100
AcDbEntity
  8
1
370
    13
100
AcDbLine
 10
63.877478
 20
8.376983
 30
0.0
 11
63.944703
 21
9.027321999999999
 31
0.0
  0
LINE
  5
210
330
1F
100
AcDbEntity
  8
1
370
    13
100
AcDbLine
 10
70.474406
 20
-1.619059999999999
 30
0.0
 11
70.186549
 21
-1.587148
 31
0.0
  0
LINE
  5
211
330
1F
100
AcDbEntity
  8
1
370
    13
100
AcDbLine
 10
70.766533
 20
0.8292669999999999
 30
0.0
 11
70.621142
 21
0.5742760000000001
 31
0.0
  0
LINE
  5
212
330
1F
100
AcDbEntity
  8
1
370
    13
100
AcDbLine
 10
70.604215
 20
0.7083140000000001
 30
0.0
 11
70.66376099999999
 21
0.8127479999999998
 31
0.0
  0
LINE
  5
213
330
1F
100
AcDbEntity
  8
1
370
    13
100
AcDbLine
 10
64.42917099999999
 20
2.429664999999999
 30
0.0
 11
64.636802
 21
2.452683
 31
0.0
  0
LINE
  5
214
330
1F
100
AcDbEntity
  8
1
370
    13
100
AcDbLine
 10
63.877478
 20
0.696462
 30
0.0
 11
63.944703
 21
0.652519
 31
0.0
  0
LINE
  5
215
330
1F
100
AcDbEntity
  8
1
370
    13
100
AcDbLine
 10
63.398722
 20
0.154208
 30
0.0
 11
63.818649
 21
0.6571730000000001
 31
0.0
  0
LINE
  5
216
330
1F
100
AcDbEntity
  8
1
370
    13
100
AcDbLine
 10
65.02032199999999
 20
2.411227999999999
 30
0.0
 11
67.33456499999999
 21
2.090405
 31
0.0
  0
LINE
  5
217
330
1F
100
AcDbEntity
  8
1
370
    13
100
AcDbLine
 10
63.92007299999999
 20
0.6430170000000001
 30
0.0
 11
63.50215999999999
 21
0.142464
 31
0.0
  0
ARC
  5
218
330
1F
100
AcDbEntity
  8
1
370
    18
100
AcDbCircle
 10
67.542626
 20
-0.243931
 30
0.0
 40
4.398079678151955
100
AcDbArc
 50
74.77357099999998
 51
83.964178
  0
ARC
  5
219
330
1F
100
AcDbEntity
  8
1
370
    18
100
AcDbCircle
 10
65.78841899999999
 20
-8.517821000000001
 30
0.0
 40
12.8350216750919
100
AcDbArc
 50
81.38114300000001
 51
85.64676400000001
  0
ARC
  5
21A
330
1F
100
AcDbEntity
  8
1
370
    18
100
AcDbCircle
 10
67.386831
 20
-1.028097999999999
 30
0.0
 40
5.205818657608362
100
AcDbArc
 50
75.51700600000001
 51
83.62464399999998
  0
ARC
  5
21B
330
1F
100
AcDbEntity
  8
1
370
    18
100
AcDbCircle
 10
65.824123
 20
-8.259152999999999
 30
0.0
 40
12.58357217387687
100
AcDbArc
 50
81.36587699999999
 51
85.681793
  0
ARC
  5
21C
330
1F
100
AcDbEntity
  8
1
370
    18
100
AcDbCircle
 10
67.152608
 20
7.244297
 30
0.0
 40
1.465137241962714
100
AcDbArc
 50
345.718866
 51
45.619706
  0
ARC
  5
21D
330
1F
100
AcDbEntity
  8
1
370
    18
100
AcDbCircle
 10
67.10373199999999
 20
7.251183
 30
0.0
 40
1.514210585179776
100
AcDbArc
 50
287.384118
 51
345.922555
  0
ARC
  5
21E
330
1F
100
AcDbEntity
  8
1
370
    18
100
AcDbCircle
 10
67.115953
 20
7.198641
 30
0.0
 40
1.460423183126464
100
AcDbArc
 50
227.506579
 51
287.5424569999999
  0
ARC
  5
21F
330
1F
100
AcDbEntity
  8
1
370
    18
100
AcDbCircle
 10
67.12476399999999
 20
7.194730999999999
 30
0.0
 40
1.463520330772303
100
AcDbArc
 50
167.201735
 51
227.148808
  0
ARC
  5
220
330
1F
100
AcDbEntity
  8
1
370
    18
100
AcDbCircle
 10
67.175387
 20
7.188355999999999
 30
0.0
 40
1.514305888027599
100
AcDbArc
 50
108.854969
 51
167.390834
  0
ARC
  5
221
330
1F
100
AcDbEntity
  8
1
370
    18
100
AcDbCircle
 10
67.162665
 20
7.239346
 30
0.0
 40
1.461947573168258
100
AcDbArc
 50
49.036812
 51
109.02894
  0
ARC
  5
222
330
1F
100
AcDbEntity
  8
1
370
    18
100
AcDbCircle
 10
67.21906700000001
 20
7.103353
 30
0.0
 40
1.41773938612353
100
AcDbArc
 50
175.272843
 51
236.253473
  0
ARC
  5
223
330
1F
100
AcDbEntity
  8
1
370
    18
100
AcDbCircle
 10
67.266671
 20
7.156127
 30
0.0
 40
1.417633381785889
100
AcDbArc
 50
48.966858
 51
91.101608
  0
ARC
  5
224
330
1F
100
AcDbEntity
  8
1
370
    18
100
AcDbCircle
 10
67.717078
 20
-6.952677999999999
 30
0.0
 40
0.9772846365534434
100
AcDbArc
 50
230.080891
 51
297.819976
  0
ARC
  5
225
330
1F
100
AcDbEntity
  8
1
370
    18
100
AcDbCircle
 10
67.72653100000001
 20
-6.933519
 30
0.0
 40
0.9980578009605707
100
AcDbArc
 50
157.966082
 51
230.370471
  0
ARC
  5
226
330
1F
100
AcDbEntity
  8
1
370
    18
100
AcDbCircle
 10
67.69838399999999
 20
-6.923572
 30
0.0
 40
0.9682352846137696
100
AcDbArc
 50
83.89172399999999
 51
157.886842
  0
ARC
  5
227
330
1F
100
AcDbEntity
  8
1
370
    18
100
AcDbCircle
 10
67.69257299999999
 20
-6.951150999999999
 30
0.0
 40
0.9962801796288127
100
AcDbArc
 50
11.231392
 51
83.728238
  0
ARC
  5
228
330
1F
100
AcDbEntity
  8
1
370
    18
100
AcDbCircle
 10
67.710371
 20
-6.95388
 30
0.0
 40
0.9793736420629164
100
AcDbArc
 50
298.199774
 51
11.590759
  0
ARC
  5
229
330
1F
100
AcDbEntity
  8
1
370
    18
100
AcDbCircle
 10
67.715752
 20
-6.952882
 30
0.0
 40
0.9877275705230474
100
AcDbArc
 50
228.610607
 51
297.804376
  0
ARC
  5
22A
330
1F
100
AcDbEntity
  8
1
370
    18
100
AcDbCircle
 10
67.724986
 20
-6.93428
 30
0.0
 40
1.007802880525155
100
AcDbArc
 50
156.859901
 51
228.916023
  0
ARC
  5
22B
330
1F
100
AcDbEntity
  8
1
370
    18
100
AcDbCircle
 10
67.696898
 20
-6.924032
 30
0.0
 40
0.9779488673226587
100
AcDbArc
 50
83.14134000000001
 51
156.76533
  0
ARC
  5
22C
330
1F
100
AcDbEntity
  8
1
370
    18
100
AcDbCircle
 10
67.690849
 20
-6.952116
 30
0.0
 40
1.006558695995124
100
AcDbArc
 50
10.870565
 51
82.99038600000001
  0
ARC
  5
22D
330
1F
100
AcDbEntity
  8
1
370
    18
100
AcDbCircle
 10
67.709098
 20
-6.954797
 30
0.0
 40
0.9891607740311666
100
AcDbArc
 50
298.197031
 51
11.222397
  0
ARC
  5
22E
330
1F
100
AcDbEntity
  8
1
370
    18
100
AcDbCircle
 10
66.791471
 20
4.013902999999999
 30
0.0
 40
3.904729329777816
100
AcDbArc
 50
253.184846
 51
264.001971
  0
ARC
  5
22F
330
1F
100
AcDbEntity
  8
1
370
    18
100
AcDbCircle
 10
62.969086
 20
-0.388215
 30
0.0
 40
0.6606850704441239
100
AcDbArc
 50
76.66520099999999
 51
140.609022
  0
ARC
  5
230
330
1F
100
AcDbEntity
  8
1
370
    18
100
AcDbCircle
 10
67.52234699999999
 20
13.32658
 30
0.0
 40
7.914120116910811
100
AcDbArc
 50
269.248872
 51
278.204304
  0
ARC
  5
231
330
1F
100
AcDbEntity
  8
1
370
    18
100
AcDbCircle
 10
67.23293599999999
 20
6.592521999999999
 30
0.0
 40
1.193906629312394
100
AcDbArc
 50
244.713563
 51
278.946315
  0
ARC
  5
232
330
1F
100
AcDbEntity
  8
1
370
    18
100
AcDbCircle
 10
67.690291
 20
-6.804502
 30
0.0
 40
1.096314386472196
100
AcDbArc
 50
137.168601
 51
179.913204
  0
ARC
  5
233
330
1F
100
AcDbEntity
  8
1
370
    18
100
AcDbCircle
 10
67.71906700000001
 20
-6.827916
 30
0.0
 40
1.133337874737367
100
AcDbArc
 50
69.56061
 51
137.289516
  0
ARC
  5
234
330
1F
100
AcDbEntity
  8
1
370
    18
100
AcDbCircle
 10
67.73735999999999
 20
-6.788041
 30
0.0
 40
1.089589507223195
100
AcDbArc
 50
0.080964
 51
69.729765
  0
ARC
  5
235
330
1F
100
AcDbEntity
  8
1
370
    18
100
AcDbCircle
 10
63.733527
 20
-1.026552
 30
0.0
 40
0.6619573438227626
100
AcDbArc
 50
287.607838
 51
344.440441
  0
ARC
  5
236
330
1F
100
AcDbEntity
  8
1
370
    18
100
AcDbCircle
 10
62.81986299999999
 20
0.9281259999999999
 30
0.0
 40
2.815356107601481
100
AcDbArc
 50
262.560316
 51
293.306751
  0
ARC
  5
237
330
1F
100
AcDbEntity
  8
1
370
    18
100
AcDbCircle
 10
67.61958400000001
 20
-6.819655
 30
0.0
 40
1.079453966665917
100
AcDbArc
 50
68.84208199999999
 51
115.768294
  0
ARC
  5
238
330
1F
100
AcDbEntity
  8
1
370
    18
100
AcDbCircle
 10
67.608638
 20
-6.849035
 30
0.0
 40
1.110803899874174
100
AcDbArc
 50
0.279117
 51
68.86250600000001
  0
ARC
  5
239
330
1F
100
AcDbEntity
  8
1
370
    18
100
AcDbCircle
 10
63.77811999999999
 20
5.435722
 30
0.0
 40
1.335097632770509
100
AcDbArc
 50
119.46152
 51
171.270993
  0
ARC
  5
23A
330
1F
100
AcDbEntity
  8
1
370
    18
100
AcDbCircle
 10
67.120819
 20
7.189394
 30
0.0
 40
1.3148371215331
100
AcDbArc
 50
181.041968
 51
228.799566
  0
ARC
  5
23B
330
1F
100
AcDbEntity
  8
1
370
    18
100
AcDbCircle
 10
67.173395
 20
7.190547
 30
0.0
 40
1.367426050231153
100
AcDbArc
 50
119.41188
 51
181.050186
  0
ARC
  5
23C
330
1F
100
AcDbEntity
  8
1
370
    18
100
AcDbCircle
 10
67.162375
 20
7.224696999999999
 30
0.0
 40
1.332284349571215
100
AcDbArc
 50
56.94523199999999
 51
119.720247
  0
ARC
  5
23D
330
1F
100
AcDbEntity
  8
1
370
    18
100
AcDbCircle
 10
67.16275899999999
 20
7.241877
 30
0.0
 40
1.317706132670557
100
AcDbArc
 50
353.289768
 51
56.55176700000001
  0
ARC
  5
23E
330
1F
100
AcDbEntity
  8
1
370
    18
100
AcDbCircle
 10
67.110766
 20
7.244592999999999
 30
0.0
 40
1.369663626957534
100
AcDbArc
 50
291.863439
 51
353.431086
  0
ARC
  5
23F
330
1F
100
AcDbEntity
  8
1
370
    18
100
AcDbCircle
 10
67.12258900000001
 20
7.200632999999999
 30
0.0
 40
1.324473539444627
100
AcDbArc
 50
229.062174
 51
292.096949
  0
ARC
  5
240
330
1F
100
AcDbEntity
  8
1
370
    18
100
AcDbCircle
 10
67.119721
 20
7.189821
 30
0.0
 40
1.30443632966146
100
AcDbArc
 50
182.220502
 51
228.807332
  0
ARC
  5
241
330
1F
100
AcDbEntity
  8
1
370
    18
100
AcDbCircle
 10
67.17205799999999
 20
7.191654999999999
 30
0.0
 40
1.356805258807908
100
AcDbArc
 50
120.327578
 51
182.21226
  0
ARC
  5
242
330
1F
100
AcDbEntity
  8
1
370
    18
100
AcDbCircle
 10
67.161485
 20
7.22433
 30
0.0
 40
1.323283625899694
100
AcDbArc
 50
57.66544499999999
 51
120.646779
  0
ARC
  5
243
330
1F
100
AcDbEntity
  8
1
370
    18
100
AcDbCircle
 10
67.162335
 20
7.242499
 30
0.0
 40
1.307507545463275
100
AcDbArc
 50
353.756754
 51
57.27108000000001
  0
ARC
  5
244
330
1F
100
AcDbEntity
  8
1
370
    18
100
AcDbCircle
 10
67.11036199999999
 20
7.244925
 30
0.0
 40
1.359440182104471
100
AcDbArc
 50
292.092865
 51
353.893342
  0
ARC
  5
245
330
1F
100
AcDbEntity
  8
1
370
    18
100
AcDbCircle
 10
67.12209300000001
 20
7.20148
 30
0.0
 40
1.31478483935871
100
AcDbArc
 50
229.064183
 51
292.331264
  0
ARC
  5
246
330
1F
100
AcDbEntity
  8
1
370
    18
100
AcDbCircle
 10
67.285279
 20
7.133930999999999
 30
0.0
 40
1.318730443455875
100
AcDbArc
 50
354.411803
 51
48.746484
  0
ARC
  5
247
330
1F
100
AcDbEntity
  8
1
370
    18
100
AcDbCircle
 10
67.244804
 20
7.089572
 30
0.0
 40
1.321242238783067
100
AcDbArc
 50
229.026559
 51
283.2380490000001
  0
ARC
  5
248
330
1F
100
AcDbEntity
  8
1
370
    18
100
AcDbCircle
 10
70.09447900000001
 20
-8.459066999999999
 30
0.0
 40
0.3924523771743698
100
AcDbArc
 50
268.976286
 51
0.614458
  0
ARC
  5
249
330
1F
100
AcDbEntity
  8
1
370
    18
100
AcDbCircle
 10
64.341799
 20
-9.049512
 30
0.0
 40
0.3987914797875131
100
AcDbArc
 50
185.283866
 51
266.882359
  0
ARC
  5
24A
330
1F
100
AcDbEntity
  8
1
370
    18
100
AcDbCircle
 10
70.409039
 20
-9.108435
 30
0.0
 40
0.3891512918816523
100
AcDbArc
 50
269.97519
 51
0.5458300000000001
  0
ARC
  5
24B
330
1F
100
AcDbEntity
  8
1
370
    18
100
AcDbCircle
 10
70.298991
 20
9.074047999999999
 30
0.0
 40
0.4000577797575665
100
AcDbArc
 50
356.713693
 51
87.332473
  0
ARC
  5
24C
330
1F
100
AcDbEntity
  8
1
370
    18
100
AcDbCircle
 10
70.41523000000001
 20
9.121377999999999
 30
0.0
 40
0.3829620770548224
100
AcDbArc
 50
359.417147
 51
90.95155899999999
  0
ARC
  5
24D
330
1F
100
AcDbEntity
  8
1
370
    18
100
AcDbCircle
 10
64.385407
 20
9.026067999999998
 30
0.0
 40
0.3426128043000691
100
AcDbArc
 50
101.02263
 51
183.773551
  0
ARC
  5
24E
330
1F
100
AcDbEntity
  8
1
370
    18
100
AcDbCircle
 10
64.346604
 20
8.989228
 30
0.0
 40
0.4037016732264071
100
AcDbArc
 50
93.762748
 51
174.586532
  0
ARC
  5
24F
330
1F
100
AcDbEntity
  8
1
370
    18
100
AcDbCircle
 10
67.17137700000001
 20
13.580163
 30
0.0
 40
13.3271617980532
100
AcDbArc
 50
256.10431
 51
257.646417
  0
ARC
  5
250
330
1F
100
AcDbEntity
  8
1
370
    18
100
AcDbCircle
 10
63.892506
 20
-5.555836
 30
0.0
 40
8.046494032134173
100
AcDbArc
 50
81.942756
 51
83.94049499999999
  0
ARC
  5
251
330
1F
100
AcDbEntity
  8
1
370
    18
100
AcDbCircle
 10
54.05106299999999
 20
-8.8695
 30
0.0
 40
0.5886838947768363
100
AcDbArc
 50
102.299065
 51
139.725257
  0
ARC
  5
252
330
1F
100
AcDbEntity
  8
1
370
    18
100
AcDbCircle
 10
53.740713
 20
-8.580489999999999
 30
0.0
 40
0.1662621638225101
100
AcDbArc
 50
146.59061
 51
251.053505
  0
ARC
  5
253
330
1F
100
AcDbEntity
  8
1
370
    18
100
AcDbCircle
 10
53.74939799999999
 20
-7.826391
 30
0.0
 40
0.913506272302974
100
AcDbArc
 50
266.066373
 51
307.039567
  0
ARC
  5
254
330
1F
100
AcDbEntity
  8
1
370
    18
100
AcDbCircle
 10
53.707294
 20
7.384271
 30
0.0
 40
1.353138567430242
100
AcDbArc
 50
72.246188
 51
79.46491999999999
  0
ARC
  5
255
330
1F
100
AcDbEntity
  8
1
370
    18
100
AcDbCircle
 10
53.34451099999999
 20
6.240408999999999
 30
0.0
 40
2.553149183273009
100
AcDbArc
 50
66.412714
 51
72.31998799999999
  0
ARC
  5
256
330
1F
100
AcDbEntity
  8
1
370
    18
100
AcDbCircle
 10
54.188179
 20
1.83494
 30
0.0
 40
0.5894461845367519
100
AcDbArc
 50
116.446134
 51
174.034129
  0
ARC
  5
257
330
1F
100
AcDbEntity
  8
1
370
    18
100
AcDbCircle
 10
60.28864300000001
 20
1.457913999999999
 30
0.0
 40
6.701067376044249
100
AcDbArc
 50
176.249831
 51
190.536121
  0
ARC
  5
258
330
1F
100
AcDbEntity
  8
1
370
    18
100
AcDbCircle
 10
61.31738399999999
 20
1.650386
 30
0.0
 40
7.747657676135647
100
AcDbArc
 50
190.544377
 51
206.206849
  0
ARC
  5
259
330
1F
100
AcDbEntity
  8
1
370
    18
100
AcDbCircle
 10
64.826122
 20
2.136493999999999
 30
0.0
 40
0.581517479910712
100
AcDbArc
 50
47.15411599999999
 51
128.298988
  0
ARC
  5
25A
330
1F
100
AcDbEntity
  8
1
370
    18
100
AcDbCircle
 10
64.830237
 20
2.160906999999999
 30
0.0
 40
0.5652078093905573
100
AcDbArc
 50
130.160405
 51
212.087249
  0
ARC
  5
25B
330
1F
100
AcDbEntity
  8
1
370
    18
100
AcDbCircle
 10
64.21373299999999
 20
-2.931356
 30
0.0
 40
8.34580022508504
100
AcDbArc
 50
94.247974
 51
96.33540899999999
  0
ARC
  5
25C
330
1F
100
AcDbEntity
  8
1
370
    18
100
AcDbCircle
 10
64.345473
 20
-4.661745999999999
 30
0.0
 40
10.08119555659025
100
AcDbArc
 50
91.916498
 51
94.26617399999999
  0
ARC
  5
25D
330
1F
100
AcDbEntity
  8
1
370
    18
100
AcDbCircle
 10
63.10747199999999
 20
-3.568531999999999
 30
0.0
 40
4.6570061165391
100
AcDbArc
 50
78.846339
 51
82.86764299999999
  0
ARC
  5
25E
330
1F
100
AcDbEntity
  8
1
370
    18
100
AcDbCircle
 10
63.1968
 20
-2.820533999999999
 30
0.0
 40
3.903707347798498
100
AcDbArc
 50
82.80547
 51
88.59103799999999
  0
ARC
  5
25F
330
1F
100
AcDbEntity
  8
1
370
    18
100
AcDbCircle
 10
64.819304
 20
2.145036999999999
 30
0.0
 40
0.4851102855111799
100
AcDbArc
 50
127.261381
 51
208.341886
  0
ARC
  5
260
330
1F
100
AcDbEntity
  8
1
370
    18
100
AcDbCircle
 10
64.82566099999999
 20
2.109602999999999
 30
0.0
 40
0.5174205006063254
100
AcDbArc
 50
47.673535
 51
125.445609
  0
ARC
  5
261
330
1F
100
AcDbEntity
  8
1
370
    18
100
AcDbCircle
 10
60.31583900000001
 20
1.455854999999999
 30
0.0
 40
6.692377746839199
100
AcDbArc
 50
176.282092
 51
193.947809
  0
ARC
  5
262
330
1F
100
AcDbEntity
  8
1
370
    18
100
AcDbCircle
 10
70.086914
 20
4.86981
 30
0.0
 40
0.7468949372373479
100
AcDbArc
 50
68.316737
 51
96.88532700000001
  0
ARC
  5
263
330
1F
100
AcDbEntity
  8
1
370
    18
100
AcDbCircle
 10
54.12480999999999
 20
1.852583
 30
0.0
 40
0.4886840434298513
100
AcDbArc
 50
123.899136
 51
175.630279
  0
ARC
  5
264
330
1F
100
AcDbEntity
  8
1
370
    18
100
AcDbCircle
 10
54.528249
 20
1.242636
 30
0.0
 40
1.219975851593148
100
AcDbArc
 50
97.249574
 51
123.649084
  0
ARC
  5
265
330
1F
100
AcDbEntity
  8
1
370
    18
100
AcDbCircle
 10
61.801509
 20
18.218533
 30
0.0
 40
12.94212472734255
100
AcDbArc
 50
272.50259
 51
273.720122
  0
ARC
  5
266
330
1F
100
AcDbEntity
  8
1
370
    18
100
AcDbCircle
 10
61.913451
 20
16.452048
 30
0.0
 40
11.17209912309077
100
AcDbArc
 50
273.735035
 51
275.4186160000001
  0
ARC
  5
267
330
1F
100
AcDbEntity
  8
1
370
    18
100
AcDbCircle
 10
63.082519
 20
4.678237999999999
 30
0.0
 40
3.589898611109056
100
AcDbArc
 50
263.2728029999999
 51
268.179155
  0
ARC
  5
268
330
1F
100
AcDbEntity
  8
1
370
    18
100
AcDbCircle
 10
63.174777
 20
5.503019
 30
0.0
 40
4.41981041831822
100
AcDbArc
 50
257.96108
 51
263.337537
  0
ARC
  5
269
330
1F
100
AcDbEntity
  8
1
370
    18
100
AcDbCircle
 10
-61.476699
 20
-606.35297
 30
0.0
 40
620.0047037855878
100
AcDbArc
 50
78.48863100000001
 51
78.77071100000001
  0
ARC
  5
26A
330
1F
100
AcDbEntity
  8
1
370
    18
100
AcDbCircle
 10
-65.37208199999999
 20
-625.746859
 30
0.0
 40
639.7858831114375
100
AcDbArc
 50
78.76675999999999
 51
79.11444499999999
  0
ARC
  5
26B
330
1F
100
AcDbEntity
  8
1
370
    18
100
AcDbCircle
 10
68.63624200000001
 20
5.116430999999999
 30
0.0
 40
15.8453017504081
100
AcDbArc
 50
205.764439
 51
208.672661
  0
ARC
  5
26C
330
1F
100
AcDbEntity
  8
1
370
    18
100
AcDbCircle
 10
72.33721
 20
7.14676
 30
0.0
 40
20.06660210379255
100
AcDbArc
 50
208.688701
 51
211.571136
  0
ARC
  5
26D
330
1F
100
AcDbEntity
  8
1
370
    18
100
AcDbCircle
 10
60.37434399999999
 20
16.693096
 30
0.0
 40
9.970230559074302
100
AcDbArc
 50
240.23737
 51
241.882929
  0
ARC
  5
26E
330
1F
100
AcDbEntity
  8
1
370
    18
100
AcDbCircle
 10
60.358963
 20
16.66607
 30
0.0
 40
9.939145612116472
100
AcDbArc
 50
241.887706
 51
244.235602
  0
ARC
  5
26F
330
1F
100
AcDbEntity
  8
1
370
    18
100
AcDbCircle
 10
62.074572
 20
13.977339
 30
0.0
 40
8.695649974483551
100
AcDbArc
 50
233.686915
 51
252.196466
  0
ARC
  5
270
330
1F
100
AcDbEntity
  8
1
370
    18
100
AcDbCircle
 10
62.068454
 20
13.966116
 30
0.0
 40
8.683093798558941
100
AcDbArc
 50
252.21226
 51
271.217238
  0
ARC
  5
271
330
1F
100
AcDbEntity
  8
1
370
    18
100
AcDbCircle
 10
51.30671599999999
 20
1.571188999999999
 30
0.0
 40
7.647678098438477
100
AcDbArc
 50
63.375414
 51
66.41892099999999
  0
ARC
  5
272
330
1F
100
AcDbEntity
  8
1
370
    18
100
AcDbCircle
 10
48.649405
 20
-3.753751
 30
0.0
 40
13.59883079077762
100
AcDbArc
 50
61.00770200000001
 51
63.42090899999999
  0
ARC
  5
273
330
1F
100
AcDbEntity
  8
1
370
    18
100
AcDbCircle
 10
61.03729799999999
 20
-8.459667999999998
 30
0.0
 40
6.795291722474929
100
AcDbArc
 50
99.00629700000001
 51
120.950961
  0
ARC
  5
274
330
1F
100
AcDbEntity
  8
1
370
    18
100
AcDbCircle
 10
59.885616
 20
-6.108451999999999
 30
0.0
 40
4.192412965167297
100
AcDbArc
 50
123.98018
 51
154.948194
  0
ARC
  5
275
330
1F
100
AcDbEntity
  8
1
370
    18
100
AcDbCircle
 10
60.076337
 20
-2.286116999999999
 30
0.0
 40
4.546846428315253
100
AcDbArc
 50
207.376736
 51
232.349944
  0
ARC
  5
276
330
1F
100
AcDbEntity
  8
1
370
    18
100
AcDbCircle
 10
60.716685
 20
-1.279922999999999
 30
0.0
 40
5.735665039450919
100
AcDbArc
 50
233.42507
 51
256.891304
  0
ARC
  5
277
330
1F
100
AcDbEntity
  8
1
370
    18
100
AcDbCircle
 10
62.011654
 20
3.817677999999999
 30
0.0
 40
10.9946309190061
100
AcDbArc
 50
256.343633
 51
271.2573470000001
  0
ARC
  5
278
330
1F
100
AcDbEntity
  8
1
370
    18
100
AcDbCircle
 10
62.57247299999999
 20
-0.088444
 30
0.0
 40
1.778946708024331
100
AcDbArc
 50
232.207632
 51
266.22415
  0
ARC
  5
279
330
1F
100
AcDbEntity
  8
1
370
    18
100
AcDbCircle
 10
61.278245
 20
0.050388
 30
0.0
 40
7.107063963362877
100
AcDbArc
 50
240.549975
 51
264.231027
  0
ARC
  5
27A
330
1F
100
AcDbEntity
  8
1
370
    18
100
AcDbCircle
 10
60.079826
 20
-2.281150999999999
 30
0.0
 40
4.488751640470388
100
AcDbArc
 50
207.204124
 51
239.23809
  0
ARC
  5
27B
330
1F
100
AcDbEntity
  8
1
370
    18
100
AcDbCircle
 10
70.08076899999998
 20
4.633874999999999
 30
0.0
 40
1.0070079436729
100
AcDbArc
 50
78.19462699999999
 51
94.980954
  0
ARC
  5
27C
330
1F
100
AcDbEntity
  8
1
370
    18
100
AcDbCircle
 10
62.064292
 20
13.971117
 30
0.0
 40
8.661167890640397
100
AcDbArc
 50
240.383087
 51
260.023942
  0
ARC
  5
27D
330
1F
100
AcDbEntity
  8
1
370
    18
100
AcDbCircle
 10
62.118942
 20
14.05068
 30
0.0
 40
8.757348047090857
100
AcDbArc
 50
226.471336
 51
240.329508
  0
ARC
  5
27E
330
1F
100
AcDbEntity
  8
1
370
    18
100
AcDbCircle
 10
61.40132099999999
 20
-0.9942579999999999
 30
0.0
 40
0.3413050126148655
100
AcDbArc
 50
115.1539689999999
 51
190.629804
  0
ARC
  5
27F
330
1F
100
AcDbEntity
  8
1
370
    18
100
AcDbCircle
 10
62.235302
 20
-2.349148
 30
0.0
 40
1.930511414416764
100
AcDbArc
 50
94.755257
 51
120.47401
  0
ARC
  5
280
330
1F
100
AcDbEntity
  8
1
370
    18
100
AcDbCircle
 10
223.206598
 20
11.478703
 30
0.0
 40
153.8808986139188
100
AcDbArc
 50
186.368852
 51
186.703397
  0
ARC
  5
281
330
1F
100
AcDbEntity
  8
1
370
    18
100
AcDbCircle
 10
182.887309
 20
6.991289
 30
0.0
 40
113.3126628542996
100
AcDbArc
 50
185.797131
 51
186.375348
  0
ARC
  5
282
330
1F
100
AcDbEntity
  8
1
370
    18
100
AcDbCircle
 10
69.93606599999999
 20
-7.052613
 30
0.0
 40
0.3812425536405853
100
AcDbArc
 50
278.639593
 51
3.482972
  0
ARC
  5
283
330
1F
100
AcDbEntity
  8
1
370
    18
100
AcDbCircle
 10
69.954431
 20
-7.056869999999999
 30
0.0
 40
0.4355157595610538
100
AcDbArc
 50
275.658714
 51
3.322266
  0
ARC
  5
284
330
1F
100
AcDbEntity
  8
1
370
    18
100
AcDbCircle
 10
70.00159700000001
 20
-8.334203
 30
0.0
 40
0.3876494125241123
100
AcDbArc
 50
269.375878
 51
0.7269280000000001
  0
ARC
  5
285
330
1F
100
AcDbEntity
  8
1
370
    18
100
AcDbCircle
 10
74.17859200000001
 20
-4.055805999999999
 30
0.0
 40
4.044092815160266
100
AcDbArc
 50
183.033301
 51
185.651008
  0
ARC
  5
286
330
1F
100
AcDbEntity
  8
1
370
    18
100
AcDbCircle
 10
74.53745000000001
 20
-4.037166
 30
0.0
 40
4.403434206545106
100
AcDbArc
 50
179.968542
 51
183.028426
  0
ARC
  5
287
330
1F
100
AcDbEntity
  8
1
370
    18
100
AcDbCircle
 10
63.41016999999999
 20
-0.94694
 30
0.0
 40
0.9948694368876077
100
AcDbArc
 50
345.018834
 51
23.550748
  0
ARC
  5
288
330
1F
100
AcDbEntity
  8
1
370
    18
100
AcDbCircle
 10
348.079352
 20
-0.880361
 30
0.0
 40
278.0181893325699
100
AcDbArc
 50
179.972921
 51
180.019928
  0
ARC
  5
289
330
1F
100
AcDbEntity
  8
1
370
    18
100
AcDbCircle
 10
429.448044
 20
-0.875117
 30
0.0
 40
359.3868791658026
100
AcDbArc
 50
180.016252
 51
180.066182
  0
ARC
  5
28A
330
1F
100
AcDbEntity
  8
1
370
    18
100
AcDbCircle
 10
64.82092800000001
 20
-10.051838
 30
0.0
 40
1.518380165990395
100
AcDbArc
 50
74.70067799999999
 51
96.660637
  0
ARC
  5
28B
330
1F
100
AcDbEntity
  8
1
370
    18
100
AcDbCircle
 10
64.690079
 20
-9.311942
 30
0.0
 40
0.7695691488494865
100
AcDbArc
 50
93.372036
 51
117.810329
  0
ARC
  5
28C
330
1F
100
AcDbEntity
  8
1
370
    18
100
AcDbCircle
 10
60.374165
 20
16.70116
 30
0.0
 40
9.967667791080488
100
AcDbArc
 50
242.645635
 51
244.485368
  0
ARC
  5
28D
330
1F
100
AcDbEntity
  8
1
370
    18
100
AcDbCircle
 10
60.37439499999999
 20
16.700506
 30
0.0
 40
9.967192869500184
100
AcDbArc
 50
240.543533
 51
242.642731
  0
ARC
  5
28E
330
1F
100
AcDbEntity
  8
1
370
    18
100
AcDbCircle
 10
53.797592
 20
-7.836358999999999
 30
0.0
 40
0.8846069355335766
100
AcDbArc
 50
264.689095
 51
307.82384
  0
ARC
  5
28F
330
1F
100
AcDbEntity
  8
1
370
    18
100
AcDbCircle
 10
53.775904
 20
-8.563036999999999
 30
0.0
 40
0.1654678504791969
100
AcDbArc
 50
146.736741
 51
248.668611
  0
ARC
  5
290
330
1F
100
AcDbEntity
  8
1
370
    18
100
AcDbCircle
 10
72.56537900000001
 20
-215.677431
 30
0.0
 40
224.2622055003384
100
AcDbArc
 50
92.63561700000002
 51
93.38185000000001
  0
ARC
  5
291
330
1F
100
AcDbEntity
  8
1
370
    18
100
AcDbCircle
 10
73.00950999999999
 20
-223.147679
 30
0.0
 40
231.7456441206618
100
AcDbArc
 50
93.382514
 51
94.30278900000001
  0
ARC
  5
292
330
1F
100
AcDbEntity
  8
1
370
    18
100
AcDbCircle
 10
67.776398
 20
7.990325
 30
0.0
 40
0.3404090674369412
100
AcDbArc
 50
250.535865
 51
268.215221
  0
ARC
  5
293
330
1F
100
AcDbEntity
  8
1
370
    18
100
AcDbCircle
 10
67.784887
 20
8.012988999999999
 30
0.0
 40
0.3646073627154535
100
AcDbArc
 50
228.636569
 51
250.464877
  0
ARC
  5
294
330
1F
100
AcDbEntity
  8
1
370
    18
100
AcDbCircle
 10
67.26526599999999
 20
7.618467999999999
 30
0.0
 40
0.3685384468483187
100
AcDbArc
 50
99.65839
 51
117.477047
  0
ARC
  5
295
330
1F
100
AcDbEntity
  8
1
370
    18
100
AcDbCircle
 10
67.26560400000001
 20
7.616305
 30
0.0
 40
0.3707274767018556
100
AcDbArc
 50
77.137969
 51
99.65386
  0
ARC
  5
296
330
1F
100
AcDbEntity
  8
1
370
    18
100
AcDbCircle
 10
70.23983299999999
 20
1.420337
 30
0.0
 40
0.3061914883301168
100
AcDbArc
 50
58.12713899999999
 51
86.009623
  0
ARC
  5
297
330
1F
100
AcDbEntity
  8
CUT
370
    18
100
AcDbCircle
 10
63.749938
 20
5.434458999999999
 30
0.0
 40
0.3961358242601865
100
AcDbArc
 50
180.207464
 51
270.318253
  0
ARC
  5
298
330
1F
100
AcDbEntity
  8
CUT
370
    18
100
AcDbCircle
 10
64.34476
 20
8.991125
 30
0.0
 40
0.4016908981732136
100
AcDbArc
 50
93.518106
 51
174.831175
  0
ARC
  5
299
330
1F
100
AcDbEntity
  8
CUT
370
    18
100
AcDbCircle
 10
69.95340300000001
 20
5.446117
 30
0.0
 40
0.4036880815173173
100
AcDbArc
 50
271.573543
 51
352.74381
  0
ARC
  5
29A
330
1F
100
AcDbEntity
  8
CUT
370
    18
100
AcDbCircle
 10
70.415093
 20
9.121238999999999
 30
0.0
 40
0.383097900060052
100
AcDbArc
 50
359.438008
 51
90.930698
  0
ARC
  5
29B
330
1F
100
AcDbEntity
  8
1
370
    13
100
AcDbCircle
 10
52.053183
 20
-11.083696
 30
0.0
 40
2.0
100
AcDbArc
 50
100.072932
 51
128.799098
  0
ARC
  5
29C
330
1F
100
AcDbEntity
  8
1
370
    13
100
AcDbCircle
 10
52.053183
 20
11.083696
 30
0.0
 40
2.0
100
AcDbArc
 50
231.200902
 51
259.927068
  0
ARC
  5
29D
330
1F
100
AcDbEntity
  8
NOCUT
370
    18
100
AcDbCircle
 10
71.534017
 20
2.428818999999999
 30
0.0
 40
2.0
100
AcDbArc
 50
160.0
 51
180.0
  0
ARC
  5
29E
330
1F
100
AcDbEntity
  8
NOCUT
370
    18
100
AcDbCircle
 10
72.134017
 20
-6.287697
 30
0.0
 40
2.0
100
AcDbArc
 50
180.0
 51
188.137337
  0
ARC
  5
29F
330
1F
100
AcDbEntity
  8
NOCUT
370
    18
100
AcDbCircle
 10
55.24065
 20
-13.564441
 30
0.0
 40
5.0
100
AcDbArc
 50
90.0
 51
100.072932
  0
ARC
  5
2A0
330
1F
100
AcDbEntity
  8
NOCUT
370
    18
100
AcDbCircle
 10
72.134017
 20
6.287697
 30
0.0
 40
2.0
100
AcDbArc
 50
171.862663
 51
180.0
  0
ARC
  5
2A1
330
1F
100
AcDbEntity
  8
NOCUT
370
    18
100
AcDbCircle
 10
52.053183
 20
11.083696
 30
0.0
 40
2.0
100
AcDbArc
 50
231.200902
 51
259.927068
  0
ARC
  5
2A2
330
1F
100
AcDbEntity
  8
NOCUT
370
    18
100
AcDbCircle
 10
62.25291
 20
10.164441
 30
0.0
 40
1.6
100
AcDbArc
 50
270.0
 51
296.565051
  0
ARC
  5
2A3
330
1F
100
AcDbEntity
  8
NOCUT
370
    18
100
AcDbCircle
 10
69.387739
 20
8.275551
 30
0.0
 40
1.0
100
AcDbArc
 50
351.862663
 51
359.734329
  0
ARC
  5
2A4
330
1F
100
AcDbEntity
  8
NOCUT
370
    18
100
AcDbCircle
 10
68.134017
 20
-4.782613999999999
 30
0.0
 40
2.0
100
AcDbArc
 50
0.0
 51
20.0
  0
ARC
  5
2A5
330
1F
100
AcDbEntity
  8
NOCUT
370
    18
100
AcDbCircle
 10
69.98921999999999
 20
8.593355
 30
0.0
 40
0.4
100
AcDbArc
 50
359.734329
 51
88.83181400000001
  0
ARC
  5
2A6
330
1F
100
AcDbEntity
  8
NOCUT
370
    18
100
AcDbCircle
 10
64.008328
 20
-7.464441
 30
0.0
 40
1.6
100
AcDbArc
 50
243.434949
 51
270.0
  0
ARC
  5
2A7
330
1F
100
AcDbEntity
  8
NOCUT
370
    18
100
AcDbCircle
 10
71.534017
 20
-2.428818999999999
 30
0.0
 40
2.0
100
AcDbArc
 50
180.0
 51
200.0
  0
ARC
  5
2A8
330
1F
100
AcDbEntity
  8
NOCUT
370
    18
100
AcDbCircle
 10
55.24065
 20
13.564441
 30
0.0
 40
5.0
100
AcDbArc
 50
259.927068
 51
270.0
  0
ARC
  5
2A9
330
1F
100
AcDbEntity
  8
NOCUT
370
    18
100
AcDbCircle
 10
52.053183
 20
-11.083696
 30
0.0
 40
2.0
100
AcDbArc
 50
100.072932
 51
128.799098
  0
ARC
  5
2AA
330
1F
100
AcDbEntity
  8
NOCUT
370
    18
100
AcDbCircle
 10
69.387739
 20
-8.275551
 30
0.0
 40
1.0
100
AcDbArc
 50
0.265671
 51
8.137336999999998
  0
ARC
  5
2AB
330
1F
100
AcDbEntity
  8
NOCUT
370
    18
100
AcDbCircle
 10
62.25291
 20
-10.164441
 30
0.0
 40
1.6
100
AcDbArc
 50
63.434949
 51
90.0
  0
ARC
  5
2AC
330
1F
100
AcDbEntity
  8
NOCUT
370
    18
100
AcDbCircle
 10
69.98921999999999
 20
-8.593355
 30
0.0
 40
0.4
100
AcDbArc
 50
271.168186
 51
0.265671
  0
ARC
  5
2AD
330
1F
100
AcDbEntity
  8
NOCUT
370
    18
100
AcDbCircle
 10
68.134017
 20
4.782613999999999
 30
0.0
 40
2.0
100
AcDbArc
 50
340.0
 51
0.0
  0
ARC
  5
2AE
330
1F
100
AcDbEntity
  8
NOCUT
370
    18
100
AcDbCircle
 10
64.008328
 20
7.464441
 30
0.0
 40
1.6
100
AcDbArc
 50
90.0
 51
116.565051
  0
MTEXT
  5
2AF
330
1F
100
AcDbEntity
  8
SK6
370
    13
100
AcDbMText
 10
-54.0675
 20
58.897404
 30
0.0
 40
2.5
 41
0.0
 71
     7
 72
     5
  1
\fArial|b0|i0;\W1.0000;075A4R079C075-ISAD07D-C
  7
Arial
 73
     2
 44
1.047437
1001
ACAD
1000
MTEXTBEGIN
1070
    73
1070
     2
1070
    44
1040
1.047437
1070
    74
1070
     0
1000
MTEXTEND
  0
DIMENSION
  5
2B2
102
{ACAD_XDICTIONARY
360
2B3
102
}
102
{ACAD_REACTORS
330
2B4
102
}
330
1F
100
AcDbEntity
  8
SK2
370
    13
100
AcDbDimension
  2
_U0
 10
70.8
 20
47.019884
 30
0.0
 11
8.3
 21
47.019884
 31
0.0
 70
   160
 42
125.0
 52
90.0
  3
Standard
100
AcDbAlignedDimension
 13
-54.2
 23
9.025
 33
0.0
 14
70.8
 24
10.525
 34
0.0
100
AcDbRotatedDimension
1001
ACAD
1000
DSTYLE
1002
{
1070
   371
1070
    13
1070
   372
1070
    13
1070
   170
1070
     0
1070
   144
1040
1.0
1070
   277
1070
     2
1070
   284
1070
     8
1070
   278
1070
    44
1070
   146
1040
1.0
1070
   345
1005
16
1070
   347
1005
16
1070
   346
1005
16
1070
   344
1005
0
1070
   343
1005
0
1070
   172
1070
     1
1070
    76
1070
     0
1070
    75
1070
     0
1070
   282
1070
     0
1070
   281
1070
     0
1070
    71
1070
     0
1070
    74
1070
     0
1070
   279
1070
     0
1070
   173
1070
     1
1070
   340
1005
2B0
1070
   271
1070
     1
1070
   272
1070
     2
1070
    77
1070
     1
1070
    73
1070
     1
1070
   171
1070
     3
1070
   274
1070
     4
1070
   177
1070
    95
1070
   176
1070
    95
1070
   178
1070
    95
1070
    78
1070
     8
1070
    48
1040
-0.1
1070
    41
1040
2.5
1070
   147
1040
1.25
1070
    42
1040
1.0
1070
    44
1040
2.0
1070
   140
1040
2.5
1002
}
1001
ACAD_DSTYLE_DIM_LINETYPE
1070
   380
1005
16
1001
ACAD_DSTYLE_DIM_EXT1_LINETYPE
1070
   381
1005
16
1001
ACAD_DSTYLE_DIM_EXT2_LINETYPE
1070
   382
1005
16
  0
DIMENSION
  5
2CB
102
{ACAD_XDICTIONARY
360
2CC
102
}
102
{ACAD_REACTORS
330
2CD
102
}
330
1F
100
AcDbEntity
  8
SK2
370
    13
100
AcDbDimension
  2
_U1
 10
-67.15719599999999
 20
-9.525
 30
0.0
 11
-67.15719599999999
 21
0.0
 31
0.0
 70
   160
 42
19.05
 52
90.0
  3
Standard
100
AcDbAlignedDimension
 13
50.8
 23
9.525
 33
0.0
 14
-53.7
 24
-9.525
 34
0.0
 50
-90.0
100
AcDbRotatedDimension
1001
ACAD
1000
DSTYLE
1002
{
1070
   371
1070
    13
1070
   372
1070
    13
1070
     3
1000
%%c<>
1070
   170
1070
     0
1070
   144
1040
1.0
1070
   277
1070
     2
1070
   284
1070
     8
1070
   278
1070
    44
1070
   146
1040
1.0
1070
   345
1005
16
1070
   347
1005
16
1070
   346
1005
16
1070
   344
1005
0
1070
   343
1005
0
1070
   172
1070
     1
1070
    76
1070
     0
1070
    75
1070
     0
1070
   282
1070
     0
1070
   281
1070
     0
1070
    71
1070
     0
1070
    74
1070
     0
1070
   279
1070
     0
1070
   173
1070
     1
1070
   340
1005
2B0
1070
   271
1070
     1
1070
   272
1070
     2
1070
    77
1070
     1
1070
    73
1070
     0
1070
   171
1070
     3
1070
   274
1070
     4
1070
   177
1070
    95
1070
   176
1070
    95
1070
   178
1070
    95
1070
    78
1070
     8
1070
    48
1040
-0.1
1070
    41
1040
2.5
1070
   147
1040
1.25
1070
    42
1040
1.0
1070
    44
1040
2.0
1070
   140
1040
2.5
1002
}
1001
ACAD_DSTYLE_DIM_LINETYPE
1070
   380
1005
16
1001
ACAD_DSTYLE_DIM_EXT1_LINETYPE
1070
   381
1005
16
1001
ACAD_DSTYLE_DIM_EXT2_LINETYPE
1070
   382
1005
16
  0
DIMENSION
  5
2E4
102
{ACAD_XDICTIONARY
360
2E5
102
}
102
{ACAD_REACTORS
330
2E6
102
}
330
1F
100
AcDbEntity
  8
2
370
    13
100
AcDbDimension
  2
_U2
 10
70.8
 20
15.019884
 30
0.0
 11
81.977524
 21
15.019884
 31
0.0
 70
   160
 42
5.007341847180711
 52
90.0
  3
Standard
100
AcDbAlignedDimension
 13
65.79265815281928
 23
9.34234670926321
 33
0.0
 14
70.8
 24
10.525
 34
0.0
100
AcDbRotatedDimension
1001
ACAD
1000
DSTYLE
1002
{
1070
   371
1070
    13
1070
   372
1070
    13
1070
   170
1070
     0
1070
   144
1040
1.0
1070
   277
1070
     2
1070
   284
1070
     8
1070
   278
1070
    44
1070
   146
1040
1.0
1070
   345
1005
16
1070
   347
1005
16
1070
   346
1005
16
1070
   344
1005
0
1070
   343
1005
0
1070
   172
1070
     1
1070
    76
1070
     0
1070
    75
1070
     0
1070
   282
1070
     0
1070
   281
1070
     0
1070
    71
1070
     0
1070
    74
1070
     0
1070
   279
1070
     0
1070
   173
1070
     1
1070
   340
1005
2B0
1070
   271
1070
     1
1070
   272
1070
     2
1070
    77
1070
     1
1070
    73
1070
     1
1070
   171
1070
     3
1070
   274
1070
     4
1070
   177
1070
   254
1070
   176
1070
   254
1070
   178
1070
   254
1070
    78
1070
     8
1070
    48
1040
-0.1
1070
    41
1040
2.5
1070
   147
1040
1.25
1070
    42
1040
1.0
1070
    44
1040
2.0
1070
   140
1040
2.5
1002
}
1001
ACAD_DSTYLE_DIM_LINETYPE
1070
   380
1005
16
1001
ACAD_DSTYLE_DIM_EXT1_LINETYPE
1070
   381
1005
16
1001
ACAD_DSTYLE_DIM_EXT2_LINETYPE
1070
   382
1005
16
  0
DIMENSION
  5
2FE
102
{ACAD_XDICTIONARY
360
2FF
102
}
102
{ACAD_REACTORS
330
300
102
}
330
1F
100
AcDbEntity
  8
2
370
    13
100
AcDbDimension
  2
_U3
 10
81.842804
 20
-9.525
 30
0.0
 11
81.842804
 21
0.0
 31
0.0
 70
   160
 42
19.05
 52
90.0
  3
Standard
100
AcDbAlignedDimension
 13
69.8
 23
9.525
 33
0.0
 14
70.8
 24
-9.525
 34
0.0
 50
-90.0
100
AcDbRotatedDimension
1001
ACAD
1000
DSTYLE
1002
{
1070
   371
1070
    13
1070
   372
1070
    13
1070
     3
1000
%%c<>
1070
   170
1070
     0
1070
   144
1040
1.0
1070
   277
1070
     2
1070
   284
1070
     8
1070
   278
1070
    44
1070
   146
1040
1.0
1070
   345
1005
16
1070
   347
1005
16
1070
   346
1005
16
1070
   344
1005
0
1070
   343
1005
0
1070
   172
1070
     1
1070
    76
1070
     1
1070
   281
1070
     0
1070
    71
1070
     0
1070
    74
1070
     0
1070
   279
1070
     0
1070
   173
1070
     1
1070
   340
1005
2B0
1070
   271
1070
     2
1070
   272
1070
     2
1070
    77
1070
     1
1070
    73
1070
     0
1070
   171
1070
     3
1070
   274
1070
     4
1070
   282
1070
     1
1070
   177
1070
   254
1070
   176
1070
   254
1070
   178
1070
   254
1070
    78
1070
     8
1070
    48
1040
-0.1
1070
    41
1040
2.5
1070
   147
1040
1.25
1070
    42
1040
1.0
1070
    44
1040
2.0
1070
   140
1040
2.5
1002
}
1001
ACAD_DSTYLE_DIM_LINETYPE
1070
   380
1005
16
1001
ACAD_DSTYLE_DIM_EXT1_LINETYPE
1070
   381
1005
16
1001
ACAD_DSTYLE_DIM_EXT2_LINETYPE
1070
   382
1005
16
  0
DIMENSION
  5
314
102
{ACAD_XDICTIONARY
360
315
102
}
102
{ACAD_REACTORS
330
316
102
}
330
1F
100
AcDbEntity
  8
2
370
    13
100
AcDbDimension
  2
_U4
 10
70.8
 20
31.019884
 30
0.0
 11
60.8
 21
31.019884
 31
0.0
 70
   160
 42
20.0
 52
90.0
  3
Standard
100
AcDbAlignedDimension
 13
50.8
 23
9.525
 33
0.0
 14
70.8
 24
10.525
 34
0.0
100
AcDbRotatedDimension
1001
ACAD
1000
DSTYLE
1002
{
1070
   371
1070
    13
1070
   372
1070
    13
1070
   170
1070
     0
1070
   144
1040
1.0
1070
   277
1070
     2
1070
   284
1070
     8
1070
   278
1070
    44
1070
   146
1040
1.0
1070
   345
1005
16
1070
   347
1005
16
1070
   346
1005
16
1070
   344
1005
0
1070
   343
1005
0
1070
   172
1070
     1
1070
    76
1070
     0
1070
    75
1070
     0
1070
   282
1070
     0
1070
   281
1070
     0
1070
    71
1070
     0
1070
    74
1070
     0
1070
   279
1070
     0
1070
   173
1070
     1
1070
   340
1005
2B0
1070
   271
1070
     1
1070
   272
1070
     2
1070
    77
1070
     1
1070
    73
1070
     1
1070
   171
1070
     3
1070
   274
1070
     4
1070
   177
1070
   254
1070
   176
1070
   254
1070
   178
1070
   254
1070
    78
1070
     8
1070
    48
1040
-0.1
1070
    41
1040
2.5
1070
   147
1040
1.25
1070
    42
1040
1.0
1070
    44
1040
2.0
1070
   140
1040
2.5
1002
}
1001
ACAD_DSTYLE_DIM_LINETYPE
1070
   380
1005
16
1001
ACAD_DSTYLE_DIM_EXT1_LINETYPE
1070
   381
1005
16
1001
ACAD_DSTYLE_DIM_EXT2_LINETYPE
1070
   382
1005
16
  0
DIMENSION
  5
32C
102
{ACAD_XDICTIONARY
360
32D
102
}
102
{ACAD_REACTORS
330
32E
102
}
330
1F
100
AcDbEntity
  8
SK2
370
    13
100
AcDbDimension
  2
_U5
 10
70.8
 20
39.019884
 30
0.0
 11
35.4
 21
39.019884
 31
0.0
 70
   160
 42
70.8
 52
90.0
  3
Standard
100
AcDbAlignedDimension
 13
0.0
 23
1.0
 33
0.0
 14
70.8
 24
10.525
 34
0.0
100
AcDbRotatedDimension
1001
ACAD
1000
DSTYLE
1002
{
1070
   371
1070
    13
1070
   372
1070
    13
1070
   170
1070
     0
1070
   144
1040
1.0
1070
   277
1070
     2
1070
   284
1070
     8
1070
   278
1070
    44
1070
   146
1040
1.0
1070
   345
1005
16
1070
   347
1005
16
1070
   346
1005
16
1070
   344
1005
0
1070
   343
1005
0
1070
   172
1070
     1
1070
    76
1070
     0
1070
    75
1070
     0
1070
   282
1070
     0
1070
   281
1070
     0
1070
    71
1070
     0
1070
    74
1070
     0
1070
   279
1070
     0
1070
   173
1070
     1
1070
   340
1005
2B0
1070
   271
1070
     1
1070
   272
1070
     2
1070
    77
1070
     1
1070
    73
1070
     1
1070
   171
1070
     3
1070
   274
1070
     4
1070
   177
1070
    95
1070
   176
1070
    95
1070
   178
1070
    95
1070
    78
1070
     8
1070
    48
1040
-0.1
1070
    41
1040
2.5
1070
   147
1040
1.25
1070
    42
1040
1.0
1070
    44
1040
2.0
1070
   140
1040
2.5
1002
}
1001
ACAD_DSTYLE_DIM_LINETYPE
1070
   380
1005
16
1001
ACAD_DSTYLE_DIM_EXT1_LINETYPE
1070
   381
1005
16
1001
ACAD_DSTYLE_DIM_EXT2_LINETYPE
1070
   382
1005
16
  0
ENDSEC
  0
SECTION
  2
OBJECTS
  0
DICTIONARY
  5
C
330
0
100
AcDbDictionary
281
     1
  3
ACAD_CIP_PREVIOUS_PRODUCT_INFO
350
62E
  3
ACAD_COLOR
350
627
  3
ACAD_DETAILVIEWSTYLE
350
3A3
  3
ACAD_GROUP
350
D
  3
ACAD_LAYOUT
350
1A
  3
ACAD_MATERIAL
350
43
  3
ACAD_MLEADERSTYLE
350
6B
  3
ACAD_MLINESTYLE
350
17
  3
ACAD_PLOTSETTINGS
350
19
  3
ACAD_PLOTSTYLENAME
350
E
  3
ACAD_SCALELIST
350
47
  3
ACAD_SECTIONVIEWSTYLE
350
3A4
  3
ACAD_TABLESTYLE
350
69
  3
ACAD_VISUALSTYLE
350
2A
  3
ACDB_RECOMPOSE_DATA
350
643
  3
AcDbVariableDictionary
350
360
  3
DWGPROPS
350
644
  0
DICTIONARY
  5
2B3
330
2B2
100
AcDbDictionary
280
     1
281
     1
  3
ACAD_DIMASSOC
360
2B4
  0
DICTIONARY
  5
2CC
330
2CB
100
AcDbDictionary
280
     1
281
     1
  3
ACAD_DIMASSOC
360
2CD
  0
DICTIONARY
  5
2E5
330
2E4
100
AcDbDictionary
280
     1
281
     1
  3
ACAD_DIMASSOC
360
2E6
  0
DICTIONARY
  5
2FF
330
2FE
100
AcDbDictionary
280
     1
281
     1
  3
ACAD_DIMASSOC
360
300
  0
DICTIONARY
  5
315
330
314
100
AcDbDictionary
280
     1
281
     1
  3
ACAD_DIMASSOC
360
316
  0
DICTIONARY
  5
32D
330
32C
100
AcDbDictionary
280
     1
281
     1
  3
ACAD_DIMASSOC
360
32E
  0
XRECORD
  5
62E
102
{ACAD_REACTORS
330
C
102
}
330
C
100
AcDbXrecord
280
     1
300
ACD
300
2019
300

  0
DICTIONARY
  5
627
102
{ACAD_REACTORS
330
C
102
}
330
C
100
AcDbDictionary
281
     1
  0
DICTIONARY
  5
3A3
102
{ACAD_REACTORS
330
C
102
}
330
C
100
AcDbDictionary
281
     1
  3
Metric50
350
629
  0
DICTIONARY
  5
D
102
{ACAD_REACTORS
330
C
102
}
330
C
100
AcDbDictionary
281
     1
  0
DICTIONARY
  5
1A
102
{ACAD_REACTORS
330
C
102
}
330
C
100
AcDbDictionary
281
     1
  3
Layout1
350
1E
  3
Layout2
350
26
  3
Model
350
22
  0
DICTIONARY
  5
43
102
{ACAD_REACTORS
330
C
102
}
330
C
100
AcDbDictionary
281
     1
  3
ByBlock
350
45
  3
ByLayer
350
44
  3
Global
350
46
  0
DICTIONARY
  5
6B
102
{ACAD_REACTORS
330
C
102
}
330
C
100
AcDbDictionary
281
     1
  3
Standard
350
6C
  0
DICTIONARY
  5
17
102
{ACAD_REACTORS
330
C
102
}
330
C
100
AcDbDictionary
281
     1
  3
Standard
350
18
  0
DICTIONARY
  5
19
102
{ACAD_REACTORS
330
C
102
}
330
C
100
AcDbDictionary
281
     1
  0
ACDBDICTIONARYWDFLT
  5
E
102
{ACAD_REACTORS
330
C
102
}
330
C
100
AcDbDictionary
281
     1
  3
Normal
350
F
100
AcDbDictionaryWithDefault
340
F
  0
DICTIONARY
  5
47
102
{ACAD_REACTORS
330
C
102
}
330
C
100
AcDbDictionary
281
     1
  3
A0
350
48
  3
A1
350
49
  3
A2
350
4A
  3
A3
350
4B
  3
A4
350
4C
  3
A5
350
4D
  3
A6
350
4E
  3
A7
350
4F
  3
A8
350
50
  3
A9
350
51
  3
B0
350
52
  3
B1
350
53
  3
B2
350
54
  3
B3
350
55
  3
B4
350
56
  3
B5
350
57
  3
B6
350
58
  3
B7
350
59
  3
B8
350
5A
  3
B9
350
5B
  3
C0
350
5C
  3
C1
350
5D
  3
C2
350
5E
  3
C3
350
5F
  3
C4
350
60
  3
C5
350
61
  3
C6
350
62
  3
C7
350
63
  3
C8
350
64
  3
C9
350
65
  3
D0
350
66
  3
D1
350
67
  3
D2
350
68
  0
DICTIONARY
  5
3A4
102
{ACAD_REACTORS
330
C
102
}
330
C
100
AcDbDictionary
281
     1
  3
Metric50
350
628
  0
DICTIONARY
  5
69
102
{ACAD_REACTORS
330
C
102
}
330
C
100
AcDbDictionary
281
     1
  3
Standard
350
6A
  0
DICTIONARY
  5
2A
102
{ACAD_REACTORS
330
C
102
}
330
C
100
AcDbDictionary
281
     1
  3
2dWireframe
350
2F
  3
Basic
350
32
  3
Brighten
350
36
  3
ColorChange
350
3A
  3
Conceptual
350
34
  3
Dim
350
35
  3
EdgeColorOff
350
3D
  3
Facepattern
350
39
  3
Flat
350
2B
  3
FlatWithEdges
350
2C
  3
Gouraud
350
2D
  3
GouraudWithEdges
350
2E
  3
Hidden
350
31
  3
JitterOff
350
3B
  3
Linepattern
350
38
  3
OverhangOff
350
3C
  3
Realistic
350
33
  3
Shaded
350
42
  3
Shaded with edges
350
41
  3
Shades of Gray
350
3E
  3
Sketchy
350
3F
  3
Thicken
350
37
  3
Wireframe
350
30
  3
X-Ray
350
40
  0
XRECORD
  5
643
102
{ACAD_REACTORS
330
C
102
}
330
C
100
AcDbXrecord
280
     1
 90
        1
330
6A
  0
DICTIONARY
  5
360
102
{ACAD_REACTORS
330
C
102
}
330
C
100
AcDbDictionary
281
     1
  3
CANNOSCALE
350
361
  3
CMLEADERSTYLE
350
3A2
  3
CTABLESTYLE
350
3A1
  3
CVIEWDETAILSTYLE
350
63A
  3
CVIEWSECTIONSTYLE
350
63B
  3
DIMASSOC
350
63F
  3
HIDETEXT
350
63E
  3
INDEXCTL
350
63D
  3
MSLTSCALE
350
362
  3
SORTENTS
350
63C
  3
XCLIPFRAME
350
640
  0
XRECORD
  5
644
102
{ACAD_REACTORS
330
C
102
}
330
C
100
AcDbXrecord
280
     1
  1
DWGPROPS COOKIE
  2

  3

  4

  6

  7

  8
fo3459
  9

300
=
301
=
302
=
303
=
304
=
305
=
306
=
307
=
308
=
309
=
 40
0.0009375115740741
 41
2459025.333842593
 42
2459025.335381945
  1

 90
        0
  0
DIMASSOC
  5
2B4
102
{ACAD_REACTORS
330
2B3
102
}
330
2B3
100
AcDbDimAssoc
330
2B2
 90
        3
 70
     0
 71
     1
  1
AcDbOsnapPointRef
 72
     1
331
1DE
 73
     2
 91
        1
 40
1.0
 10
-54.2
 20
9.025
 30
0.0
 75
     0
  1
AcDbOsnapPointRef
 72
     1
331
1BF
 73
     2
 91
        2
 40
1.0
 10
70.8
 20
10.525
 30
0.0
 75
     0
  0
DIMASSOC
  5
2CD
102
{ACAD_REACTORS
330
2CC
102
}
330
2CC
100
AcDbDimAssoc
330
2CB
 90
        3
 70
     0
 71
     1
  1
AcDbOsnapPointRef
 72
    13
331
1B1
 73
     2
 91
        1
 40
0.0
 10
50.8
 20
9.525
 30
0.0
 75
     0
  1
AcDbOsnapPointRef
 72
    13
331
1B0
 73
     2
 91
        2
 40
0.0
 10
-53.7
 20
-9.525
 30
0.0
 75
     0
  0
DIMASSOC
  5
2E6
102
{ACAD_REACTORS
330
2E5
102
}
330
2E5
100
AcDbDimAssoc
330
2E4
 90
        2
 70
     0
 71
     1
  1
AcDbOsnapPointRef
 72
     1
331
1BF
 73
     2
 91
        2
 40
1.0
 10
70.8
 20
10.525
 30
0.0
 75
     0
  0
DIMASSOC
  5
300
102
{ACAD_REACTORS
330
2FF
102
}
330
2FF
100
AcDbDimAssoc
330
2FE
 90
        3
 70
     0
 71
     1
  1
AcDbOsnapPointRef
 72
    13
331
1BD
 73
     2
 91
        1
 40
0.0
 10
69.8
 20
9.525
 30
0.0
 75
     0
  1
AcDbOsnapPointRef
 72
     4
331
73
 73
     3
 91
        2
 40
0.0
 10
70.8
 20
-9.525
 30
0.0
 75
     0
  0
DIMASSOC
  5
316
102
{ACAD_REACTORS
330
315
102
}
330
315
100
AcDbDimAssoc
330
314
 90
        3
 70
     0
 71
     1
  1
AcDbOsnapPointRef
 72
    13
331
1DC
 73
     2
 91
        1
 40
0.0
 10
50.8
 20
9.525
 30
0.0
 75
     0
  1
AcDbOsnapPointRef
 72
     1
331
1BF
 73
     2
 91
        2
 40
1.0
 10
70.8
 20
10.525
 30
0.0
 75
     0
  0
DIMASSOC
  5
32E
102
{ACAD_REACTORS
330
32D
102
}
330
32D
100
AcDbDimAssoc
330
32C
 90
        3
 70
     0
 71
     1
  1
AcDbOsnapPointRef
 72
    13
331
1C3
 73
     2
 91
        1
 40
0.0
 10
0.0
 20
1.0
 30
0.0
 75
     0
  1
AcDbOsnapPointRef
 72
     1
331
1BF
 73
     2
 91
        2
 40
1.0
 10
70.8
 20
10.525
 30
0.0
 75
     0
  0
ACDBDETAILVIEWSTYLE
  5
629
102
{ACAD_XDICTIONARY
360
67E
102
}
102
{ACAD_REACTORS
330
3A3
102
}
330
3A3
100
AcDbModelDocViewStyle
 70
     0
  3
Metric50
290
     0
100
AcDbDetailViewStyle
 70
     0
 71
     0
 90
        3
 71
     1
340
11
 40
5.0
340
0
 40
5.0
300

 40
0.0
280
     1
 71
     2
340
16
 90
       25
 71
     3
340
11
 40
5.0
 90
        0
 40
15.0
 90
        1
300
%<\AcVar ViewDetailId>% (%<\AcVar ViewScale \f "%sn">%)
 71
     4
340
16
 90
       25
340
16
 90
       25
280
     0
  0
LAYOUT
  5
1E
102
{ACAD_XDICTIONARY
360
645
102
}
102
{ACAD_REACTORS
330
1A
102
}
330
1A
100
AcDbPlotSettings
  1

  2
none_device
  4

  6

 40
0.0
 41
0.0
 42
0.0
 43
0.0
 44
0.0
 45
0.0
 46
0.0
 47
0.0
 48
0.0
 49
0.0
140
0.0
141
0.0
142
1.0
143
1.0
 70
   688
 72
     0
 73
     0
 74
     5
  7

 75
    16
147
1.0
148
0.0
149
0.0
100
AcDbLayout
  1
Layout1
 70
     1
 71
     1
 10
-0.5
 20
-0.5
 11
5.0
 21
5.0
 12
0.0
 22
0.0
 32
0.0
 14
-0.5
 24
-0.5
 34
-0.5
 15
5.0
 25
5.0
 35
5.0
146
0.0
 13
0.0
 23
0.0
 33
0.0
 16
1.0
 26
0.0
 36
0.0
 17
0.0
 27
1.0
 37
0.0
 76
     0
330
1B
  0
LAYOUT
  5
26
102
{ACAD_XDICTIONARY
360
649
102
}
102
{ACAD_REACTORS
330
1A
102
}
330
1A
100
AcDbPlotSettings
  1

  2
none_device
  4

  6

 40
0.0
 41
0.0
 42
0.0
 43
0.0
 44
0.0
 45
0.0
 46
0.0
 47
0.0
 48
0.0
 49
0.0
140
0.0
141
0.0
142
1.0
143
1.0
 70
   688
 72
     0
 73
     0
 74
     5
  7

 75
    16
147
1.0
148
0.0
149
0.0
100
AcDbLayout
  1
Layout2
 70
     1
 71
     2
 10
0.0
 20
0.0
 11
0.0
 21
0.0
 12
0.0
 22
0.0
 32
0.0
 14
0.0
 24
0.0
 34
0.0
 15
0.0
 25
0.0
 35
0.0
146
0.0
 13
0.0
 23
0.0
 33
0.0
 16
1.0
 26
0.0
 36
0.0
 17
0.0
 27
1.0
 37
0.0
 76
     0
330
23
  0
LAYOUT
  5
22
102
{ACAD_XDICTIONARY
360
647
102
}
102
{ACAD_REACTORS
330
1A
102
}
330
1A
100
AcDbPlotSettings
  1

  2
none_device
  4
Letter_(8.50_x_11.00_Inches)
  6

 40
6.349999999999999
 41
6.349999999999999
 42
6.350005
 43
6.350005
 44
215.9
 45
279.4
 46
0.0
 47
0.0
 48
0.0
 49
0.0
140
0.0
141
0.0
142
1.0
143
1.0
 70
  1712
 72
     0
 73
     0
 74
     0
  7

 75
     0
147
1.0
148
0.0
149
0.0
100
AcDbLayout
  1
Model
 70
     1
 71
     0
 10
-0.5
 20
-0.5
 11
5.0
 21
5.0
 12
0.0
 22
0.0
 32
0.0
 14
-0.5
 24
-0.5
 34
-0.5
 15
5.0
 25
5.0
 35
5.0
146
0.0
 13
0.0
 23
0.0
 33
0.0
 16
1.0
 26
0.0
 36
0.0
 17
0.0
 27
1.0
 37
0.0
 76
     0
330
1F
331
29
  0
MATERIAL
  5
45
102
{ACAD_XDICTIONARY
360
396
102
}
102
{ACAD_REACTORS
330
43
102
}
330
43
100
AcDbMaterial
  1
ByBlock
  0
MATERIAL
  5
44
102
{ACAD_XDICTIONARY
360
394
102
}
102
{ACAD_REACTORS
330
43
102
}
330
43
100
AcDbMaterial
  1
ByLayer
  0
MATERIAL
  5
46
102
{ACAD_XDICTIONARY
360
398
102
}
102
{ACAD_REACTORS
330
43
102
}
330
43
100
AcDbMaterial
  1
Global
  0
MLEADERSTYLE
  5
6C
102
{ACAD_REACTORS
330
6B
102
}
330
6B
100
AcDbMLeaderStyle
170
     2
171
     1
172
     0
 90
        2
 40
0.0
 41
0.0
173
     1
 91
-1056964608
340
14
 92
       -2
290
     1
 42
0.09
291
     1
 43
0.36
  3
Standard
 44
0.18
300

342
11
174
     1
178
     6
175
     1
176
     0
 93
-1056964608
 45
0.18
292
     0
297
     0
 46
0.18
 94
-1056964608
 47
1.0
 49
1.0
140
1.0
293
     1
141
0.0
294
     1
177
     0
142
1.0
295
     0
296
     0
143
0.125
1001
ACAD_MLEADERVER
1070
     2
  0
MLINESTYLE
  5
18
102
{ACAD_REACTORS
330
17
102
}
330
17
100
AcDbMlineStyle
  2
STANDARD
 70
     0
  3

 62
   256
 51
90.0
 52
90.0
 71
     2
 49
0.5
 62
   256
  6
BYLAYER
 49
-0.5
 62
   256
  6
BYLAYER
  0
ACDBPLACEHOLDER
  5
F
102
{ACAD_REACTORS
330
E
102
}
330
E
  0
SCALE
  5
48
102
{ACAD_REACTORS
330
47
102
}
330
47
100
AcDbScale
 70
     0
300
1:1
140
1.0
141
1.0
290
     1
  0
SCALE
  5
49
102
{ACAD_REACTORS
330
47
102
}
330
47
100
AcDbScale
 70
     0
300
1:2
140
1.0
141
2.0
290
     0
  0
SCALE
  5
4A
102
{ACAD_REACTORS
330
47
102
}
330
47
100
AcDbScale
 70
     0
300
1:4
140
1.0
141
4.0
290
     0
  0
SCALE
  5
4B
102
{ACAD_REACTORS
330
47
102
}
330
47
100
AcDbScale
 70
     0
300
1:5
140
1.0
141
5.0
290
     0
  0
SCALE
  5
4C
102
{ACAD_REACTORS
330
47
102
}
330
47
100
AcDbScale
 70
     0
300
1:8
140
1.0
141
8.0
290
     0
  0
SCALE
  5
4D
102
{ACAD_REACTORS
330
47
102
}
330
47
100
AcDbScale
 70
     0
300
1:10
140
1.0
141
10.0
290
     0
  0
SCALE
  5
4E
102
{ACAD_REACTORS
330
47
102
}
330
47
100
AcDbScale
 70
     0
300
1:16
140
1.0
141
16.0
290
     0
  0
SCALE
  5
4F
102
{ACAD_REACTORS
330
47
102
}
330
47
100
AcDbScale
 70
     0
300
1:20
140
1.0
141
20.0
290
     0
  0
SCALE
  5
50
102
{ACAD_REACTORS
330
47
102
}
330
47
100
AcDbScale
 70
     0
300
1:30
140
1.0
141
30.0
290
     0
  0
SCALE
  5
51
102
{ACAD_REACTORS
330
47
102
}
330
47
100
AcDbScale
 70
     0
300
1:40
140
1.0
141
40.0
290
     0
  0
SCALE
  5
52
102
{ACAD_REACTORS
330
47
102
}
330
47
100
AcDbScale
 70
     0
300
1:50
140
1.0
141
50.0
290
     0
  0
SCALE
  5
53
102
{ACAD_REACTORS
330
47
102
}
330
47
100
AcDbScale
 70
     0
300
1:100
140
1.0
141
100.0
290
     0
  0
SCALE
  5
54
102
{ACAD_REACTORS
330
47
102
}
330
47
100
AcDbScale
 70
     0
300
2:1
140
2.0
141
1.0
290
     0
  0
SCALE
  5
55
102
{ACAD_REACTORS
330
47
102
}
330
47
100
AcDbScale
 70
     0
300
4:1
140
4.0
141
1.0
290
     0
  0
SCALE
  5
56
102
{ACAD_REACTORS
330
47
102
}
330
47
100
AcDbScale
 70
     0
300
8:1
140
8.0
141
1.0
290
     0
  0
SCALE
  5
57
102
{ACAD_REACTORS
330
47
102
}
330
47
100
AcDbScale
 70
     0
300
10:1
140
10.0
141
1.0
290
     0
  0
SCALE
  5
58
102
{ACAD_REACTORS
330
47
102
}
330
47
100
AcDbScale
 70
     0
300
100:1
140
100.0
141
1.0
290
     0
  0
SCALE
  5
59
102
{ACAD_REACTORS
330
47
102
}
330
47
100
AcDbScale
 70
     0
300
1/128" = 1'-0"
140
0.007812
141
12.0
290
     0
  0
SCALE
  5
5A
102
{ACAD_REACTORS
330
47
102
}
330
47
100
AcDbScale
 70
     0
300
1/64" = 1'-0"
140
0.015625
141
12.0
290
     0
  0
SCALE
  5
5B
102
{ACAD_REACTORS
330
47
102
}
330
47
100
AcDbScale
 70
     0
300
1/32" = 1'-0"
140
0.03125
141
12.0
290
     0
  0
SCALE
  5
5C
102
{ACAD_REACTORS
330
47
102
}
330
47
100
AcDbScale
 70
     0
300
1/16" = 1'-0"
140
0.0625
141
12.0
290
     0
  0
SCALE
  5
5D
102
{ACAD_REACTORS
330
47
102
}
330
47
100
AcDbScale
 70
     0
300
3/32" = 1'-0"
140
0.09375
141
12.0
290
     0
  0
SCALE
  5
5E
102
{ACAD_REACTORS
330
47
102
}
330
47
100
AcDbScale
 70
     0
300
1/8" = 1'-0"
140
0.125
141
12.0
290
     0
  0
SCALE
  5
5F
102
{ACAD_REACTORS
330
47
102
}
330
47
100
AcDbScale
 70
     0
300
3/16" = 1'-0"
140
0.1875
141
12.0
290
     0
  0
SCALE
  5
60
102
{ACAD_REACTORS
330
47
102
}
330
47
100
AcDbScale
 70
     0
300
1/4" = 1'-0"
140
0.25
141
12.0
290
     0
  0
SCALE
  5
61
102
{ACAD_REACTORS
330
47
102
}
330
47
100
AcDbScale
 70
     0
300
3/8" = 1'-0"
140
0.375
141
12.0
290
     0
  0
SCALE
  5
62
102
{ACAD_REACTORS
330
47
102
}
330
47
100
AcDbScale
 70
     0
300
1/2" = 1'-0"
140
0.5
141
12.0
290
     0
  0
SCALE
  5
63
102
{ACAD_REACTORS
330
47
102
}
330
47
100
AcDbScale
 70
     0
300
3/4" = 1'-0"
140
0.75
141
12.0
290
     0
  0
SCALE
  5
64
102
{ACAD_REACTORS
330
47
102
}
330
47
100
AcDbScale
 70
     0
300
1" = 1'-0"
140
1.0
141
12.0
290
     0
  0
SCALE
  5
65
102
{ACAD_REACTORS
330
47
102
}
330
47
100
AcDbScale
 70
     0
300
1-1/2" = 1'-0"
140
1.5
141
12.0
290
     0
  0
SCALE
  5
66
102
{ACAD_REACTORS
330
47
102
}
330
47
100
AcDbScale
 70
     0
300
3" = 1'-0"
140
3.0
141
12.0
290
     0
  0
SCALE
  5
67
102
{ACAD_REACTORS
330
47
102
}
330
47
100
AcDbScale
 70
     0
300
6" = 1'-0"
140
6.0
141
12.0
290
     0
  0
SCALE
  5
68
102
{ACAD_REACTORS
330
47
102
}
330
47
100
AcDbScale
 70
     0
300
1'-0" = 1'-0"
140
12.0
141
12.0
290
     0
  0
ACDBSECTIONVIEWSTYLE
  5
628
102
{ACAD_XDICTIONARY
360
67C
102
}
102
{ACAD_REACTORS
330
3A4
102
}
330
3A4
100
AcDbModelDocViewStyle
 70
     0
  3
Metric50
290
     0
100
AcDbSectionViewStyle
 70
     0
 71
     0
 90
      102
 71
     1
340
11
 40
5.0
340
0
340
0
 40
5.0
300
I, O, Q, S, X, Z
 40
10.0
 90
        0
 40
2.5
 90
        0
 71
     2
340
16
 90
       25
340
16
 90
       50
 40
5.0
 40
2.5
 40
5.0
 71
     3
340
11
 40
5.0
 90
        0
 40
15.0
 90
        1
300
%<\AcVar ViewSectionStartId>%-%<\AcVar ViewSectionEndId>% (%<\AcVar ViewScale \f "%sn">%)
 71
     4
300
ANSI31
 40
1.0
 90
        0
290
     0
290
     0
 90
        6
 40
0.0
 40
1.570796326794896
 40
0.2617993877991494
 40
1.308996938995747
 40
-0.2617993877991494
 40
1.832595714594046
  0
TABLESTYLE
  5
6A
102
{ACAD_XDICTIONARY
360
39A
102
}
102
{ACAD_REACTORS
330
69
102
}
330
69
100
AcDbTableStyle
  3
Standard
 70
     0
 71
     0
 40
0.06
 41
0.06
280
     0
281
     0
  7
Standard
140
0.18
170
     2
 62
     0
 63
     7
283
     0
274
    -2
284
     1
 64
     0
275
    -2
285
     1
 65
     0
276
    -2
286
     1
 66
     0
277
    -2
287
     1
 67
     0
278
    -2
288
     1
 68
     0
279
    -2
289
     1
 69
     0
  7
Standard
140
0.25
170
     5
 62
     0
 63
     7
283
     0
274
    -2
284
     1
 64
     0
275
    -2
285
     1
 65
     0
276
    -2
286
     1
 66
     0
277
    -2
287
     1
 67
     0
278
    -2
288
     1
 68
     0
279
    -2
289
     1
 69
     0
  7
Standard
140
0.18
170
     5
 62
     0
 63
     7
283
     0
274
    -2
284
     1
 64
     0
275
    -2
285
     1
 65
     0
276
    -2
286
     1
 66
     0
277
    -2
287
     1
 67
     0
278
    -2
288
     1
 68
     0
279
    -2
289
     1
 69
     0
  0
VISUALSTYLE
  5
2F
102
{ACAD_XDICTIONARY
360
653
102
}
102
{ACAD_REACTORS
330
2A
102
}
330
2A
100
AcDbVisualStyle
  2

 70
     4
 71
     0
 72
     2
 73
     0
 90
        0
 40
-0.6
 41
-30.0
 62
     5
 63
     7
 74
     1
 91
        4
 64
     7
 65
   257
 75
     1
175
     1
 42
1.0
 92
        0
 66
   257
 43
1.0
 76
     1
 77
     6
 78
     2
 67
     7
 79
     5
170
     0
171
     0
290
     0
174
     0
 93
        1
 44
0.0
173
     0
291
     0
 45
0.0
1001
ACAD
1000
AcDbSavedByObjectVersion
1070
     0
  0
VISUALSTYLE
  5
32
102
{ACAD_XDICTIONARY
360
659
102
}
102
{ACAD_REACTORS
330
2A
102
}
330
2A
100
AcDbVisualStyle
  2

 70
     7
 71
     1
 72
     0
 73
     1
 90
        0
 40
-0.6
 41
-30.0
 62
     5
 63
     7
 74
     0
 91
        4
 64
     7
 65
   257
 75
     1
175
     1
 42
1.0
 92
        8
 66
     7
 43
1.0
 76
     1
 77
     6
 78
     2
 67
     7
 79
     5
170
     0
171
     0
290
     0
174
     0
 93
        1
 44
0.0
173
     0
291
     1
 45
0.0
1001
ACAD
1000
AcDbSavedByObjectVersion
1070
     0
  0
VISUALSTYLE
  5
36
102
{ACAD_XDICTIONARY
360
661
102
}
102
{ACAD_REACTORS
330
2A
102
}
330
2A
100
AcDbVisualStyle
  2

 70
    12
 71
     2
 72
     2
 73
     0
 90
        0
 40
-0.6
 41
-30.0
 62
     5
 63
     7
 74
     1
 91
        4
 64
     7
 65
   257
 75
     1
175
     1
 42
1.0
 92
        8
 66
     7
 43
1.0
 76
     1
 77
     6
 78
     2
 67
     7
 79
     5
170
     0
171
     0
290
     0
174
     0
 93
        1
 44
50.0
173
     0
291
     1
 45
0.0
1001
ACAD
1000
AcDbSavedByObjectVersion
1070
     0
  0
VISUALSTYLE
  5
3A
102
{ACAD_XDICTIONARY
360
669
102
}
102
{ACAD_REACTORS
330
2A
102
}
330
2A
100
AcDbVisualStyle
  2

 70
    16
 71
     2
 72
     2
 73
     3
 90
        0
 40
-0.6
 41
-30.0
 62
     5
 63
     8
 74
     1
 91
        4
 64
     7
 65
   257
 75
     1
175
     1
 42
1.0
 92
        8
 66
     8
 43
1.0
 76
     1
 77
     6
 78
     2
 67
     7
 79
     5
170
     0
171
     0
290
     0
174
     0
 93
        1
 44
0.0
173
     0
291
     1
 45
0.0
1001
ACAD
1000
AcDbSavedByObjectVersion
1070
     0
  0
VISUALSTYLE
  5
34
102
{ACAD_XDICTIONARY
360
65D
102
}
102
{ACAD_REACTORS
330
2A
102
}
330
2A
100
AcDbVisualStyle
  2

 70
     9
 71
     3
 72
     2
 73
     0
 90
        0
 40
-0.6
 41
-30.0
 62
     5
 63
     7
 74
     2
 91
        2
 64
     7
 65
   257
 75
     1
175
     1
 42
179.0
 92
        8
 66
     7
 43
1.0
 76
     1
 77
     6
 78
     2
 67
     7
 79
     3
170
     0
171
     0
290
     0
174
     0
 93
        1
 44
0.0
173
     0
291
     0
 45
0.0
1001
ACAD
1000
AcDbSavedByObjectVersion
1070
     0
  0
VISUALSTYLE
  5
35
102
{ACAD_XDICTIONARY
360
65F
102
}
102
{ACAD_REACTORS
330
2A
102
}
330
2A
100
AcDbVisualStyle
  2

 70
    11
 71
     2
 72
     2
 73
     0
 90
        0
 40
-0.6
 41
-30.0
 62
     5
 63
     7
 74
     1
 91
        4
 64
     7
 65
   257
 75
     1
175
     1
 42
1.0
 92
        8
 66
     7
 43
1.0
 76
     1
 77
     6
 78
     2
 67
     7
 79
     5
170
     0
171
     0
290
     0
174
     0
 93
        1
 44
-50.0
173
     0
291
     1
 45
0.0
1001
ACAD
1000
AcDbSavedByObjectVersion
1070
     0
  0
VISUALSTYLE
  5
3D
102
{ACAD_XDICTIONARY
360
66F
102
}
102
{ACAD_REACTORS
330
2A
102
}
330
2A
100
AcDbVisualStyle
  2

 70
    22
 71
     2
 72
     2
 73
     0
 90
        0
 40
-0.6
 41
-30.0
 62
     5
 63
     7
 74
     1
 91
        4
 64
     7
 65
   257
 75
     1
175
     1
 42
1.0
 92
        8
 66
     7
 43
1.0
 76
     1
 77
     6
 78
     2
 67
     7
 79
     5
170
     0
171
     0
290
     0
174
     0
 93
        1
 44
0.0
173
     0
291
     1
 45
0.0
1001
ACAD
1000
AcDbSavedByObjectVersion
1070
     0
  0
VISUALSTYLE
  5
39
102
{ACAD_XDICTIONARY
360
667
102
}
102
{ACAD_REACTORS
330
2A
102
}
330
2A
100
AcDbVisualStyle
  2

 70
    15
 71
     2
 72
     2
 73
     0
 90
        0
 40
-0.6
 41
-30.0
 62
     5
 63
     7
 74
     1
 91
        4
 64
     7
 65
   257
 75
     1
175
     1
 42
1.0
 92
        8
 66
     7
 43
1.0
 76
     1
 77
     6
 78
     2
 67
     7
 79
     5
170
     0
171
     0
290
     0
174
     0
 93
        1
 44
0.0
173
     0
291
     1
 45
0.0
1001
ACAD
1000
AcDbSavedByObjectVersion
1070
     0
  0
VISUALSTYLE
  5
2B
102
{ACAD_XDICTIONARY
360
64B
102
}
102
{ACAD_REACTORS
330
2A
102
}
330
2A
100
AcDbVisualStyle
  2

 70
     0
 71
     2
 72
     1
 73
     1
 90
        2
 40
-0.6
 41
30.0
 62
     5
 63
     7
 74
     0
 91
        0
 64
     7
 65
   257
 75
     1
175
     1
 42
1.0
 92
        8
 66
     7
 43
1.0
 76
     1
 77
     6
 78
     2
 67
     7
 79
     5
170
     0
171
     0
290
     0
174
     0
 93
       13
 44
0.0
173
     0
291
     1
 45
0.0
1001
ACAD
1000
AcDbSavedByObjectVersion
1070
     0
  0
VISUALSTYLE
  5
2C
102
{ACAD_XDICTIONARY
360
64D
102
}
102
{ACAD_REACTORS
330
2A
102
}
330
2A
100
AcDbVisualStyle
  2

 70
     1
 71
     2
 72
     1
 73
     1
 90
        2
 40
-0.6
 41
30.0
 62
     5
 63
     7
 74
     1
 91
        0
 64
     7
 65
   257
 75
     1
175
     1
 42
1.0
 92
        0
 66
   257
 43
1.0
 76
     1
 77
     6
 78
     2
 67
     7
 79
     5
170
     0
171
     0
290
     0
174
     0
 93
       13
 44
0.0
173
     0
291
     1
 45
0.0
1001
ACAD
1000
AcDbSavedByObjectVersion
1070
     0
  0
VISUALSTYLE
  5
2D
102
{ACAD_XDICTIONARY
360
64F
102
}
102
{ACAD_REACTORS
330
2A
102
}
330
2A
100
AcDbVisualStyle
  2

 70
     2
 71
     2
 72
     2
 73
     1
 90
        2
 40
-0.6
 41
30.0
 62
     5
 63
     7
 74
     0
 91
        0
 64
     7
 65
   257
 75
     1
175
     1
 42
1.0
 92
        0
 66
     7
 43
1.0
 76
     1
 77
     6
 78
     2
 67
     7
 79
     5
170
     0
171
     0
290
     0
174
     0
 93
       13
 44
0.0
173
     0
291
     1
 45
0.0
1001
ACAD
1000
AcDbSavedByObjectVersion
1070
     0
  0
VISUALSTYLE
  5
2E
102
{ACAD_XDICTIONARY
360
651
102
}
102
{ACAD_REACTORS
330
2A
102
}
330
2A
100
AcDbVisualStyle
  2

 70
     3
 71
     2
 72
     2
 73
     1
 90
        2
 40
-0.6
 41
30.0
 62
     5
 63
     7
 74
     1
 91
        0
 64
     7
 65
   257
 75
     1
175
     1
 42
1.0
 92
        0
 66
   257
 43
1.0
 76
     1
 77
     6
 78
     2
 67
     7
 79
     5
170
     0
171
     0
290
     0
174
     0
 93
       13
 44
0.0
173
     0
291
     1
 45
0.0
1001
ACAD
1000
AcDbSavedByObjectVersion
1070
     0
  0
VISUALSTYLE
  5
31
102
{ACAD_XDICTIONARY
360
657
102
}
102
{ACAD_REACTORS
330
2A
102
}
330
2A
100
AcDbVisualStyle
  2

 70
     6
 71
     1
 72
     2
 73
     2
 90
        0
 40
-0.6
 41
-30.0
 62
     5
 63
     7
 74
     2
 91
        2
 64
     7
 65
   257
 75
     2
175
     1
 42
40.0
 92
        0
 66
   257
 43
1.0
 76
     1
 77
     6
 78
     2
 67
     7
 79
     3
170
     0
171
     0
290
     0
174
     0
 93
        1
 44
0.0
173
     0
291
     0
 45
0.0
1001
ACAD
1000
AcDbSavedByObjectVersion
1070
     0
  0
VISUALSTYLE
  5
3B
102
{ACAD_XDICTIONARY
360
66B
102
}
102
{ACAD_REACTORS
330
2A
102
}
330
2A
100
AcDbVisualStyle
  2

 70
    20
 71
     2
 72
     2
 73
     0
 90
        0
 40
-0.6
 41
-30.0
 62
     5
 63
     7
 74
     1
 91
        4
 64
     7
 65
   257
 75
     1
175
     1
 42
1.0
 92
       10
 66
     7
 43
1.0
 76
     1
 77
     6
 78
     2
 67
     7
 79
     5
170
     0
171
     0
290
     0
174
     0
 93
        1
 44
0.0
173
     0
291
     1
 45
0.0
1001
ACAD
1000
AcDbSavedByObjectVersion
1070
     0
  0
VISUALSTYLE
  5
38
102
{ACAD_XDICTIONARY
360
665
102
}
102
{ACAD_REACTORS
330
2A
102
}
330
2A
100
AcDbVisualStyle
  2

 70
    14
 71
     2
 72
     2
 73
     0
 90
        0
 40
-0.6
 41
-30.0
 62
     5
 63
     7
 74
     1
 91
        4
 64
     7
 65
   257
 75
     7
175
     7
 42
1.0
 92
        8
 66
     7
 43
1.0
 76
     1
 77
     6
 78
     2
 67
     7
 79
     5
170
     0
171
     0
290
     0
174
     0
 93
        1
 44
0.0
173
     0
291
     1
 45
0.0
1001
ACAD
1000
AcDbSavedByObjectVersion
1070
     0
  0
VISUALSTYLE
  5
3C
102
{ACAD_XDICTIONARY
360
66D
102
}
102
{ACAD_REACTORS
330
2A
102
}
330
2A
100
AcDbVisualStyle
  2

 70
    21
 71
     2
 72
     2
 73
     0
 90
        0
 40
-0.6
 41
-30.0
 62
     5
 63
     7
 74
     1
 91
        4
 64
     7
 65
   257
 75
     1
175
     1
 42
1.0
 92
        9
 66
     7
 43
1.0
 76
     1
 77
     6
 78
     2
 67
     7
 79
     5
170
     0
171
     0
290
     0
174
     0
 93
        1
 44
0.0
173
     0
291
     1
 45
0.0
1001
ACAD
1000
AcDbSavedByObjectVersion
1070
     0
  0
VISUALSTYLE
  5
33
102
{ACAD_XDICTIONARY
360
65B
102
}
102
{ACAD_REACTORS
330
2A
102
}
330
2A
100
AcDbVisualStyle
  2

 70
     8
 71
     2
 72
     3
 73
     0
 90
        2
 40
-0.6
 41
30.0
 62
     5
 63
     7
 74
     0
 91
        0
 64
     7
 65
   257
 75
     1
175
     1
 42
1.0
 92
        8
 66
   257
 43
1.0
 76
     1
 77
     6
 78
     2
 67
     7
 79
     3
170
     0
171
     0
290
     0
174
     0
 93
       13
 44
0.0
173
     0
291
     0
 45
0.0
1001
ACAD
1000
AcDbSavedByObjectVersion
1070
     0
  0
VISUALSTYLE
  5
42
102
{ACAD_XDICTIONARY
360
679
102
}
102
{ACAD_REACTORS
330
2A
102
}
330
2A
100
AcDbVisualStyle
  2

 70
    27
 71
     2
 72
     2
 73
     1
 90
        2
 40
-0.6
 41
30.0
 62
     5
 63
     7
 74
     0
 91
        4
 64
     7
 65
   257
 75
     1
175
     1
 42
1.0
 92
        8
 66
   257
 43
1.0
 76
     1
 77
     6
 78
     2
 67
     8
 79
     3
170
     0
171
     0
290
     0
174
     0
 93
        5
 44
0.0
173
     0
291
     0
 45
0.0
1001
ACAD
1000
AcDbSavedByObjectVersion
1070
     0
  0
VISUALSTYLE
  5
41
102
{ACAD_XDICTIONARY
360
677
102
}
102
{ACAD_REACTORS
330
2A
102
}
330
2A
100
AcDbVisualStyle
  2

 70
    26
 71
     2
 72
     2
 73
     1
 90
        2
 40
-0.6
 41
30.0
 62
     5
 63
     7
 74
     1
 91
       10
 64
     7
 65
   257
 75
     2
175
     1
 42
1.0
 92
        8
 66
   257
 43
1.0
 76
     1
 77
     6
 78
     2
 67
     7
 79
     3
170
     0
171
     0
290
     0
174
     0
 93
        5
 44
0.0
173
     0
291
     0
 45
0.0
1001
ACAD
1000
AcDbSavedByObjectVersion
1070
     0
  0
VISUALSTYLE
  5
3E
102
{ACAD_XDICTIONARY
360
671
102
}
102
{ACAD_REACTORS
330
2A
102
}
330
2A
100
AcDbVisualStyle
  2

 70
    23
 71
     2
 72
     2
 73
     3
 90
        0
 40
-0.6
 41
-30.0
 62
     5
 63
     7
 74
     2
 91
        2
 64
     7
 65
     7
 75
     1
175
     1
 42
40.0
 92
        8
 66
     7
 43
1.0
 76
     1
 77
     6
 78
     2
 67
     7
 79
     3
170
     0
171
     0
290
     0
174
     0
 93
        1
 44
0.0
173
     0
291
     0
 45
0.0
1001
ACAD
1000
AcDbSavedByObjectVersion
1070
     0
  0
VISUALSTYLE
  5
3F
102
{ACAD_XDICTIONARY
360
673
102
}
102
{ACAD_REACTORS
330
2A
102
}
330
2A
100
AcDbVisualStyle
  2

 70
    24
 71
     1
 72
     2
 73
     2
 90
        0
 40
-0.6
 41
-30.0
 62
     5
 63
     7
 74
     2
 91
        2
 64
     7
 65
     7
 75
     1
175
     1
 42
40.0
 92
       11
 66
     7
 43
1.0
 76
     1
 77
     6
 78
     2
 67
     7
 79
     6
170
     0
171
     0
290
     0
174
     0
 93
        1
 44
0.0
173
     0
291
     0
 45
0.0
1001
ACAD
1000
AcDbSavedByObjectVersion
1070
     0
  0
VISUALSTYLE
  5
37
102
{ACAD_XDICTIONARY
360
663
102
}
102
{ACAD_REACTORS
330
2A
102
}
330
2A
100
AcDbVisualStyle
  2

 70
    13
 71
     2
 72
     2
 73
     0
 90
        0
 40
-0.6
 41
-30.0
 62
     5
 63
     7
 74
     1
 91
        4
 64
     7
 65
   257
 75
     1
175
     1
 42
1.0
 92
       12
 66
     7
 43
1.0
 76
     1
 77
     6
 78
     2
 67
     7
 79
     5
170
     0
171
     0
290
     0
174
     0
 93
        1
 44
0.0
173
     0
291
     1
 45
0.0
1001
ACAD
1000
AcDbSavedByObjectVersion
1070
     0
  0
VISUALSTYLE
  5
30
102
{ACAD_XDICTIONARY
360
655
102
}
102
{ACAD_REACTORS
330
2A
102
}
330
2A
100
AcDbVisualStyle
  2

 70
     5
 71
     0
 72
     2
 73
     0
 90
        0
 40
-0.6
 41
-30.0
 62
     5
 63
     7
 74
     1
 91
        4
 64
     7
 65
   257
 75
     1
175
     1
 42
1.0
 92
        0
 66
   257
 43
1.0
 76
     1
 77
     6
 78
     2
 67
     7
 79
     3
170
     0
171
     0
290
     0
174
     0
 93
        1
 44
0.0
173
     0
291
     0
 45
0.0
1001
ACAD
1000
AcDbSavedByObjectVersion
1070
     0
  0
VISUALSTYLE
  5
40
102
{ACAD_XDICTIONARY
360
675
102
}
102
{ACAD_REACTORS
330
2A
102
}
330
2A
100
AcDbVisualStyle
  2

 70
    25
 71
     2
 72
     2
 73
     1
 90
        1
 40
0.5
 41
-30.0
 62
     5
 63
     7
 74
     1
 91
        0
 64
     7
 65
   257
 75
     1
175
     1
 42
1.0
 92
        8
 66
     7
 43
1.0
 76
     1
 77
     6
 78
     2
 67
     7
 79
     3
170
     0
171
     0
290
     0
174
     0
 93
       13
 44
0.0
173
     0
291
     0
 45
0.0
1001
ACAD
1000
AcDbSavedByObjectVersion
1070
     0
  0
DICTIONARYVAR
  5
361
102
{ACAD_REACTORS
330
360
102
}
330
360
100
DictionaryVariables
280
     0
  1
1:1
  0
DICTIONARYVAR
  5
3A2
102
{ACAD_REACTORS
330
360
102
}
330
360
100
DictionaryVariables
280
     0
  1
STANDARD
  0
DICTIONARYVAR
  5
3A1
102
{ACAD_REACTORS
330
360
102
}
330
360
100
DictionaryVariables
280
     0
  1
STANDARD
  0
DICTIONARYVAR
  5
63A
102
{ACAD_REACTORS
330
360
102
}
330
360
100
DictionaryVariables
280
     0
  1
Metric50
  0
DICTIONARYVAR
  5
63B
102
{ACAD_REACTORS
330
360
102
}
330
360
100
DictionaryVariables
280
     0
  1
Metric50
  0
DICTIONARYVAR
  5
63F
102
{ACAD_REACTORS
330
360
102
}
330
360
100
DictionaryVariables
280
     0
  1
2
  0
DICTIONARYVAR
  5
63E
102
{ACAD_REACTORS
330
360
102
}
330
360
100
DictionaryVariables
280
     0
  1
1
  0
DICTIONARYVAR
  5
63D
102
{ACAD_REACTORS
330
360
102
}
330
360
100
DictionaryVariables
280
     0
  1
0
  0
DICTIONARYVAR
  5
362
102
{ACAD_REACTORS
330
360
102
}
330
360
100
DictionaryVariables
280
     0
  1
1
  0
DICTIONARYVAR
  5
63C
102
{ACAD_REACTORS
330
360
102
}
330
360
100
DictionaryVariables
280
     0
  1
127
  0
DICTIONARYVAR
  5
640
102
{ACAD_REACTORS
330
360
102
}
330
360
100
DictionaryVariables
280
     0
  1
2
  0
DICTIONARY
  5
67E
330
629
100
AcDbDictionary
280
     1
281
     1
  3
ACAD_XREC_ROUNDTRIP
360
67F
  0
DICTIONARY
  5
645
330
1E
100
AcDbDictionary
280
     1
281
     1
  3
ACAD_XREC_ROUNDTRIP
360
646
  0
DICTIONARY
  5
649
330
26
100
AcDbDictionary
280
     1
281
     1
  3
ACAD_XREC_ROUNDTRIP
360
64A
  0
DICTIONARY
  5
647
330
22
100
AcDbDictionary
280
     1
281
     1
  3
ACAD_XREC_ROUNDTRIP
360
648
  0
DICTIONARY
  5
396
330
45
100
AcDbDictionary
280
     1
281
     1
  3
ACAD_XREC_ROUNDTRIP
360
397
  0
DICTIONARY
  5
394
330
44
100
AcDbDictionary
280
     1
281
     1
  3
ACAD_XREC_ROUNDTRIP
360
395
  0
DICTIONARY
  5
398
330
46
100
AcDbDictionary
280
     1
281
     1
  3
ACAD_XREC_ROUNDTRIP
360
399
  0
DICTIONARY
  5
67C
330
628
100
AcDbDictionary
280
     1
281
     1
  3
ACAD_XREC_ROUNDTRIP
360
67D
  0
DICTIONARY
  5
39A
330
6A
100
AcDbDictionary
280
     1
281
     1
  3
ACAD_ROUNDTRIP_2008_TABLESTYLE_CELLSTYLEMAP
360
642
  3
ACAD_XREC_ROUNDTRIP
360
67B
  0
DICTIONARY
  5
653
330
2F
100
AcDbDictionary
280
     1
281
     1
  3
ACAD_XREC_ROUNDTRIP
360
654
  0
DICTIONARY
  5
659
330
32
100
AcDbDictionary
280
     1
281
     1
  3
ACAD_XREC_ROUNDTRIP
360
65A
  0
DICTIONARY
  5
661
330
36
100
AcDbDictionary
280
     1
281
     1
  3
ACAD_XREC_ROUNDTRIP
360
662
  0
DICTIONARY
  5
669
330
3A
100
AcDbDictionary
280
     1
281
     1
  3
ACAD_XREC_ROUNDTRIP
360
66A
  0
DICTIONARY
  5
65D
330
34
100
AcDbDictionary
280
     1
281
     1
  3
ACAD_XREC_ROUNDTRIP
360
65E
  0
DICTIONARY
  5
65F
330
35
100
AcDbDictionary
280
     1
281
     1
  3
ACAD_XREC_ROUNDTRIP
360
660
  0
DICTIONARY
  5
66F
330
3D
100
AcDbDictionary
280
     1
281
     1
  3
ACAD_XREC_ROUNDTRIP
360
670
  0
DICTIONARY
  5
667
330
39
100
AcDbDictionary
280
     1
281
     1
  3
ACAD_XREC_ROUNDTRIP
360
668
  0
DICTIONARY
  5
64B
330
2B
100
AcDbDictionary
280
     1
281
     1
  3
ACAD_XREC_ROUNDTRIP
360
64C
  0
DICTIONARY
  5
64D
330
2C
100
AcDbDictionary
280
     1
281
     1
  3
ACAD_XREC_ROUNDTRIP
360
64E
  0
DICTIONARY
  5
64F
330
2D
100
AcDbDictionary
280
     1
281
     1
  3
ACAD_XREC_ROUNDTRIP
360
650
  0
DICTIONARY
  5
651
330
2E
100
AcDbDictionary
280
     1
281
     1
  3
ACAD_XREC_ROUNDTRIP
360
652
  0
DICTIONARY
  5
657
330
31
100
AcDbDictionary
280
     1
281
     1
  3
ACAD_XREC_ROUNDTRIP
360
658
  0
DICTIONARY
  5
66B
330
3B
100
AcDbDictionary
280
     1
281
     1
  3
ACAD_XREC_ROUNDTRIP
360
66C
  0
DICTIONARY
  5
665
330
38
100
AcDbDictionary
280
     1
281
     1
  3
ACAD_XREC_ROUNDTRIP
360
666
  0
DICTIONARY
  5
66D
330
3C
100
AcDbDictionary
280
     1
281
     1
  3
ACAD_XREC_ROUNDTRIP
360
66E
  0
DICTIONARY
  5
65B
330
33
100
AcDbDictionary
280
     1
281
     1
  3
ACAD_XREC_ROUNDTRIP
360
65C
  0
DICTIONARY
  5
679
330
42
100
AcDbDictionary
280
     1
281
     1
  3
ACAD_XREC_ROUNDTRIP
360
67A
  0
DICTIONARY
  5
677
330
41
100
AcDbDictionary
280
     1
281
     1
  3
ACAD_XREC_ROUNDTRIP
360
678
  0
DICTIONARY
  5
671
330
3E
100
AcDbDictionary
280
     1
281
     1
  3
ACAD_XREC_ROUNDTRIP
360
672
  0
DICTIONARY
  5
673
330
3F
100
AcDbDictionary
280
     1
281
     1
  3
ACAD_XREC_ROUNDTRIP
360
674
  0
DICTIONARY
  5
663
330
37
100
AcDbDictionary
280
     1
281
     1
  3
ACAD_XREC_ROUNDTRIP
360
664
  0
DICTIONARY
  5
655
330
30
100
AcDbDictionary
280
     1
281
     1
  3
ACAD_XREC_ROUNDTRIP
360
656
  0
DICTIONARY
  5
675
330
40
100
AcDbDictionary
280
     1
281
     1
  3
ACAD_XREC_ROUNDTRIP
360
676
  0
XRECORD
  5
67F
102
{ACAD_REACTORS
330
67E
102
}
330
67E
100
AcDbXrecord
280
     1
102
DISPLAYNAME
  1
Metric50
102
FLAGS
 90
        0
  0
XRECORD
  5
646
102
{ACAD_REACTORS
330
645
102
}
330
645
100
AcDbXrecord
280
     1
102
SHADEPLOT
 70
     0
102
SHADEPLOTRESLEVEL
 70
     2
102
SHADEPLOTCUSTOMDPI
 70
   300
  0
XRECORD
  5
64A
102
{ACAD_REACTORS
330
649
102
}
330
649
100
AcDbXrecord
280
     1
102
SHADEPLOT
 70
     0
102
SHADEPLOTRESLEVEL
 70
     2
102
SHADEPLOTCUSTOMDPI
 70
   300
  0
XRECORD
  5
648
102
{ACAD_REACTORS
330
647
102
}
330
647
100
AcDbXrecord
280
     1
102
SHADEPLOT
 70
     0
102
SHADEPLOTRESLEVEL
 70
     2
102
SHADEPLOTCUSTOMDPI
 70
   300
  0
XRECORD
  5
397
102
{ACAD_REACTORS
330
396
102
}
330
396
100
AcDbXrecord
280
     1
102
MATERIAL
148
0.0
149
0.0
149
0.0
 93
        0
 94
      127
282
     0
 72
     1
 77
     1
171
     1
175
     1
179
     1
273
     0
  0
XRECORD
  5
395
102
{ACAD_REACTORS
330
394
102
}
330
394
100
AcDbXrecord
280
     1
102
MATERIAL
148
0.0
149
0.0
149
0.0
 93
        0
 94
      127
282
     0
 72
     1
 77
     1
171
     1
175
     1
179
     1
273
     0
  0
XRECORD
  5
399
102
{ACAD_REACTORS
330
398
102
}
330
398
100
AcDbXrecord
280
     1
102
MATERIAL
148
0.0
149
0.0
149
0.0
 93
        0
 94
      127
282
     0
 72
     1
 77
     1
171
     1
175
     1
179
     1
273
     0
  0
XRECORD
  5
67D
102
{ACAD_REACTORS
330
67C
102
}
330
67C
100
AcDbXrecord
280
     1
102
DISPLAYNAME
  1
Metric50
102
FLAGS
 90
        0
  0
CELLSTYLEMAP
  5
642
102
{ACAD_REACTORS
330
39A
102
}
330
39A
100
AcDbCellStyleMap
 90
        3
300
CELLSTYLE
  1
TABLEFORMAT_BEGIN
 90
        5
170
     1
 91
        0
 92
    32768
 62
   257
 93
        1
300
CONTENTFORMAT
  1
CONTENTFORMAT_BEGIN
 90
        0
 91
        0
 92
        4
 93
        0
300

 40
0.0
140
1.0
 94
        5
 62
     0
340
11
144
0.25
309
CONTENTFORMAT_END
171
     1
301
MARGIN
  1
CELLMARGIN_BEGIN
 40
0.06
 40
0.06
 40
0.06
 40
0.06
 40
0.18
 40
0.18
309
CELLMARGIN_END
 94
        6
 95
        1
302
GRIDFORMAT
  1
GRIDFORMAT_BEGIN
 90
        0
 91
        1
 62
     0
 92
       -2
340
14
 93
        0
 40
0.045
309
GRIDFORMAT_END
 95
        2
302
GRIDFORMAT
  1
GRIDFORMAT_BEGIN
 90
        0
 91
        1
 62
     0
 92
       -2
340
14
 93
        0
 40
0.045
309
GRIDFORMAT_END
 95
        4
302
GRIDFORMAT
  1
GRIDFORMAT_BEGIN
 90
        0
 91
        1
 62
     0
 92
       -2
340
14
 93
        0
 40
0.045
309
GRIDFORMAT_END
 95
        8
302
GRIDFORMAT
  1
GRIDFORMAT_BEGIN
 90
        0
 91
        1
 62
     0
 92
       -2
340
14
 93
        0
 40
0.045
309
GRIDFORMAT_END
 95
       16
302
GRIDFORMAT
  1
GRIDFORMAT_BEGIN
 90
        0
 91
        1
 62
     0
 92
       -2
340
14
 93
        0
 40
0.045
309
GRIDFORMAT_END
 95
       32
302
GRIDFORMAT
  1
GRIDFORMAT_BEGIN
 90
        0
 91
        1
 62
     0
 92
       -2
340
14
 93
        0
 40
0.045
309
GRIDFORMAT_END
309
TABLEFORMAT_END
  1
CELLSTYLE_BEGIN
 90
        1
 91
        1
300
_TITLE
309
CELLSTYLE_END
300
CELLSTYLE
  1
TABLEFORMAT_BEGIN
 90
        5
170
     1
 91
        0
 92
        0
 62
   257
 93
        1
300
CONTENTFORMAT
  1
CONTENTFORMAT_BEGIN
 90
        0
 91
        0
 92
        4
 93
        0
300

 40
0.0
140
1.0
 94
        5
 62
     0
340
11
144
0.18
309
CONTENTFORMAT_END
171
     1
301
MARGIN
  1
CELLMARGIN_BEGIN
 40
0.06
 40
0.06
 40
0.06
 40
0.06
 40
0.18
 40
0.18
309
CELLMARGIN_END
 94
        6
 95
        1
302
GRIDFORMAT
  1
GRIDFORMAT_BEGIN
 90
        0
 91
        1
 62
     0
 92
       -2
340
14
 93
        0
 40
0.045
309
GRIDFORMAT_END
 95
        2
302
GRIDFORMAT
  1
GRIDFORMAT_BEGIN
 90
        0
 91
        1
 62
     0
 92
       -2
340
14
 93
        0
 40
0.045
309
GRIDFORMAT_END
 95
        4
302
GRIDFORMAT
  1
GRIDFORMAT_BEGIN
 90
        0
 91
        1
 62
     0
 92
       -2
340
14
 93
        0
 40
0.045
309
GRIDFORMAT_END
 95
        8
302
GRIDFORMAT
  1
GRIDFORMAT_BEGIN
 90
        0
 91
        1
 62
     0
 92
       -2
340
14
 93
        0
 40
0.045
309
GRIDFORMAT_END
 95
       16
302
GRIDFORMAT
  1
GRIDFORMAT_BEGIN
 90
        0
 91
        1
 62
     0
 92
       -2
340
14
 93
        0
 40
0.045
309
GRIDFORMAT_END
 95
       32
302
GRIDFORMAT
  1
GRIDFORMAT_BEGIN
 90
        0
 91
        1
 62
     0
 92
       -2
340
14
 93
        0
 40
0.045
309
GRIDFORMAT_END
309
TABLEFORMAT_END
  1
CELLSTYLE_BEGIN
 90
        2
 91
        1
300
_HEADER
309
CELLSTYLE_END
300
CELLSTYLE
  1
TABLEFORMAT_BEGIN
 90
        5
170
     1
 91
        0
 92
        0
 62
   257
 93
        1
300
CONTENTFORMAT
  1
CONTENTFORMAT_BEGIN
 90
        0
 91
        0
 92
        4
 93
        0
300

 40
0.0
140
1.0
 94
        2
 62
     0
340
11
144
0.18
309
CONTENTFORMAT_END
171
     1
301
MARGIN
  1
CELLMARGIN_BEGIN
 40
0.06
 40
0.06
 40
0.06
 40
0.06
 40
0.18
 40
0.18
309
CELLMARGIN_END
 94
        6
 95
        1
302
GRIDFORMAT
  1
GRIDFORMAT_BEGIN
 90
        0
 91
        1
 62
     0
 92
       -2
340
14
 93
        0
 40
0.045
309
GRIDFORMAT_END
 95
        2
302
GRIDFORMAT
  1
GRIDFORMAT_BEGIN
 90
        0
 91
        1
 62
     0
 92
       -2
340
14
 93
        0
 40
0.045
309
GRIDFORMAT_END
 95
        4
302
GRIDFORMAT
  1
GRIDFORMAT_BEGIN
 90
        0
 91
        1
 62
     0
 92
       -2
340
14
 93
        0
 40
0.045
309
GRIDFORMAT_END
 95
        8
302
GRIDFORMAT
  1
GRIDFORMAT_BEGIN
 90
        0
 91
        1
 62
     0
 92
       -2
340
14
 93
        0
 40
0.045
309
GRIDFORMAT_END
 95
       16
302
GRIDFORMAT
  1
GRIDFORMAT_BEGIN
 90
        0
 91
        1
 62
     0
 92
       -2
340
14
 93
        0
 40
0.045
309
GRIDFORMAT_END
 95
       32
302
GRIDFORMAT
  1
GRIDFORMAT_BEGIN
 90
        0
 91
        1
 62
     0
 92
       -2
340
14
 93
        0
 40
0.045
309
GRIDFORMAT_END
309
TABLEFORMAT_END
  1
CELLSTYLE_BEGIN
 90
        3
 91
        2
300
_DATA
309
CELLSTYLE_END
  0
XRECORD
  5
67B
102
{ACAD_REACTORS
330
39A
102
}
330
39A
100
AcDbXrecord
280
     1
102
ACAD_ROUNDTRIP_PRE2007_TABLESTYLE
 90
        4
 91
        0
  1

 92
        4
 93
        0
  2

 94
        4
 95
        0
  3

  0
XRECORD
  5
654
102
{ACAD_REACTORS
330
653
102
}
330
653
100
AcDbXrecord
280
     1
102
RTVSPost2010Prop28
280
     1
102
RTVSPost2010PropOp28
 70
     1
102
RTVSPost2010Prop29
280
     1
102
RTVSPost2010PropOp29
 70
     1
102
RTVSPost2010Prop30
280
     0
102
RTVSPost2010PropOp30
 70
     1
102
RTVSPost2010Prop31
280
     0
102
RTVSPost2010PropOp31
 70
     1
102
RTVSPost2010Prop32
280
     0
102
RTVSPost2010PropOp32
 70
     1
102
RTVSPost2010Prop33
280
     0
102
RTVSPost2010PropOp33
 70
     1
102
RTVSPost2010Prop34
280
     0
102
RTVSPost2010PropOp34
 70
     1
102
RTVSPost2010Prop35
280
     0
102
RTVSPost2010PropOp35
 70
     1
102
RTVSPost2010Prop36
280
     0
102
RTVSPost2010PropOp36
 70
     1
102
RTVSPost2010Prop37
 90
       50
102
RTVSPost2010PropOp37
 70
     1
102
RTVSPost2010Prop38
140
0.0
102
RTVSPost2010PropOp38
 70
     1
102
RTVSPost2010Prop39
140
1.0
102
RTVSPost2010PropOp39
 70
     1
102
RTVSPost2010Prop40
 90
        0
102
RTVSPost2010PropOp40
 70
     1
102
RTVSPost2010Prop41ColorIndex
 90
       18
102
RTVSPost2010Prop41ColorRGB
 90
        0
102
RTVSPost2010PropOp41
 70
     1
102
RTVSPost2010Prop42
 90
       50
102
RTVSPost2010PropOp42
 70
     1
102
RTVSPost2010Prop43
 90
        3
102
RTVSPost2010PropOp43
 70
     1
102
RTVSPost2010Prop44ColorIndex
 90
        5
102
RTVSPost2010Prop44ColorRGB
 90
      255
102
RTVSPost2010PropOp44
 70
     1
102
RTVSPost2010Prop45
280
     0
102
RTVSPost2010PropOp45
 70
     1
102
RTVSPost2010Prop46
 90
       50
102
RTVSPost2010PropOp46
 70
     1
102
RTVSPost2010Prop47
 90
       50
102
RTVSPost2010PropOp47
 70
     1
102
RTVSPost2010Prop48
 90
       50
102
RTVSPost2010PropOp48
 70
     1
102
RTVSPost2010Prop49
280
     0
102
RTVSPost2010PropOp49
 70
     1
102
RTVSPost2010Prop50
 90
       50
102
RTVSPost2010PropOp50
 70
     1
102
RTVSPost2010Prop51ColorIndex
 90
      256
102
RTVSPost2010Prop51ColorRGB
 90
-16777216
102
RTVSPost2010PropOp51
 70
     0
102
RTVSPost2010Prop52
140
1.0
102
RTVSPost2010PropOp52
 70
     0
102
RTVSPost2010Prop53
 90
        2
102
RTVSPost2010PropOp53
 70
     1
102
RTVSPost2010Prop54
  1
strokes_ogs.tif
102
RTVSPost2010PropOp54
 70
     1
102
RTVSPost2010Prop55
280
     0
102
RTVSPost2010PropOp55
 70
     1
102
RTVSPost2010Prop56
140
1.0
102
RTVSPost2010PropOp56
 70
     1
102
RTVSPost2010Prop57
140
1.0
102
RTVSPost2010PropOp57
 70
     1
102
RTVSPropertyOp0
 70
     1
102
RTVSPropertyOp1
 70
     1
102
RTVSPropertyOp2
 70
     1
102
RTVSPropertyOp3
 70
     1
102
RTVSPropertyOp4
 70
     1
102
RTVSPropertyOp5
 70
     1
102
RTVSPropertyOp6
 70
     1
102
RTVSPropertyOp7
 70
     1
102
RTVSPropertyOp8
 70
     1
102
RTVSPropertyOp9
 70
     1
102
RTVSPropertyOp10
 70
     1
102
RTVSPropertyOp11
 70
     1
102
RTVSPropertyOp12
 70
     1
102
RTVSPropertyOp13
 70
     1
102
RTVSPropertyOp14
 70
     1
102
RTVSPropertyOp15
 70
     1
102
RTVSPropertyOp16
 70
     1
102
RTVSPropertyOp17
 70
     1
102
RTVSPropertyOp18
 70
     1
102
RTVSPropertyOp19
 70
     1
102
RTVSPropertyOp20
 70
     1
102
RTVSPropertyOp21
 70
     1
102
RTVSPropertyOp22
 70
     1
102
RTVSPropertyOp23
 70
     1
102
RTVSPropertyOp24
 70
     1
102
RTVSPropertyOp25
 70
     1
102
RTVSPropertyOp26
 70
     1
102
RTVSPropertyOp27
 70
     1
102
RTVSPropertyOp28
 70
     1
102
RTVSPropertyOp29
 70
     1
102
RTVSPropertyOp30
 70
     1
102
RTVSPropertyOp31
 70
     1
102
RTVSPropertyOp32
 70
     1
102
RTVSPropertyOp33
 70
     1
102
RTVSPropertyOp34
 70
     1
102
RTVSPropertyOp35
 70
     1
102
RTVSPropertyOp36
 70
     1
102
RTVSPropertyOp37
 70
     1
102
RTVSPropertyOp38
 70
     1
102
RTVSPropertyOp39
 70
     1
102
RTVSPropertyOp40
 70
     1
102
RTVSPropertyOp41
 70
     1
102
RTVSPropertyOp42
 70
     1
102
RTVSPropertyOp43
 70
     1
102
RTVSPropertyOp44
 70
     1
102
RTVSPropertyOp45
 70
     1
102
RTVSPropertyOp46
 70
     1
102
RTVSPropertyOp47
 70
     1
102
RTVSPropertyOp48
 70
     1
102
RTVSPropertyOp49
 70
     1
102
RTVSPropertyOp50
 70
     1
102
RTVSPropertyOp51
 70
     0
102
RTVSPropertyOp52
 70
     0
102
RTVSPropertyOp53
 70
     1
102
RTVSPropertyOp54
 70
     1
102
RTVSPropertyOp55
 70
     1
102
RTVSPropertyOp56
 70
     1
102
RTVSPropertyOp57
 70
     1
102
RTVSPropertyOp58
 70
     1
102
RTVSPropertyOp59
 70
     1
102
RTVSPropertyOp60
 70
     1
102
RTVSPropertyOp61
 70
     1
102
RTVSPropertyOp62
 70
     1
  0
XRECORD
  5
65A
102
{ACAD_REACTORS
330
659
102
}
330
659
100
AcDbXrecord
280
     1
102
RTVSPost2010Prop28
280
     0
102
RTVSPost2010PropOp28
 70
     1
102
RTVSPost2010Prop29
280
     1
102
RTVSPost2010PropOp29
 70
     1
102
RTVSPost2010Prop30
280
     1
102
RTVSPost2010PropOp30
 70
     1
102
RTVSPost2010Prop31
280
     0
102
RTVSPost2010PropOp31
 70
     1
102
RTVSPost2010Prop32
280
     0
102
RTVSPost2010PropOp32
 70
     1
102
RTVSPost2010Prop33
280
     0
102
RTVSPost2010PropOp33
 70
     1
102
RTVSPost2010Prop34
280
     0
102
RTVSPost2010PropOp34
 70
     1
102
RTVSPost2010Prop35
280
     0
102
RTVSPost2010PropOp35
 70
     1
102
RTVSPost2010Prop36
280
     0
102
RTVSPost2010PropOp36
 70
     1
102
RTVSPost2010Prop37
 90
       50
102
RTVSPost2010PropOp37
 70
     1
102
RTVSPost2010Prop38
140
0.0
102
RTVSPost2010PropOp38
 70
     1
102
RTVSPost2010Prop39
140
1.0
102
RTVSPost2010PropOp39
 70
     1
102
RTVSPost2010Prop40
 90
        0
102
RTVSPost2010PropOp40
 70
     1
102
RTVSPost2010Prop41ColorIndex
 90
       18
102
RTVSPost2010Prop41ColorRGB
 90
        0
102
RTVSPost2010PropOp41
 70
     1
102
RTVSPost2010Prop42
 90
       50
102
RTVSPost2010PropOp42
 70
     1
102
RTVSPost2010Prop43
 90
        3
102
RTVSPost2010PropOp43
 70
     1
102
RTVSPost2010Prop44ColorIndex
 90
        5
102
RTVSPost2010Prop44ColorRGB
 90
      255
102
RTVSPost2010PropOp44
 70
     1
102
RTVSPost2010Prop45
280
     0
102
RTVSPost2010PropOp45
 70
     1
102
RTVSPost2010Prop46
 90
       50
102
RTVSPost2010PropOp46
 70
     1
102
RTVSPost2010Prop47
 90
       50
102
RTVSPost2010PropOp47
 70
     1
102
RTVSPost2010Prop48
 90
       50
102
RTVSPost2010PropOp48
 70
     1
102
RTVSPost2010Prop49
280
     0
102
RTVSPost2010PropOp49
 70
     1
102
RTVSPost2010Prop50
 90
       50
102
RTVSPost2010PropOp50
 70
     1
102
RTVSPost2010Prop51ColorIndex
 90
      256
102
RTVSPost2010Prop51ColorRGB
 90
-16777216
102
RTVSPost2010PropOp51
 70
     0
102
RTVSPost2010Prop52
140
1.0
102
RTVSPost2010PropOp52
 70
     0
102
RTVSPost2010Prop53
 90
        2
102
RTVSPost2010PropOp53
 70
     1
102
RTVSPost2010Prop54
  1
strokes_ogs.tif
102
RTVSPost2010PropOp54
 70
     1
102
RTVSPost2010Prop55
280
     0
102
RTVSPost2010PropOp55
 70
     1
102
RTVSPost2010Prop56
140
1.0
102
RTVSPost2010PropOp56
 70
     1
102
RTVSPost2010Prop57
140
1.0
102
RTVSPost2010PropOp57
 70
     1
102
RTVSPropertyOp0
 70
     1
102
RTVSPropertyOp1
 70
     1
102
RTVSPropertyOp2
 70
     1
102
RTVSPropertyOp3
 70
     1
102
RTVSPropertyOp4
 70
     1
102
RTVSPropertyOp5
 70
     1
102
RTVSPropertyOp6
 70
     1
102
RTVSPropertyOp7
 70
     1
102
RTVSPropertyOp8
 70
     1
102
RTVSPropertyOp9
 70
     1
102
RTVSPropertyOp10
 70
     1
102
RTVSPropertyOp11
 70
     1
102
RTVSPropertyOp12
 70
     1
102
RTVSPropertyOp13
 70
     1
102
RTVSPropertyOp14
 70
     1
102
RTVSPropertyOp15
 70
     1
102
RTVSPropertyOp16
 70
     1
102
RTVSPropertyOp17
 70
     1
102
RTVSPropertyOp18
 70
     1
102
RTVSPropertyOp19
 70
     1
102
RTVSPropertyOp20
 70
     1
102
RTVSPropertyOp21
 70
     1
102
RTVSPropertyOp22
 70
     1
102
RTVSPropertyOp23
 70
     1
102
RTVSPropertyOp24
 70
     1
102
RTVSPropertyOp25
 70
     1
102
RTVSPropertyOp26
 70
     1
102
RTVSPropertyOp27
 70
     1
102
RTVSPropertyOp28
 70
     1
102
RTVSPropertyOp29
 70
     1
102
RTVSPropertyOp30
 70
     1
102
RTVSPropertyOp31
 70
     1
102
RTVSPropertyOp32
 70
     1
102
RTVSPropertyOp33
 70
     1
102
RTVSPropertyOp34
 70
     1
102
RTVSPropertyOp35
 70
     1
102
RTVSPropertyOp36
 70
     1
102
RTVSPropertyOp37
 70
     1
102
RTVSPropertyOp38
 70
     1
102
RTVSPropertyOp39
 70
     1
102
RTVSPropertyOp40
 70
     1
102
RTVSPropertyOp41
 70
     1
102
RTVSPropertyOp42
 70
     1
102
RTVSPropertyOp43
 70
     1
102
RTVSPropertyOp44
 70
     1
102
RTVSPropertyOp45
 70
     1
102
RTVSPropertyOp46
 70
     1
102
RTVSPropertyOp47
 70
     1
102
RTVSPropertyOp48
 70
     1
102
RTVSPropertyOp49
 70
     1
102
RTVSPropertyOp50
 70
     1
102
RTVSPropertyOp51
 70
     0
102
RTVSPropertyOp52
 70
     0
102
RTVSPropertyOp53
 70
     1
102
RTVSPropertyOp54
 70
     1
102
RTVSPropertyOp55
 70
     1
102
RTVSPropertyOp56
 70
     1
102
RTVSPropertyOp57
 70
     1
102
RTVSPropertyOp58
 70
     1
102
RTVSPropertyOp59
 70
     1
102
RTVSPropertyOp60
 70
     1
102
RTVSPropertyOp61
 70
     1
102
RTVSPropertyOp62
 70
     1
  0
XRECORD
  5
662
102
{ACAD_REACTORS
330
661
102
}
330
661
100
AcDbXrecord
280
     1
102
RTVSPost2010Prop28
280
     0
102
RTVSPost2010PropOp28
 70
     1
102
RTVSPost2010Prop29
280
     1
102
RTVSPost2010PropOp29
 70
     1
102
RTVSPost2010Prop30
280
     1
102
RTVSPost2010PropOp30
 70
     1
102
RTVSPost2010Prop31
280
     0
102
RTVSPost2010PropOp31
 70
     1
102
RTVSPost2010Prop32
280
     0
102
RTVSPost2010PropOp32
 70
     1
102
RTVSPost2010Prop33
280
     0
102
RTVSPost2010PropOp33
 70
     1
102
RTVSPost2010Prop34
280
     0
102
RTVSPost2010PropOp34
 70
     1
102
RTVSPost2010Prop35
280
     0
102
RTVSPost2010PropOp35
 70
     1
102
RTVSPost2010Prop36
280
     0
102
RTVSPost2010PropOp36
 70
     1
102
RTVSPost2010Prop37
 90
       50
102
RTVSPost2010PropOp37
 70
     1
102
RTVSPost2010Prop38
140
0.0
102
RTVSPost2010PropOp38
 70
     1
102
RTVSPost2010Prop39
140
1.0
102
RTVSPost2010PropOp39
 70
     1
102
RTVSPost2010Prop40
 90
        0
102
RTVSPost2010PropOp40
 70
     1
102
RTVSPost2010Prop41ColorIndex
 90
       18
102
RTVSPost2010Prop41ColorRGB
 90
        0
102
RTVSPost2010PropOp41
 70
     1
102
RTVSPost2010Prop42
 90
       50
102
RTVSPost2010PropOp42
 70
     1
102
RTVSPost2010Prop43
 90
        3
102
RTVSPost2010PropOp43
 70
     1
102
RTVSPost2010Prop44ColorIndex
 90
        5
102
RTVSPost2010Prop44ColorRGB
 90
      255
102
RTVSPost2010PropOp44
 70
     1
102
RTVSPost2010Prop45
280
     0
102
RTVSPost2010PropOp45
 70
     1
102
RTVSPost2010Prop46
 90
       50
102
RTVSPost2010PropOp46
 70
     1
102
RTVSPost2010Prop47
 90
       50
102
RTVSPost2010PropOp47
 70
     1
102
RTVSPost2010Prop48
 90
       50
102
RTVSPost2010PropOp48
 70
     1
102
RTVSPost2010Prop49
280
     0
102
RTVSPost2010PropOp49
 70
     1
102
RTVSPost2010Prop50
 90
       50
102
RTVSPost2010PropOp50
 70
     1
102
RTVSPost2010Prop51ColorIndex
 90
      256
102
RTVSPost2010Prop51ColorRGB
 90
-16777216
102
RTVSPost2010PropOp51
 70
     0
102
RTVSPost2010Prop52
140
1.0
102
RTVSPost2010PropOp52
 70
     0
102
RTVSPost2010Prop53
 90
        2
102
RTVSPost2010PropOp53
 70
     1
102
RTVSPost2010Prop54
  1
strokes_ogs.tif
102
RTVSPost2010PropOp54
 70
     1
102
RTVSPost2010Prop55
280
     0
102
RTVSPost2010PropOp55
 70
     1
102
RTVSPost2010Prop56
140
1.0
102
RTVSPost2010PropOp56
 70
     1
102
RTVSPost2010Prop57
140
1.0
102
RTVSPost2010PropOp57
 70
     1
102
RTVSPropertyOp0
 70
     1
102
RTVSPropertyOp1
 70
     1
102
RTVSPropertyOp2
 70
     1
102
RTVSPropertyOp3
 70
     1
102
RTVSPropertyOp4
 70
     1
102
RTVSPropertyOp5
 70
     1
102
RTVSPropertyOp6
 70
     1
102
RTVSPropertyOp7
 70
     1
102
RTVSPropertyOp8
 70
     1
102
RTVSPropertyOp9
 70
     1
102
RTVSPropertyOp10
 70
     1
102
RTVSPropertyOp11
 70
     1
102
RTVSPropertyOp12
 70
     1
102
RTVSPropertyOp13
 70
     1
102
RTVSPropertyOp14
 70
     1
102
RTVSPropertyOp15
 70
     1
102
RTVSPropertyOp16
 70
     1
102
RTVSPropertyOp17
 70
     1
102
RTVSPropertyOp18
 70
     1
102
RTVSPropertyOp19
 70
     1
102
RTVSPropertyOp20
 70
     1
102
RTVSPropertyOp21
 70
     1
102
RTVSPropertyOp22
 70
     1
102
RTVSPropertyOp23
 70
     1
102
RTVSPropertyOp24
 70
     1
102
RTVSPropertyOp25
 70
     1
102
RTVSPropertyOp26
 70
     1
102
RTVSPropertyOp27
 70
     1
102
RTVSPropertyOp28
 70
     1
102
RTVSPropertyOp29
 70
     1
102
RTVSPropertyOp30
 70
     1
102
RTVSPropertyOp31
 70
     1
102
RTVSPropertyOp32
 70
     1
102
RTVSPropertyOp33
 70
     1
102
RTVSPropertyOp34
 70
     1
102
RTVSPropertyOp35
 70
     1
102
RTVSPropertyOp36
 70
     1
102
RTVSPropertyOp37
 70
     1
102
RTVSPropertyOp38
 70
     1
102
RTVSPropertyOp39
 70
     1
102
RTVSPropertyOp40
 70
     1
102
RTVSPropertyOp41
 70
     1
102
RTVSPropertyOp42
 70
     1
102
RTVSPropertyOp43
 70
     1
102
RTVSPropertyOp44
 70
     1
102
RTVSPropertyOp45
 70
     1
102
RTVSPropertyOp46
 70
     1
102
RTVSPropertyOp47
 70
     1
102
RTVSPropertyOp48
 70
     1
102
RTVSPropertyOp49
 70
     1
102
RTVSPropertyOp50
 70
     1
102
RTVSPropertyOp51
 70
     0
102
RTVSPropertyOp52
 70
     0
102
RTVSPropertyOp53
 70
     1
102
RTVSPropertyOp54
 70
     1
102
RTVSPropertyOp55
 70
     1
102
RTVSPropertyOp56
 70
     1
102
RTVSPropertyOp57
 70
     1
102
RTVSPropertyOp58
 70
     1
102
RTVSPropertyOp59
 70
     1
102
RTVSPropertyOp60
 70
     1
102
RTVSPropertyOp61
 70
     1
102
RTVSPropertyOp62
 70
     1
  0
XRECORD
  5
66A
102
{ACAD_REACTORS
330
669
102
}
330
669
100
AcDbXrecord
280
     1
102
RTVSPost2010Prop28
280
     0
102
RTVSPost2010PropOp28
 70
     1
102
RTVSPost2010Prop29
280
     1
102
RTVSPost2010PropOp29
 70
     1
102
RTVSPost2010Prop30
280
     1
102
RTVSPost2010PropOp30
 70
     1
102
RTVSPost2010Prop31
280
     0
102
RTVSPost2010PropOp31
 70
     1
102
RTVSPost2010Prop32
280
     0
102
RTVSPost2010PropOp32
 70
     1
102
RTVSPost2010Prop33
280
     0
102
RTVSPost2010PropOp33
 70
     1
102
RTVSPost2010Prop34
280
     0
102
RTVSPost2010PropOp34
 70
     1
102
RTVSPost2010Prop35
280
     0
102
RTVSPost2010PropOp35
 70
     1
102
RTVSPost2010Prop36
280
     0
102
RTVSPost2010PropOp36
 70
     1
102
RTVSPost2010Prop37
 90
       50
102
RTVSPost2010PropOp37
 70
     1
102
RTVSPost2010Prop38
140
0.0
102
RTVSPost2010PropOp38
 70
     1
102
RTVSPost2010Prop39
140
1.0
102
RTVSPost2010PropOp39
 70
     1
102
RTVSPost2010Prop40
 90
        0
102
RTVSPost2010PropOp40
 70
     1
102
RTVSPost2010Prop41ColorIndex
 90
       18
102
RTVSPost2010Prop41ColorRGB
 90
        0
102
RTVSPost2010PropOp41
 70
     1
102
RTVSPost2010Prop42
 90
       50
102
RTVSPost2010PropOp42
 70
     1
102
RTVSPost2010Prop43
 90
        3
102
RTVSPost2010PropOp43
 70
     1
102
RTVSPost2010Prop44ColorIndex
 90
        5
102
RTVSPost2010Prop44ColorRGB
 90
      255
102
RTVSPost2010PropOp44
 70
     1
102
RTVSPost2010Prop45
280
     0
102
RTVSPost2010PropOp45
 70
     1
102
RTVSPost2010Prop46
 90
       50
102
RTVSPost2010PropOp46
 70
     1
102
RTVSPost2010Prop47
 90
       50
102
RTVSPost2010PropOp47
 70
     1
102
RTVSPost2010Prop48
 90
       50
102
RTVSPost2010PropOp48
 70
     1
102
RTVSPost2010Prop49
280
     0
102
RTVSPost2010PropOp49
 70
     1
102
RTVSPost2010Prop50
 90
       50
102
RTVSPost2010PropOp50
 70
     1
102
RTVSPost2010Prop51ColorIndex
 90
      256
102
RTVSPost2010Prop51ColorRGB
 90
-16777216
102
RTVSPost2010PropOp51
 70
     0
102
RTVSPost2010Prop52
140
1.0
102
RTVSPost2010PropOp52
 70
     0
102
RTVSPost2010Prop53
 90
        2
102
RTVSPost2010PropOp53
 70
     1
102
RTVSPost2010Prop54
  1
strokes_ogs.tif
102
RTVSPost2010PropOp54
 70
     1
102
RTVSPost2010Prop55
280
     0
102
RTVSPost2010PropOp55
 70
     1
102
RTVSPost2010Prop56
140
1.0
102
RTVSPost2010PropOp56
 70
     1
102
RTVSPost2010Prop57
140
1.0
102
RTVSPost2010PropOp57
 70
     1
102
RTVSPropertyOp0
 70
     1
102
RTVSPropertyOp1
 70
     1
102
RTVSPropertyOp2
 70
     1
102
RTVSPropertyOp3
 70
     1
102
RTVSPropertyOp4
 70
     1
102
RTVSPropertyOp5
 70
     1
102
RTVSPropertyOp6
 70
     1
102
RTVSPropertyOp7
 70
     1
102
RTVSPropertyOp8
 70
     1
102
RTVSPropertyOp9
 70
     1
102
RTVSPropertyOp10
 70
     1
102
RTVSPropertyOp11
 70
     1
102
RTVSPropertyOp12
 70
     1
102
RTVSPropertyOp13
 70
     1
102
RTVSPropertyOp14
 70
     1
102
RTVSPropertyOp15
 70
     1
102
RTVSPropertyOp16
 70
     1
102
RTVSPropertyOp17
 70
     1
102
RTVSPropertyOp18
 70
     1
102
RTVSPropertyOp19
 70
     1
102
RTVSPropertyOp20
 70
     1
102
RTVSPropertyOp21
 70
     1
102
RTVSPropertyOp22
 70
     1
102
RTVSPropertyOp23
 70
     1
102
RTVSPropertyOp24
 70
     1
102
RTVSPropertyOp25
 70
     1
102
RTVSPropertyOp26
 70
     1
102
RTVSPropertyOp27
 70
     1
102
RTVSPropertyOp28
 70
     1
102
RTVSPropertyOp29
 70
     1
102
RTVSPropertyOp30
 70
     1
102
RTVSPropertyOp31
 70
     1
102
RTVSPropertyOp32
 70
     1
102
RTVSPropertyOp33
 70
     1
102
RTVSPropertyOp34
 70
     1
102
RTVSPropertyOp35
 70
     1
102
RTVSPropertyOp36
 70
     1
102
RTVSPropertyOp37
 70
     1
102
RTVSPropertyOp38
 70
     1
102
RTVSPropertyOp39
 70
     1
102
RTVSPropertyOp40
 70
     1
102
RTVSPropertyOp41
 70
     1
102
RTVSPropertyOp42
 70
     1
102
RTVSPropertyOp43
 70
     1
102
RTVSPropertyOp44
 70
     1
102
RTVSPropertyOp45
 70
     1
102
RTVSPropertyOp46
 70
     1
102
RTVSPropertyOp47
 70
     1
102
RTVSPropertyOp48
 70
     1
102
RTVSPropertyOp49
 70
     1
102
RTVSPropertyOp50
 70
     1
102
RTVSPropertyOp51
 70
     0
102
RTVSPropertyOp52
 70
     0
102
RTVSPropertyOp53
 70
     1
102
RTVSPropertyOp54
 70
     1
102
RTVSPropertyOp55
 70
     1
102
RTVSPropertyOp56
 70
     1
102
RTVSPropertyOp57
 70
     1
102
RTVSPropertyOp58
 70
     1
102
RTVSPropertyOp59
 70
     1
102
RTVSPropertyOp60
 70
     1
102
RTVSPropertyOp61
 70
     1
102
RTVSPropertyOp62
 70
     1
  0
XRECORD
  5
65E
102
{ACAD_REACTORS
330
65D
102
}
330
65D
100
AcDbXrecord
280
     1
102
RTVSPost2010Prop28
280
     0
102
RTVSPost2010PropOp28
 70
     1
102
RTVSPost2010Prop29
280
     1
102
RTVSPost2010PropOp29
 70
     1
102
RTVSPost2010Prop30
280
     1
102
RTVSPost2010PropOp30
 70
     1
102
RTVSPost2010Prop31
280
     0
102
RTVSPost2010PropOp31
 70
     1
102
RTVSPost2010Prop32
280
     0
102
RTVSPost2010PropOp32
 70
     1
102
RTVSPost2010Prop33
280
     0
102
RTVSPost2010PropOp33
 70
     1
102
RTVSPost2010Prop34
280
     0
102
RTVSPost2010PropOp34
 70
     1
102
RTVSPost2010Prop35
280
     0
102
RTVSPost2010PropOp35
 70
     1
102
RTVSPost2010Prop36
280
     0
102
RTVSPost2010PropOp36
 70
     1
102
RTVSPost2010Prop37
 90
       50
102
RTVSPost2010PropOp37
 70
     1
102
RTVSPost2010Prop38
140
0.0
102
RTVSPost2010PropOp38
 70
     1
102
RTVSPost2010Prop39
140
1.0
102
RTVSPost2010PropOp39
 70
     1
102
RTVSPost2010Prop40
 90
        0
102
RTVSPost2010PropOp40
 70
     1
102
RTVSPost2010Prop41ColorIndex
 90
       18
102
RTVSPost2010Prop41ColorRGB
 90
        0
102
RTVSPost2010PropOp41
 70
     1
102
RTVSPost2010Prop42
 90
       50
102
RTVSPost2010PropOp42
 70
     1
102
RTVSPost2010Prop43
 90
        3
102
RTVSPost2010PropOp43
 70
     1
102
RTVSPost2010Prop44ColorIndex
 90
        5
102
RTVSPost2010Prop44ColorRGB
 90
      255
102
RTVSPost2010PropOp44
 70
     1
102
RTVSPost2010Prop45
280
     0
102
RTVSPost2010PropOp45
 70
     1
102
RTVSPost2010Prop46
 90
       50
102
RTVSPost2010PropOp46
 70
     1
102
RTVSPost2010Prop47
 90
       50
102
RTVSPost2010PropOp47
 70
     1
102
RTVSPost2010Prop48
 90
       50
102
RTVSPost2010PropOp48
 70
     1
102
RTVSPost2010Prop49
280
     0
102
RTVSPost2010PropOp49
 70
     1
102
RTVSPost2010Prop50
 90
       50
102
RTVSPost2010PropOp50
 70
     1
102
RTVSPost2010Prop51ColorIndex
 90
      256
102
RTVSPost2010Prop51ColorRGB
 90
-16777216
102
RTVSPost2010PropOp51
 70
     0
102
RTVSPost2010Prop52
140
1.0
102
RTVSPost2010PropOp52
 70
     0
102
RTVSPost2010Prop53
 90
        2
102
RTVSPost2010PropOp53
 70
     1
102
RTVSPost2010Prop54
  1
strokes_ogs.tif
102
RTVSPost2010PropOp54
 70
     1
102
RTVSPost2010Prop55
280
     0
102
RTVSPost2010PropOp55
 70
     1
102
RTVSPost2010Prop56
140
1.0
102
RTVSPost2010PropOp56
 70
     1
102
RTVSPost2010Prop57
140
1.0
102
RTVSPost2010PropOp57
 70
     1
102
RTVSPropertyOp0
 70
     1
102
RTVSPropertyOp1
 70
     1
102
RTVSPropertyOp2
 70
     1
102
RTVSPropertyOp3
 70
     1
102
RTVSPropertyOp4
 70
     1
102
RTVSPropertyOp5
 70
     1
102
RTVSPropertyOp6
 70
     1
102
RTVSPropertyOp7
 70
     1
102
RTVSPropertyOp8
 70
     1
102
RTVSPropertyOp9
 70
     1
102
RTVSPropertyOp10
 70
     1
102
RTVSPropertyOp11
 70
     1
102
RTVSPropertyOp12
 70
     1
102
RTVSPropertyOp13
 70
     1
102
RTVSPropertyOp14
 70
     1
102
RTVSPropertyOp15
 70
     1
102
RTVSPropertyOp16
 70
     1
102
RTVSPropertyOp17
 70
     1
102
RTVSPropertyOp18
 70
     1
102
RTVSPropertyOp19
 70
     1
102
RTVSPropertyOp20
 70
     1
102
RTVSPropertyOp21
 70
     1
102
RTVSPropertyOp22
 70
     1
102
RTVSPropertyOp23
 70
     1
102
RTVSPropertyOp24
 70
     1
102
RTVSPropertyOp25
 70
     1
102
RTVSPropertyOp26
 70
     1
102
RTVSPropertyOp27
 70
     1
102
RTVSPropertyOp28
 70
     1
102
RTVSPropertyOp29
 70
     1
102
RTVSPropertyOp30
 70
     1
102
RTVSPropertyOp31
 70
     1
102
RTVSPropertyOp32
 70
     1
102
RTVSPropertyOp33
 70
     1
102
RTVSPropertyOp34
 70
     1
102
RTVSPropertyOp35
 70
     1
102
RTVSPropertyOp36
 70
     1
102
RTVSPropertyOp37
 70
     1
102
RTVSPropertyOp38
 70
     1
102
RTVSPropertyOp39
 70
     1
102
RTVSPropertyOp40
 70
     1
102
RTVSPropertyOp41
 70
     1
102
RTVSPropertyOp42
 70
     1
102
RTVSPropertyOp43
 70
     1
102
RTVSPropertyOp44
 70
     1
102
RTVSPropertyOp45
 70
     1
102
RTVSPropertyOp46
 70
     1
102
RTVSPropertyOp47
 70
     1
102
RTVSPropertyOp48
 70
     1
102
RTVSPropertyOp49
 70
     1
102
RTVSPropertyOp50
 70
     1
102
RTVSPropertyOp51
 70
     0
102
RTVSPropertyOp52
 70
     0
102
RTVSPropertyOp53
 70
     1
102
RTVSPropertyOp54
 70
     1
102
RTVSPropertyOp55
 70
     1
102
RTVSPropertyOp56
 70
     1
102
RTVSPropertyOp57
 70
     1
102
RTVSPropertyOp58
 70
     1
102
RTVSPropertyOp59
 70
     1
102
RTVSPropertyOp60
 70
     1
102
RTVSPropertyOp61
 70
     1
102
RTVSPropertyOp62
 70
     1
  0
XRECORD
  5
660
102
{ACAD_REACTORS
330
65F
102
}
330
65F
100
AcDbXrecord
280
     1
102
RTVSPost2010Prop28
280
     0
102
RTVSPost2010PropOp28
 70
     1
102
RTVSPost2010Prop29
280
     1
102
RTVSPost2010PropOp29
 70
     1
102
RTVSPost2010Prop30
280
     1
102
RTVSPost2010PropOp30
 70
     1
102
RTVSPost2010Prop31
280
     0
102
RTVSPost2010PropOp31
 70
     1
102
RTVSPost2010Prop32
280
     0
102
RTVSPost2010PropOp32
 70
     1
102
RTVSPost2010Prop33
280
     0
102
RTVSPost2010PropOp33
 70
     1
102
RTVSPost2010Prop34
280
     0
102
RTVSPost2010PropOp34
 70
     1
102
RTVSPost2010Prop35
280
     0
102
RTVSPost2010PropOp35
 70
     1
102
RTVSPost2010Prop36
280
     0
102
RTVSPost2010PropOp36
 70
     1
102
RTVSPost2010Prop37
 90
       50
102
RTVSPost2010PropOp37
 70
     1
102
RTVSPost2010Prop38
140
0.0
102
RTVSPost2010PropOp38
 70
     1
102
RTVSPost2010Prop39
140
1.0
102
RTVSPost2010PropOp39
 70
     1
102
RTVSPost2010Prop40
 90
        0
102
RTVSPost2010PropOp40
 70
     1
102
RTVSPost2010Prop41ColorIndex
 90
       18
102
RTVSPost2010Prop41ColorRGB
 90
        0
102
RTVSPost2010PropOp41
 70
     1
102
RTVSPost2010Prop42
 90
       50
102
RTVSPost2010PropOp42
 70
     1
102
RTVSPost2010Prop43
 90
        3
102
RTVSPost2010PropOp43
 70
     1
102
RTVSPost2010Prop44ColorIndex
 90
        5
102
RTVSPost2010Prop44ColorRGB
 90
      255
102
RTVSPost2010PropOp44
 70
     1
102
RTVSPost2010Prop45
280
     0
102
RTVSPost2010PropOp45
 70
     1
102
RTVSPost2010Prop46
 90
       50
102
RTVSPost2010PropOp46
 70
     1
102
RTVSPost2010Prop47
 90
       50
102
RTVSPost2010PropOp47
 70
     1
102
RTVSPost2010Prop48
 90
       50
102
RTVSPost2010PropOp48
 70
     1
102
RTVSPost2010Prop49
280
     0
102
RTVSPost2010PropOp49
 70
     1
102
RTVSPost2010Prop50
 90
       50
102
RTVSPost2010PropOp50
 70
     1
102
RTVSPost2010Prop51ColorIndex
 90
      256
102
RTVSPost2010Prop51ColorRGB
 90
-16777216
102
RTVSPost2010PropOp51
 70
     0
102
RTVSPost2010Prop52
140
1.0
102
RTVSPost2010PropOp52
 70
     0
102
RTVSPost2010Prop53
 90
        2
102
RTVSPost2010PropOp53
 70
     1
102
RTVSPost2010Prop54
  1
strokes_ogs.tif
102
RTVSPost2010PropOp54
 70
     1
102
RTVSPost2010Prop55
280
     0
102
RTVSPost2010PropOp55
 70
     1
102
RTVSPost2010Prop56
140
1.0
102
RTVSPost2010PropOp56
 70
     1
102
RTVSPost2010Prop57
140
1.0
102
RTVSPost2010PropOp57
 70
     1
102
RTVSPropertyOp0
 70
     1
102
RTVSPropertyOp1
 70
     1
102
RTVSPropertyOp2
 70
     1
102
RTVSPropertyOp3
 70
     1
102
RTVSPropertyOp4
 70
     1
102
RTVSPropertyOp5
 70
     1
102
RTVSPropertyOp6
 70
     1
102
RTVSPropertyOp7
 70
     1
102
RTVSPropertyOp8
 70
     1
102
RTVSPropertyOp9
 70
     1
102
RTVSPropertyOp10
 70
     1
102
RTVSPropertyOp11
 70
     1
102
RTVSPropertyOp12
 70
     1
102
RTVSPropertyOp13
 70
     1
102
RTVSPropertyOp14
 70
     1
102
RTVSPropertyOp15
 70
     1
102
RTVSPropertyOp16
 70
     1
102
RTVSPropertyOp17
 70
     1
102
RTVSPropertyOp18
 70
     1
102
RTVSPropertyOp19
 70
     1
102
RTVSPropertyOp20
 70
     1
102
RTVSPropertyOp21
 70
     1
102
RTVSPropertyOp22
 70
     1
102
RTVSPropertyOp23
 70
     1
102
RTVSPropertyOp24
 70
     1
102
RTVSPropertyOp25
 70
     1
102
RTVSPropertyOp26
 70
     1
102
RTVSPropertyOp27
 70
     1
102
RTVSPropertyOp28
 70
     1
102
RTVSPropertyOp29
 70
     1
102
RTVSPropertyOp30
 70
     1
102
RTVSPropertyOp31
 70
     1
102
RTVSPropertyOp32
 70
     1
102
RTVSPropertyOp33
 70
     1
102
RTVSPropertyOp34
 70
     1
102
RTVSPropertyOp35
 70
     1
102
RTVSPropertyOp36
 70
     1
102
RTVSPropertyOp37
 70
     1
102
RTVSPropertyOp38
 70
     1
102
RTVSPropertyOp39
 70
     1
102
RTVSPropertyOp40
 70
     1
102
RTVSPropertyOp41
 70
     1
102
RTVSPropertyOp42
 70
     1
102
RTVSPropertyOp43
 70
     1
102
RTVSPropertyOp44
 70
     1
102
RTVSPropertyOp45
 70
     1
102
RTVSPropertyOp46
 70
     1
102
RTVSPropertyOp47
 70
     1
102
RTVSPropertyOp48
 70
     1
102
RTVSPropertyOp49
 70
     1
102
RTVSPropertyOp50
 70
     1
102
RTVSPropertyOp51
 70
     0
102
RTVSPropertyOp52
 70
     0
102
RTVSPropertyOp53
 70
     1
102
RTVSPropertyOp54
 70
     1
102
RTVSPropertyOp55
 70
     1
102
RTVSPropertyOp56
 70
     1
102
RTVSPropertyOp57
 70
     1
102
RTVSPropertyOp58
 70
     1
102
RTVSPropertyOp59
 70
     1
102
RTVSPropertyOp60
 70
     1
102
RTVSPropertyOp61
 70
     1
102
RTVSPropertyOp62
 70
     1
  0
XRECORD
  5
670
102
{ACAD_REACTORS
330
66F
102
}
330
66F
100
AcDbXrecord
280
     1
102
RTVSPost2010Prop28
280
     0
102
RTVSPost2010PropOp28
 70
     0
102
RTVSPost2010Prop29
280
     1
102
RTVSPost2010PropOp29
 70
     0
102
RTVSPost2010Prop30
280
     1
102
RTVSPost2010PropOp30
 70
     0
102
RTVSPost2010Prop31
280
     0
102
RTVSPost2010PropOp31
 70
     0
102
RTVSPost2010Prop32
280
     0
102
RTVSPost2010PropOp32
 70
     0
102
RTVSPost2010Prop33
280
     0
102
RTVSPost2010PropOp33
 70
     0
102
RTVSPost2010Prop34
280
     0
102
RTVSPost2010PropOp34
 70
     0
102
RTVSPost2010Prop35
280
     0
102
RTVSPost2010PropOp35
 70
     0
102
RTVSPost2010Prop36
280
     0
102
RTVSPost2010PropOp36
 70
     0
102
RTVSPost2010Prop37
 90
       50
102
RTVSPost2010PropOp37
 70
     0
102
RTVSPost2010Prop38
140
0.0
102
RTVSPost2010PropOp38
 70
     0
102
RTVSPost2010Prop39
140
1.0
102
RTVSPost2010PropOp39
 70
     0
102
RTVSPost2010Prop40
 90
        0
102
RTVSPost2010PropOp40
 70
     0
102
RTVSPost2010Prop41ColorIndex
 90
       18
102
RTVSPost2010Prop41ColorRGB
 90
        0
102
RTVSPost2010PropOp41
 70
     0
102
RTVSPost2010Prop42
 90
       50
102
RTVSPost2010PropOp42
 70
     0
102
RTVSPost2010Prop43
 90
        3
102
RTVSPost2010PropOp43
 70
     0
102
RTVSPost2010Prop44ColorIndex
 90
        5
102
RTVSPost2010Prop44ColorRGB
 90
      255
102
RTVSPost2010PropOp44
 70
     0
102
RTVSPost2010Prop45
280
     0
102
RTVSPost2010PropOp45
 70
     0
102
RTVSPost2010Prop46
 90
       50
102
RTVSPost2010PropOp46
 70
     0
102
RTVSPost2010Prop47
 90
       50
102
RTVSPost2010PropOp47
 70
     0
102
RTVSPost2010Prop48
 90
       50
102
RTVSPost2010PropOp48
 70
     0
102
RTVSPost2010Prop49
280
     0
102
RTVSPost2010PropOp49
 70
     0
102
RTVSPost2010Prop50
 90
       50
102
RTVSPost2010PropOp50
 70
     0
102
RTVSPost2010Prop51ColorIndex
 90
      256
102
RTVSPost2010Prop51ColorRGB
 90
-16777216
102
RTVSPost2010PropOp51
 70
     0
102
RTVSPost2010Prop52
140
1.0
102
RTVSPost2010PropOp52
 70
     0
102
RTVSPost2010Prop53
 90
        2
102
RTVSPost2010PropOp53
 70
     0
102
RTVSPost2010Prop54
  1
strokes_ogs.tif
102
RTVSPost2010PropOp54
 70
     0
102
RTVSPost2010Prop55
280
     0
102
RTVSPost2010PropOp55
 70
     0
102
RTVSPost2010Prop56
140
1.0
102
RTVSPost2010PropOp56
 70
     0
102
RTVSPost2010Prop57
140
1.0
102
RTVSPost2010PropOp57
 70
     0
102
RTVSPropertyOp0
 70
     0
102
RTVSPropertyOp1
 70
     0
102
RTVSPropertyOp2
 70
     0
102
RTVSPropertyOp3
 70
     0
102
RTVSPropertyOp4
 70
     0
102
RTVSPropertyOp5
 70
     0
102
RTVSPropertyOp6
 70
     0
102
RTVSPropertyOp7
 70
     0
102
RTVSPropertyOp8
 70
     0
102
RTVSPropertyOp9
 70
     0
102
RTVSPropertyOp10
 70
     0
102
RTVSPropertyOp11
 70
     0
102
RTVSPropertyOp12
 70
     0
102
RTVSPropertyOp13
 70
     0
102
RTVSPropertyOp14
 70
     2
102
RTVSPropertyOp15
 70
     0
102
RTVSPropertyOp16
 70
     0
102
RTVSPropertyOp17
 70
     0
102
RTVSPropertyOp18
 70
     0
102
RTVSPropertyOp19
 70
     0
102
RTVSPropertyOp20
 70
     0
102
RTVSPropertyOp21
 70
     0
102
RTVSPropertyOp22
 70
     0
102
RTVSPropertyOp23
 70
     0
102
RTVSPropertyOp24
 70
     0
102
RTVSPropertyOp25
 70
     0
102
RTVSPropertyOp26
 70
     0
102
RTVSPropertyOp27
 70
     0
102
RTVSPropertyOp28
 70
     0
102
RTVSPropertyOp29
 70
     0
102
RTVSPropertyOp30
 70
     0
102
RTVSPropertyOp31
 70
     0
102
RTVSPropertyOp32
 70
     0
102
RTVSPropertyOp33
 70
     0
102
RTVSPropertyOp34
 70
     0
102
RTVSPropertyOp35
 70
     0
102
RTVSPropertyOp36
 70
     0
102
RTVSPropertyOp37
 70
     0
102
RTVSPropertyOp38
 70
     0
102
RTVSPropertyOp39
 70
     0
102
RTVSPropertyOp40
 70
     0
102
RTVSPropertyOp41
 70
     0
102
RTVSPropertyOp42
 70
     0
102
RTVSPropertyOp43
 70
     0
102
RTVSPropertyOp44
 70
     0
102
RTVSPropertyOp45
 70
     0
102
RTVSPropertyOp46
 70
     0
102
RTVSPropertyOp47
 70
     0
102
RTVSPropertyOp48
 70
     0
102
RTVSPropertyOp49
 70
     0
102
RTVSPropertyOp50
 70
     0
102
RTVSPropertyOp51
 70
     0
102
RTVSPropertyOp52
 70
     0
102
RTVSPropertyOp53
 70
     0
102
RTVSPropertyOp54
 70
     0
102
RTVSPropertyOp55
 70
     0
102
RTVSPropertyOp56
 70
     0
102
RTVSPropertyOp57
 70
     0
102
RTVSPropertyOp58
 70
     1
102
RTVSPropertyOp59
 70
     1
102
RTVSPropertyOp60
 70
     1
102
RTVSPropertyOp61
 70
     1
102
RTVSPropertyOp62
 70
     1
  0
XRECORD
  5
668
102
{ACAD_REACTORS
330
667
102
}
330
667
100
AcDbXrecord
280
     1
102
RTVSPost2010Prop28
280
     0
102
RTVSPost2010PropOp28
 70
     1
102
RTVSPost2010Prop29
280
     1
102
RTVSPost2010PropOp29
 70
     1
102
RTVSPost2010Prop30
280
     1
102
RTVSPost2010PropOp30
 70
     1
102
RTVSPost2010Prop31
280
     0
102
RTVSPost2010PropOp31
 70
     1
102
RTVSPost2010Prop32
280
     0
102
RTVSPost2010PropOp32
 70
     1
102
RTVSPost2010Prop33
280
     0
102
RTVSPost2010PropOp33
 70
     1
102
RTVSPost2010Prop34
280
     0
102
RTVSPost2010PropOp34
 70
     1
102
RTVSPost2010Prop35
280
     0
102
RTVSPost2010PropOp35
 70
     1
102
RTVSPost2010Prop36
280
     0
102
RTVSPost2010PropOp36
 70
     1
102
RTVSPost2010Prop37
 90
       50
102
RTVSPost2010PropOp37
 70
     1
102
RTVSPost2010Prop38
140
0.0
102
RTVSPost2010PropOp38
 70
     1
102
RTVSPost2010Prop39
140
1.0
102
RTVSPost2010PropOp39
 70
     1
102
RTVSPost2010Prop40
 90
        0
102
RTVSPost2010PropOp40
 70
     1
102
RTVSPost2010Prop41ColorIndex
 90
       18
102
RTVSPost2010Prop41ColorRGB
 90
        0
102
RTVSPost2010PropOp41
 70
     1
102
RTVSPost2010Prop42
 90
       50
102
RTVSPost2010PropOp42
 70
     1
102
RTVSPost2010Prop43
 90
        3
102
RTVSPost2010PropOp43
 70
     1
102
RTVSPost2010Prop44ColorIndex
 90
        5
102
RTVSPost2010Prop44ColorRGB
 90
      255
102
RTVSPost2010PropOp44
 70
     1
102
RTVSPost2010Prop45
280
     0
102
RTVSPost2010PropOp45
 70
     1
102
RTVSPost2010Prop46
 90
       50
102
RTVSPost2010PropOp46
 70
     1
102
RTVSPost2010Prop47
 90
       50
102
RTVSPost2010PropOp47
 70
     1
102
RTVSPost2010Prop48
 90
       50
102
RTVSPost2010PropOp48
 70
     1
102
RTVSPost2010Prop49
280
     0
102
RTVSPost2010PropOp49
 70
     1
102
RTVSPost2010Prop50
 90
       50
102
RTVSPost2010PropOp50
 70
     1
102
RTVSPost2010Prop51ColorIndex
 90
      256
102
RTVSPost2010Prop51ColorRGB
 90
-16777216
102
RTVSPost2010PropOp51
 70
     0
102
RTVSPost2010Prop52
140
1.0
102
RTVSPost2010PropOp52
 70
     0
102
RTVSPost2010Prop53
 90
        2
102
RTVSPost2010PropOp53
 70
     1
102
RTVSPost2010Prop54
  1
strokes_ogs.tif
102
RTVSPost2010PropOp54
 70
     1
102
RTVSPost2010Prop55
280
     0
102
RTVSPost2010PropOp55
 70
     1
102
RTVSPost2010Prop56
140
1.0
102
RTVSPost2010PropOp56
 70
     1
102
RTVSPost2010Prop57
140
1.0
102
RTVSPost2010PropOp57
 70
     1
102
RTVSPropertyOp0
 70
     1
102
RTVSPropertyOp1
 70
     1
102
RTVSPropertyOp2
 70
     1
102
RTVSPropertyOp3
 70
     1
102
RTVSPropertyOp4
 70
     1
102
RTVSPropertyOp5
 70
     1
102
RTVSPropertyOp6
 70
     1
102
RTVSPropertyOp7
 70
     1
102
RTVSPropertyOp8
 70
     1
102
RTVSPropertyOp9
 70
     1
102
RTVSPropertyOp10
 70
     1
102
RTVSPropertyOp11
 70
     1
102
RTVSPropertyOp12
 70
     1
102
RTVSPropertyOp13
 70
     1
102
RTVSPropertyOp14
 70
     1
102
RTVSPropertyOp15
 70
     1
102
RTVSPropertyOp16
 70
     1
102
RTVSPropertyOp17
 70
     1
102
RTVSPropertyOp18
 70
     1
102
RTVSPropertyOp19
 70
     1
102
RTVSPropertyOp20
 70
     1
102
RTVSPropertyOp21
 70
     1
102
RTVSPropertyOp22
 70
     1
102
RTVSPropertyOp23
 70
     1
102
RTVSPropertyOp24
 70
     1
102
RTVSPropertyOp25
 70
     1
102
RTVSPropertyOp26
 70
     1
102
RTVSPropertyOp27
 70
     1
102
RTVSPropertyOp28
 70
     1
102
RTVSPropertyOp29
 70
     1
102
RTVSPropertyOp30
 70
     1
102
RTVSPropertyOp31
 70
     1
102
RTVSPropertyOp32
 70
     1
102
RTVSPropertyOp33
 70
     1
102
RTVSPropertyOp34
 70
     1
102
RTVSPropertyOp35
 70
     1
102
RTVSPropertyOp36
 70
     1
102
RTVSPropertyOp37
 70
     1
102
RTVSPropertyOp38
 70
     1
102
RTVSPropertyOp39
 70
     1
102
RTVSPropertyOp40
 70
     1
102
RTVSPropertyOp41
 70
     1
102
RTVSPropertyOp42
 70
     1
102
RTVSPropertyOp43
 70
     1
102
RTVSPropertyOp44
 70
     1
102
RTVSPropertyOp45
 70
     1
102
RTVSPropertyOp46
 70
     1
102
RTVSPropertyOp47
 70
     1
102
RTVSPropertyOp48
 70
     1
102
RTVSPropertyOp49
 70
     1
102
RTVSPropertyOp50
 70
     1
102
RTVSPropertyOp51
 70
     0
102
RTVSPropertyOp52
 70
     0
102
RTVSPropertyOp53
 70
     1
102
RTVSPropertyOp54
 70
     1
102
RTVSPropertyOp55
 70
     1
102
RTVSPropertyOp56
 70
     1
102
RTVSPropertyOp57
 70
     1
102
RTVSPropertyOp58
 70
     1
102
RTVSPropertyOp59
 70
     1
102
RTVSPropertyOp60
 70
     1
102
RTVSPropertyOp61
 70
     1
102
RTVSPropertyOp62
 70
     1
  0
XRECORD
  5
64C
102
{ACAD_REACTORS
330
64B
102
}
330
64B
100
AcDbXrecord
280
     1
102
RTVSPost2010Prop28
280
     0
102
RTVSPost2010PropOp28
 70
     1
102
RTVSPost2010Prop29
280
     1
102
RTVSPost2010PropOp29
 70
     1
102
RTVSPost2010Prop30
280
     1
102
RTVSPost2010PropOp30
 70
     1
102
RTVSPost2010Prop31
280
     0
102
RTVSPost2010PropOp31
 70
     1
102
RTVSPost2010Prop32
280
     0
102
RTVSPost2010PropOp32
 70
     1
102
RTVSPost2010Prop33
280
     0
102
RTVSPost2010PropOp33
 70
     1
102
RTVSPost2010Prop34
280
     0
102
RTVSPost2010PropOp34
 70
     1
102
RTVSPost2010Prop35
280
     0
102
RTVSPost2010PropOp35
 70
     1
102
RTVSPost2010Prop36
280
     0
102
RTVSPost2010PropOp36
 70
     1
102
RTVSPost2010Prop37
 90
       50
102
RTVSPost2010PropOp37
 70
     1
102
RTVSPost2010Prop38
140
0.0
102
RTVSPost2010PropOp38
 70
     1
102
RTVSPost2010Prop39
140
1.0
102
RTVSPost2010PropOp39
 70
     1
102
RTVSPost2010Prop40
 90
        0
102
RTVSPost2010PropOp40
 70
     1
102
RTVSPost2010Prop41ColorIndex
 90
       18
102
RTVSPost2010Prop41ColorRGB
 90
        0
102
RTVSPost2010PropOp41
 70
     1
102
RTVSPost2010Prop42
 90
       50
102
RTVSPost2010PropOp42
 70
     1
102
RTVSPost2010Prop43
 90
        3
102
RTVSPost2010PropOp43
 70
     1
102
RTVSPost2010Prop44ColorIndex
 90
        5
102
RTVSPost2010Prop44ColorRGB
 90
      255
102
RTVSPost2010PropOp44
 70
     1
102
RTVSPost2010Prop45
280
     0
102
RTVSPost2010PropOp45
 70
     1
102
RTVSPost2010Prop46
 90
       50
102
RTVSPost2010PropOp46
 70
     1
102
RTVSPost2010Prop47
 90
       50
102
RTVSPost2010PropOp47
 70
     1
102
RTVSPost2010Prop48
 90
       50
102
RTVSPost2010PropOp48
 70
     1
102
RTVSPost2010Prop49
280
     0
102
RTVSPost2010PropOp49
 70
     1
102
RTVSPost2010Prop50
 90
       50
102
RTVSPost2010PropOp50
 70
     1
102
RTVSPost2010Prop51ColorIndex
 90
      256
102
RTVSPost2010Prop51ColorRGB
 90
-16777216
102
RTVSPost2010PropOp51
 70
     0
102
RTVSPost2010Prop52
140
1.0
102
RTVSPost2010PropOp52
 70
     0
102
RTVSPost2010Prop53
 90
        2
102
RTVSPost2010PropOp53
 70
     1
102
RTVSPost2010Prop54
  1
strokes_ogs.tif
102
RTVSPost2010PropOp54
 70
     1
102
RTVSPost2010Prop55
280
     0
102
RTVSPost2010PropOp55
 70
     1
102
RTVSPost2010Prop56
140
1.0
102
RTVSPost2010PropOp56
 70
     1
102
RTVSPost2010Prop57
140
1.0
102
RTVSPost2010PropOp57
 70
     1
102
RTVSPropertyOp0
 70
     1
102
RTVSPropertyOp1
 70
     1
102
RTVSPropertyOp2
 70
     1
102
RTVSPropertyOp3
 70
     1
102
RTVSPropertyOp4
 70
     1
102
RTVSPropertyOp5
 70
     1
102
RTVSPropertyOp6
 70
     1
102
RTVSPropertyOp7
 70
     1
102
RTVSPropertyOp8
 70
     1
102
RTVSPropertyOp9
 70
     1
102
RTVSPropertyOp10
 70
     1
102
RTVSPropertyOp11
 70
     1
102
RTVSPropertyOp12
 70
     1
102
RTVSPropertyOp13
 70
     1
102
RTVSPropertyOp14
 70
     1
102
RTVSPropertyOp15
 70
     1
102
RTVSPropertyOp16
 70
     1
102
RTVSPropertyOp17
 70
     1
102
RTVSPropertyOp18
 70
     1
102
RTVSPropertyOp19
 70
     1
102
RTVSPropertyOp20
 70
     1
102
RTVSPropertyOp21
 70
     1
102
RTVSPropertyOp22
 70
     1
102
RTVSPropertyOp23
 70
     1
102
RTVSPropertyOp24
 70
     1
102
RTVSPropertyOp25
 70
     1
102
RTVSPropertyOp26
 70
     1
102
RTVSPropertyOp27
 70
     1
102
RTVSPropertyOp28
 70
     1
102
RTVSPropertyOp29
 70
     1
102
RTVSPropertyOp30
 70
     1
102
RTVSPropertyOp31
 70
     1
102
RTVSPropertyOp32
 70
     1
102
RTVSPropertyOp33
 70
     1
102
RTVSPropertyOp34
 70
     1
102
RTVSPropertyOp35
 70
     1
102
RTVSPropertyOp36
 70
     1
102
RTVSPropertyOp37
 70
     1
102
RTVSPropertyOp38
 70
     1
102
RTVSPropertyOp39
 70
     1
102
RTVSPropertyOp40
 70
     1
102
RTVSPropertyOp41
 70
     1
102
RTVSPropertyOp42
 70
     1
102
RTVSPropertyOp43
 70
     1
102
RTVSPropertyOp44
 70
     1
102
RTVSPropertyOp45
 70
     1
102
RTVSPropertyOp46
 70
     1
102
RTVSPropertyOp47
 70
     1
102
RTVSPropertyOp48
 70
     1
102
RTVSPropertyOp49
 70
     1
102
RTVSPropertyOp50
 70
     1
102
RTVSPropertyOp51
 70
     0
102
RTVSPropertyOp52
 70
     0
102
RTVSPropertyOp53
 70
     1
102
RTVSPropertyOp54
 70
     1
102
RTVSPropertyOp55
 70
     1
102
RTVSPropertyOp56
 70
     1
102
RTVSPropertyOp57
 70
     1
102
RTVSPropertyOp58
 70
     1
102
RTVSPropertyOp59
 70
     1
102
RTVSPropertyOp60
 70
     1
102
RTVSPropertyOp61
 70
     1
102
RTVSPropertyOp62
 70
     1
  0
XRECORD
  5
64E
102
{ACAD_REACTORS
330
64D
102
}
330
64D
100
AcDbXrecord
280
     1
102
RTVSPost2010Prop28
280
     0
102
RTVSPost2010PropOp28
 70
     1
102
RTVSPost2010Prop29
280
     1
102
RTVSPost2010PropOp29
 70
     1
102
RTVSPost2010Prop30
280
     1
102
RTVSPost2010PropOp30
 70
     1
102
RTVSPost2010Prop31
280
     0
102
RTVSPost2010PropOp31
 70
     1
102
RTVSPost2010Prop32
280
     0
102
RTVSPost2010PropOp32
 70
     1
102
RTVSPost2010Prop33
280
     0
102
RTVSPost2010PropOp33
 70
     1
102
RTVSPost2010Prop34
280
     0
102
RTVSPost2010PropOp34
 70
     1
102
RTVSPost2010Prop35
280
     0
102
RTVSPost2010PropOp35
 70
     1
102
RTVSPost2010Prop36
280
     0
102
RTVSPost2010PropOp36
 70
     1
102
RTVSPost2010Prop37
 90
       50
102
RTVSPost2010PropOp37
 70
     1
102
RTVSPost2010Prop38
140
0.0
102
RTVSPost2010PropOp38
 70
     1
102
RTVSPost2010Prop39
140
1.0
102
RTVSPost2010PropOp39
 70
     1
102
RTVSPost2010Prop40
 90
        0
102
RTVSPost2010PropOp40
 70
     1
102
RTVSPost2010Prop41ColorIndex
 90
       18
102
RTVSPost2010Prop41ColorRGB
 90
        0
102
RTVSPost2010PropOp41
 70
     1
102
RTVSPost2010Prop42
 90
       50
102
RTVSPost2010PropOp42
 70
     1
102
RTVSPost2010Prop43
 90
        3
102
RTVSPost2010PropOp43
 70
     1
102
RTVSPost2010Prop44ColorIndex
 90
        5
102
RTVSPost2010Prop44ColorRGB
 90
      255
102
RTVSPost2010PropOp44
 70
     1
102
RTVSPost2010Prop45
280
     0
102
RTVSPost2010PropOp45
 70
     1
102
RTVSPost2010Prop46
 90
       50
102
RTVSPost2010PropOp46
 70
     1
102
RTVSPost2010Prop47
 90
       50
102
RTVSPost2010PropOp47
 70
     1
102
RTVSPost2010Prop48
 90
       50
102
RTVSPost2010PropOp48
 70
     1
102
RTVSPost2010Prop49
280
     0
102
RTVSPost2010PropOp49
 70
     1
102
RTVSPost2010Prop50
 90
       50
102
RTVSPost2010PropOp50
 70
     1
102
RTVSPost2010Prop51ColorIndex
 90
      256
102
RTVSPost2010Prop51ColorRGB
 90
-16777216
102
RTVSPost2010PropOp51
 70
     0
102
RTVSPost2010Prop52
140
1.0
102
RTVSPost2010PropOp52
 70
     0
102
RTVSPost2010Prop53
 90
        2
102
RTVSPost2010PropOp53
 70
     1
102
RTVSPost2010Prop54
  1
strokes_ogs.tif
102
RTVSPost2010PropOp54
 70
     1
102
RTVSPost2010Prop55
280
     0
102
RTVSPost2010PropOp55
 70
     1
102
RTVSPost2010Prop56
140
1.0
102
RTVSPost2010PropOp56
 70
     1
102
RTVSPost2010Prop57
140
1.0
102
RTVSPost2010PropOp57
 70
     1
102
RTVSPropertyOp0
 70
     1
102
RTVSPropertyOp1
 70
     1
102
RTVSPropertyOp2
 70
     1
102
RTVSPropertyOp3
 70
     1
102
RTVSPropertyOp4
 70
     1
102
RTVSPropertyOp5
 70
     1
102
RTVSPropertyOp6
 70
     1
102
RTVSPropertyOp7
 70
     1
102
RTVSPropertyOp8
 70
     1
102
RTVSPropertyOp9
 70
     1
102
RTVSPropertyOp10
 70
     1
102
RTVSPropertyOp11
 70
     1
102
RTVSPropertyOp12
 70
     1
102
RTVSPropertyOp13
 70
     1
102
RTVSPropertyOp14
 70
     1
102
RTVSPropertyOp15
 70
     1
102
RTVSPropertyOp16
 70
     1
102
RTVSPropertyOp17
 70
     1
102
RTVSPropertyOp18
 70
     1
102
RTVSPropertyOp19
 70
     1
102
RTVSPropertyOp20
 70
     1
102
RTVSPropertyOp21
 70
     1
102
RTVSPropertyOp22
 70
     1
102
RTVSPropertyOp23
 70
     1
102
RTVSPropertyOp24
 70
     1
102
RTVSPropertyOp25
 70
     1
102
RTVSPropertyOp26
 70
     1
102
RTVSPropertyOp27
 70
     1
102
RTVSPropertyOp28
 70
     1
102
RTVSPropertyOp29
 70
     1
102
RTVSPropertyOp30
 70
     1
102
RTVSPropertyOp31
 70
     1
102
RTVSPropertyOp32
 70
     1
102
RTVSPropertyOp33
 70
     1
102
RTVSPropertyOp34
 70
     1
102
RTVSPropertyOp35
 70
     1
102
RTVSPropertyOp36
 70
     1
102
RTVSPropertyOp37
 70
     1
102
RTVSPropertyOp38
 70
     1
102
RTVSPropertyOp39
 70
     1
102
RTVSPropertyOp40
 70
     1
102
RTVSPropertyOp41
 70
     1
102
RTVSPropertyOp42
 70
     1
102
RTVSPropertyOp43
 70
     1
102
RTVSPropertyOp44
 70
     1
102
RTVSPropertyOp45
 70
     1
102
RTVSPropertyOp46
 70
     1
102
RTVSPropertyOp47
 70
     1
102
RTVSPropertyOp48
 70
     1
102
RTVSPropertyOp49
 70
     1
102
RTVSPropertyOp50
 70
     1
102
RTVSPropertyOp51
 70
     0
102
RTVSPropertyOp52
 70
     0
102
RTVSPropertyOp53
 70
     1
102
RTVSPropertyOp54
 70
     1
102
RTVSPropertyOp55
 70
     1
102
RTVSPropertyOp56
 70
     1
102
RTVSPropertyOp57
 70
     1
102
RTVSPropertyOp58
 70
     1
102
RTVSPropertyOp59
 70
     1
102
RTVSPropertyOp60
 70
     1
102
RTVSPropertyOp61
 70
     1
102
RTVSPropertyOp62
 70
     1
  0
XRECORD
  5
650
102
{ACAD_REACTORS
330
64F
102
}
330
64F
100
AcDbXrecord
280
     1
102
RTVSPost2010Prop28
280
     0
102
RTVSPost2010PropOp28
 70
     1
102
RTVSPost2010Prop29
280
     1
102
RTVSPost2010PropOp29
 70
     1
102
RTVSPost2010Prop30
280
     1
102
RTVSPost2010PropOp30
 70
     1
102
RTVSPost2010Prop31
280
     0
102
RTVSPost2010PropOp31
 70
     1
102
RTVSPost2010Prop32
280
     0
102
RTVSPost2010PropOp32
 70
     1
102
RTVSPost2010Prop33
280
     0
102
RTVSPost2010PropOp33
 70
     1
102
RTVSPost2010Prop34
280
     0
102
RTVSPost2010PropOp34
 70
     1
102
RTVSPost2010Prop35
280
     0
102
RTVSPost2010PropOp35
 70
     1
102
RTVSPost2010Prop36
280
     0
102
RTVSPost2010PropOp36
 70
     1
102
RTVSPost2010Prop37
 90
       50
102
RTVSPost2010PropOp37
 70
     1
102
RTVSPost2010Prop38
140
0.0
102
RTVSPost2010PropOp38
 70
     1
102
RTVSPost2010Prop39
140
1.0
102
RTVSPost2010PropOp39
 70
     1
102
RTVSPost2010Prop40
 90
        0
102
RTVSPost2010PropOp40
 70
     1
102
RTVSPost2010Prop41ColorIndex
 90
       18
102
RTVSPost2010Prop41ColorRGB
 90
        0
102
RTVSPost2010PropOp41
 70
     1
102
RTVSPost2010Prop42
 90
       50
102
RTVSPost2010PropOp42
 70
     1
102
RTVSPost2010Prop43
 90
        3
102
RTVSPost2010PropOp43
 70
     1
102
RTVSPost2010Prop44ColorIndex
 90
        5
102
RTVSPost2010Prop44ColorRGB
 90
      255
102
RTVSPost2010PropOp44
 70
     1
102
RTVSPost2010Prop45
280
     0
102
RTVSPost2010PropOp45
 70
     1
102
RTVSPost2010Prop46
 90
       50
102
RTVSPost2010PropOp46
 70
     1
102
RTVSPost2010Prop47
 90
       50
102
RTVSPost2010PropOp47
 70
     1
102
RTVSPost2010Prop48
 90
       50
102
RTVSPost2010PropOp48
 70
     1
102
RTVSPost2010Prop49
280
     0
102
RTVSPost2010PropOp49
 70
     1
102
RTVSPost2010Prop50
 90
       50
102
RTVSPost2010PropOp50
 70
     1
102
RTVSPost2010Prop51ColorIndex
 90
      256
102
RTVSPost2010Prop51ColorRGB
 90
-16777216
102
RTVSPost2010PropOp51
 70
     0
102
RTVSPost2010Prop52
140
1.0
102
RTVSPost2010PropOp52
 70
     0
102
RTVSPost2010Prop53
 90
        2
102
RTVSPost2010PropOp53
 70
     1
102
RTVSPost2010Prop54
  1
strokes_ogs.tif
102
RTVSPost2010PropOp54
 70
     1
102
RTVSPost2010Prop55
280
     0
102
RTVSPost2010PropOp55
 70
     1
102
RTVSPost2010Prop56
140
1.0
102
RTVSPost2010PropOp56
 70
     1
102
RTVSPost2010Prop57
140
1.0
102
RTVSPost2010PropOp57
 70
     1
102
RTVSPropertyOp0
 70
     1
102
RTVSPropertyOp1
 70
     1
102
RTVSPropertyOp2
 70
     1
102
RTVSPropertyOp3
 70
     1
102
RTVSPropertyOp4
 70
     1
102
RTVSPropertyOp5
 70
     1
102
RTVSPropertyOp6
 70
     1
102
RTVSPropertyOp7
 70
     1
102
RTVSPropertyOp8
 70
     1
102
RTVSPropertyOp9
 70
     1
102
RTVSPropertyOp10
 70
     1
102
RTVSPropertyOp11
 70
     1
102
RTVSPropertyOp12
 70
     1
102
RTVSPropertyOp13
 70
     1
102
RTVSPropertyOp14
 70
     1
102
RTVSPropertyOp15
 70
     1
102
RTVSPropertyOp16
 70
     1
102
RTVSPropertyOp17
 70
     1
102
RTVSPropertyOp18
 70
     1
102
RTVSPropertyOp19
 70
     1
102
RTVSPropertyOp20
 70
     1
102
RTVSPropertyOp21
 70
     1
102
RTVSPropertyOp22
 70
     1
102
RTVSPropertyOp23
 70
     1
102
RTVSPropertyOp24
 70
     1
102
RTVSPropertyOp25
 70
     1
102
RTVSPropertyOp26
 70
     1
102
RTVSPropertyOp27
 70
     1
102
RTVSPropertyOp28
 70
     1
102
RTVSPropertyOp29
 70
     1
102
RTVSPropertyOp30
 70
     1
102
RTVSPropertyOp31
 70
     1
102
RTVSPropertyOp32
 70
     1
102
RTVSPropertyOp33
 70
     1
102
RTVSPropertyOp34
 70
     1
102
RTVSPropertyOp35
 70
     1
102
RTVSPropertyOp36
 70
     1
102
RTVSPropertyOp37
 70
     1
102
RTVSPropertyOp38
 70
     1
102
RTVSPropertyOp39
 70
     1
102
RTVSPropertyOp40
 70
     1
102
RTVSPropertyOp41
 70
     1
102
RTVSPropertyOp42
 70
     1
102
RTVSPropertyOp43
 70
     1
102
RTVSPropertyOp44
 70
     1
102
RTVSPropertyOp45
 70
     1
102
RTVSPropertyOp46
 70
     1
102
RTVSPropertyOp47
 70
     1
102
RTVSPropertyOp48
 70
     1
102
RTVSPropertyOp49
 70
     1
102
RTVSPropertyOp50
 70
     1
102
RTVSPropertyOp51
 70
     0
102
RTVSPropertyOp52
 70
     0
102
RTVSPropertyOp53
 70
     1
102
RTVSPropertyOp54
 70
     1
102
RTVSPropertyOp55
 70
     1
102
RTVSPropertyOp56
 70
     1
102
RTVSPropertyOp57
 70
     1
102
RTVSPropertyOp58
 70
     1
102
RTVSPropertyOp59
 70
     1
102
RTVSPropertyOp60
 70
     1
102
RTVSPropertyOp61
 70
     1
102
RTVSPropertyOp62
 70
     1
  0
XRECORD
  5
652
102
{ACAD_REACTORS
330
651
102
}
330
651
100
AcDbXrecord
280
     1
102
RTVSPost2010Prop28
280
     0
102
RTVSPost2010PropOp28
 70
     1
102
RTVSPost2010Prop29
280
     1
102
RTVSPost2010PropOp29
 70
     1
102
RTVSPost2010Prop30
280
     1
102
RTVSPost2010PropOp30
 70
     1
102
RTVSPost2010Prop31
280
     0
102
RTVSPost2010PropOp31
 70
     1
102
RTVSPost2010Prop32
280
     0
102
RTVSPost2010PropOp32
 70
     1
102
RTVSPost2010Prop33
280
     0
102
RTVSPost2010PropOp33
 70
     1
102
RTVSPost2010Prop34
280
     0
102
RTVSPost2010PropOp34
 70
     1
102
RTVSPost2010Prop35
280
     0
102
RTVSPost2010PropOp35
 70
     1
102
RTVSPost2010Prop36
280
     0
102
RTVSPost2010PropOp36
 70
     1
102
RTVSPost2010Prop37
 90
       50
102
RTVSPost2010PropOp37
 70
     1
102
RTVSPost2010Prop38
140
0.0
102
RTVSPost2010PropOp38
 70
     1
102
RTVSPost2010Prop39
140
1.0
102
RTVSPost2010PropOp39
 70
     1
102
RTVSPost2010Prop40
 90
        0
102
RTVSPost2010PropOp40
 70
     1
102
RTVSPost2010Prop41ColorIndex
 90
       18
102
RTVSPost2010Prop41ColorRGB
 90
        0
102
RTVSPost2010PropOp41
 70
     1
102
RTVSPost2010Prop42
 90
       50
102
RTVSPost2010PropOp42
 70
     1
102
RTVSPost2010Prop43
 90
        3
102
RTVSPost2010PropOp43
 70
     1
102
RTVSPost2010Prop44ColorIndex
 90
        5
102
RTVSPost2010Prop44ColorRGB
 90
      255
102
RTVSPost2010PropOp44
 70
     1
102
RTVSPost2010Prop45
280
     0
102
RTVSPost2010PropOp45
 70
     1
102
RTVSPost2010Prop46
 90
       50
102
RTVSPost2010PropOp46
 70
     1
102
RTVSPost2010Prop47
 90
       50
102
RTVSPost2010PropOp47
 70
     1
102
RTVSPost2010Prop48
 90
       50
102
RTVSPost2010PropOp48
 70
     1
102
RTVSPost2010Prop49
280
     0
102
RTVSPost2010PropOp49
 70
     1
102
RTVSPost2010Prop50
 90
       50
102
RTVSPost2010PropOp50
 70
     1
102
RTVSPost2010Prop51ColorIndex
 90
      256
102
RTVSPost2010Prop51ColorRGB
 90
-16777216
102
RTVSPost2010PropOp51
 70
     0
102
RTVSPost2010Prop52
140
1.0
102
RTVSPost2010PropOp52
 70
     0
102
RTVSPost2010Prop53
 90
        2
102
RTVSPost2010PropOp53
 70
     1
102
RTVSPost2010Prop54
  1
strokes_ogs.tif
102
RTVSPost2010PropOp54
 70
     1
102
RTVSPost2010Prop55
280
     0
102
RTVSPost2010PropOp55
 70
     1
102
RTVSPost2010Prop56
140
1.0
102
RTVSPost2010PropOp56
 70
     1
102
RTVSPost2010Prop57
140
1.0
102
RTVSPost2010PropOp57
 70
     1
102
RTVSPropertyOp0
 70
     1
102
RTVSPropertyOp1
 70
     1
102
RTVSPropertyOp2
 70
     1
102
RTVSPropertyOp3
 70
     1
102
RTVSPropertyOp4
 70
     1
102
RTVSPropertyOp5
 70
     1
102
RTVSPropertyOp6
 70
     1
102
RTVSPropertyOp7
 70
     1
102
RTVSPropertyOp8
 70
     1
102
RTVSPropertyOp9
 70
     1
102
RTVSPropertyOp10
 70
     1
102
RTVSPropertyOp11
 70
     1
102
RTVSPropertyOp12
 70
     1
102
RTVSPropertyOp13
 70
     1
102
RTVSPropertyOp14
 70
     1
102
RTVSPropertyOp15
 70
     1
102
RTVSPropertyOp16
 70
     1
102
RTVSPropertyOp17
 70
     1
102
RTVSPropertyOp18
 70
     1
102
RTVSPropertyOp19
 70
     1
102
RTVSPropertyOp20
 70
     1
102
RTVSPropertyOp21
 70
     1
102
RTVSPropertyOp22
 70
     1
102
RTVSPropertyOp23
 70
     1
102
RTVSPropertyOp24
 70
     1
102
RTVSPropertyOp25
 70
     1
102
RTVSPropertyOp26
 70
     1
102
RTVSPropertyOp27
 70
     1
102
RTVSPropertyOp28
 70
     1
102
RTVSPropertyOp29
 70
     1
102
RTVSPropertyOp30
 70
     1
102
RTVSPropertyOp31
 70
     1
102
RTVSPropertyOp32
 70
     1
102
RTVSPropertyOp33
 70
     1
102
RTVSPropertyOp34
 70
     1
102
RTVSPropertyOp35
 70
     1
102
RTVSPropertyOp36
 70
     1
102
RTVSPropertyOp37
 70
     1
102
RTVSPropertyOp38
 70
     1
102
RTVSPropertyOp39
 70
     1
102
RTVSPropertyOp40
 70
     1
102
RTVSPropertyOp41
 70
     1
102
RTVSPropertyOp42
 70
     1
102
RTVSPropertyOp43
 70
     1
102
RTVSPropertyOp44
 70
     1
102
RTVSPropertyOp45
 70
     1
102
RTVSPropertyOp46
 70
     1
102
RTVSPropertyOp47
 70
     1
102
RTVSPropertyOp48
 70
     1
102
RTVSPropertyOp49
 70
     1
102
RTVSPropertyOp50
 70
     1
102
RTVSPropertyOp51
 70
     0
102
RTVSPropertyOp52
 70
     0
102
RTVSPropertyOp53
 70
     1
102
RTVSPropertyOp54
 70
     1
102
RTVSPropertyOp55
 70
     1
102
RTVSPropertyOp56
 70
     1
102
RTVSPropertyOp57
 70
     1
102
RTVSPropertyOp58
 70
     1
102
RTVSPropertyOp59
 70
     1
102
RTVSPropertyOp60
 70
     1
102
RTVSPropertyOp61
 70
     1
102
RTVSPropertyOp62
 70
     1
  0
XRECORD
  5
658
102
{ACAD_REACTORS
330
657
102
}
330
657
100
AcDbXrecord
280
     1
102
RTVSPost2010Prop28
280
     0
102
RTVSPost2010PropOp28
 70
     1
102
RTVSPost2010Prop29
280
     1
102
RTVSPost2010PropOp29
 70
     1
102
RTVSPost2010Prop30
280
     1
102
RTVSPost2010PropOp30
 70
     1
102
RTVSPost2010Prop31
280
     0
102
RTVSPost2010PropOp31
 70
     1
102
RTVSPost2010Prop32
280
     0
102
RTVSPost2010PropOp32
 70
     1
102
RTVSPost2010Prop33
280
     0
102
RTVSPost2010PropOp33
 70
     1
102
RTVSPost2010Prop34
280
     0
102
RTVSPost2010PropOp34
 70
     1
102
RTVSPost2010Prop35
280
     0
102
RTVSPost2010PropOp35
 70
     1
102
RTVSPost2010Prop36
280
     0
102
RTVSPost2010PropOp36
 70
     1
102
RTVSPost2010Prop37
 90
       50
102
RTVSPost2010PropOp37
 70
     1
102
RTVSPost2010Prop38
140
0.0
102
RTVSPost2010PropOp38
 70
     1
102
RTVSPost2010Prop39
140
1.0
102
RTVSPost2010PropOp39
 70
     1
102
RTVSPost2010Prop40
 90
        0
102
RTVSPost2010PropOp40
 70
     1
102
RTVSPost2010Prop41ColorIndex
 90
       18
102
RTVSPost2010Prop41ColorRGB
 90
        0
102
RTVSPost2010PropOp41
 70
     1
102
RTVSPost2010Prop42
 90
       50
102
RTVSPost2010PropOp42
 70
     1
102
RTVSPost2010Prop43
 90
        3
102
RTVSPost2010PropOp43
 70
     1
102
RTVSPost2010Prop44ColorIndex
 90
        5
102
RTVSPost2010Prop44ColorRGB
 90
      255
102
RTVSPost2010PropOp44
 70
     1
102
RTVSPost2010Prop45
280
     0
102
RTVSPost2010PropOp45
 70
     1
102
RTVSPost2010Prop46
 90
       50
102
RTVSPost2010PropOp46
 70
     1
102
RTVSPost2010Prop47
 90
       50
102
RTVSPost2010PropOp47
 70
     1
102
RTVSPost2010Prop48
 90
       50
102
RTVSPost2010PropOp48
 70
     1
102
RTVSPost2010Prop49
280
     0
102
RTVSPost2010PropOp49
 70
     1
102
RTVSPost2010Prop50
 90
       50
102
RTVSPost2010PropOp50
 70
     1
102
RTVSPost2010Prop51ColorIndex
 90
      256
102
RTVSPost2010Prop51ColorRGB
 90
-16777216
102
RTVSPost2010PropOp51
 70
     0
102
RTVSPost2010Prop52
140
1.0
102
RTVSPost2010PropOp52
 70
     0
102
RTVSPost2010Prop53
 90
        2
102
RTVSPost2010PropOp53
 70
     1
102
RTVSPost2010Prop54
  1
strokes_ogs.tif
102
RTVSPost2010PropOp54
 70
     1
102
RTVSPost2010Prop55
280
     0
102
RTVSPost2010PropOp55
 70
     1
102
RTVSPost2010Prop56
140
1.0
102
RTVSPost2010PropOp56
 70
     1
102
RTVSPost2010Prop57
140
1.0
102
RTVSPost2010PropOp57
 70
     1
102
RTVSPropertyOp0
 70
     1
102
RTVSPropertyOp1
 70
     1
102
RTVSPropertyOp2
 70
     1
102
RTVSPropertyOp3
 70
     1
102
RTVSPropertyOp4
 70
     1
102
RTVSPropertyOp5
 70
     1
102
RTVSPropertyOp6
 70
     1
102
RTVSPropertyOp7
 70
     1
102
RTVSPropertyOp8
 70
     1
102
RTVSPropertyOp9
 70
     1
102
RTVSPropertyOp10
 70
     1
102
RTVSPropertyOp11
 70
     1
102
RTVSPropertyOp12
 70
     1
102
RTVSPropertyOp13
 70
     1
102
RTVSPropertyOp14
 70
     1
102
RTVSPropertyOp15
 70
     1
102
RTVSPropertyOp16
 70
     1
102
RTVSPropertyOp17
 70
     1
102
RTVSPropertyOp18
 70
     1
102
RTVSPropertyOp19
 70
     1
102
RTVSPropertyOp20
 70
     1
102
RTVSPropertyOp21
 70
     1
102
RTVSPropertyOp22
 70
     1
102
RTVSPropertyOp23
 70
     1
102
RTVSPropertyOp24
 70
     1
102
RTVSPropertyOp25
 70
     1
102
RTVSPropertyOp26
 70
     1
102
RTVSPropertyOp27
 70
     1
102
RTVSPropertyOp28
 70
     1
102
RTVSPropertyOp29
 70
     1
102
RTVSPropertyOp30
 70
     1
102
RTVSPropertyOp31
 70
     1
102
RTVSPropertyOp32
 70
     1
102
RTVSPropertyOp33
 70
     1
102
RTVSPropertyOp34
 70
     1
102
RTVSPropertyOp35
 70
     1
102
RTVSPropertyOp36
 70
     1
102
RTVSPropertyOp37
 70
     1
102
RTVSPropertyOp38
 70
     1
102
RTVSPropertyOp39
 70
     1
102
RTVSPropertyOp40
 70
     1
102
RTVSPropertyOp41
 70
     1
102
RTVSPropertyOp42
 70
     1
102
RTVSPropertyOp43
 70
     1
102
RTVSPropertyOp44
 70
     1
102
RTVSPropertyOp45
 70
     1
102
RTVSPropertyOp46
 70
     1
102
RTVSPropertyOp47
 70
     1
102
RTVSPropertyOp48
 70
     1
102
RTVSPropertyOp49
 70
     1
102
RTVSPropertyOp50
 70
     1
102
RTVSPropertyOp51
 70
     0
102
RTVSPropertyOp52
 70
     0
102
RTVSPropertyOp53
 70
     1
102
RTVSPropertyOp54
 70
     1
102
RTVSPropertyOp55
 70
     1
102
RTVSPropertyOp56
 70
     1
102
RTVSPropertyOp57
 70
     1
102
RTVSPropertyOp58
 70
     1
102
RTVSPropertyOp59
 70
     1
102
RTVSPropertyOp60
 70
     1
102
RTVSPropertyOp61
 70
     1
102
RTVSPropertyOp62
 70
     1
  0
XRECORD
  5
66C
102
{ACAD_REACTORS
330
66B
102
}
330
66B
100
AcDbXrecord
280
     1
102
RTVSPost2010Prop28
280
     0
102
RTVSPost2010PropOp28
 70
     0
102
RTVSPost2010Prop29
280
     1
102
RTVSPost2010PropOp29
 70
     0
102
RTVSPost2010Prop30
280
     1
102
RTVSPost2010PropOp30
 70
     0
102
RTVSPost2010Prop31
280
     0
102
RTVSPost2010PropOp31
 70
     0
102
RTVSPost2010Prop32
280
     0
102
RTVSPost2010PropOp32
 70
     0
102
RTVSPost2010Prop33
280
     0
102
RTVSPost2010PropOp33
 70
     0
102
RTVSPost2010Prop34
280
     0
102
RTVSPost2010PropOp34
 70
     0
102
RTVSPost2010Prop35
280
     0
102
RTVSPost2010PropOp35
 70
     0
102
RTVSPost2010Prop36
280
     0
102
RTVSPost2010PropOp36
 70
     0
102
RTVSPost2010Prop37
 90
       50
102
RTVSPost2010PropOp37
 70
     0
102
RTVSPost2010Prop38
140
0.0
102
RTVSPost2010PropOp38
 70
     0
102
RTVSPost2010Prop39
140
1.0
102
RTVSPost2010PropOp39
 70
     0
102
RTVSPost2010Prop40
 90
        0
102
RTVSPost2010PropOp40
 70
     0
102
RTVSPost2010Prop41ColorIndex
 90
       18
102
RTVSPost2010Prop41ColorRGB
 90
        0
102
RTVSPost2010PropOp41
 70
     0
102
RTVSPost2010Prop42
 90
       50
102
RTVSPost2010PropOp42
 70
     0
102
RTVSPost2010Prop43
 90
        3
102
RTVSPost2010PropOp43
 70
     0
102
RTVSPost2010Prop44ColorIndex
 90
        5
102
RTVSPost2010Prop44ColorRGB
 90
      255
102
RTVSPost2010PropOp44
 70
     0
102
RTVSPost2010Prop45
280
     0
102
RTVSPost2010PropOp45
 70
     0
102
RTVSPost2010Prop46
 90
       50
102
RTVSPost2010PropOp46
 70
     0
102
RTVSPost2010Prop47
 90
       50
102
RTVSPost2010PropOp47
 70
     0
102
RTVSPost2010Prop48
 90
       50
102
RTVSPost2010PropOp48
 70
     0
102
RTVSPost2010Prop49
280
     0
102
RTVSPost2010PropOp49
 70
     0
102
RTVSPost2010Prop50
 90
       50
102
RTVSPost2010PropOp50
 70
     0
102
RTVSPost2010Prop51ColorIndex
 90
      256
102
RTVSPost2010Prop51ColorRGB
 90
-16777216
102
RTVSPost2010PropOp51
 70
     0
102
RTVSPost2010Prop52
140
1.0
102
RTVSPost2010PropOp52
 70
     0
102
RTVSPost2010Prop53
 90
        2
102
RTVSPost2010PropOp53
 70
     0
102
RTVSPost2010Prop54
  1
strokes_ogs.tif
102
RTVSPost2010PropOp54
 70
     0
102
RTVSPost2010Prop55
280
     0
102
RTVSPost2010PropOp55
 70
     0
102
RTVSPost2010Prop56
140
1.0
102
RTVSPost2010PropOp56
 70
     0
102
RTVSPost2010Prop57
140
1.0
102
RTVSPost2010PropOp57
 70
     0
102
RTVSPropertyOp0
 70
     0
102
RTVSPropertyOp1
 70
     0
102
RTVSPropertyOp2
 70
     0
102
RTVSPropertyOp3
 70
     0
102
RTVSPropertyOp4
 70
     0
102
RTVSPropertyOp5
 70
     0
102
RTVSPropertyOp6
 70
     0
102
RTVSPropertyOp7
 70
     0
102
RTVSPropertyOp8
 70
     0
102
RTVSPropertyOp9
 70
     0
102
RTVSPropertyOp10
 70
     0
102
RTVSPropertyOp11
 70
     0
102
RTVSPropertyOp12
 70
     0
102
RTVSPropertyOp13
 70
     0
102
RTVSPropertyOp14
 70
     2
102
RTVSPropertyOp15
 70
     0
102
RTVSPropertyOp16
 70
     0
102
RTVSPropertyOp17
 70
     0
102
RTVSPropertyOp18
 70
     0
102
RTVSPropertyOp19
 70
     0
102
RTVSPropertyOp20
 70
     0
102
RTVSPropertyOp21
 70
     0
102
RTVSPropertyOp22
 70
     0
102
RTVSPropertyOp23
 70
     0
102
RTVSPropertyOp24
 70
     0
102
RTVSPropertyOp25
 70
     0
102
RTVSPropertyOp26
 70
     0
102
RTVSPropertyOp27
 70
     0
102
RTVSPropertyOp28
 70
     0
102
RTVSPropertyOp29
 70
     0
102
RTVSPropertyOp30
 70
     0
102
RTVSPropertyOp31
 70
     0
102
RTVSPropertyOp32
 70
     0
102
RTVSPropertyOp33
 70
     0
102
RTVSPropertyOp34
 70
     0
102
RTVSPropertyOp35
 70
     0
102
RTVSPropertyOp36
 70
     0
102
RTVSPropertyOp37
 70
     0
102
RTVSPropertyOp38
 70
     0
102
RTVSPropertyOp39
 70
     0
102
RTVSPropertyOp40
 70
     0
102
RTVSPropertyOp41
 70
     0
102
RTVSPropertyOp42
 70
     0
102
RTVSPropertyOp43
 70
     0
102
RTVSPropertyOp44
 70
     0
102
RTVSPropertyOp45
 70
     0
102
RTVSPropertyOp46
 70
     0
102
RTVSPropertyOp47
 70
     0
102
RTVSPropertyOp48
 70
     0
102
RTVSPropertyOp49
 70
     0
102
RTVSPropertyOp50
 70
     0
102
RTVSPropertyOp51
 70
     0
102
RTVSPropertyOp52
 70
     0
102
RTVSPropertyOp53
 70
     0
102
RTVSPropertyOp54
 70
     0
102
RTVSPropertyOp55
 70
     0
102
RTVSPropertyOp56
 70
     0
102
RTVSPropertyOp57
 70
     0
102
RTVSPropertyOp58
 70
     1
102
RTVSPropertyOp59
 70
     1
102
RTVSPropertyOp60
 70
     1
102
RTVSPropertyOp61
 70
     1
102
RTVSPropertyOp62
 70
     1
  0
XRECORD
  5
666
102
{ACAD_REACTORS
330
665
102
}
330
665
100
AcDbXrecord
280
     1
102
RTVSPost2010Prop28
280
     0
102
RTVSPost2010PropOp28
 70
     1
102
RTVSPost2010Prop29
280
     1
102
RTVSPost2010PropOp29
 70
     1
102
RTVSPost2010Prop30
280
     1
102
RTVSPost2010PropOp30
 70
     1
102
RTVSPost2010Prop31
280
     0
102
RTVSPost2010PropOp31
 70
     1
102
RTVSPost2010Prop32
280
     0
102
RTVSPost2010PropOp32
 70
     1
102
RTVSPost2010Prop33
280
     0
102
RTVSPost2010PropOp33
 70
     1
102
RTVSPost2010Prop34
280
     0
102
RTVSPost2010PropOp34
 70
     1
102
RTVSPost2010Prop35
280
     0
102
RTVSPost2010PropOp35
 70
     1
102
RTVSPost2010Prop36
280
     0
102
RTVSPost2010PropOp36
 70
     1
102
RTVSPost2010Prop37
 90
       50
102
RTVSPost2010PropOp37
 70
     1
102
RTVSPost2010Prop38
140
0.0
102
RTVSPost2010PropOp38
 70
     1
102
RTVSPost2010Prop39
140
1.0
102
RTVSPost2010PropOp39
 70
     1
102
RTVSPost2010Prop40
 90
        0
102
RTVSPost2010PropOp40
 70
     1
102
RTVSPost2010Prop41ColorIndex
 90
       18
102
RTVSPost2010Prop41ColorRGB
 90
        0
102
RTVSPost2010PropOp41
 70
     1
102
RTVSPost2010Prop42
 90
       50
102
RTVSPost2010PropOp42
 70
     1
102
RTVSPost2010Prop43
 90
        3
102
RTVSPost2010PropOp43
 70
     1
102
RTVSPost2010Prop44ColorIndex
 90
        5
102
RTVSPost2010Prop44ColorRGB
 90
      255
102
RTVSPost2010PropOp44
 70
     1
102
RTVSPost2010Prop45
280
     0
102
RTVSPost2010PropOp45
 70
     1
102
RTVSPost2010Prop46
 90
       50
102
RTVSPost2010PropOp46
 70
     1
102
RTVSPost2010Prop47
 90
       50
102
RTVSPost2010PropOp47
 70
     1
102
RTVSPost2010Prop48
 90
       50
102
RTVSPost2010PropOp48
 70
     1
102
RTVSPost2010Prop49
280
     0
102
RTVSPost2010PropOp49
 70
     1
102
RTVSPost2010Prop50
 90
       50
102
RTVSPost2010PropOp50
 70
     1
102
RTVSPost2010Prop51ColorIndex
 90
      256
102
RTVSPost2010Prop51ColorRGB
 90
-16777216
102
RTVSPost2010PropOp51
 70
     0
102
RTVSPost2010Prop52
140
1.0
102
RTVSPost2010PropOp52
 70
     0
102
RTVSPost2010Prop53
 90
        2
102
RTVSPost2010PropOp53
 70
     1
102
RTVSPost2010Prop54
  1
strokes_ogs.tif
102
RTVSPost2010PropOp54
 70
     1
102
RTVSPost2010Prop55
280
     0
102
RTVSPost2010PropOp55
 70
     1
102
RTVSPost2010Prop56
140
1.0
102
RTVSPost2010PropOp56
 70
     1
102
RTVSPost2010Prop57
140
1.0
102
RTVSPost2010PropOp57
 70
     1
102
RTVSPropertyOp0
 70
     1
102
RTVSPropertyOp1
 70
     1
102
RTVSPropertyOp2
 70
     1
102
RTVSPropertyOp3
 70
     1
102
RTVSPropertyOp4
 70
     1
102
RTVSPropertyOp5
 70
     1
102
RTVSPropertyOp6
 70
     1
102
RTVSPropertyOp7
 70
     1
102
RTVSPropertyOp8
 70
     1
102
RTVSPropertyOp9
 70
     1
102
RTVSPropertyOp10
 70
     1
102
RTVSPropertyOp11
 70
     1
102
RTVSPropertyOp12
 70
     1
102
RTVSPropertyOp13
 70
     1
102
RTVSPropertyOp14
 70
     1
102
RTVSPropertyOp15
 70
     1
102
RTVSPropertyOp16
 70
     1
102
RTVSPropertyOp17
 70
     1
102
RTVSPropertyOp18
 70
     1
102
RTVSPropertyOp19
 70
     1
102
RTVSPropertyOp20
 70
     1
102
RTVSPropertyOp21
 70
     1
102
RTVSPropertyOp22
 70
     1
102
RTVSPropertyOp23
 70
     1
102
RTVSPropertyOp24
 70
     1
102
RTVSPropertyOp25
 70
     1
102
RTVSPropertyOp26
 70
     1
102
RTVSPropertyOp27
 70
     1
102
RTVSPropertyOp28
 70
     1
102
RTVSPropertyOp29
 70
     1
102
RTVSPropertyOp30
 70
     1
102
RTVSPropertyOp31
 70
     1
102
RTVSPropertyOp32
 70
     1
102
RTVSPropertyOp33
 70
     1
102
RTVSPropertyOp34
 70
     1
102
RTVSPropertyOp35
 70
     1
102
RTVSPropertyOp36
 70
     1
102
RTVSPropertyOp37
 70
     1
102
RTVSPropertyOp38
 70
     1
102
RTVSPropertyOp39
 70
     1
102
RTVSPropertyOp40
 70
     1
102
RTVSPropertyOp41
 70
     1
102
RTVSPropertyOp42
 70
     1
102
RTVSPropertyOp43
 70
     1
102
RTVSPropertyOp44
 70
     1
102
RTVSPropertyOp45
 70
     1
102
RTVSPropertyOp46
 70
     1
102
RTVSPropertyOp47
 70
     1
102
RTVSPropertyOp48
 70
     1
102
RTVSPropertyOp49
 70
     1
102
RTVSPropertyOp50
 70
     1
102
RTVSPropertyOp51
 70
     0
102
RTVSPropertyOp52
 70
     0
102
RTVSPropertyOp53
 70
     1
102
RTVSPropertyOp54
 70
     1
102
RTVSPropertyOp55
 70
     1
102
RTVSPropertyOp56
 70
     1
102
RTVSPropertyOp57
 70
     1
102
RTVSPropertyOp58
 70
     1
102
RTVSPropertyOp59
 70
     1
102
RTVSPropertyOp60
 70
     1
102
RTVSPropertyOp61
 70
     1
102
RTVSPropertyOp62
 70
     1
  0
XRECORD
  5
66E
102
{ACAD_REACTORS
330
66D
102
}
330
66D
100
AcDbXrecord
280
     1
102
RTVSPost2010Prop28
280
     0
102
RTVSPost2010PropOp28
 70
     0
102
RTVSPost2010Prop29
280
     1
102
RTVSPost2010PropOp29
 70
     0
102
RTVSPost2010Prop30
280
     1
102
RTVSPost2010PropOp30
 70
     0
102
RTVSPost2010Prop31
280
     0
102
RTVSPost2010PropOp31
 70
     0
102
RTVSPost2010Prop32
280
     0
102
RTVSPost2010PropOp32
 70
     0
102
RTVSPost2010Prop33
280
     0
102
RTVSPost2010PropOp33
 70
     0
102
RTVSPost2010Prop34
280
     0
102
RTVSPost2010PropOp34
 70
     0
102
RTVSPost2010Prop35
280
     0
102
RTVSPost2010PropOp35
 70
     0
102
RTVSPost2010Prop36
280
     0
102
RTVSPost2010PropOp36
 70
     0
102
RTVSPost2010Prop37
 90
       50
102
RTVSPost2010PropOp37
 70
     0
102
RTVSPost2010Prop38
140
0.0
102
RTVSPost2010PropOp38
 70
     0
102
RTVSPost2010Prop39
140
1.0
102
RTVSPost2010PropOp39
 70
     0
102
RTVSPost2010Prop40
 90
        0
102
RTVSPost2010PropOp40
 70
     0
102
RTVSPost2010Prop41ColorIndex
 90
       18
102
RTVSPost2010Prop41ColorRGB
 90
        0
102
RTVSPost2010PropOp41
 70
     0
102
RTVSPost2010Prop42
 90
       50
102
RTVSPost2010PropOp42
 70
     0
102
RTVSPost2010Prop43
 90
        3
102
RTVSPost2010PropOp43
 70
     0
102
RTVSPost2010Prop44ColorIndex
 90
        5
102
RTVSPost2010Prop44ColorRGB
 90
      255
102
RTVSPost2010PropOp44
 70
     0
102
RTVSPost2010Prop45
280
     0
102
RTVSPost2010PropOp45
 70
     0
102
RTVSPost2010Prop46
 90
       50
102
RTVSPost2010PropOp46
 70
     0
102
RTVSPost2010Prop47
 90
       50
102
RTVSPost2010PropOp47
 70
     0
102
RTVSPost2010Prop48
 90
       50
102
RTVSPost2010PropOp48
 70
     0
102
RTVSPost2010Prop49
280
     0
102
RTVSPost2010PropOp49
 70
     0
102
RTVSPost2010Prop50
 90
       50
102
RTVSPost2010PropOp50
 70
     0
102
RTVSPost2010Prop51ColorIndex
 90
      256
102
RTVSPost2010Prop51ColorRGB
 90
-16777216
102
RTVSPost2010PropOp51
 70
     0
102
RTVSPost2010Prop52
140
1.0
102
RTVSPost2010PropOp52
 70
     0
102
RTVSPost2010Prop53
 90
        2
102
RTVSPost2010PropOp53
 70
     0
102
RTVSPost2010Prop54
  1
strokes_ogs.tif
102
RTVSPost2010PropOp54
 70
     0
102
RTVSPost2010Prop55
280
     0
102
RTVSPost2010PropOp55
 70
     0
102
RTVSPost2010Prop56
140
1.0
102
RTVSPost2010PropOp56
 70
     0
102
RTVSPost2010Prop57
140
1.0
102
RTVSPost2010PropOp57
 70
     0
102
RTVSPropertyOp0
 70
     0
102
RTVSPropertyOp1
 70
     0
102
RTVSPropertyOp2
 70
     0
102
RTVSPropertyOp3
 70
     0
102
RTVSPropertyOp4
 70
     0
102
RTVSPropertyOp5
 70
     0
102
RTVSPropertyOp6
 70
     0
102
RTVSPropertyOp7
 70
     0
102
RTVSPropertyOp8
 70
     0
102
RTVSPropertyOp9
 70
     0
102
RTVSPropertyOp10
 70
     0
102
RTVSPropertyOp11
 70
     0
102
RTVSPropertyOp12
 70
     0
102
RTVSPropertyOp13
 70
     0
102
RTVSPropertyOp14
 70
     2
102
RTVSPropertyOp15
 70
     0
102
RTVSPropertyOp16
 70
     0
102
RTVSPropertyOp17
 70
     0
102
RTVSPropertyOp18
 70
     0
102
RTVSPropertyOp19
 70
     0
102
RTVSPropertyOp20
 70
     0
102
RTVSPropertyOp21
 70
     0
102
RTVSPropertyOp22
 70
     0
102
RTVSPropertyOp23
 70
     0
102
RTVSPropertyOp24
 70
     0
102
RTVSPropertyOp25
 70
     0
102
RTVSPropertyOp26
 70
     0
102
RTVSPropertyOp27
 70
     0
102
RTVSPropertyOp28
 70
     0
102
RTVSPropertyOp29
 70
     0
102
RTVSPropertyOp30
 70
     0
102
RTVSPropertyOp31
 70
     0
102
RTVSPropertyOp32
 70
     0
102
RTVSPropertyOp33
 70
     0
102
RTVSPropertyOp34
 70
     0
102
RTVSPropertyOp35
 70
     0
102
RTVSPropertyOp36
 70
     0
102
RTVSPropertyOp37
 70
     0
102
RTVSPropertyOp38
 70
     0
102
RTVSPropertyOp39
 70
     0
102
RTVSPropertyOp40
 70
     0
102
RTVSPropertyOp41
 70
     0
102
RTVSPropertyOp42
 70
     0
102
RTVSPropertyOp43
 70
     0
102
RTVSPropertyOp44
 70
     0
102
RTVSPropertyOp45
 70
     0
102
RTVSPropertyOp46
 70
     0
102
RTVSPropertyOp47
 70
     0
102
RTVSPropertyOp48
 70
     0
102
RTVSPropertyOp49
 70
     0
102
RTVSPropertyOp50
 70
     0
102
RTVSPropertyOp51
 70
     0
102
RTVSPropertyOp52
 70
     0
102
RTVSPropertyOp53
 70
     0
102
RTVSPropertyOp54
 70
     0
102
RTVSPropertyOp55
 70
     0
102
RTVSPropertyOp56
 70
     0
102
RTVSPropertyOp57
 70
     0
102
RTVSPropertyOp58
 70
     1
102
RTVSPropertyOp59
 70
     1
102
RTVSPropertyOp60
 70
     1
102
RTVSPropertyOp61
 70
     1
102
RTVSPropertyOp62
 70
     1
  0
XRECORD
  5
65C
102
{ACAD_REACTORS
330
65B
102
}
330
65B
100
AcDbXrecord
280
     1
102
RTVSPost2010Prop28
280
     0
102
RTVSPost2010PropOp28
 70
     1
102
RTVSPost2010Prop29
280
     1
102
RTVSPost2010PropOp29
 70
     1
102
RTVSPost2010Prop30
280
     1
102
RTVSPost2010PropOp30
 70
     1
102
RTVSPost2010Prop31
280
     0
102
RTVSPost2010PropOp31
 70
     1
102
RTVSPost2010Prop32
280
     0
102
RTVSPost2010PropOp32
 70
     1
102
RTVSPost2010Prop33
280
     0
102
RTVSPost2010PropOp33
 70
     1
102
RTVSPost2010Prop34
280
     0
102
RTVSPost2010PropOp34
 70
     1
102
RTVSPost2010Prop35
280
     0
102
RTVSPost2010PropOp35
 70
     1
102
RTVSPost2010Prop36
280
     0
102
RTVSPost2010PropOp36
 70
     1
102
RTVSPost2010Prop37
 90
       50
102
RTVSPost2010PropOp37
 70
     1
102
RTVSPost2010Prop38
140
0.0
102
RTVSPost2010PropOp38
 70
     1
102
RTVSPost2010Prop39
140
1.0
102
RTVSPost2010PropOp39
 70
     1
102
RTVSPost2010Prop40
 90
        0
102
RTVSPost2010PropOp40
 70
     1
102
RTVSPost2010Prop41ColorIndex
 90
       18
102
RTVSPost2010Prop41ColorRGB
 90
        0
102
RTVSPost2010PropOp41
 70
     1
102
RTVSPost2010Prop42
 90
       50
102
RTVSPost2010PropOp42
 70
     1
102
RTVSPost2010Prop43
 90
        3
102
RTVSPost2010PropOp43
 70
     1
102
RTVSPost2010Prop44ColorIndex
 90
        5
102
RTVSPost2010Prop44ColorRGB
 90
      255
102
RTVSPost2010PropOp44
 70
     1
102
RTVSPost2010Prop45
280
     0
102
RTVSPost2010PropOp45
 70
     1
102
RTVSPost2010Prop46
 90
       50
102
RTVSPost2010PropOp46
 70
     1
102
RTVSPost2010Prop47
 90
       50
102
RTVSPost2010PropOp47
 70
     1
102
RTVSPost2010Prop48
 90
       50
102
RTVSPost2010PropOp48
 70
     1
102
RTVSPost2010Prop49
280
     0
102
RTVSPost2010PropOp49
 70
     1
102
RTVSPost2010Prop50
 90
       50
102
RTVSPost2010PropOp50
 70
     1
102
RTVSPost2010Prop51ColorIndex
 90
      256
102
RTVSPost2010Prop51ColorRGB
 90
-16777216
102
RTVSPost2010PropOp51
 70
     0
102
RTVSPost2010Prop52
140
1.0
102
RTVSPost2010PropOp52
 70
     0
102
RTVSPost2010Prop53
 90
        2
102
RTVSPost2010PropOp53
 70
     1
102
RTVSPost2010Prop54
  1
strokes_ogs.tif
102
RTVSPost2010PropOp54
 70
     1
102
RTVSPost2010Prop55
280
     0
102
RTVSPost2010PropOp55
 70
     1
102
RTVSPost2010Prop56
140
1.0
102
RTVSPost2010PropOp56
 70
     1
102
RTVSPost2010Prop57
140
1.0
102
RTVSPost2010PropOp57
 70
     1
102
RTVSPropertyOp0
 70
     1
102
RTVSPropertyOp1
 70
     1
102
RTVSPropertyOp2
 70
     1
102
RTVSPropertyOp3
 70
     1
102
RTVSPropertyOp4
 70
     1
102
RTVSPropertyOp5
 70
     1
102
RTVSPropertyOp6
 70
     1
102
RTVSPropertyOp7
 70
     1
102
RTVSPropertyOp8
 70
     1
102
RTVSPropertyOp9
 70
     1
102
RTVSPropertyOp10
 70
     1
102
RTVSPropertyOp11
 70
     1
102
RTVSPropertyOp12
 70
     1
102
RTVSPropertyOp13
 70
     1
102
RTVSPropertyOp14
 70
     1
102
RTVSPropertyOp15
 70
     1
102
RTVSPropertyOp16
 70
     1
102
RTVSPropertyOp17
 70
     1
102
RTVSPropertyOp18
 70
     1
102
RTVSPropertyOp19
 70
     1
102
RTVSPropertyOp20
 70
     1
102
RTVSPropertyOp21
 70
     1
102
RTVSPropertyOp22
 70
     1
102
RTVSPropertyOp23
 70
     1
102
RTVSPropertyOp24
 70
     1
102
RTVSPropertyOp25
 70
     1
102
RTVSPropertyOp26
 70
     1
102
RTVSPropertyOp27
 70
     1
102
RTVSPropertyOp28
 70
     1
102
RTVSPropertyOp29
 70
     1
102
RTVSPropertyOp30
 70
     1
102
RTVSPropertyOp31
 70
     1
102
RTVSPropertyOp32
 70
     1
102
RTVSPropertyOp33
 70
     1
102
RTVSPropertyOp34
 70
     1
102
RTVSPropertyOp35
 70
     1
102
RTVSPropertyOp36
 70
     1
102
RTVSPropertyOp37
 70
     1
102
RTVSPropertyOp38
 70
     1
102
RTVSPropertyOp39
 70
     1
102
RTVSPropertyOp40
 70
     1
102
RTVSPropertyOp41
 70
     1
102
RTVSPropertyOp42
 70
     1
102
RTVSPropertyOp43
 70
     1
102
RTVSPropertyOp44
 70
     1
102
RTVSPropertyOp45
 70
     1
102
RTVSPropertyOp46
 70
     1
102
RTVSPropertyOp47
 70
     1
102
RTVSPropertyOp48
 70
     1
102
RTVSPropertyOp49
 70
     1
102
RTVSPropertyOp50
 70
     1
102
RTVSPropertyOp51
 70
     0
102
RTVSPropertyOp52
 70
     0
102
RTVSPropertyOp53
 70
     1
102
RTVSPropertyOp54
 70
     1
102
RTVSPropertyOp55
 70
     1
102
RTVSPropertyOp56
 70
     1
102
RTVSPropertyOp57
 70
     1
102
RTVSPropertyOp58
 70
     1
102
RTVSPropertyOp59
 70
     1
102
RTVSPropertyOp60
 70
     1
102
RTVSPropertyOp61
 70
     1
102
RTVSPropertyOp62
 70
     1
  0
XRECORD
  5
67A
102
{ACAD_REACTORS
330
679
102
}
330
679
100
AcDbXrecord
280
     1
102
RTVSPost2010Prop28
280
     0
102
RTVSPost2010PropOp28
 70
     1
102
RTVSPost2010Prop29
280
     1
102
RTVSPost2010PropOp29
 70
     1
102
RTVSPost2010Prop30
280
     1
102
RTVSPost2010PropOp30
 70
     1
102
RTVSPost2010Prop31
280
     0
102
RTVSPost2010PropOp31
 70
     1
102
RTVSPost2010Prop32
280
     0
102
RTVSPost2010PropOp32
 70
     1
102
RTVSPost2010Prop33
280
     0
102
RTVSPost2010PropOp33
 70
     1
102
RTVSPost2010Prop34
280
     0
102
RTVSPost2010PropOp34
 70
     1
102
RTVSPost2010Prop35
280
     0
102
RTVSPost2010PropOp35
 70
     1
102
RTVSPost2010Prop36
280
     0
102
RTVSPost2010PropOp36
 70
     1
102
RTVSPost2010Prop37
 90
       50
102
RTVSPost2010PropOp37
 70
     1
102
RTVSPost2010Prop38
140
0.0
102
RTVSPost2010PropOp38
 70
     1
102
RTVSPost2010Prop39
140
1.0
102
RTVSPost2010PropOp39
 70
     1
102
RTVSPost2010Prop40
 90
        0
102
RTVSPost2010PropOp40
 70
     1
102
RTVSPost2010Prop41ColorIndex
 90
       18
102
RTVSPost2010Prop41ColorRGB
 90
        0
102
RTVSPost2010PropOp41
 70
     1
102
RTVSPost2010Prop42
 90
       50
102
RTVSPost2010PropOp42
 70
     1
102
RTVSPost2010Prop43
 90
        3
102
RTVSPost2010PropOp43
 70
     1
102
RTVSPost2010Prop44ColorIndex
 90
        5
102
RTVSPost2010Prop44ColorRGB
 90
      255
102
RTVSPost2010PropOp44
 70
     1
102
RTVSPost2010Prop45
280
     0
102
RTVSPost2010PropOp45
 70
     1
102
RTVSPost2010Prop46
 90
       50
102
RTVSPost2010PropOp46
 70
     1
102
RTVSPost2010Prop47
 90
       50
102
RTVSPost2010PropOp47
 70
     1
102
RTVSPost2010Prop48
 90
       50
102
RTVSPost2010PropOp48
 70
     1
102
RTVSPost2010Prop49
280
     0
102
RTVSPost2010PropOp49
 70
     1
102
RTVSPost2010Prop50
 90
       50
102
RTVSPost2010PropOp50
 70
     1
102
RTVSPost2010Prop51ColorIndex
 90
      256
102
RTVSPost2010Prop51ColorRGB
 90
-16777216
102
RTVSPost2010PropOp51
 70
     0
102
RTVSPost2010Prop52
140
1.0
102
RTVSPost2010PropOp52
 70
     0
102
RTVSPost2010Prop53
 90
        2
102
RTVSPost2010PropOp53
 70
     1
102
RTVSPost2010Prop54
  1
strokes_ogs.tif
102
RTVSPost2010PropOp54
 70
     1
102
RTVSPost2010Prop55
280
     0
102
RTVSPost2010PropOp55
 70
     1
102
RTVSPost2010Prop56
140
1.0
102
RTVSPost2010PropOp56
 70
     1
102
RTVSPost2010Prop57
140
1.0
102
RTVSPost2010PropOp57
 70
     1
102
RTVSPropertyOp0
 70
     1
102
RTVSPropertyOp1
 70
     1
102
RTVSPropertyOp2
 70
     1
102
RTVSPropertyOp3
 70
     1
102
RTVSPropertyOp4
 70
     1
102
RTVSPropertyOp5
 70
     1
102
RTVSPropertyOp6
 70
     1
102
RTVSPropertyOp7
 70
     1
102
RTVSPropertyOp8
 70
     1
102
RTVSPropertyOp9
 70
     1
102
RTVSPropertyOp10
 70
     1
102
RTVSPropertyOp11
 70
     1
102
RTVSPropertyOp12
 70
     1
102
RTVSPropertyOp13
 70
     1
102
RTVSPropertyOp14
 70
     1
102
RTVSPropertyOp15
 70
     1
102
RTVSPropertyOp16
 70
     1
102
RTVSPropertyOp17
 70
     1
102
RTVSPropertyOp18
 70
     1
102
RTVSPropertyOp19
 70
     1
102
RTVSPropertyOp20
 70
     1
102
RTVSPropertyOp21
 70
     1
102
RTVSPropertyOp22
 70
     1
102
RTVSPropertyOp23
 70
     1
102
RTVSPropertyOp24
 70
     1
102
RTVSPropertyOp25
 70
     1
102
RTVSPropertyOp26
 70
     1
102
RTVSPropertyOp27
 70
     1
102
RTVSPropertyOp28
 70
     1
102
RTVSPropertyOp29
 70
     1
102
RTVSPropertyOp30
 70
     1
102
RTVSPropertyOp31
 70
     1
102
RTVSPropertyOp32
 70
     1
102
RTVSPropertyOp33
 70
     1
102
RTVSPropertyOp34
 70
     1
102
RTVSPropertyOp35
 70
     1
102
RTVSPropertyOp36
 70
     1
102
RTVSPropertyOp37
 70
     1
102
RTVSPropertyOp38
 70
     1
102
RTVSPropertyOp39
 70
     1
102
RTVSPropertyOp40
 70
     1
102
RTVSPropertyOp41
 70
     1
102
RTVSPropertyOp42
 70
     1
102
RTVSPropertyOp43
 70
     1
102
RTVSPropertyOp44
 70
     1
102
RTVSPropertyOp45
 70
     1
102
RTVSPropertyOp46
 70
     1
102
RTVSPropertyOp47
 70
     1
102
RTVSPropertyOp48
 70
     1
102
RTVSPropertyOp49
 70
     1
102
RTVSPropertyOp50
 70
     1
102
RTVSPropertyOp51
 70
     0
102
RTVSPropertyOp52
 70
     0
102
RTVSPropertyOp53
 70
     1
102
RTVSPropertyOp54
 70
     1
102
RTVSPropertyOp55
 70
     1
102
RTVSPropertyOp56
 70
     1
102
RTVSPropertyOp57
 70
     1
102
RTVSPropertyOp58
 70
     1
102
RTVSPropertyOp59
 70
     1
102
RTVSPropertyOp60
 70
     1
102
RTVSPropertyOp61
 70
     1
102
RTVSPropertyOp62
 70
     1
  0
XRECORD
  5
678
102
{ACAD_REACTORS
330
677
102
}
330
677
100
AcDbXrecord
280
     1
102
RTVSPost2010Prop28
280
     0
102
RTVSPost2010PropOp28
 70
     1
102
RTVSPost2010Prop29
280
     1
102
RTVSPost2010PropOp29
 70
     1
102
RTVSPost2010Prop30
280
     1
102
RTVSPost2010PropOp30
 70
     1
102
RTVSPost2010Prop31
280
     0
102
RTVSPost2010PropOp31
 70
     1
102
RTVSPost2010Prop32
280
     0
102
RTVSPost2010PropOp32
 70
     1
102
RTVSPost2010Prop33
280
     0
102
RTVSPost2010PropOp33
 70
     1
102
RTVSPost2010Prop34
280
     0
102
RTVSPost2010PropOp34
 70
     1
102
RTVSPost2010Prop35
280
     0
102
RTVSPost2010PropOp35
 70
     1
102
RTVSPost2010Prop36
280
     0
102
RTVSPost2010PropOp36
 70
     1
102
RTVSPost2010Prop37
 90
       50
102
RTVSPost2010PropOp37
 70
     1
102
RTVSPost2010Prop38
140
0.0
102
RTVSPost2010PropOp38
 70
     1
102
RTVSPost2010Prop39
140
1.0
102
RTVSPost2010PropOp39
 70
     1
102
RTVSPost2010Prop40
 90
        0
102
RTVSPost2010PropOp40
 70
     1
102
RTVSPost2010Prop41ColorIndex
 90
       18
102
RTVSPost2010Prop41ColorRGB
 90
        0
102
RTVSPost2010PropOp41
 70
     1
102
RTVSPost2010Prop42
 90
       50
102
RTVSPost2010PropOp42
 70
     1
102
RTVSPost2010Prop43
 90
        3
102
RTVSPost2010PropOp43
 70
     1
102
RTVSPost2010Prop44ColorIndex
 90
        5
102
RTVSPost2010Prop44ColorRGB
 90
      255
102
RTVSPost2010PropOp44
 70
     1
102
RTVSPost2010Prop45
280
     0
102
RTVSPost2010PropOp45
 70
     1
102
RTVSPost2010Prop46
 90
       50
102
RTVSPost2010PropOp46
 70
     1
102
RTVSPost2010Prop47
 90
       50
102
RTVSPost2010PropOp47
 70
     1
102
RTVSPost2010Prop48
 90
       50
102
RTVSPost2010PropOp48
 70
     1
102
RTVSPost2010Prop49
280
     0
102
RTVSPost2010PropOp49
 70
     1
102
RTVSPost2010Prop50
 90
       50
102
RTVSPost2010PropOp50
 70
     1
102
RTVSPost2010Prop51ColorIndex
 90
      256
102
RTVSPost2010Prop51ColorRGB
 90
-16777216
102
RTVSPost2010PropOp51
 70
     0
102
RTVSPost2010Prop52
140
1.0
102
RTVSPost2010PropOp52
 70
     0
102
RTVSPost2010Prop53
 90
        2
102
RTVSPost2010PropOp53
 70
     1
102
RTVSPost2010Prop54
  1
strokes_ogs.tif
102
RTVSPost2010PropOp54
 70
     1
102
RTVSPost2010Prop55
280
     0
102
RTVSPost2010PropOp55
 70
     1
102
RTVSPost2010Prop56
140
1.0
102
RTVSPost2010PropOp56
 70
     1
102
RTVSPost2010Prop57
140
1.0
102
RTVSPost2010PropOp57
 70
     1
102
RTVSPropertyOp0
 70
     1
102
RTVSPropertyOp1
 70
     1
102
RTVSPropertyOp2
 70
     1
102
RTVSPropertyOp3
 70
     1
102
RTVSPropertyOp4
 70
     1
102
RTVSPropertyOp5
 70
     1
102
RTVSPropertyOp6
 70
     1
102
RTVSPropertyOp7
 70
     1
102
RTVSPropertyOp8
 70
     1
102
RTVSPropertyOp9
 70
     1
102
RTVSPropertyOp10
 70
     1
102
RTVSPropertyOp11
 70
     1
102
RTVSPropertyOp12
 70
     1
102
RTVSPropertyOp13
 70
     1
102
RTVSPropertyOp14
 70
     1
102
RTVSPropertyOp15
 70
     1
102
RTVSPropertyOp16
 70
     1
102
RTVSPropertyOp17
 70
     1
102
RTVSPropertyOp18
 70
     1
102
RTVSPropertyOp19
 70
     1
102
RTVSPropertyOp20
 70
     1
102
RTVSPropertyOp21
 70
     1
102
RTVSPropertyOp22
 70
     1
102
RTVSPropertyOp23
 70
     1
102
RTVSPropertyOp24
 70
     1
102
RTVSPropertyOp25
 70
     1
102
RTVSPropertyOp26
 70
     1
102
RTVSPropertyOp27
 70
     1
102
RTVSPropertyOp28
 70
     1
102
RTVSPropertyOp29
 70
     1
102
RTVSPropertyOp30
 70
     1
102
RTVSPropertyOp31
 70
     1
102
RTVSPropertyOp32
 70
     1
102
RTVSPropertyOp33
 70
     1
102
RTVSPropertyOp34
 70
     1
102
RTVSPropertyOp35
 70
     1
102
RTVSPropertyOp36
 70
     1
102
RTVSPropertyOp37
 70
     1
102
RTVSPropertyOp38
 70
     1
102
RTVSPropertyOp39
 70
     1
102
RTVSPropertyOp40
 70
     1
102
RTVSPropertyOp41
 70
     1
102
RTVSPropertyOp42
 70
     1
102
RTVSPropertyOp43
 70
     1
102
RTVSPropertyOp44
 70
     1
102
RTVSPropertyOp45
 70
     1
102
RTVSPropertyOp46
 70
     1
102
RTVSPropertyOp47
 70
     1
102
RTVSPropertyOp48
 70
     1
102
RTVSPropertyOp49
 70
     1
102
RTVSPropertyOp50
 70
     1
102
RTVSPropertyOp51
 70
     0
102
RTVSPropertyOp52
 70
     0
102
RTVSPropertyOp53
 70
     1
102
RTVSPropertyOp54
 70
     1
102
RTVSPropertyOp55
 70
     1
102
RTVSPropertyOp56
 70
     1
102
RTVSPropertyOp57
 70
     1
102
RTVSPropertyOp58
 70
     1
102
RTVSPropertyOp59
 70
     1
102
RTVSPropertyOp60
 70
     1
102
RTVSPropertyOp61
 70
     1
102
RTVSPropertyOp62
 70
     1
  0
XRECORD
  5
672
102
{ACAD_REACTORS
330
671
102
}
330
671
100
AcDbXrecord
280
     1
102
RTVSPost2010Prop28
280
     0
102
RTVSPost2010PropOp28
 70
     1
102
RTVSPost2010Prop29
280
     1
102
RTVSPost2010PropOp29
 70
     1
102
RTVSPost2010Prop30
280
     1
102
RTVSPost2010PropOp30
 70
     1
102
RTVSPost2010Prop31
280
     0
102
RTVSPost2010PropOp31
 70
     1
102
RTVSPost2010Prop32
280
     0
102
RTVSPost2010PropOp32
 70
     1
102
RTVSPost2010Prop33
280
     0
102
RTVSPost2010PropOp33
 70
     1
102
RTVSPost2010Prop34
280
     0
102
RTVSPost2010PropOp34
 70
     1
102
RTVSPost2010Prop35
280
     0
102
RTVSPost2010PropOp35
 70
     1
102
RTVSPost2010Prop36
280
     0
102
RTVSPost2010PropOp36
 70
     1
102
RTVSPost2010Prop37
 90
       50
102
RTVSPost2010PropOp37
 70
     1
102
RTVSPost2010Prop38
140
0.0
102
RTVSPost2010PropOp38
 70
     1
102
RTVSPost2010Prop39
140
1.0
102
RTVSPost2010PropOp39
 70
     1
102
RTVSPost2010Prop40
 90
        0
102
RTVSPost2010PropOp40
 70
     1
102
RTVSPost2010Prop41ColorIndex
 90
       18
102
RTVSPost2010Prop41ColorRGB
 90
        0
102
RTVSPost2010PropOp41
 70
     1
102
RTVSPost2010Prop42
 90
       50
102
RTVSPost2010PropOp42
 70
     1
102
RTVSPost2010Prop43
 90
        3
102
RTVSPost2010PropOp43
 70
     1
102
RTVSPost2010Prop44ColorIndex
 90
        5
102
RTVSPost2010Prop44ColorRGB
 90
      255
102
RTVSPost2010PropOp44
 70
     1
102
RTVSPost2010Prop45
280
     0
102
RTVSPost2010PropOp45
 70
     1
102
RTVSPost2010Prop46
 90
       50
102
RTVSPost2010PropOp46
 70
     1
102
RTVSPost2010Prop47
 90
       50
102
RTVSPost2010PropOp47
 70
     1
102
RTVSPost2010Prop48
 90
       50
102
RTVSPost2010PropOp48
 70
     1
102
RTVSPost2010Prop49
280
     0
102
RTVSPost2010PropOp49
 70
     1
102
RTVSPost2010Prop50
 90
       50
102
RTVSPost2010PropOp50
 70
     1
102
RTVSPost2010Prop51ColorIndex
 90
      256
102
RTVSPost2010Prop51ColorRGB
 90
-16777216
102
RTVSPost2010PropOp51
 70
     0
102
RTVSPost2010Prop52
140
1.0
102
RTVSPost2010PropOp52
 70
     0
102
RTVSPost2010Prop53
 90
        2
102
RTVSPost2010PropOp53
 70
     1
102
RTVSPost2010Prop54
  1
strokes_ogs.tif
102
RTVSPost2010PropOp54
 70
     1
102
RTVSPost2010Prop55
280
     0
102
RTVSPost2010PropOp55
 70
     1
102
RTVSPost2010Prop56
140
1.0
102
RTVSPost2010PropOp56
 70
     1
102
RTVSPost2010Prop57
140
1.0
102
RTVSPost2010PropOp57
 70
     1
102
RTVSPropertyOp0
 70
     1
102
RTVSPropertyOp1
 70
     1
102
RTVSPropertyOp2
 70
     1
102
RTVSPropertyOp3
 70
     1
102
RTVSPropertyOp4
 70
     1
102
RTVSPropertyOp5
 70
     1
102
RTVSPropertyOp6
 70
     1
102
RTVSPropertyOp7
 70
     1
102
RTVSPropertyOp8
 70
     1
102
RTVSPropertyOp9
 70
     1
102
RTVSPropertyOp10
 70
     1
102
RTVSPropertyOp11
 70
     1
102
RTVSPropertyOp12
 70
     1
102
RTVSPropertyOp13
 70
     1
102
RTVSPropertyOp14
 70
     1
102
RTVSPropertyOp15
 70
     1
102
RTVSPropertyOp16
 70
     1
102
RTVSPropertyOp17
 70
     1
102
RTVSPropertyOp18
 70
     1
102
RTVSPropertyOp19
 70
     1
102
RTVSPropertyOp20
 70
     1
102
RTVSPropertyOp21
 70
     1
102
RTVSPropertyOp22
 70
     1
102
RTVSPropertyOp23
 70
     1
102
RTVSPropertyOp24
 70
     1
102
RTVSPropertyOp25
 70
     1
102
RTVSPropertyOp26
 70
     1
102
RTVSPropertyOp27
 70
     1
102
RTVSPropertyOp28
 70
     1
102
RTVSPropertyOp29
 70
     1
102
RTVSPropertyOp30
 70
     1
102
RTVSPropertyOp31
 70
     1
102
RTVSPropertyOp32
 70
     1
102
RTVSPropertyOp33
 70
     1
102
RTVSPropertyOp34
 70
     1
102
RTVSPropertyOp35
 70
     1
102
RTVSPropertyOp36
 70
     1
102
RTVSPropertyOp37
 70
     1
102
RTVSPropertyOp38
 70
     1
102
RTVSPropertyOp39
 70
     1
102
RTVSPropertyOp40
 70
     1
102
RTVSPropertyOp41
 70
     1
102
RTVSPropertyOp42
 70
     1
102
RTVSPropertyOp43
 70
     1
102
RTVSPropertyOp44
 70
     1
102
RTVSPropertyOp45
 70
     1
102
RTVSPropertyOp46
 70
     1
102
RTVSPropertyOp47
 70
     1
102
RTVSPropertyOp48
 70
     1
102
RTVSPropertyOp49
 70
     1
102
RTVSPropertyOp50
 70
     1
102
RTVSPropertyOp51
 70
     0
102
RTVSPropertyOp52
 70
     0
102
RTVSPropertyOp53
 70
     1
102
RTVSPropertyOp54
 70
     1
102
RTVSPropertyOp55
 70
     1
102
RTVSPropertyOp56
 70
     1
102
RTVSPropertyOp57
 70
     1
102
RTVSPropertyOp58
 70
     1
102
RTVSPropertyOp59
 70
     1
102
RTVSPropertyOp60
 70
     1
102
RTVSPropertyOp61
 70
     1
102
RTVSPropertyOp62
 70
     1
  0
XRECORD
  5
674
102
{ACAD_REACTORS
330
673
102
}
330
673
100
AcDbXrecord
280
     1
102
RTVSPost2010Prop28
280
     0
102
RTVSPost2010PropOp28
 70
     1
102
RTVSPost2010Prop29
280
     1
102
RTVSPost2010PropOp29
 70
     1
102
RTVSPost2010Prop30
280
     1
102
RTVSPost2010PropOp30
 70
     1
102
RTVSPost2010Prop31
280
     0
102
RTVSPost2010PropOp31
 70
     1
102
RTVSPost2010Prop32
280
     0
102
RTVSPost2010PropOp32
 70
     1
102
RTVSPost2010Prop33
280
     0
102
RTVSPost2010PropOp33
 70
     1
102
RTVSPost2010Prop34
280
     0
102
RTVSPost2010PropOp34
 70
     1
102
RTVSPost2010Prop35
280
     0
102
RTVSPost2010PropOp35
 70
     1
102
RTVSPost2010Prop36
280
     0
102
RTVSPost2010PropOp36
 70
     1
102
RTVSPost2010Prop37
 90
       50
102
RTVSPost2010PropOp37
 70
     1
102
RTVSPost2010Prop38
140
0.0
102
RTVSPost2010PropOp38
 70
     1
102
RTVSPost2010Prop39
140
1.0
102
RTVSPost2010PropOp39
 70
     1
102
RTVSPost2010Prop40
 90
        0
102
RTVSPost2010PropOp40
 70
     1
102
RTVSPost2010Prop41ColorIndex
 90
       18
102
RTVSPost2010Prop41ColorRGB
 90
        0
102
RTVSPost2010PropOp41
 70
     1
102
RTVSPost2010Prop42
 90
       50
102
RTVSPost2010PropOp42
 70
     1
102
RTVSPost2010Prop43
 90
        3
102
RTVSPost2010PropOp43
 70
     1
102
RTVSPost2010Prop44ColorIndex
 90
        5
102
RTVSPost2010Prop44ColorRGB
 90
      255
102
RTVSPost2010PropOp44
 70
     1
102
RTVSPost2010Prop45
280
     0
102
RTVSPost2010PropOp45
 70
     1
102
RTVSPost2010Prop46
 90
       50
102
RTVSPost2010PropOp46
 70
     1
102
RTVSPost2010Prop47
 90
       50
102
RTVSPost2010PropOp47
 70
     1
102
RTVSPost2010Prop48
 90
       50
102
RTVSPost2010PropOp48
 70
     1
102
RTVSPost2010Prop49
280
     0
102
RTVSPost2010PropOp49
 70
     1
102
RTVSPost2010Prop50
 90
       50
102
RTVSPost2010PropOp50
 70
     1
102
RTVSPost2010Prop51ColorIndex
 90
      256
102
RTVSPost2010Prop51ColorRGB
 90
-16777216
102
RTVSPost2010PropOp51
 70
     0
102
RTVSPost2010Prop52
140
1.0
102
RTVSPost2010PropOp52
 70
     0
102
RTVSPost2010Prop53
 90
        2
102
RTVSPost2010PropOp53
 70
     1
102
RTVSPost2010Prop54
  1
strokes_ogs.tif
102
RTVSPost2010PropOp54
 70
     1
102
RTVSPost2010Prop55
280
     0
102
RTVSPost2010PropOp55
 70
     1
102
RTVSPost2010Prop56
140
1.0
102
RTVSPost2010PropOp56
 70
     1
102
RTVSPost2010Prop57
140
1.0
102
RTVSPost2010PropOp57
 70
     1
102
RTVSPropertyOp0
 70
     1
102
RTVSPropertyOp1
 70
     1
102
RTVSPropertyOp2
 70
     1
102
RTVSPropertyOp3
 70
     1
102
RTVSPropertyOp4
 70
     1
102
RTVSPropertyOp5
 70
     1
102
RTVSPropertyOp6
 70
     1
102
RTVSPropertyOp7
 70
     1
102
RTVSPropertyOp8
 70
     1
102
RTVSPropertyOp9
 70
     1
102
RTVSPropertyOp10
 70
     1
102
RTVSPropertyOp11
 70
     1
102
RTVSPropertyOp12
 70
     1
102
RTVSPropertyOp13
 70
     1
102
RTVSPropertyOp14
 70
     1
102
RTVSPropertyOp15
 70
     1
102
RTVSPropertyOp16
 70
     1
102
RTVSPropertyOp17
 70
     1
102
RTVSPropertyOp18
 70
     1
102
RTVSPropertyOp19
 70
     1
102
RTVSPropertyOp20
 70
     1
102
RTVSPropertyOp21
 70
     1
102
RTVSPropertyOp22
 70
     1
102
RTVSPropertyOp23
 70
     1
102
RTVSPropertyOp24
 70
     1
102
RTVSPropertyOp25
 70
     1
102
RTVSPropertyOp26
 70
     1
102
RTVSPropertyOp27
 70
     1
102
RTVSPropertyOp28
 70
     1
102
RTVSPropertyOp29
 70
     1
102
RTVSPropertyOp30
 70
     1
102
RTVSPropertyOp31
 70
     1
102
RTVSPropertyOp32
 70
     1
102
RTVSPropertyOp33
 70
     1
102
RTVSPropertyOp34
 70
     1
102
RTVSPropertyOp35
 70
     1
102
RTVSPropertyOp36
 70
     1
102
RTVSPropertyOp37
 70
     1
102
RTVSPropertyOp38
 70
     1
102
RTVSPropertyOp39
 70
     1
102
RTVSPropertyOp40
 70
     1
102
RTVSPropertyOp41
 70
     1
102
RTVSPropertyOp42
 70
     1
102
RTVSPropertyOp43
 70
     1
102
RTVSPropertyOp44
 70
     1
102
RTVSPropertyOp45
 70
     1
102
RTVSPropertyOp46
 70
     1
102
RTVSPropertyOp47
 70
     1
102
RTVSPropertyOp48
 70
     1
102
RTVSPropertyOp49
 70
     1
102
RTVSPropertyOp50
 70
     1
102
RTVSPropertyOp51
 70
     0
102
RTVSPropertyOp52
 70
     0
102
RTVSPropertyOp53
 70
     1
102
RTVSPropertyOp54
 70
     1
102
RTVSPropertyOp55
 70
     1
102
RTVSPropertyOp56
 70
     1
102
RTVSPropertyOp57
 70
     1
102
RTVSPropertyOp58
 70
     1
102
RTVSPropertyOp59
 70
     1
102
RTVSPropertyOp60
 70
     1
102
RTVSPropertyOp61
 70
     1
102
RTVSPropertyOp62
 70
     1
  0
XRECORD
  5
664
102
{ACAD_REACTORS
330
663
102
}
330
663
100
AcDbXrecord
280
     1
102
RTVSPost2010Prop28
280
     0
102
RTVSPost2010PropOp28
 70
     1
102
RTVSPost2010Prop29
280
     1
102
RTVSPost2010PropOp29
 70
     1
102
RTVSPost2010Prop30
280
     1
102
RTVSPost2010PropOp30
 70
     1
102
RTVSPost2010Prop31
280
     0
102
RTVSPost2010PropOp31
 70
     1
102
RTVSPost2010Prop32
280
     0
102
RTVSPost2010PropOp32
 70
     1
102
RTVSPost2010Prop33
280
     0
102
RTVSPost2010PropOp33
 70
     1
102
RTVSPost2010Prop34
280
     0
102
RTVSPost2010PropOp34
 70
     1
102
RTVSPost2010Prop35
280
     0
102
RTVSPost2010PropOp35
 70
     1
102
RTVSPost2010Prop36
280
     0
102
RTVSPost2010PropOp36
 70
     1
102
RTVSPost2010Prop37
 90
       50
102
RTVSPost2010PropOp37
 70
     1
102
RTVSPost2010Prop38
140
0.0
102
RTVSPost2010PropOp38
 70
     1
102
RTVSPost2010Prop39
140
1.0
102
RTVSPost2010PropOp39
 70
     1
102
RTVSPost2010Prop40
 90
        0
102
RTVSPost2010PropOp40
 70
     1
102
RTVSPost2010Prop41ColorIndex
 90
       18
102
RTVSPost2010Prop41ColorRGB
 90
        0
102
RTVSPost2010PropOp41
 70
     1
102
RTVSPost2010Prop42
 90
       50
102
RTVSPost2010PropOp42
 70
     1
102
RTVSPost2010Prop43
 90
        3
102
RTVSPost2010PropOp43
 70
     1
102
RTVSPost2010Prop44ColorIndex
 90
        5
102
RTVSPost2010Prop44ColorRGB
 90
      255
102
RTVSPost2010PropOp44
 70
     1
102
RTVSPost2010Prop45
280
     0
102
RTVSPost2010PropOp45
 70
     1
102
RTVSPost2010Prop46
 90
       50
102
RTVSPost2010PropOp46
 70
     1
102
RTVSPost2010Prop47
 90
       50
102
RTVSPost2010PropOp47
 70
     1
102
RTVSPost2010Prop48
 90
       50
102
RTVSPost2010PropOp48
 70
     1
102
RTVSPost2010Prop49
280
     0
102
RTVSPost2010PropOp49
 70
     1
102
RTVSPost2010Prop50
 90
       50
102
RTVSPost2010PropOp50
 70
     1
102
RTVSPost2010Prop51ColorIndex
 90
      256
102
RTVSPost2010Prop51ColorRGB
 90
-16777216
102
RTVSPost2010PropOp51
 70
     0
102
RTVSPost2010Prop52
140
1.0
102
RTVSPost2010PropOp52
 70
     0
102
RTVSPost2010Prop53
 90
        2
102
RTVSPost2010PropOp53
 70
     1
102
RTVSPost2010Prop54
  1
strokes_ogs.tif
102
RTVSPost2010PropOp54
 70
     1
102
RTVSPost2010Prop55
280
     0
102
RTVSPost2010PropOp55
 70
     1
102
RTVSPost2010Prop56
140
1.0
102
RTVSPost2010PropOp56
 70
     1
102
RTVSPost2010Prop57
140
1.0
102
RTVSPost2010PropOp57
 70
     1
102
RTVSPropertyOp0
 70
     1
102
RTVSPropertyOp1
 70
     1
102
RTVSPropertyOp2
 70
     1
102
RTVSPropertyOp3
 70
     1
102
RTVSPropertyOp4
 70
     1
102
RTVSPropertyOp5
 70
     1
102
RTVSPropertyOp6
 70
     1
102
RTVSPropertyOp7
 70
     1
102
RTVSPropertyOp8
 70
     1
102
RTVSPropertyOp9
 70
     1
102
RTVSPropertyOp10
 70
     1
102
RTVSPropertyOp11
 70
     1
102
RTVSPropertyOp12
 70
     1
102
RTVSPropertyOp13
 70
     1
102
RTVSPropertyOp14
 70
     1
102
RTVSPropertyOp15
 70
     1
102
RTVSPropertyOp16
 70
     1
102
RTVSPropertyOp17
 70
     1
102
RTVSPropertyOp18
 70
     1
102
RTVSPropertyOp19
 70
     1
102
RTVSPropertyOp20
 70
     1
102
RTVSPropertyOp21
 70
     1
102
RTVSPropertyOp22
 70
     1
102
RTVSPropertyOp23
 70
     1
102
RTVSPropertyOp24
 70
     1
102
RTVSPropertyOp25
 70
     1
102
RTVSPropertyOp26
 70
     1
102
RTVSPropertyOp27
 70
     1
102
RTVSPropertyOp28
 70
     1
102
RTVSPropertyOp29
 70
     1
102
RTVSPropertyOp30
 70
     1
102
RTVSPropertyOp31
 70
     1
102
RTVSPropertyOp32
 70
     1
102
RTVSPropertyOp33
 70
     1
102
RTVSPropertyOp34
 70
     1
102
RTVSPropertyOp35
 70
     1
102
RTVSPropertyOp36
 70
     1
102
RTVSPropertyOp37
 70
     1
102
RTVSPropertyOp38
 70
     1
102
RTVSPropertyOp39
 70
     1
102
RTVSPropertyOp40
 70
     1
102
RTVSPropertyOp41
 70
     1
102
RTVSPropertyOp42
 70
     1
102
RTVSPropertyOp43
 70
     1
102
RTVSPropertyOp44
 70
     1
102
RTVSPropertyOp45
 70
     1
102
RTVSPropertyOp46
 70
     1
102
RTVSPropertyOp47
 70
     1
102
RTVSPropertyOp48
 70
     1
102
RTVSPropertyOp49
 70
     1
102
RTVSPropertyOp50
 70
     1
102
RTVSPropertyOp51
 70
     0
102
RTVSPropertyOp52
 70
     0
102
RTVSPropertyOp53
 70
     1
102
RTVSPropertyOp54
 70
     1
102
RTVSPropertyOp55
 70
     1
102
RTVSPropertyOp56
 70
     1
102
RTVSPropertyOp57
 70
     1
102
RTVSPropertyOp58
 70
     1
102
RTVSPropertyOp59
 70
     1
102
RTVSPropertyOp60
 70
     1
102
RTVSPropertyOp61
 70
     1
102
RTVSPropertyOp62
 70
     1
  0
XRECORD
  5
656
102
{ACAD_REACTORS
330
655
102
}
330
655
100
AcDbXrecord
280
     1
102
RTVSPost2010Prop28
280
     0
102
RTVSPost2010PropOp28
 70
     1
102
RTVSPost2010Prop29
280
     1
102
RTVSPost2010PropOp29
 70
     1
102
RTVSPost2010Prop30
280
     1
102
RTVSPost2010PropOp30
 70
     1
102
RTVSPost2010Prop31
280
     0
102
RTVSPost2010PropOp31
 70
     1
102
RTVSPost2010Prop32
280
     0
102
RTVSPost2010PropOp32
 70
     1
102
RTVSPost2010Prop33
280
     0
102
RTVSPost2010PropOp33
 70
     1
102
RTVSPost2010Prop34
280
     0
102
RTVSPost2010PropOp34
 70
     1
102
RTVSPost2010Prop35
280
     0
102
RTVSPost2010PropOp35
 70
     1
102
RTVSPost2010Prop36
280
     0
102
RTVSPost2010PropOp36
 70
     1
102
RTVSPost2010Prop37
 90
       50
102
RTVSPost2010PropOp37
 70
     1
102
RTVSPost2010Prop38
140
0.0
102
RTVSPost2010PropOp38
 70
     1
102
RTVSPost2010Prop39
140
1.0
102
RTVSPost2010PropOp39
 70
     1
102
RTVSPost2010Prop40
 90
        0
102
RTVSPost2010PropOp40
 70
     1
102
RTVSPost2010Prop41ColorIndex
 90
       18
102
RTVSPost2010Prop41ColorRGB
 90
        0
102
RTVSPost2010PropOp41
 70
     1
102
RTVSPost2010Prop42
 90
       50
102
RTVSPost2010PropOp42
 70
     1
102
RTVSPost2010Prop43
 90
        3
102
RTVSPost2010PropOp43
 70
     1
102
RTVSPost2010Prop44ColorIndex
 90
        5
102
RTVSPost2010Prop44ColorRGB
 90
      255
102
RTVSPost2010PropOp44
 70
     1
102
RTVSPost2010Prop45
280
     0
102
RTVSPost2010PropOp45
 70
     1
102
RTVSPost2010Prop46
 90
       50
102
RTVSPost2010PropOp46
 70
     1
102
RTVSPost2010Prop47
 90
       50
102
RTVSPost2010PropOp47
 70
     1
102
RTVSPost2010Prop48
 90
       50
102
RTVSPost2010PropOp48
 70
     1
102
RTVSPost2010Prop49
280
     0
102
RTVSPost2010PropOp49
 70
     1
102
RTVSPost2010Prop50
 90
       50
102
RTVSPost2010PropOp50
 70
     1
102
RTVSPost2010Prop51ColorIndex
 90
      256
102
RTVSPost2010Prop51ColorRGB
 90
-16777216
102
RTVSPost2010PropOp51
 70
     0
102
RTVSPost2010Prop52
140
1.0
102
RTVSPost2010PropOp52
 70
     0
102
RTVSPost2010Prop53
 90
        2
102
RTVSPost2010PropOp53
 70
     1
102
RTVSPost2010Prop54
  1
strokes_ogs.tif
102
RTVSPost2010PropOp54
 70
     1
102
RTVSPost2010Prop55
280
     0
102
RTVSPost2010PropOp55
 70
     1
102
RTVSPost2010Prop56
140
1.0
102
RTVSPost2010PropOp56
 70
     1
102
RTVSPost2010Prop57
140
1.0
102
RTVSPost2010PropOp57
 70
     1
102
RTVSPropertyOp0
 70
     1
102
RTVSPropertyOp1
 70
     1
102
RTVSPropertyOp2
 70
     1
102
RTVSPropertyOp3
 70
     1
102
RTVSPropertyOp4
 70
     1
102
RTVSPropertyOp5
 70
     1
102
RTVSPropertyOp6
 70
     1
102
RTVSPropertyOp7
 70
     1
102
RTVSPropertyOp8
 70
     1
102
RTVSPropertyOp9
 70
     1
102
RTVSPropertyOp10
 70
     1
102
RTVSPropertyOp11
 70
     1
102
RTVSPropertyOp12
 70
     1
102
RTVSPropertyOp13
 70
     1
102
RTVSPropertyOp14
 70
     1
102
RTVSPropertyOp15
 70
     1
102
RTVSPropertyOp16
 70
     1
102
RTVSPropertyOp17
 70
     1
102
RTVSPropertyOp18
 70
     1
102
RTVSPropertyOp19
 70
     1
102
RTVSPropertyOp20
 70
     1
102
RTVSPropertyOp21
 70
     1
102
RTVSPropertyOp22
 70
     1
102
RTVSPropertyOp23
 70
     1
102
RTVSPropertyOp24
 70
     1
102
RTVSPropertyOp25
 70
     1
102
RTVSPropertyOp26
 70
     1
102
RTVSPropertyOp27
 70
     1
102
RTVSPropertyOp28
 70
     1
102
RTVSPropertyOp29
 70
     1
102
RTVSPropertyOp30
 70
     1
102
RTVSPropertyOp31
 70
     1
102
RTVSPropertyOp32
 70
     1
102
RTVSPropertyOp33
 70
     1
102
RTVSPropertyOp34
 70
     1
102
RTVSPropertyOp35
 70
     1
102
RTVSPropertyOp36
 70
     1
102
RTVSPropertyOp37
 70
     1
102
RTVSPropertyOp38
 70
     1
102
RTVSPropertyOp39
 70
     1
102
RTVSPropertyOp40
 70
     1
102
RTVSPropertyOp41
 70
     1
102
RTVSPropertyOp42
 70
     1
102
RTVSPropertyOp43
 70
     1
102
RTVSPropertyOp44
 70
     1
102
RTVSPropertyOp45
 70
     1
102
RTVSPropertyOp46
 70
     1
102
RTVSPropertyOp47
 70
     1
102
RTVSPropertyOp48
 70
     1
102
RTVSPropertyOp49
 70
     1
102
RTVSPropertyOp50
 70
     1
102
RTVSPropertyOp51
 70
     0
102
RTVSPropertyOp52
 70
     0
102
RTVSPropertyOp53
 70
     1
102
RTVSPropertyOp54
 70
     1
102
RTVSPropertyOp55
 70
     1
102
RTVSPropertyOp56
 70
     1
102
RTVSPropertyOp57
 70
     1
102
RTVSPropertyOp58
 70
     1
102
RTVSPropertyOp59
 70
     1
102
RTVSPropertyOp60
 70
     1
102
RTVSPropertyOp61
 70
     1
102
RTVSPropertyOp62
 70
     1
  0
XRECORD
  5
676
102
{ACAD_REACTORS
330
675
102
}
330
675
100
AcDbXrecord
280
     1
102
RTVSPost2010Prop28
280
     0
102
RTVSPost2010PropOp28
 70
     1
102
RTVSPost2010Prop29
280
     1
102
RTVSPost2010PropOp29
 70
     1
102
RTVSPost2010Prop30
280
     1
102
RTVSPost2010PropOp30
 70
     1
102
RTVSPost2010Prop31
280
     0
102
RTVSPost2010PropOp31
 70
     1
102
RTVSPost2010Prop32
280
     0
102
RTVSPost2010PropOp32
 70
     1
102
RTVSPost2010Prop33
280
     0
102
RTVSPost2010PropOp33
 70
     1
102
RTVSPost2010Prop34
280
     0
102
RTVSPost2010PropOp34
 70
     1
102
RTVSPost2010Prop35
280
     0
102
RTVSPost2010PropOp35
 70
     1
102
RTVSPost2010Prop36
280
     0
102
RTVSPost2010PropOp36
 70
     1
102
RTVSPost2010Prop37
 90
       50
102
RTVSPost2010PropOp37
 70
     1
102
RTVSPost2010Prop38
140
0.0
102
RTVSPost2010PropOp38
 70
     1
102
RTVSPost2010Prop39
140
1.0
102
RTVSPost2010PropOp39
 70
     1
102
RTVSPost2010Prop40
 90
        0
102
RTVSPost2010PropOp40
 70
     1
102
RTVSPost2010Prop41ColorIndex
 90
       18
102
RTVSPost2010Prop41ColorRGB
 90
        0
102
RTVSPost2010PropOp41
 70
     1
102
RTVSPost2010Prop42
 90
       50
102
RTVSPost2010PropOp42
 70
     1
102
RTVSPost2010Prop43
 90
        3
102
RTVSPost2010PropOp43
 70
     1
102
RTVSPost2010Prop44ColorIndex
 90
        5
102
RTVSPost2010Prop44ColorRGB
 90
      255
102
RTVSPost2010PropOp44
 70
     1
102
RTVSPost2010Prop45
280
     0
102
RTVSPost2010PropOp45
 70
     1
102
RTVSPost2010Prop46
 90
       50
102
RTVSPost2010PropOp46
 70
     1
102
RTVSPost2010Prop47
 90
       50
102
RTVSPost2010PropOp47
 70
     1
102
RTVSPost2010Prop48
 90
       50
102
RTVSPost2010PropOp48
 70
     1
102
RTVSPost2010Prop49
280
     0
102
RTVSPost2010PropOp49
 70
     1
102
RTVSPost2010Prop50
 90
       50
102
RTVSPost2010PropOp50
 70
     1
102
RTVSPost2010Prop51ColorIndex
 90
      256
102
RTVSPost2010Prop51ColorRGB
 90
-16777216
102
RTVSPost2010PropOp51
 70
     0
102
RTVSPost2010Prop52
140
1.0
102
RTVSPost2010PropOp52
 70
     0
102
RTVSPost2010Prop53
 90
        2
102
RTVSPost2010PropOp53
 70
     1
102
RTVSPost2010Prop54
  1
strokes_ogs.tif
102
RTVSPost2010PropOp54
 70
     1
102
RTVSPost2010Prop55
280
     0
102
RTVSPost2010PropOp55
 70
     1
102
RTVSPost2010Prop56
140
1.0
102
RTVSPost2010PropOp56
 70
     1
102
RTVSPost2010Prop57
140
1.0
102
RTVSPost2010PropOp57
 70
     1
102
RTVSPropertyOp0
 70
     1
102
RTVSPropertyOp1
 70
     1
102
RTVSPropertyOp2
 70
     1
102
RTVSPropertyOp3
 70
     1
102
RTVSPropertyOp4
 70
     1
102
RTVSPropertyOp5
 70
     1
102
RTVSPropertyOp6
 70
     1
102
RTVSPropertyOp7
 70
     1
102
RTVSPropertyOp8
 70
     1
102
RTVSPropertyOp9
 70
     1
102
RTVSPropertyOp10
 70
     1
102
RTVSPropertyOp11
 70
     1
102
RTVSPropertyOp12
 70
     1
102
RTVSPropertyOp13
 70
     1
102
RTVSPropertyOp14
 70
     1
102
RTVSPropertyOp15
 70
     1
102
RTVSPropertyOp16
 70
     1
102
RTVSPropertyOp17
 70
     1
102
RTVSPropertyOp18
 70
     1
102
RTVSPropertyOp19
 70
     1
102
RTVSPropertyOp20
 70
     1
102
RTVSPropertyOp21
 70
     1
102
RTVSPropertyOp22
 70
     1
102
RTVSPropertyOp23
 70
     1
102
RTVSPropertyOp24
 70
     1
102
RTVSPropertyOp25
 70
     1
102
RTVSPropertyOp26
 70
     1
102
RTVSPropertyOp27
 70
     1
102
RTVSPropertyOp28
 70
     1
102
RTVSPropertyOp29
 70
     1
102
RTVSPropertyOp30
 70
     1
102
RTVSPropertyOp31
 70
     1
102
RTVSPropertyOp32
 70
     1
102
RTVSPropertyOp33
 70
     1
102
RTVSPropertyOp34
 70
     1
102
RTVSPropertyOp35
 70
     1
102
RTVSPropertyOp36
 70
     1
102
RTVSPropertyOp37
 70
     1
102
RTVSPropertyOp38
 70
     1
102
RTVSPropertyOp39
 70
     1
102
RTVSPropertyOp40
 70
     1
102
RTVSPropertyOp41
 70
     1
102
RTVSPropertyOp42
 70
     1
102
RTVSPropertyOp43
 70
     1
102
RTVSPropertyOp44
 70
     1
102
RTVSPropertyOp45
 70
     1
102
RTVSPropertyOp46
 70
     1
102
RTVSPropertyOp47
 70
     1
102
RTVSPropertyOp48
 70
     1
102
RTVSPropertyOp49
 70
     1
102
RTVSPropertyOp50
 70
     1
102
RTVSPropertyOp51
 70
     0
102
RTVSPropertyOp52
 70
     0
102
RTVSPropertyOp53
 70
     1
102
RTVSPropertyOp54
 70
     1
102
RTVSPropertyOp55
 70
     1
102
RTVSPropertyOp56
 70
     1
102
RTVSPropertyOp57
 70
     1
102
RTVSPropertyOp58
 70
     1
102
RTVSPropertyOp59
 70
     1
102
RTVSPropertyOp60
 70
     1
102
RTVSPropertyOp61
 70
     1
102
RTVSPropertyOp62
 70
     1
  0
ENDSEC
  0
EOF
