  0
SECTION
  2
HEADER
  9
$ACADVER
  1
AC1015
  9
$ACADMAINTVER
 70
    20
  9
$DWGCODEPAGE
  3
ANSI_1250
  9
$INSBASE
 10
0.0
 20
0.0
 30
0.0
  9
$EXTMIN
 10
-42.82587572623921
 20
-26.64170960982265
 30
0.0
  9
$EXTMAX
 10
78.85504799999999
 20
59.7174017262392
 30
0.0
  9
$LIMMIN
 10
-0.5
 20
-0.5
  9
$LIMMAX
 10
5.0
 20
5.0
  9
$ORTHOMODE
 70
     0
  9
$REGENMODE
 70
     1
  9
$FILLMODE
 70
     1
  9
$QTEXTMODE
 70
     0
  9
$MIRRTEXT
 70
     1
  9
$LTSCALE
 40
1.0
  9
$ATTMODE
 70
     1
  9
$TEXTSIZE
 40
0.2
  9
$TRACEWID
 40
0.05
  9
$TEXTSTYLE
  7
Standard
  9
$CLAYER
  8
0
  9
$CELTYPE
  6
ByLayer
  9
$CECOLOR
 62
   256
  9
$CELTSCALE
 40
1.0
  9
$DISPSILH
 70
     0
  9
$DIMSCALE
 40
1.0
  9
$DIMASZ
 40
0.18
  9
$DIMEXO
 40
0.0625
  9
$DIMDLI
 40
0.38
  9
$DIMRND
 40
0.0
  9
$DIMDLE
 40
0.0
  9
$DIMEXE
 40
0.18
  9
$DIMTP
 40
0.0
  9
$DIMTM
 40
0.0
  9
$DIMTXT
 40
0.18
  9
$DIMCEN
 40
0.09
  9
$DIMTSZ
 40
0.0
  9
$DIMTOL
 70
     0
  9
$DIMLIM
 70
     0
  9
$DIMTIH
 70
     1
  9
$DIMTOH
 70
     1
  9
$DIMSE1
 70
     0
  9
$DIMSE2
 70
     0
  9
$DIMTAD
 70
     0
  9
$DIMZIN
 70
     0
  9
$DIMBLK
  1

  9
$DIMASO
 70
     1
  9
$DIMSHO
 70
     1
  9
$DIMPOST
  1

  9
$DIMAPOST
  1

  9
$DIMALT
 70
     0
  9
$DIMALTD
 70
     2
  9
$DIMALTF
 40
25.4
  9
$DIMLFAC
 40
1.0
  9
$DIMTOFL
 70
     0
  9
$DIMTVP
 40
0.0
  9
$DIMTIX
 70
     0
  9
$DIMSOXD
 70
     0
  9
$DIMSAH
 70
     0
  9
$DIMBLK1
  1

  9
$DIMBLK2
  1

  9
$DIMSTYLE
  2
Standard
  9
$DIMCLRD
 70
     0
  9
$DIMCLRE
 70
     0
  9
$DIMCLRT
 70
     0
  9
$DIMTFAC
 40
1.0
  9
$DIMGAP
 40
0.09
  9
$DIMJUST
 70
     0
  9
$DIMSD1
 70
     0
  9
$DIMSD2
 70
     0
  9
$DIMTOLJ
 70
     1
  9
$DIMTZIN
 70
     0
  9
$DIMALTZ
 70
     0
  9
$DIMALTTZ
 70
     0
  9
$DIMUPT
 70
     0
  9
$DIMDEC
 70
     4
  9
$DIMTDEC
 70
     4
  9
$DIMALTU
 70
     2
  9
$DIMALTTD
 70
     2
  9
$DIMTXSTY
  7
Standard
  9
$DIMAUNIT
 70
     0
  9
$DIMADEC
 70
     0
  9
$DIMALTRND
 40
0.0
  9
$DIMAZIN
 70
     0
  9
$DIMDSEP
 70
    46
  9
$DIMATFIT
 70
     3
  9
$DIMFRAC
 70
     0
  9
$DIMLDRBLK
  1

  9
$DIMLUNIT
 70
     2
  9
$DIMLWD
 70
    -2
  9
$DIMLWE
 70
    -2
  9
$DIMTMOVE
 70
     0
  9
$LUNITS
 70
     2
  9
$LUPREC
 70
     4
  9
$SKETCHINC
 40
0.1
  9
$FILLETRAD
 40
0.5
  9
$AUNITS
 70
     0
  9
$AUPREC
 70
     0
  9
$MENU
  1
.
  9
$ELEVATION
 40
0.0
  9
$PELEVATION
 40
0.0
  9
$THICKNESS
 40
0.0
  9
$LIMCHECK
 70
     0
  9
$CHAMFERA
 40
0.0
  9
$CHAMFERB
 40
0.0
  9
$CHAMFERC
 40
0.0
  9
$CHAMFERD
 40
0.0
  9
$SKPOLY
 70
     0
  9
$TDCREATE
 40
2459080.479166667
  9
$TDUCREATE
 40
2459080.395844572
  9
$TDUPDATE
 40
2459080.513344907
  9
$TDUUPDATE
 40
2459080.430011574
  9
$TDINDWG
 40
0.0004629745
  9
$TDUSRTIMER
 40
0.0004629745
  9
$USRTIMER
 70
     1
  9
$ANGBASE
 50
0.0
  9
$ANGDIR
 70
     0
  9
$PDMODE
 70
     0
  9
$PDSIZE
 40
0.0
  9
$PLINEWID
 40
0.0
  9
$SPLFRAME
 70
     0
  9
$SPLINETYPE
 70
     6
  9
$SPLINESEGS
 70
     8
  9
$HANDSEED
  5
680
  9
$SURFTAB1
 70
     6
  9
$SURFTAB2
 70
     6
  9
$SURFTYPE
 70
     6
  9
$SURFU
 70
     6
  9
$SURFV
 70
     6
  9
$UCSBASE
  2

  9
$UCSNAME
  2

  9
$UCSORG
 10
0.0
 20
0.0
 30
0.0
  9
$UCSXDIR
 10
1.0
 20
0.0
 30
0.0
  9
$UCSYDIR
 10
0.0
 20
1.0
 30
0.0
  9
$UCSORTHOREF
  2

  9
$UCSORTHOVIEW
 70
     0
  9
$UCSORGTOP
 10
0.0
 20
0.0
 30
0.0
  9
$UCSORGBOTTOM
 10
0.0
 20
0.0
 30
0.0
  9
$UCSORGLEFT
 10
0.0
 20
0.0
 30
0.0
  9
$UCSORGRIGHT
 10
0.0
 20
0.0
 30
0.0
  9
$UCSORGFRONT
 10
0.0
 20
0.0
 30
0.0
  9
$UCSORGBACK
 10
0.0
 20
0.0
 30
0.0
  9
$PUCSBASE
  2

  9
$PUCSNAME
  2

  9
$PUCSORG
 10
0.0
 20
0.0
 30
0.0
  9
$PUCSXDIR
 10
1.0
 20
0.0
 30
0.0
  9
$PUCSYDIR
 10
0.0
 20
1.0
 30
0.0
  9
$PUCSORTHOREF
  2

  9
$PUCSORTHOVIEW
 70
     0
  9
$PUCSORGTOP
 10
0.0
 20
0.0
 30
0.0
  9
$PUCSORGBOTTOM
 10
0.0
 20
0.0
 30
0.0
  9
$PUCSORGLEFT
 10
0.0
 20
0.0
 30
0.0
  9
$PUCSORGRIGHT
 10
0.0
 20
0.0
 30
0.0
  9
$PUCSORGFRONT
 10
0.0
 20
0.0
 30
0.0
  9
$PUCSORGBACK
 10
0.0
 20
0.0
 30
0.0
  9
$USERI1
 70
     0
  9
$USERI2
 70
     0
  9
$USERI3
 70
     0
  9
$USERI4
 70
     0
  9
$USERI5
 70
     0
  9
$USERR1
 40
0.0
  9
$USERR2
 40
0.0
  9
$USERR3
 40
0.0
  9
$USERR4
 40
0.0
  9
$USERR5
 40
0.0
  9
$WORLDVIEW
 70
     1
  9
$SHADEDGE
 70
     3
  9
$SHADEDIF
 70
    70
  9
$TILEMODE
 70
     1
  9
$MAXACTVP
 70
    64
  9
$PINSBASE
 10
0.0
 20
0.0
 30
0.0
  9
$PLIMCHECK
 70
     0
  9
$PEXTMIN
 10
-0.5
 20
-0.5
 30
-0.5
  9
$PEXTMAX
 10
5.0
 20
5.0
 30
5.0
  9
$PLIMMIN
 10
-0.5
 20
-0.5
  9
$PLIMMAX
 10
5.0
 20
5.0
  9
$UNITMODE
 70
     0
  9
$VISRETAIN
 70
     1
  9
$PLINEGEN
 70
     0
  9
$PSLTSCALE
 70
     1
  9
$TREEDEPTH
 70
  3020
  9
$CMLSTYLE
  2
Standard
  9
$CMLJUST
 70
     0
  9
$CMLSCALE
 40
1.0
  9
$PROXYGRAPHICS
 70
     1
  9
$MEASUREMENT
 70
     1
  9
$CELWEIGHT
370
    18
  9
$ENDCAPS
280
     0
  9
$JOINSTYLE
280
     0
  9
$LWDISPLAY
290
     1
  9
$INSUNITS
 70
     4
  9
$HYPERLINKBASE
  1

  9
$STYLESHEET
  1

  9
$XEDIT
290
     1
  9
$CEPSNTYPE
380
     0
  9
$PSTYLEMODE
290
     1
  9
$FINGERPRINTGUID
  2
{8A832E38-37CB-459C-BB6C-5BDCB2A01767}
  9
$VERSIONGUID
  2
{3DCB9793-9EB2-074E-95A7-BD290DB51F6D}
  9
$EXTNAMES
290
     1
  9
$PSVPSCALE
 40
0.0
  9
$OLESTARTUP
290
     0
  0
ENDSEC
  0
SECTION
  2
CLASSES
  0
CLASS
  1
ACDBDICTIONARYWDFLT
  2
AcDbDictionaryWithDefault
  3
ObjectDBX Classes
 90
        0
280
     0
281
     0
  0
CLASS
  1
VISUALSTYLE
  2
AcDbVisualStyle
  3
ObjectDBX Classes
 90
     4095
280
     0
281
     0
  0
CLASS
  1
MATERIAL
  2
AcDbMaterial
  3
ObjectDBX Classes
 90
     1153
280
     0
281
     0
  0
CLASS
  1
SCALE
  2
AcDbScale
  3
ObjectDBX Classes
 90
     1153
280
     0
281
     0
  0
CLASS
  1
TABLESTYLE
  2
AcDbTableStyle
  3
ObjectDBX Classes
 90
     4095
280
     0
281
     0
  0
CLASS
  1
MLEADERSTYLE
  2
AcDbMLeaderStyle
  3
ACDB_MLEADERSTYLE_CLASS
 90
     4095
280
     0
281
     0
  0
CLASS
  1
SUN
  2
AcDbSun
  3
SCENEOE
 90
    33921
280
     0
281
     0
  0
CLASS
  1
DIMASSOC
  2
AcDbDimAssoc
  3
"AcDbDimAssoc|Product Desc:     AcDim ARX App For Dimension|Company:          Autodesk, Inc.|WEB Address:      www.autodesk.com"
 90
        0
280
     0
281
     0
  0
CLASS
  1
DICTIONARYVAR
  2
AcDbDictionaryVar
  3
ObjectDBX Classes
 90
        0
280
     0
281
     0
  0
CLASS
  1
CELLSTYLEMAP
  2
AcDbCellStyleMap
  3
ObjectDBX Classes
 90
     1152
280
     0
281
     0
  0
CLASS
  1
ACDBSECTIONVIEWSTYLE
  2
AcDbSectionViewStyle
  3
ObjectDBX Classes
 90
     1025
280
     0
281
     0
  0
CLASS
  1
ACDBDETAILVIEWSTYLE
  2
AcDbDetailViewStyle
  3
ObjectDBX Classes
 90
     1025
280
     0
281
     0
  0
CLASS
  1
ACDBPLACEHOLDER
  2
AcDbPlaceHolder
  3
ObjectDBX Classes
 90
        0
280
     0
281
     0
  0
CLASS
  1
LAYOUT
  2
AcDbLayout
  3
ObjectDBX Classes
 90
        0
280
     0
281
     0
  0
ENDSEC
  0
SECTION
  2
TABLES
  0
TABLE
  2
VPORT
  5
8
330
0
100
AcDbSymbolTable
 70
    16
  0
VPORT
  5
29
330
8
100
AcDbSymbolTableRecord
100
AcDbViewportTableRecord
  2
*Active
 70
     0
 10
0.0
 20
0.0
 11
1.0
 21
1.0
 12
38.28330001830705
 22
10.74805478297673
 13
0.0
 23
0.0
 14
0.5
 24
0.5
 15
0.5
 25
0.5
 16
0.0
 26
0.0
 36
1.0
 17
0.0
 27
0.0
 37
0.0
 40
141.0644455773084
 41
2.292712066905615
 42
50.0
 43
224.572367
 44
-224.572367
 50
0.0
 51
0.0
 71
     0
 72
   100
 73
     1
 74
     3
 75
     0
 76
     0
 77
     0
 78
     0
281
     0
 65
     1
110
0.0
120
0.0
130
0.0
111
1.0
121
0.0
131
0.0
112
0.0
122
1.0
132
0.0
 79
     0
146
0.0
1001
ACAD_NAV_VCDISPLAY
1070
     3
  0
VPORT
  5
2CB
330
8
100
AcDbSymbolTableRecord
100
AcDbViewportTableRecord
  2
L1
 70
     0
 10
0.0
 20
0.0
 11
1.0
 21
1.0
 12
18.031122
 22
16.139981
 13
0.0
 23
0.0
 14
0.5
 24
0.5
 15
0.5
 25
0.5
 16
0.0
 26
0.0
 36
1.0
 17
0.0
 27
0.0
 37
0.0
 40
216.429167
 41
0.082044
 42
50.0
 43
224.572367
 44
-224.572367
 50
0.0
 51
0.0
 71
     0
 72
   100
 73
     1
 74
     3
 75
     0
 76
     0
 77
     0
 78
     0
281
     0
 65
     1
110
0.0
120
0.0
130
0.0
111
1.0
121
0.0
131
0.0
112
0.0
122
1.0
132
0.0
 79
     0
146
0.0
  0
VPORT
  5
2CC
330
8
100
AcDbSymbolTableRecord
100
AcDbViewportTableRecord
  2
L2
 70
     0
 10
0.0
 20
0.0
 11
0.5
 21
1.0
 12
0.0
 22
0.0
 13
0.0
 23
0.0
 14
0.5
 24
0.5
 15
0.5
 25
0.5
 16
0.0
 26
-1.0
 36
0.0
 17
0.0
 27
0.0
 37
0.0
 40
1412.373689
 41
0.012572
 42
50.0
 43
728.4848409999999
 44
-728.4848409999999
 50
0.0
 51
0.0
 71
     0
 72
   100
 73
     1
 74
     3
 75
     0
 76
     0
 77
     0
 78
     0
281
     0
 65
     1
110
0.0
120
0.0
130
0.0
111
1.0
121
0.0
131
0.0
112
0.0
122
1.0
132
0.0
 79
     0
146
0.0
  0
VPORT
  5
2CD
330
8
100
AcDbSymbolTableRecord
100
AcDbViewportTableRecord
  2
L2
 70
     0
 10
0.5
 20
0.0
 11
1.0
 21
1.0
 12
0.0
 22
0.0
 13
0.0
 23
0.0
 14
0.5
 24
0.5
 15
0.5
 25
0.5
 16
1.0
 26
0.0
 36
0.0
 17
0.0
 27
0.0
 37
0.0
 40
1412.373689
 41
0.012572
 42
50.0
 43
714.4300209999999
 44
-714.4300209999999
 50
0.0
 51
0.0
 71
     0
 72
   100
 73
     1
 74
     3
 75
     0
 76
     0
 77
     0
 78
     0
281
     0
 65
     1
110
0.0
120
0.0
130
0.0
111
1.0
121
0.0
131
0.0
112
0.0
122
1.0
132
0.0
 79
     0
146
0.0
  0
VPORT
  5
2CE
330
8
100
AcDbSymbolTableRecord
100
AcDbViewportTableRecord
  2
L3
 70
     0
 10
0.0
 20
0.5
 11
1.0
 21
1.0
 12
18.031122
 22
16.139981
 13
0.0
 23
0.0
 14
0.5
 24
0.5
 15
0.5
 25
0.5
 16
0.0
 26
0.0
 36
1.0
 17
0.0
 27
0.0
 37
0.0
 40
216.429167
 41
0.082044
 42
50.0
 43
224.572367
 44
-224.572367
 50
0.0
 51
0.0
 71
     0
 72
   100
 73
     1
 74
     3
 75
     0
 76
     0
 77
     0
 78
     0
281
     0
 65
     1
110
0.0
120
0.0
130
0.0
111
1.0
121
0.0
131
0.0
112
0.0
122
1.0
132
0.0
 79
     0
146
0.0
  0
VPORT
  5
2CF
330
8
100
AcDbSymbolTableRecord
100
AcDbViewportTableRecord
  2
L3
 70
     0
 10
0.0
 20
0.0
 11
1.0
 21
0.5
 12
0.0
 22
0.0
 13
0.0
 23
0.0
 14
0.5
 24
0.5
 15
0.5
 25
0.5
 16
0.0
 26
-1.0
 36
0.0
 17
0.0
 27
0.0
 37
0.0
 40
1412.373689
 41
0.012572
 42
50.0
 43
728.4848409999999
 44
-728.4848409999999
 50
0.0
 51
0.0
 71
     0
 72
   100
 73
     1
 74
     3
 75
     0
 76
     0
 77
     0
 78
     0
281
     0
 65
     1
110
0.0
120
0.0
130
0.0
111
1.0
121
0.0
131
0.0
112
0.0
122
1.0
132
0.0
 79
     0
146
0.0
  0
VPORT
  5
2D0
330
8
100
AcDbSymbolTableRecord
100
AcDbViewportTableRecord
  2
L4
 70
     0
 10
0.0
 20
0.5
 11
0.5
 21
1.0
 12
18.031122
 22
16.139981
 13
0.0
 23
0.0
 14
0.5
 24
0.5
 15
0.5
 25
0.5
 16
0.0
 26
0.0
 36
1.0
 17
0.0
 27
0.0
 37
0.0
 40
216.429167
 41
0.082044
 42
50.0
 43
224.572367
 44
-224.572367
 50
0.0
 51
0.0
 71
     0
 72
   100
 73
     1
 74
     3
 75
     0
 76
     0
 77
     0
 78
     0
281
     0
 65
     1
110
0.0
120
0.0
130
0.0
111
1.0
121
0.0
131
0.0
112
0.0
122
1.0
132
0.0
 79
     0
146
0.0
  0
VPORT
  5
2D1
330
8
100
AcDbSymbolTableRecord
100
AcDbViewportTableRecord
  2
L4
 70
     0
 10
0.0
 20
0.0
 11
0.5
 21
0.5
 12
0.0
 22
0.0
 13
0.0
 23
0.0
 14
0.5
 24
0.5
 15
0.5
 25
0.5
 16
0.0
 26
-1.0
 36
0.0
 17
0.0
 27
0.0
 37
0.0
 40
1412.373689
 41
0.012572
 42
50.0
 43
728.4848409999999
 44
-728.4848409999999
 50
0.0
 51
0.0
 71
     0
 72
   100
 73
     1
 74
     3
 75
     0
 76
     0
 77
     0
 78
     0
281
     0
 65
     1
110
0.0
120
0.0
130
0.0
111
1.0
121
0.0
131
0.0
112
0.0
122
1.0
132
0.0
 79
     0
146
0.0
  0
VPORT
  5
2D2
330
8
100
AcDbSymbolTableRecord
100
AcDbViewportTableRecord
  2
L4
 70
     0
 10
0.5
 20
0.0
 11
1.0
 21
0.5
 12
0.0
 22
0.0
 13
0.0
 23
0.0
 14
0.5
 24
0.5
 15
0.5
 25
0.5
 16
1.0
 26
0.0
 36
0.0
 17
0.0
 27
0.0
 37
0.0
 40
1412.373689
 41
0.012572
 42
50.0
 43
714.4300209999999
 44
-714.4300209999999
 50
0.0
 51
0.0
 71
     0
 72
   100
 73
     1
 74
     3
 75
     0
 76
     0
 77
     0
 78
     0
281
     0
 65
     1
110
0.0
120
0.0
130
0.0
111
1.0
121
0.0
131
0.0
112
0.0
122
1.0
132
0.0
 79
     0
146
0.0
  0
VPORT
  5
2D3
330
8
100
AcDbSymbolTableRecord
100
AcDbViewportTableRecord
  2
L4
 70
     0
 10
0.5
 20
0.5
 11
1.0
 21
1.0
 12
0.0
 22
0.0
 13
0.0
 23
0.0
 14
0.5
 24
0.5
 15
0.5
 25
0.5
 16
0.5773502691896259
 26
-0.5773502691896259
 36
0.5773502691896259
 17
0.0
 27
0.0
 37
0.0
 40
1387.592343
 41
0.012797
 42
50.0
 43
722.8821189999999
 44
-722.8821189999999
 50
0.0
 51
0.0
 71
     0
 72
   100
 73
     1
 74
     3
 75
     0
 76
     0
 77
     0
 78
     0
281
     0
 65
     1
110
0.0
120
0.0
130
0.0
111
1.0
121
0.0
131
0.0
112
0.0
122
1.0
132
0.0
 79
     0
146
0.0
  0
VPORT
  5
2D4
330
8
100
AcDbSymbolTableRecord
100
AcDbViewportTableRecord
  2
L6
 70
     0
 10
0.0
 20
0.5
 11
0.333333
 21
1.0
 12
0.0
 22
0.0
 13
0.0
 23
0.0
 14
0.5
 24
0.5
 15
0.5
 25
0.5
 16
0.7188730927569434
 26
-0.5850486126764433
 36
0.3754192287502549
 17
0.0
 27
0.0
 37
0.0
 40
1464.512204
 41
0.012125
 42
50.0
 43
758.2488059999999
 44
-758.2488059999999
 50
0.0
 51
0.0
 71
     0
 72
   100
 73
     1
 74
     3
 75
     0
 76
     0
 77
     0
 78
     0
281
     0
 65
     1
110
0.0
120
0.0
130
0.0
111
1.0
121
0.0
131
0.0
112
0.0
122
1.0
132
0.0
 79
     0
146
0.0
  0
VPORT
  5
2D5
330
8
100
AcDbSymbolTableRecord
100
AcDbViewportTableRecord
  2
L6
 70
     0
 10
0.0
 20
0.0
 11
0.333333
 21
0.5
 12
0.0
 22
0.0
 13
0.0
 23
0.0
 14
0.5
 24
0.5
 15
0.5
 25
0.5
 16
-1.0
 26
0.0
 36
0.0
 17
0.0
 27
0.0
 37
0.0
 40
1412.373689
 41
0.012572
 42
50.0
 43
714.4300209999999
 44
-714.4300209999999
 50
0.0
 51
0.0
 71
     0
 72
   100
 73
     1
 74
     3
 75
     0
 76
     0
 77
     0
 78
     0
281
     0
 65
     1
110
0.0
120
0.0
130
0.0
111
1.0
121
0.0
131
0.0
112
0.0
122
1.0
132
0.0
 79
     0
146
0.0
  0
VPORT
  5
2D6
330
8
100
AcDbSymbolTableRecord
100
AcDbViewportTableRecord
  2
L6
 70
     0
 10
0.333333
 20
0.5
 11
0.666667
 21
1.0
 12
18.031122
 22
16.139981
 13
0.0
 23
0.0
 14
0.5
 24
0.5
 15
0.5
 25
0.5
 16
0.0
 26
0.0
 36
1.0
 17
0.0
 27
0.0
 37
0.0
 40
216.429167
 41
0.082044
 42
50.0
 43
224.572367
 44
-224.572367
 50
0.0
 51
0.0
 71
     0
 72
   100
 73
     1
 74
     3
 75
     0
 76
     0
 77
     0
 78
     0
281
     0
 65
     1
110
0.0
120
0.0
130
0.0
111
1.0
121
0.0
131
0.0
112
0.0
122
1.0
132
0.0
 79
     0
146
0.0
  0
VPORT
  5
2D7
330
8
100
AcDbSymbolTableRecord
100
AcDbViewportTableRecord
  2
L6
 70
     0
 10
0.333333
 20
0.0
 11
0.666667
 21
0.5
 12
0.0
 22
0.0
 13
0.0
 23
0.0
 14
0.5
 24
0.5
 15
0.5
 25
0.5
 16
0.0
 26
-1.0
 36
0.0
 17
0.0
 27
0.0
 37
0.0
 40
1412.373689
 41
0.012572
 42
50.0
 43
728.4848409999999
 44
-728.4848409999999
 50
0.0
 51
0.0
 71
     0
 72
   100
 73
     1
 74
     3
 75
     0
 76
     0
 77
     0
 78
     0
281
     0
 65
     1
110
0.0
120
0.0
130
0.0
111
1.0
121
0.0
131
0.0
112
0.0
122
1.0
132
0.0
 79
     0
146
0.0
  0
VPORT
  5
2D8
330
8
100
AcDbSymbolTableRecord
100
AcDbViewportTableRecord
  2
L6
 70
     0
 10
0.666667
 20
0.5
 11
1.0
 21
1.0
 12
0.0
 22
0.0
 13
0.0
 23
0.0
 14
0.5
 24
0.5
 15
0.5
 25
0.5
 16
0.5773502691896259
 26
-0.5773502691896259
 36
0.5773502691896259
 17
0.0
 27
0.0
 37
0.0
 40
1387.592343
 41
0.012797
 42
50.0
 43
722.8821189999999
 44
-722.8821189999999
 50
0.0
 51
0.0
 71
     0
 72
   100
 73
     1
 74
     3
 75
     0
 76
     0
 77
     0
 78
     0
281
     0
 65
     1
110
0.0
120
0.0
130
0.0
111
1.0
121
0.0
131
0.0
112
0.0
122
1.0
132
0.0
 79
     0
146
0.0
  0
VPORT
  5
2D9
330
8
100
AcDbSymbolTableRecord
100
AcDbViewportTableRecord
  2
L6
 70
     0
 10
0.666667
 20
0.0
 11
1.0
 21
0.5
 12
0.0
 22
0.0
 13
0.0
 23
0.0
 14
0.5
 24
0.5
 15
0.5
 25
0.5
 16
1.0
 26
0.0
 36
0.0
 17
0.0
 27
0.0
 37
0.0
 40
1412.373689
 41
0.012572
 42
50.0
 43
714.4300209999999
 44
-714.4300209999999
 50
0.0
 51
0.0
 71
     0
 72
   100
 73
     1
 74
     3
 75
     0
 76
     0
 77
     0
 78
     0
281
     0
 65
     1
110
0.0
120
0.0
130
0.0
111
1.0
121
0.0
131
0.0
112
0.0
122
1.0
132
0.0
 79
     0
146
0.0
  0
ENDTAB
  0
TABLE
  2
LTYPE
  5
5
330
0
100
AcDbSymbolTable
 70
     6
  0
LTYPE
  5
14
330
5
100
AcDbSymbolTableRecord
100
AcDbLinetypeTableRecord
  2
ByBlock
 70
     0
  3

 72
    65
 73
     0
 40
0.0
  0
LTYPE
  5
15
330
5
100
AcDbSymbolTableRecord
100
AcDbLinetypeTableRecord
  2
ByLayer
 70
     0
  3

 72
    65
 73
     0
 40
0.0
  0
LTYPE
  5
16
330
5
100
AcDbSymbolTableRecord
100
AcDbLinetypeTableRecord
  2
Continuous
 70
     0
  3
Solid line
 72
    65
 73
     0
 40
0.0
  0
LTYPE
  5
6E
330
5
100
AcDbSymbolTableRecord
100
AcDbLinetypeTableRecord
  2
CENTER
 70
     0
  3
____ _ ____ _ ____ _ ____
 72
    65
 73
     4
 40
47.4
 49
22.0
 74
     4
 75
     0
340
0
 46
0.0
 50
0.0
 44
0.0
 45
0.0
 49
-8.5
 74
     4
 75
     0
340
0
 46
0.0
 50
0.0
 44
0.0
 45
0.0
 49
8.5
 74
     4
 75
     0
340
0
 46
0.0
 50
0.0
 44
0.0
 45
0.0
 49
-8.5
 74
     4
 75
     0
340
0
 46
0.0
 50
0.0
 44
0.0
 45
0.0
  0
LTYPE
  5
6F
330
5
100
AcDbSymbolTableRecord
100
AcDbLinetypeTableRecord
  2
DASHDOT
 70
     0
  3
_._._._._._._._._._._._._._._._.
 72
    65
 73
     4
 40
70.0
 49
31.0
 74
     4
 75
     0
340
0
 46
0.0
 50
0.0
 44
0.0
 45
0.0
 49
-13.0
 74
     4
 75
     0
340
0
 46
0.0
 50
0.0
 44
0.0
 45
0.0
 49
13.0
 74
     4
 75
     0
340
0
 46
0.0
 50
0.0
 44
0.0
 45
0.0
 49
-13.0
 74
     4
 75
     0
340
0
 46
0.0
 50
0.0
 44
0.0
 45
0.0
  0
LTYPE
  5
70
330
5
100
AcDbSymbolTableRecord
100
AcDbLinetypeTableRecord
  2
DASHED
 70
     0
  3
__ __ __ __ __ __ __ __ __
 72
    65
 73
     2
 40
25.72
 49
12.86
 74
     4
 75
     0
340
0
 46
0.0
 50
0.0
 44
0.0
 45
0.0
 49
-12.86
 74
     4
 75
     0
340
0
 46
0.0
 50
0.0
 44
0.0
 45
0.0
  0
LTYPE
  5
71
330
5
100
AcDbSymbolTableRecord
100
AcDbLinetypeTableRecord
  2
DOT
 70
     0
  3
.........................
 72
    65
 73
     2
 40
10.0
 49
0.0
 74
     4
 75
     0
340
0
 46
0.0
 50
0.0
 44
0.0
 45
0.0
 49
-10.0
 74
     4
 75
     0
340
0
 46
0.0
 50
0.0
 44
0.0
 45
0.0
  0
LTYPE
  5
72
330
5
100
AcDbSymbolTableRecord
100
AcDbLinetypeTableRecord
  2
PHANTOM
 70
     0
  3
____ _ _ ____ _ _ _____ _ _ ____
 72
    65
 73
     6
 40
50.5
 49
18.0
 74
     4
 75
     0
340
0
 46
0.0
 50
0.0
 44
0.0
 45
0.0
 49
-6.5
 74
     4
 75
     0
340
0
 46
0.0
 50
0.0
 44
0.0
 45
0.0
 49
6.5
 74
     4
 75
     0
340
0
 46
0.0
 50
0.0
 44
0.0
 45
0.0
 49
-6.5
 74
     4
 75
     0
340
0
 46
0.0
 50
0.0
 44
0.0
 45
0.0
 49
6.5
 74
     4
 75
     0
340
0
 46
0.0
 50
0.0
 44
0.0
 45
0.0
 49
-6.5
 74
     4
 75
     0
340
0
 46
0.0
 50
0.0
 44
0.0
 45
0.0
  0
ENDTAB
  0
TABLE
  2
LAYER
  5
2
330
0
100
AcDbSymbolTable
 70
    14
  0
LAYER
  5
10
102
{ACAD_XDICTIONARY
360
60E
102
}
330
2
100
AcDbSymbolTableRecord
100
AcDbLayerTableRecord
  2
0
 70
     0
 62
     7
  6
Continuous
370
    -3
390
F
  0
LAYER
  5
601
102
{ACAD_XDICTIONARY
360
610
102
}
330
2
100
AcDbSymbolTableRecord
100
AcDbLayerTableRecord
  2
1
 70
     0
 62
     4
  6
Continuous
370
    -3
390
F
  0
LAYER
  5
602
102
{ACAD_XDICTIONARY
360
612
102
}
330
2
100
AcDbSymbolTableRecord
100
AcDbLayerTableRecord
  2
2
 70
     0
 62
     7
  6
Continuous
370
    -3
390
F
  0
LAYER
  5
603
102
{ACAD_XDICTIONARY
360
614
102
}
330
2
100
AcDbSymbolTableRecord
100
AcDbLayerTableRecord
  2
4
 70
     0
 62
     2
  6
CENTER
370
    -3
390
F
  0
LAYER
  5
605
102
{ACAD_XDICTIONARY
360
616
102
}
330
2
100
AcDbSymbolTableRecord
100
AcDbLayerTableRecord
  2
SK2
 70
     0
 62
     7
  6
Continuous
370
    -3
390
F
  0
LAYER
  5
606
102
{ACAD_XDICTIONARY
360
618
102
}
330
2
100
AcDbSymbolTableRecord
100
AcDbLayerTableRecord
  2
SK3
 70
     0
 62
     1
  6
DASHED
370
    -3
390
F
  0
LAYER
  5
607
102
{ACAD_XDICTIONARY
360
61A
102
}
330
2
100
AcDbSymbolTableRecord
100
AcDbLayerTableRecord
  2
SK4
 70
     0
 62
     2
  6
CENTER
370
    -3
390
F
  0
LAYER
  5
608
102
{ACAD_XDICTIONARY
360
61C
102
}
330
2
100
AcDbSymbolTableRecord
100
AcDbLayerTableRecord
  2
SK6
 70
     0
 62
     5
  6
Continuous
370
    -3
390
F
  0
LAYER
  5
609
102
{ACAD_XDICTIONARY
360
61E
102
}
330
2
100
AcDbSymbolTableRecord
100
AcDbLayerTableRecord
  2
CUT
 70
     0
 62
     1
  6
Continuous
370
    -3
390
F
  0
LAYER
  5
60A
102
{ACAD_XDICTIONARY
360
620
102
}
330
2
100
AcDbSymbolTableRecord
100
AcDbLayerTableRecord
  2
NOCUT
 70
     0
 62
     7
  6
Continuous
370
    -3
390
F
  0
LAYER
  5
60B
102
{ACAD_XDICTIONARY
360
622
102
}
330
2
100
AcDbSymbolTableRecord
100
AcDbLayerTableRecord
  2
80
 70
     0
 62
     6
  6
Continuous
370
    -3
390
F
  0
LAYER
  5
60C
102
{ACAD_XDICTIONARY
360
624
102
}
330
2
100
AcDbSymbolTableRecord
100
AcDbLayerTableRecord
  2
81
 70
     0
 62
     3
  6
Continuous
370
    -3
390
F
  0
LAYER
  5
60D
102
{ACAD_XDICTIONARY
360
626
102
}
330
2
100
AcDbSymbolTableRecord
100
AcDbLayerTableRecord
  2
SK1
 70
     0
 62
     4
  6
Continuous
370
    -3
390
F
  0
LAYER
  5
326
330
2
100
AcDbSymbolTableRecord
100
AcDbLayerTableRecord
  2
Defpoints
 70
     0
 62
     7
  6
Continuous
290
     0
370
    -3
390
F
  0
ENDTAB
  0
TABLE
  2
STYLE
  5
3
330
0
100
AcDbSymbolTable
 70
     2
  0
STYLE
  5
11
330
3
100
AcDbSymbolTableRecord
100
AcDbTextStyleTableRecord
  2
Standard
 70
     0
 40
0.0
 41
1.0
 50
0.0
 71
     0
 42
0.2
  3
txt
  4

  0
STYLE
  5
22D
330
3
100
AcDbSymbolTableRecord
100
AcDbTextStyleTableRecord
  2
Arial
 70
     0
 40
0.0
 41
1.0
 50
0.0
 71
     0
 42
0.2
  3
Arial
  4

1001
ACAD
1000
Arial
1071
        0
  0
ENDTAB
  0
TABLE
  2
VIEW
  5
6
330
0
100
AcDbSymbolTable
 70
     8
  0
VIEW
  5
2C3
330
6
100
AcDbSymbolTableRecord
100
AcDbViewTableRecord
  2
Top
 70
     0
 40
216.429167
 10
18.031122
 20
16.139981
 41
357.716667
 11
0.0
 21
0.0
 31
1.0
 12
0.0
 22
0.0
 32
0.0
 42
50.0
 43
224.572367
 44
-224.572367
 50
0.0
 71
     0
281
     0
 72
     0
  0
VIEW
  5
2C4
330
6
100
AcDbSymbolTableRecord
100
AcDbViewTableRecord
  2
Front
 70
     0
 40
1412.373689
 10
0.0
 20
0.0
 41
357.716667
 11
0.0
 21
-1.0
 31
0.0
 12
0.0
 22
0.0
 32
0.0
 42
50.0
 43
728.4848409999999
 44
-728.4848409999999
 50
0.0
 71
     0
281
     0
 72
     0
  0
VIEW
  5
2C5
330
6
100
AcDbSymbolTableRecord
100
AcDbViewTableRecord
  2
Right
 70
     0
 40
1412.373689
 10
0.0
 20
0.0
 41
216.429167
 11
1.0
 21
0.0
 31
0.0
 12
0.0
 22
0.0
 32
0.0
 42
50.0
 43
714.4300209999999
 44
-714.4300209999999
 50
0.0
 71
     0
281
     0
 72
     0
  0
VIEW
  5
2C6
330
6
100
AcDbSymbolTableRecord
100
AcDbViewTableRecord
  2
Back
 70
     0
 40
1412.373689
 10
0.0
 20
0.0
 41
357.716667
 11
0.0
 21
1.0
 31
0.0
 12
0.0
 22
0.0
 32
0.0
 42
50.0
 43
728.4848409999999
 44
-728.4848409999999
 50
0.0
 71
     0
281
     0
 72
     0
  0
VIEW
  5
2C7
330
6
100
AcDbSymbolTableRecord
100
AcDbViewTableRecord
  2
Bottom
 70
     0
 40
216.429167
 10
0.0
 20
0.0
 41
357.716667
 11
0.0
 21
0.0
 31
-1.0
 12
0.0
 22
0.0
 32
0.0
 42
50.0
 43
706.186845
 44
-706.186845
 50
180.0
 71
     0
281
     0
 72
     0
  0
VIEW
  5
2C8
330
6
100
AcDbSymbolTableRecord
100
AcDbViewTableRecord
  2
Left
 70
     0
 40
1412.373689
 10
0.0
 20
0.0
 41
216.429167
 11
-1.0
 21
0.0
 31
0.0
 12
0.0
 22
0.0
 32
0.0
 42
50.0
 43
714.4300209999999
 44
-714.4300209999999
 50
0.0
 71
     0
281
     0
 72
     0
  0
VIEW
  5
2C9
330
6
100
AcDbSymbolTableRecord
100
AcDbViewTableRecord
  2
Isometric
 70
     0
 40
1387.592343
 10
0.0
 20
0.0
 41
405.982412
 11
0.5773502691896259
 21
-0.5773502691896259
 31
0.5773502691896259
 12
0.0
 22
0.0
 32
0.0
 42
50.0
 43
722.8821189999999
 44
-722.8821189999999
 50
0.0
 71
     0
281
     0
 72
     0
  0
VIEW
  5
2CA
330
6
100
AcDbSymbolTableRecord
100
AcDbViewTableRecord
  2
Trimetric
 70
     0
 40
1464.512204
 10
0.0
 20
0.0
 41
393.661035
 11
0.7188730927569434
 21
-0.5850486126764433
 31
0.3754192287502549
 12
0.0
 22
0.0
 32
0.0
 42
50.0
 43
758.2488059999999
 44
-758.2488059999999
 50
0.0
 71
     0
281
     0
 72
     0
  0
ENDTAB
  0
TABLE
  2
UCS
  5
7
330
0
100
AcDbSymbolTable
 70
     0
  0
ENDTAB
  0
TABLE
  2
APPID
  5
9
330
0
100
AcDbSymbolTable
 70
     7
  0
APPID
  5
12
330
9
100
AcDbSymbolTableRecord
100
AcDbRegAppTableRecord
  2
ACAD
 70
     0
  0
APPID
  5
22E
330
9
100
AcDbSymbolTableRecord
100
AcDbRegAppTableRecord
  2
ACAD_DSTYLE_DIMBREAK
 70
     0
  0
APPID
  5
2DA
330
9
100
AcDbSymbolTableRecord
100
AcDbRegAppTableRecord
  2
ACAD_DSTYLE_DIM_LINETYPE
 70
     0
  0
APPID
  5
2DB
330
9
100
AcDbSymbolTableRecord
100
AcDbRegAppTableRecord
  2
ACAD_DSTYLE_DIM_EXT1_LINETYPE
 70
     0
  0
APPID
  5
2DC
330
9
100
AcDbSymbolTableRecord
100
AcDbRegAppTableRecord
  2
ACAD_DSTYLE_DIM_EXT2_LINETYPE
 70
     0
  0
APPID
  5
31C
330
9
100
AcDbSymbolTableRecord
100
AcDbRegAppTableRecord
  2
ACAD_MLEADERVER
 70
     0
  0
APPID
  5
641
330
9
100
AcDbSymbolTableRecord
100
AcDbRegAppTableRecord
  2
ACAD_NAV_VCDISPLAY
 70
     0
  0
ENDTAB
  0
TABLE
  2
DIMSTYLE
  5
A
330
0
100
AcDbSymbolTable
 70
     1
100
AcDbDimStyleTable
 71
     0
  0
DIMSTYLE
105
27
102
{ACAD_REACTORS
330
22F
330
248
330
262
330
27C
330
293
330
2AB
102
}
330
A
100
AcDbSymbolTableRecord
100
AcDbDimStyleTableRecord
  2
Standard
 70
     0
340
11
1001
ACAD_DSTYLE_DIMBREAK
1070
   391
1040
6.349999999999999
  0
ENDTAB
  0
TABLE
  2
BLOCK_RECORD
  5
1
330
0
100
AcDbSymbolTable
 70
    13
  0
BLOCK_RECORD
  5
1F
330
1
100
AcDbSymbolTableRecord
100
AcDbBlockTableRecord
  2
*Model_Space
340
22
  0
BLOCK_RECORD
  5
1B
330
1
100
AcDbSymbolTableRecord
100
AcDbBlockTableRecord
  2
*Paper_Space
340
1E
  0
BLOCK_RECORD
  5
23
330
1
100
AcDbSymbolTableRecord
100
AcDbBlockTableRecord
  2
*Paper_Space0
340
26
  0
BLOCK_RECORD
  5
233
330
1
100
AcDbSymbolTableRecord
100
AcDbBlockTableRecord
  2
*D1
340
0
  0
BLOCK_RECORD
  5
23F
330
1
100
AcDbSymbolTableRecord
100
AcDbBlockTableRecord
  2
_U0
340
0
  0
BLOCK_RECORD
  5
24B
330
1
100
AcDbSymbolTableRecord
100
AcDbBlockTableRecord
  2
*D3
340
0
  0
BLOCK_RECORD
  5
258
330
1
100
AcDbSymbolTableRecord
100
AcDbBlockTableRecord
  2
_U1
340
0
  0
BLOCK_RECORD
  5
265
330
1
100
AcDbSymbolTableRecord
100
AcDbBlockTableRecord
  2
*D5
340
0
  0
BLOCK_RECORD
  5
273
330
1
100
AcDbSymbolTableRecord
100
AcDbBlockTableRecord
  2
_U2
340
0
  0
BLOCK_RECORD
  5
27F
330
1
100
AcDbSymbolTableRecord
100
AcDbBlockTableRecord
  2
*D7
340
0
  0
BLOCK_RECORD
  5
28B
330
1
100
AcDbSymbolTableRecord
100
AcDbBlockTableRecord
  2
_U3
340
0
  0
BLOCK_RECORD
  5
296
330
1
100
AcDbSymbolTableRecord
100
AcDbBlockTableRecord
  2
*D9
340
0
  0
BLOCK_RECORD
  5
2A2
330
1
100
AcDbSymbolTableRecord
100
AcDbBlockTableRecord
  2
_U4
340
0
  0
BLOCK_RECORD
  5
2AE
330
1
100
AcDbSymbolTableRecord
100
AcDbBlockTableRecord
  2
*D11
340
0
  0
BLOCK_RECORD
  5
2BA
330
1
100
AcDbSymbolTableRecord
100
AcDbBlockTableRecord
  2
_U5
340
0
  0
ENDTAB
  0
ENDSEC
  0
SECTION
  2
BLOCKS
  0
BLOCK
  5
20
330
1F
100
AcDbEntity
  8
0
100
AcDbBlockBegin
  2
*Model_Space
 70
     0
 10
0.0
 20
0.0
 30
0.0
  3
*Model_Space
  1

  0
ENDBLK
  5
21
330
1F
100
AcDbEntity
  8
0
100
AcDbBlockEnd
  0
BLOCK
  5
1C
330
1B
100
AcDbEntity
 67
     1
  8
0
100
AcDbBlockBegin
  2
*Paper_Space
 70
     0
 10
0.0
 20
0.0
 30
0.0
  3
*Paper_Space
  1

  0
ENDBLK
  5
1D
330
1B
100
AcDbEntity
 67
     1
  8
0
100
AcDbBlockEnd
  0
BLOCK
  5
24
330
23
100
AcDbEntity
 67
     1
  8
0
100
AcDbBlockBegin
  2
*Paper_Space0
 70
     0
 10
0.0
 20
0.0
 30
0.0
  3
*Paper_Space0
  1

  0
ENDBLK
  5
25
330
23
100
AcDbEntity
 67
     1
  8
0
100
AcDbBlockEnd
  0
BLOCK
  5
234
330
233
100
AcDbEntity
  8
0
100
AcDbBlockBegin
  2
*D1
 70
     1
 10
0.0
 20
0.0
 30
0.0
  3
*D1
  1

  0
LINE
  5
236
330
233
100
AcDbEntity
  8
SK2
370
    -2
100
AcDbLine
 10
-25.0
 20
6.849999999999999
 30
0.0
 11
-25.0
 21
45.844884
 31
0.0
  0
LINE
  5
237
330
233
100
AcDbEntity
  8
SK2
370
    -2
100
AcDbLine
 10
65.0
 20
8.349999999999999
 30
0.0
 11
65.0
 21
45.844884
 31
0.0
  0
LINE
  5
238
330
233
100
AcDbEntity
  8
SK2
370
    -2
100
AcDbLine
 10
-22.5
 20
43.844884
 30
0.0
 11
62.5
 21
43.844884
 31
0.0
  0
SOLID
  5
239
330
233
100
AcDbEntity
  8
SK2
100
AcDbTrace
 10
-22.5
 20
44.261551
 30
0.0
 11
-22.5
 21
43.428217
 31
0.0
 12
-25.0
 22
43.844884
 32
0.0
 13
-25.0
 23
43.844884
 33
0.0
  0
SOLID
  5
23A
330
233
100
AcDbEntity
  8
SK2
100
AcDbTrace
 10
62.5
 20
43.428217
 30
0.0
 11
62.5
 21
44.261551
 31
0.0
 12
65.0
 22
43.844884
 32
0.0
 13
65.0
 23
43.844884
 33
0.0
  0
MTEXT
  5
23B
330
233
100
AcDbEntity
  8
SK2
370
    18
100
AcDbMText
 10
20.0
 20
47.621134
 30
0.0
 40
2.5
 41
0.0
 71
     5
 72
     1
  1
\A1;90
  7
Arial
 73
     1
 44
1.0
1001
ACAD
1000
MTEXTBEGIN
1070
    73
1070
     1
1070
    44
1040
1.0
1070
    74
1070
     0
1000
MTEXTEND
  0
POINT
  5
23C
330
233
100
AcDbEntity
  8
Defpoints
 62
     0
100
AcDbPoint
 10
-25.0
 20
5.849999999999999
 30
0.0
  0
POINT
  5
23D
330
233
100
AcDbEntity
  8
Defpoints
 62
     0
100
AcDbPoint
 10
65.0
 20
7.349999999999999
 30
0.0
  0
POINT
  5
23E
330
233
100
AcDbEntity
  8
Defpoints
 62
     0
100
AcDbPoint
 10
65.0
 20
43.844884
 30
0.0
  0
ENDBLK
  5
235
330
233
100
AcDbEntity
  8
0
100
AcDbBlockEnd
  0
BLOCK
  5
246
330
23F
100
AcDbEntity
  8
0
100
AcDbBlockBegin
  2
_U0
 70
     0
 10
0.0
 20
0.0
 30
0.0
  3
_U0
  1

  0
MTEXT
  5
240
330
23F
100
AcDbEntity
  8
SK2
370
    13
100
AcDbMText
 10
18.06514
 20
44.467288
 30
0.0
 40
2.5
 41
0.0
 71
     7
 72
     5
  1
\fArial|b0|i0;\W1.0000;90
  7
Arial
 73
     2
 44
1.047437
1001
ACAD
1000
MTEXTBEGIN
1070
    73
1070
     2
1070
    44
1040
1.047437
1070
    74
1070
     0
1000
MTEXTEND
  0
LINE
  5
241
330
23F
100
AcDbEntity
  8
SK2
370
    13
100
AcDbLine
 10
-25.0
 20
6.849999999999999
 30
0.0
 11
-25.0
 21
45.844884
 31
0.0
  0
LINE
  5
242
330
23F
100
AcDbEntity
  8
SK2
370
    13
100
AcDbLine
 10
65.0
 20
8.349999999999999
 30
0.0
 11
65.0
 21
45.844884
 31
0.0
  0
LINE
  5
243
330
23F
100
AcDbEntity
  8
SK2
370
    13
100
AcDbLine
 10
-25.0
 20
43.844884
 30
0.0
 11
65.0
 21
43.844884
 31
0.0
  0
SOLID
  5
244
330
23F
100
AcDbEntity
  8
SK2
370
    18
100
AcDbTrace
 10
-25.0
 20
43.844884
 30
0.0
 11
-22.500002
 21
44.285701
 31
0.0
 12
-22.499998
 22
43.40406699999999
 32
0.0
 13
-22.499998
 23
43.40406699999999
 33
0.0
  0
SOLID
  5
245
330
23F
100
AcDbEntity
  8
SK2
370
    18
100
AcDbTrace
 10
65.0
 20
43.844884
 30
0.0
 11
62.500002
 21
43.40406699999999
 31
0.0
 12
62.499998
 22
44.285701
 32
0.0
 13
62.499998
 23
44.285701
 33
0.0
  0
ENDBLK
  5
247
330
23F
100
AcDbEntity
  8
0
100
AcDbBlockEnd
  0
BLOCK
  5
24C
330
24B
100
AcDbEntity
  8
0
100
AcDbBlockBegin
  2
*D3
 70
     1
 10
0.0
 20
0.0
 30
0.0
  3
*D3
  1

  0
LINE
  5
24E
330
24B
100
AcDbEntity
  8
SK2
370
    -2
100
AcDbLine
 10
44.0
 20
6.349999999999999
 30
0.0
 11
-39.95719600000001
 21
6.349999999999999
 31
0.0
  0
LINE
  5
24F
330
24B
100
AcDbEntity
  8
SK2
370
    -2
100
AcDbLine
 10
-25.5
 20
-6.349999999999999
 30
0.0
 11
-39.95719600000001
 21
-6.349999999999999
 31
0.0
  0
LINE
  5
250
330
24B
100
AcDbEntity
  8
SK2
370
    -2
100
AcDbLine
 10
-37.957196
 20
6.349999999999999
 30
0.0
 11
-37.957196
 21
26.35633400000001
 31
0.0
  0
LINE
  5
251
330
24B
100
AcDbEntity
  8
SK2
370
    -2
100
AcDbLine
 10
-37.957196
 20
3.85
 30
0.0
 11
-37.957196
 21
-3.85
 31
0.0
  0
SOLID
  5
252
330
24B
100
AcDbEntity
  8
SK2
100
AcDbTrace
 10
-37.540529
 20
3.85
 30
0.0
 11
-38.373863
 21
3.85
 31
0.0
 12
-37.957196
 22
6.349999999999999
 32
0.0
 13
-37.957196
 23
6.349999999999999
 33
0.0
  0
SOLID
  5
253
330
24B
100
AcDbEntity
  8
SK2
100
AcDbTrace
 10
-38.373863
 20
-3.85
 30
0.0
 11
-37.540529
 21
-3.85
 31
0.0
 12
-37.957196
 22
-6.349999999999999
 32
0.0
 13
-37.957196
 23
-6.349999999999999
 33
0.0
  0
MTEXT
  5
254
330
24B
100
AcDbEntity
  8
SK2
370
    18
100
AcDbMText
 10
-41.71219599999999
 20
20.731334
 30
0.0
 40
2.5
 41
0.0
 71
     5
 72
     1
  1
\A1;12.7
  7
Arial
 11
0.0
 21
1.0
 31
0.0
 73
     1
 44
1.0
1001
ACAD
1000
MTEXTBEGIN
1070
    73
1070
     1
1070
    44
1040
1.0
1070
    74
1070
     0
1000
MTEXTEND
  0
POINT
  5
255
330
24B
100
AcDbEntity
  8
Defpoints
 62
     0
100
AcDbPoint
 10
45.0
 20
6.349999999999999
 30
0.0
  0
POINT
  5
256
330
24B
100
AcDbEntity
  8
Defpoints
 62
     0
100
AcDbPoint
 10
-24.5
 20
-6.349999999999999
 30
0.0
  0
POINT
  5
257
330
24B
100
AcDbEntity
  8
Defpoints
 62
     0
100
AcDbPoint
 10
-37.957196
 20
-6.349999999999999
 30
0.0
  0
ENDBLK
  5
24D
330
24B
100
AcDbEntity
  8
0
100
AcDbBlockEnd
  0
BLOCK
  5
260
330
258
100
AcDbEntity
  8
0
100
AcDbBlockBegin
  2
_U1
 70
     0
 10
0.0
 20
0.0
 30
0.0
  3
_U1
  1

  0
MTEXT
  5
259
330
258
100
AcDbEntity
  8
SK2
370
    13
100
AcDbMText
 10
-38.83087800000001
 20
19.177761
 30
0.0
 40
2.5
 41
0.0
 71
     7
 72
     5
  1
\fArial|b0|i0;\W1.0000;12,7
  7
Arial
 11
0.0000000000000001
 21
1.0
 31
0.0
 73
     2
 44
1.047437
1001
ACAD
1000
MTEXTBEGIN
1070
    73
1070
     2
1070
    44
1040
1.047437
1070
    74
1070
     0
1000
MTEXTEND
  0
MTEXT
  5
25A
330
258
100
AcDbEntity
  8
SK2
370
    13
100
AcDbMText
 10
-38.83087800000001
 20
14.9625
 30
0.0
 40
2.5
 41
0.0
 71
     7
 72
     5
  1
\fArial|b0|i0;%%c
  7
Arial
 11
0.0000000000000001
 21
1.0
 31
0.0
 73
     2
 44
1.047437
1001
ACAD
1000
MTEXTBEGIN
1070
    73
1070
     2
1070
    44
1040
1.047437
1070
    74
1070
     0
1000
MTEXTEND
  0
LINE
  5
25B
330
258
100
AcDbEntity
  8
SK2
370
    13
100
AcDbLine
 10
-25.5
 20
6.349999999999999
 30
0.0
 11
-39.95719600000001
 21
6.349999999999999
 31
0.0
  0
LINE
  5
25C
330
258
100
AcDbEntity
  8
SK2
370
    13
100
AcDbLine
 10
-25.5
 20
-6.349999999999999
 30
0.0
 11
-39.95719600000001
 21
-6.349999999999999
 31
0.0
  0
LINE
  5
25D
330
258
100
AcDbEntity
  8
SK2
370
    13
100
AcDbLine
 10
-37.957196
 20
-6.349999999999999
 30
0.0
 11
-37.957196
 21
26.612668
 31
0.0
  0
SOLID
  5
25E
330
258
100
AcDbEntity
  8
SK2
370
    18
100
AcDbTrace
 10
-37.957196
 20
6.349999999999999
 30
0.0
 11
-37.516379
 21
3.850001999999999
 31
0.0
 12
-38.398013
 22
3.849998
 32
0.0
 13
-38.398013
 23
3.849998
 33
0.0
  0
SOLID
  5
25F
330
258
100
AcDbEntity
  8
SK2
370
    18
100
AcDbTrace
 10
-37.957196
 20
-6.349999999999999
 30
0.0
 11
-38.398013
 21
-3.850001999999999
 31
0.0
 12
-37.516379
 22
-3.849998
 32
0.0
 13
-37.516379
 23
-3.849998
 33
0.0
  0
ENDBLK
  5
261
330
258
100
AcDbEntity
  8
0
100
AcDbBlockEnd
  0
BLOCK
  5
266
330
265
100
AcDbEntity
  8
0
100
AcDbBlockBegin
  2
*D5
 70
     1
 10
0.0
 20
0.0
 30
0.0
  3
*D5
  1

  0
LINE
  5
268
330
265
100
AcDbEntity
  8
2
370
    -2
100
AcDbLine
 10
62.5
 20
7.271669
 30
0.0
 11
62.5
 21
13.844884
 31
0.0
  0
LINE
  5
269
330
265
100
AcDbEntity
  8
2
370
    -2
100
AcDbLine
 10
65.0
 20
8.349999999999999
 30
0.0
 11
65.0
 21
13.844884
 31
0.0
  0
LINE
  5
26A
330
265
100
AcDbEntity
  8
2
370
    -2
100
AcDbLine
 10
65.0
 20
11.844884
 30
0.0
 11
80.981274
 21
11.844884
 31
0.0
  0
LINE
  5
26B
330
265
100
AcDbEntity
  8
2
370
    -2
100
AcDbLine
 10
60.0
 20
11.844884
 30
0.0
 11
57.5
 21
11.844884
 31
0.0
  0
LINE
  5
26C
330
265
100
AcDbEntity
  8
2
370
    -2
100
AcDbLine
 10
67.5
 20
11.844884
 30
0.0
 11
70.0
 21
11.844884
 31
0.0
  0
SOLID
  5
26D
330
265
100
AcDbEntity
  8
2
100
AcDbTrace
 10
60.0
 20
11.428217
 30
0.0
 11
60.0
 21
12.261551
 31
0.0
 12
62.5
 22
11.844884
 32
0.0
 13
62.5
 23
11.844884
 33
0.0
  0
SOLID
  5
26E
330
265
100
AcDbEntity
  8
2
100
AcDbTrace
 10
67.5
 20
12.261551
 30
0.0
 11
67.5
 21
11.428217
 31
0.0
 12
65.0
 22
11.844884
 32
0.0
 13
65.0
 23
11.844884
 33
0.0
  0
MTEXT
  5
26F
330
265
100
AcDbEntity
  8
2
370
    18
100
AcDbMText
 10
76.177524
 20
15.621134
 30
0.0
 40
2.5
 41
0.0
 71
     5
 72
     1
  1
\A1;2.5
  7
Arial
 73
     1
 44
1.0
1001
ACAD
1000
MTEXTBEGIN
1070
    73
1070
     1
1070
    44
1040
1.0
1070
    74
1070
     0
1000
MTEXTEND
  0
POINT
  5
270
330
265
100
AcDbEntity
  8
Defpoints
 62
     0
100
AcDbPoint
 10
62.5
 20
6.271669
 30
0.0
  0
POINT
  5
271
330
265
100
AcDbEntity
  8
Defpoints
 62
     0
100
AcDbPoint
 10
65.0
 20
7.349999999999999
 30
0.0
  0
POINT
  5
272
330
265
100
AcDbEntity
  8
Defpoints
 62
     0
100
AcDbPoint
 10
65.0
 20
11.844884
 30
0.0
  0
ENDBLK
  5
267
330
265
100
AcDbEntity
  8
0
100
AcDbBlockEnd
  0
BLOCK
  5
27A
330
273
100
AcDbEntity
  8
0
100
AcDbBlockBegin
  2
_U2
 70
     0
 10
0.0
 20
0.0
 30
0.0
  3
_U2
  1

  0
LINE
  5
62F
330
273
100
AcDbEntity
  8
2
  6
Continuous
 62
   254
370
    13
100
AcDbLine
 10
59.98595856902898
 20
7.188672573244645
 30
0.0
 11
59.98595856902898
 21
13.844884
 31
0.0
  0
LINE
  5
630
330
273
100
AcDbEntity
  8
2
  6
Continuous
 62
   254
370
    13
100
AcDbLine
 10
65.0
 20
8.349999999999999
 30
0.0
 11
65.0
 21
13.844884
 31
0.0
  0
LINE
  5
631
330
273
100
AcDbEntity
  8
2
  6
Continuous
 62
   254
370
    13
100
AcDbLine
 10
57.48595856902898
 20
11.844884
 30
0.0
 11
54.98595856902898
 21
11.844884
 31
0.0
  0
LINE
  5
632
330
273
100
AcDbEntity
  8
2
  6
Continuous
 62
   254
370
    13
100
AcDbLine
 10
67.5
 20
11.844884
 30
0.0
 11
78.25630981173262
 21
11.844884
 31
0.0
  0
LINE
  5
633
330
273
100
AcDbEntity
  8
2
  6
Continuous
 62
   254
370
    13
100
AcDbLine
 10
59.98595856902898
 20
11.844884
 30
0.0
 11
65.0
 21
11.844884
 31
0.0
  0
SOLID
  5
634
330
273
100
AcDbEntity
  8
2
 62
   254
370
    18
100
AcDbTrace
 10
57.48595856902898
 20
12.26155066666666
 30
0.0
 11
57.48595856902898
 21
11.42821733333333
 31
0.0
 12
59.98595856902898
 22
11.844884
 32
0.0
 13
59.98595856902898
 23
11.844884
 33
0.0
  0
SOLID
  5
635
330
273
100
AcDbEntity
  8
2
 62
   254
370
    18
100
AcDbTrace
 10
67.5
 20
12.26155066666666
 30
0.0
 11
67.5
 21
11.42821733333333
 31
0.0
 12
65.0
 22
11.844884
 32
0.0
 13
65.0
 23
11.844884
 33
0.0
  0
MTEXT
  5
636
330
273
100
AcDbEntity
  8
2
 62
   254
370
    13
100
AcDbMText
 10
75.3487381882674
 20
15.63751701500682
 30
0.0
 40
2.5
 41
0.0
 71
     1
 72
     1
  1
\A1;5
  7
Arial
 73
     1
 44
1.0
1001
ACAD
1000
MTEXTBEGIN
1070
    73
1070
     1
1070
    44
1040
1.0
1070
    74
1070
     0
1000
MTEXTEND
  0
POINT
  5
637
330
273
100
AcDbEntity
  8
Defpoints
 62
     0
370
    18
100
AcDbPoint
 10
59.98595856902898
 20
6.188672573244645
 30
0.0
  0
POINT
  5
638
330
273
100
AcDbEntity
  8
Defpoints
 62
     0
370
    18
100
AcDbPoint
 10
65.0
 20
7.349999999999999
 30
0.0
  0
POINT
  5
639
330
273
100
AcDbEntity
  8
Defpoints
 62
     0
370
    18
100
AcDbPoint
 10
65.0
 20
11.844884
 30
0.0
  0
ENDBLK
  5
27B
330
273
100
AcDbEntity
  8
0
100
AcDbBlockEnd
  0
BLOCK
  5
280
330
27F
100
AcDbEntity
  8
0
100
AcDbBlockBegin
  2
*D7
 70
     1
 10
0.0
 20
0.0
 30
0.0
  3
*D7
  1

  0
LINE
  5
282
330
27F
100
AcDbEntity
  8
2
370
    -2
100
AcDbLine
 10
65.0
 20
6.349999999999999
 30
0.0
 11
78.042804
 21
6.349999999999999
 31
0.0
  0
LINE
  5
283
330
27F
100
AcDbEntity
  8
2
370
    -2
100
AcDbLine
 10
66.0
 20
-6.349999999999999
 30
0.0
 11
78.042804
 21
-6.349999999999999
 31
0.0
  0
LINE
  5
284
330
27F
100
AcDbEntity
  8
2
370
    -2
100
AcDbLine
 10
76.042804
 20
-6.349999999999999
 30
0.0
 11
76.042804
 21
-26.35633400000001
 31
0.0
  0
LINE
  5
285
330
27F
100
AcDbEntity
  8
2
370
    -2
100
AcDbLine
 10
76.042804
 20
6.349999999999999
 30
0.0
 11
76.042804
 21
-6.349999999999999
 31
0.0
  0
SOLID
  5
286
330
27F
100
AcDbEntity
  8
2
100
AcDbTrace
 10
76.45947099999999
 20
3.85
 30
0.0
 11
75.62613699999999
 21
3.85
 31
0.0
 12
76.042804
 22
6.349999999999999
 32
0.0
 13
76.042804
 23
6.349999999999999
 33
0.0
  0
MTEXT
  5
287
330
27F
100
AcDbEntity
  8
2
370
    18
100
AcDbMText
 10
72.28780400000001
 20
-20.731334
 30
0.0
 40
2.5
 41
0.0
 71
     5
 72
     1
  1
\A1;12.7
  7
Arial
 11
0.0
 21
1.0
 31
0.0
 73
     1
 44
1.0
1001
ACAD
1000
MTEXTBEGIN
1070
    73
1070
     1
1070
    44
1040
1.0
1070
    74
1070
     0
1000
MTEXTEND
  0
POINT
  5
288
330
27F
100
AcDbEntity
  8
Defpoints
 62
     0
100
AcDbPoint
 10
64.0
 20
6.349999999999999
 30
0.0
  0
POINT
  5
289
330
27F
100
AcDbEntity
  8
Defpoints
 62
     0
100
AcDbPoint
 10
65.0
 20
-6.349999999999999
 30
0.0
  0
POINT
  5
28A
330
27F
100
AcDbEntity
  8
Defpoints
 62
     0
100
AcDbPoint
 10
76.042804
 20
-6.349999999999999
 30
0.0
  0
ENDBLK
  5
281
330
27F
100
AcDbEntity
  8
0
100
AcDbBlockEnd
  0
BLOCK
  5
291
330
28B
100
AcDbEntity
  8
0
100
AcDbBlockBegin
  2
_U3
 70
     0
 10
0.0
 20
0.0
 30
0.0
  3
_U3
  1

  0
MTEXT
  5
28C
330
28B
100
AcDbEntity
  8
2
370
    13
100
AcDbMText
 10
75.169122
 20
-22.284908
 30
0.0
 40
2.5
 41
0.0
 71
     7
 72
     5
  1
\fArial|b0|i0;\W1.0000;12,7
  7
Arial
 11
0.0000000000000001
 21
1.0
 31
0.0
 73
     2
 44
1.047437
1001
ACAD
1000
MTEXTBEGIN
1070
    73
1070
     2
1070
    44
1040
1.047437
1070
    74
1070
     0
1000
MTEXTEND
  0
MTEXT
  5
28D
330
28B
100
AcDbEntity
  8
2
370
    13
100
AcDbMText
 10
75.169122
 20
-26.500168
 30
0.0
 40
2.5
 41
0.0
 71
     7
 72
     5
  1
\fArial|b0|i0;%%c
  7
Arial
 11
0.0000000000000001
 21
1.0
 31
0.0
 73
     2
 44
1.047437
1001
ACAD
1000
MTEXTBEGIN
1070
    73
1070
     2
1070
    44
1040
1.047437
1070
    74
1070
     0
1000
MTEXTEND
  0
LINE
  5
28E
330
28B
100
AcDbEntity
  8
2
370
    13
100
AcDbLine
 10
67.0
 20
6.349999999999999
 30
0.0
 11
78.042804
 21
6.349999999999999
 31
0.0
  0
LINE
  5
28F
330
28B
100
AcDbEntity
  8
2
370
    13
100
AcDbLine
 10
76.042804
 20
6.349999999999999
 30
0.0
 11
76.042804
 21
-26.612668
 31
0.0
  0
SOLID
  5
290
330
28B
100
AcDbEntity
  8
2
370
    18
100
AcDbTrace
 10
76.042804
 20
6.349999999999999
 30
0.0
 11
76.48362099999999
 21
3.850001999999999
 31
0.0
 12
75.60198699999999
 22
3.849998
 32
0.0
 13
75.60198699999999
 23
3.849998
 33
0.0
  0
ENDBLK
  5
292
330
28B
100
AcDbEntity
  8
0
100
AcDbBlockEnd
  0
BLOCK
  5
297
330
296
100
AcDbEntity
  8
0
100
AcDbBlockBegin
  2
*D9
 70
     1
 10
0.0
 20
0.0
 30
0.0
  3
*D9
  1

  0
LINE
  5
299
330
296
100
AcDbEntity
  8
2
370
    -2
100
AcDbLine
 10
45.0
 20
7.349999999999999
 30
0.0
 11
45.0
 21
29.844884
 31
0.0
  0
LINE
  5
29A
330
296
100
AcDbEntity
  8
2
370
    -2
100
AcDbLine
 10
65.0
 20
8.349999999999999
 30
0.0
 11
65.0
 21
29.844884
 31
0.0
  0
LINE
  5
29B
330
296
100
AcDbEntity
  8
2
370
    -2
100
AcDbLine
 10
47.5
 20
27.84488400000001
 30
0.0
 11
62.5
 21
27.84488400000001
 31
0.0
  0
SOLID
  5
29C
330
296
100
AcDbEntity
  8
2
100
AcDbTrace
 10
47.5
 20
28.261551
 30
0.0
 11
47.5
 21
27.428217
 31
0.0
 12
45.0
 22
27.84488400000001
 32
0.0
 13
45.0
 23
27.84488400000001
 33
0.0
  0
SOLID
  5
29D
330
296
100
AcDbEntity
  8
2
100
AcDbTrace
 10
62.5
 20
27.428217
 30
0.0
 11
62.5
 21
28.261551
 31
0.0
 12
65.0
 22
27.84488400000001
 32
0.0
 13
65.0
 23
27.84488400000001
 33
0.0
  0
MTEXT
  5
29E
330
296
100
AcDbEntity
  8
2
370
    18
100
AcDbMText
 10
55.0
 20
31.621134
 30
0.0
 40
2.5
 41
0.0
 71
     5
 72
     1
  1
\A1;20
  7
Arial
 73
     1
 44
1.0
1001
ACAD
1000
MTEXTBEGIN
1070
    73
1070
     1
1070
    44
1040
1.0
1070
    74
1070
     0
1000
MTEXTEND
  0
POINT
  5
29F
330
296
100
AcDbEntity
  8
Defpoints
 62
     0
100
AcDbPoint
 10
45.0
 20
6.349999999999999
 30
0.0
  0
POINT
  5
2A0
330
296
100
AcDbEntity
  8
Defpoints
 62
     0
100
AcDbPoint
 10
65.0
 20
7.349999999999999
 30
0.0
  0
POINT
  5
2A1
330
296
100
AcDbEntity
  8
Defpoints
 62
     0
100
AcDbPoint
 10
65.0
 20
27.84488400000001
 30
0.0
  0
ENDBLK
  5
298
330
296
100
AcDbEntity
  8
0
100
AcDbBlockEnd
  0
BLOCK
  5
2A9
330
2A2
100
AcDbEntity
  8
0
100
AcDbBlockBegin
  2
_U4
 70
     0
 10
0.0
 20
0.0
 30
0.0
  3
_U4
  1

  0
MTEXT
  5
2A3
330
2A2
100
AcDbEntity
  8
2
370
    13
100
AcDbMText
 10
53.06513999999999
 20
28.467288
 30
0.0
 40
2.5
 41
0.0
 71
     7
 72
     5
  1
\fArial|b0|i0;\W1.0000;20
  7
Arial
 73
     2
 44
1.047437
1001
ACAD
1000
MTEXTBEGIN
1070
    73
1070
     2
1070
    44
1040
1.047437
1070
    74
1070
     0
1000
MTEXTEND
  0
LINE
  5
2A4
330
2A2
100
AcDbEntity
  8
2
370
    13
100
AcDbLine
 10
45.0
 20
7.349999999999999
 30
0.0
 11
45.0
 21
29.844884
 31
0.0
  0
LINE
  5
2A5
330
2A2
100
AcDbEntity
  8
2
370
    13
100
AcDbLine
 10
65.0
 20
8.349999999999999
 30
0.0
 11
65.0
 21
29.844884
 31
0.0
  0
LINE
  5
2A6
330
2A2
100
AcDbEntity
  8
2
370
    13
100
AcDbLine
 10
45.0
 20
27.84488400000001
 30
0.0
 11
65.0
 21
27.84488400000001
 31
0.0
  0
SOLID
  5
2A7
330
2A2
100
AcDbEntity
  8
2
370
    18
100
AcDbTrace
 10
45.0
 20
27.84488400000001
 30
0.0
 11
47.499998
 21
28.285701
 31
0.0
 12
47.500002
 22
27.404067
 32
0.0
 13
47.500002
 23
27.404067
 33
0.0
  0
SOLID
  5
2A8
330
2A2
100
AcDbEntity
  8
2
370
    18
100
AcDbTrace
 10
65.0
 20
27.84488400000001
 30
0.0
 11
62.500002
 21
27.404067
 31
0.0
 12
62.499998
 22
28.285701
 32
0.0
 13
62.499998
 23
28.285701
 33
0.0
  0
ENDBLK
  5
2AA
330
2A2
100
AcDbEntity
  8
0
100
AcDbBlockEnd
  0
BLOCK
  5
2AF
330
2AE
100
AcDbEntity
  8
0
100
AcDbBlockBegin
  2
*D11
 70
     1
 10
0.0
 20
0.0
 30
0.0
  3
*D11
  1

  0
LINE
  5
2B1
330
2AE
100
AcDbEntity
  8
SK2
370
    -2
100
AcDbLine
 10
0.0
 20
2.0
 30
0.0
 11
0.0
 21
37.844884
 31
0.0
  0
LINE
  5
2B2
330
2AE
100
AcDbEntity
  8
SK2
370
    -2
100
AcDbLine
 10
65.0
 20
8.349999999999999
 30
0.0
 11
65.0
 21
37.844884
 31
0.0
  0
LINE
  5
2B3
330
2AE
100
AcDbEntity
  8
SK2
370
    -2
100
AcDbLine
 10
2.5
 20
35.844884
 30
0.0
 11
62.5
 21
35.844884
 31
0.0
  0
SOLID
  5
2B4
330
2AE
100
AcDbEntity
  8
SK2
100
AcDbTrace
 10
2.5
 20
36.261551
 30
0.0
 11
2.5
 21
35.428217
 31
0.0
 12
0.0
 22
35.844884
 32
0.0
 13
0.0
 23
35.844884
 33
0.0
  0
SOLID
  5
2B5
330
2AE
100
AcDbEntity
  8
SK2
100
AcDbTrace
 10
62.5
 20
35.428217
 30
0.0
 11
62.5
 21
36.261551
 31
0.0
 12
65.0
 22
35.844884
 32
0.0
 13
65.0
 23
35.844884
 33
0.0
  0
MTEXT
  5
2B6
330
2AE
100
AcDbEntity
  8
SK2
370
    18
100
AcDbMText
 10
32.5
 20
39.62113400000001
 30
0.0
 40
2.5
 41
0.0
 71
     5
 72
     1
  1
\A1;65
  7
Arial
 73
     1
 44
1.0
1001
ACAD
1000
MTEXTBEGIN
1070
    73
1070
     1
1070
    44
1040
1.0
1070
    74
1070
     0
1000
MTEXTEND
  0
POINT
  5
2B7
330
2AE
100
AcDbEntity
  8
Defpoints
 62
     0
100
AcDbPoint
 10
0.0
 20
1.0
 30
0.0
  0
POINT
  5
2B8
330
2AE
100
AcDbEntity
  8
Defpoints
 62
     0
100
AcDbPoint
 10
65.0
 20
7.349999999999999
 30
0.0
  0
POINT
  5
2B9
330
2AE
100
AcDbEntity
  8
Defpoints
 62
     0
100
AcDbPoint
 10
65.0
 20
35.844884
 30
0.0
  0
ENDBLK
  5
2B0
330
2AE
100
AcDbEntity
  8
0
100
AcDbBlockEnd
  0
BLOCK
  5
2C1
330
2BA
100
AcDbEntity
  8
0
100
AcDbBlockBegin
  2
_U5
 70
     0
 10
0.0
 20
0.0
 30
0.0
  3
_U5
  1

  0
MTEXT
  5
2BB
330
2BA
100
AcDbEntity
  8
SK2
370
    13
100
AcDbMText
 10
30.56514
 20
36.467288
 30
0.0
 40
2.5
 41
0.0
 71
     7
 72
     5
  1
\fArial|b0|i0;\W1.0000;65
  7
Arial
 73
     2
 44
1.047437
1001
ACAD
1000
MTEXTBEGIN
1070
    73
1070
     2
1070
    44
1040
1.047437
1070
    74
1070
     0
1000
MTEXTEND
  0
LINE
  5
2BC
330
2BA
100
AcDbEntity
  8
SK2
370
    13
100
AcDbLine
 10
0.0
 20
2.0
 30
0.0
 11
0.0
 21
37.844884
 31
0.0
  0
LINE
  5
2BD
330
2BA
100
AcDbEntity
  8
SK2
370
    13
100
AcDbLine
 10
65.0
 20
8.349999999999999
 30
0.0
 11
65.0
 21
37.844884
 31
0.0
  0
LINE
  5
2BE
330
2BA
100
AcDbEntity
  8
SK2
370
    13
100
AcDbLine
 10
0.0
 20
35.844884
 30
0.0
 11
65.0
 21
35.844884
 31
0.0
  0
SOLID
  5
2BF
330
2BA
100
AcDbEntity
  8
SK2
370
    18
100
AcDbTrace
 10
0.0
 20
35.844884
 30
0.0
 11
2.499998
 21
36.28570100000001
 31
0.0
 12
2.500001999999999
 22
35.404067
 32
0.0
 13
2.500001999999999
 23
35.404067
 33
0.0
  0
SOLID
  5
2C0
330
2BA
100
AcDbEntity
  8
SK2
370
    18
100
AcDbTrace
 10
65.0
 20
35.844884
 30
0.0
 11
62.500002
 21
35.404067
 31
0.0
 12
62.499998
 22
36.28570100000001
 32
0.0
 13
62.499998
 23
36.28570100000001
 33
0.0
  0
ENDBLK
  5
2C2
330
2BA
100
AcDbEntity
  8
0
100
AcDbBlockEnd
  0
ENDSEC
  0
SECTION
  2
ENTITIES
  0
LINE
  5
76
330
1F
100
AcDbEntity
  8
1
370
    18
100
AcDbLine
 10
64.988953
 20
5.008816
 30
0.0
 11
64.990218
 21
5.100616
 31
0.0
  0
LINE
  5
78
330
1F
100
AcDbEntity
  8
1
370
    18
100
AcDbLine
 10
64.961392
 20
4.787224
 30
0.0
 11
64.976105
 21
4.872454
 31
0.0
  0
LINE
  5
79
330
1F
100
AcDbEntity
  8
1
370
    18
100
AcDbLine
 10
64.674812
 20
3.170422
 30
0.0
 11
64.624881
 21
2.851191
 31
0.0
  0
LINE
  5
7A
330
1F
100
AcDbEntity
  8
1
370
    18
100
AcDbLine
 10
59.997537
 20
3.981987999999999
 30
0.0
 11
60.002665
 21
3.693604
 31
0.0
  0
LINE
  5
7B
330
1F
100
AcDbEntity
  8
1
370
    18
100
AcDbLine
 10
62.70823100000001
 20
4.590755999999999
 30
0.0
 11
62.568728
 21
4.803241
 31
0.0
  0
LINE
  5
7C
330
1F
100
AcDbEntity
  8
4
370
    18
100
AcDbLine
 10
43.0
 20
0.0
 30
0.0
 11
68.0
 21
0.0
 31
0.0
  0
LINE
  5
7D
330
1F
100
AcDbEntity
  8
SK4
370
    18
100
AcDbLine
 10
-27.0
 20
0.0
 30
0.0
 11
47.0
 21
0.0
 31
0.0
  0
LINE
  5
7E
330
1F
100
AcDbEntity
  8
1
370
    18
100
AcDbLine
 10
58.01293900000001
 20
4.845944999999999
 30
0.0
 11
58.072771
 21
5.152753999999999
 31
0.0
  0
LINE
  5
7F
330
1F
100
AcDbEntity
  8
1
370
    18
100
AcDbLine
 10
62.815602
 20
1.705333999999999
 30
0.0
 11
62.767003
 21
1.835813999999999
 31
0.0
  0
LINE
  5
81
330
1F
100
AcDbEntity
  8
1
370
    18
100
AcDbLine
 10
62.774719
 20
1.62903
 30
0.0
 11
62.815602
 21
1.705333999999999
 31
0.0
  0
LINE
  5
82
330
1F
100
AcDbEntity
  8
1
370
    18
100
AcDbLine
 10
61.835406
 20
-5.897105
 30
0.0
 11
62.450405
 21
-5.687130999999999
 31
0.0
  0
LINE
  5
83
330
1F
100
AcDbEntity
  8
1
370
    18
100
AcDbLine
 10
61.326019
 20
-5.861576
 30
0.0
 11
61.835406
 21
-5.897105
 31
0.0
  0
LINE
  5
84
330
1F
100
AcDbEntity
  8
1
370
    18
100
AcDbLine
 10
58.552175
 20
-0.271402
 30
0.0
 11
58.59976999999999
 21
-0.388614
 31
0.0
  0
LINE
  5
86
330
1F
100
AcDbEntity
  8
1
370
    18
100
AcDbLine
 10
58.540886
 20
-0.451682
 30
0.0
 11
58.515046
 21
-0.5202590000000001
 31
0.0
  0
LINE
  5
87
330
1F
100
AcDbEntity
  8
1
370
    18
100
AcDbLine
 10
60.672742
 20
1.701909999999999
 30
0.0
 11
60.795679
 21
2.880177
 31
0.0
  0
LINE
  5
88
330
1F
100
AcDbEntity
  8
1
370
    18
100
AcDbLine
 10
60.672742
 20
1.701909999999999
 30
0.0
 11
61.69
 21
1.547644
 31
0.0
  0
LINE
  5
89
330
1F
100
AcDbEntity
  8
1
370
    18
100
AcDbLine
 10
61.706524
 20
1.54518
 30
0.0
 11
62.85298100000001
 21
1.37714
 31
0.0
  0
LINE
  5
8A
330
1F
100
AcDbEntity
  8
1
370
    18
100
AcDbLine
 10
62.85298100000001
 20
1.37714
 30
0.0
 11
63.00462099999999
 21
2.804924999999999
 31
0.0
  0
LINE
  5
8B
330
1F
100
AcDbEntity
  8
1
370
    18
100
AcDbLine
 10
60.93088100000001
 20
2.213794
 30
0.0
 11
60.71709399999999
 21
2.109643999999999
 31
0.0
  0
LINE
  5
8C
330
1F
100
AcDbEntity
  8
1
370
    18
100
AcDbLine
 10
62.551199
 20
3.631958999999999
 30
0.0
 11
62.694481
 21
3.641920999999999
 31
0.0
  0
LINE
  5
8D
330
1F
100
AcDbEntity
  8
1
370
    18
100
AcDbLine
 10
58.473473
 20
-3.350731999999999
 30
0.0
 11
57.685428
 21
-3.578678
 31
0.0
  0
LINE
  5
8E
330
1F
100
AcDbEntity
  8
1
370
    18
100
AcDbLine
 10
60.25798
 20
-3.109086
 30
0.0
 11
60.22558499999999
 21
-3.163193999999999
 31
0.0
  0
LINE
  5
8F
330
1F
100
AcDbEntity
  8
1
370
    18
100
AcDbLine
 10
62.02685899999999
 20
-2.964320999999999
 30
0.0
 11
61.779396
 21
-2.980277
 31
0.0
  0
LINE
  5
90
330
1F
100
AcDbEntity
  8
1
370
    18
100
AcDbLine
 10
60.44584399999999
 20
-2.965658
 30
0.0
 11
60.25798
 21
-3.109086
 31
0.0
  0
LINE
  5
91
330
1F
100
AcDbEntity
  8
1
370
    18
100
AcDbLine
 10
60.22558499999999
 20
-3.163193999999999
 30
0.0
 11
59.793765
 21
-5.909169
 31
0.0
  0
LINE
  5
92
330
1F
100
AcDbEntity
  8
1
370
    18
100
AcDbLine
 10
61.200388
 20
-5.869081999999999
 30
0.0
 11
61.587433
 21
-3.017427999999999
 31
0.0
  0
LINE
  5
93
330
1F
100
AcDbEntity
  8
1
370
    18
100
AcDbLine
 10
61.83415799999999
 20
-2.991018999999999
 30
0.0
 11
62.02685899999999
 21
-2.964320999999999
 31
0.0
  0
LINE
  5
94
330
1F
100
AcDbEntity
  8
1
370
    18
100
AcDbLine
 10
61.484139
 20
-5.743394999999999
 30
0.0
 11
61.271636
 21
-5.914252999999999
 31
0.0
  0
LINE
  5
95
330
1F
100
AcDbEntity
  8
1
370
    18
100
AcDbLine
 10
62.40132
 20
-5.716874999999999
 30
0.0
 11
62.497105
 21
-5.709648999999999
 31
0.0
  0
LINE
  5
96
330
1F
100
AcDbEntity
  8
1
370
    18
100
AcDbLine
 10
60.838849
 20
4.541146
 30
0.0
 11
61.12883499999999
 21
4.711539
 31
0.0
  0
LINE
  5
97
330
1F
100
AcDbEntity
  8
1
370
    18
100
AcDbLine
 10
60.787429
 20
4.559479
 30
0.0
 11
60.838849
 21
4.541146
 31
0.0
  0
LINE
  5
98
330
1F
100
AcDbEntity
  8
1
370
    18
100
AcDbLine
 10
60.787429
 20
4.559479
 30
0.0
 11
60.703441
 21
4.566158
 31
0.0
  0
LINE
  5
99
330
1F
100
AcDbEntity
  8
1
370
    18
100
AcDbLine
 10
60.703441
 20
4.566158
 30
0.0
 11
60.53449499999999
 21
4.276416
 31
0.0
  0
LINE
  5
9A
330
1F
100
AcDbEntity
  8
1
370
    18
100
AcDbLine
 10
60.53449499999999
 20
4.276416
 30
0.0
 11
60.582977
 21
4.208846
 31
0.0
  0
LINE
  5
9B
330
1F
100
AcDbEntity
  8
1
370
    18
100
AcDbLine
 10
60.625179
 20
4.174703
 30
0.0
 11
60.582977
 21
4.208846
 31
0.0
  0
LINE
  5
9C
330
1F
100
AcDbEntity
  8
1
370
    18
100
AcDbLine
 10
60.622542
 20
3.843249999999999
 30
0.0
 11
60.625179
 21
4.174703
 31
0.0
  0
LINE
  5
9D
330
1F
100
AcDbEntity
  8
1
370
    18
100
AcDbLine
 10
60.579785
 20
3.807733999999999
 30
0.0
 11
60.622542
 21
3.843249999999999
 31
0.0
  0
LINE
  5
9E
330
1F
100
AcDbEntity
  8
1
370
    18
100
AcDbLine
 10
60.579785
 20
3.807733999999999
 30
0.0
 11
60.530215
 21
3.738577999999999
 31
0.0
  0
LINE
  5
9F
330
1F
100
AcDbEntity
  8
1
370
    18
100
AcDbLine
 10
60.530215
 20
3.738577999999999
 30
0.0
 11
60.57108
 21
3.591084999999999
 31
0.0
  0
LINE
  5
A0
330
1F
100
AcDbEntity
  8
1
370
    18
100
AcDbLine
 10
62.098327
 20
3.631426999999999
 30
0.0
 11
62.133687
 21
3.764501999999999
 31
0.0
  0
LINE
  5
A1
330
1F
100
AcDbEntity
  8
1
370
    18
100
AcDbLine
 10
62.133687
 20
3.764501999999999
 30
0.0
 11
62.085205
 21
3.832073
 31
0.0
  0
LINE
  5
A2
330
1F
100
AcDbEntity
  8
1
370
    18
100
AcDbLine
 10
62.043003
 20
3.866215
 30
0.0
 11
62.085205
 21
3.832073
 31
0.0
  0
LINE
  5
A3
330
1F
100
AcDbEntity
  8
1
370
    18
100
AcDbLine
 10
62.04564
 20
4.197668
 30
0.0
 11
62.043003
 21
3.866215
 31
0.0
  0
LINE
  5
A4
330
1F
100
AcDbEntity
  8
1
370
    18
100
AcDbLine
 10
62.088397
 20
4.233183999999999
 30
0.0
 11
62.04564
 21
4.197668
 31
0.0
  0
LINE
  5
A5
330
1F
100
AcDbEntity
  8
1
370
    18
100
AcDbLine
 10
62.088397
 20
4.233183999999999
 30
0.0
 11
62.137967
 21
4.30234
 31
0.0
  0
LINE
  5
A6
330
1F
100
AcDbEntity
  8
1
370
    18
100
AcDbLine
 10
62.137967
 20
4.30234
 30
0.0
 11
61.97358900000001
 21
4.586693
 31
0.0
  0
LINE
  5
A7
330
1F
100
AcDbEntity
  8
1
370
    18
100
AcDbLine
 10
61.97358900000001
 20
4.586693
 30
0.0
 11
61.88947299999999
 21
4.577295999999999
 31
0.0
  0
LINE
  5
A8
330
1F
100
AcDbEntity
  8
1
370
    18
100
AcDbLine
 10
61.837747
 20
4.557294999999999
 30
0.0
 11
61.88947299999999
 21
4.577295999999999
 31
0.0
  0
LINE
  5
A9
330
1F
100
AcDbEntity
  8
1
370
    18
100
AcDbLine
 10
61.550399
 20
4.718354999999999
 30
0.0
 11
61.837747
 21
4.557294999999999
 31
0.0
  0
LINE
  5
AA
330
1F
100
AcDbEntity
  8
1
370
    18
100
AcDbLine
 10
61.54173499999999
 20
4.772204
 30
0.0
 11
61.550399
 21
4.718354999999999
 31
0.0
  0
LINE
  5
AB
330
1F
100
AcDbEntity
  8
1
370
    18
100
AcDbLine
 10
61.54173499999999
 20
4.772204
 30
0.0
 11
61.50731700000001
 21
4.848038999999999
 31
0.0
  0
LINE
  5
AC
330
1F
100
AcDbEntity
  8
1
370
    18
100
AcDbLine
 10
61.50731700000001
 20
4.848038999999999
 30
0.0
 11
61.173993
 21
4.842649999999999
 31
0.0
  0
LINE
  5
AD
330
1F
100
AcDbEntity
  8
1
370
    18
100
AcDbLine
 10
61.173993
 20
4.842649999999999
 30
0.0
 11
61.13835899999999
 21
4.765681999999999
 31
0.0
  0
LINE
  5
AE
330
1F
100
AcDbEntity
  8
1
370
    18
100
AcDbLine
 10
61.12883499999999
 20
4.711539
 30
0.0
 11
61.13835899999999
 21
4.765681999999999
 31
0.0
  0
LINE
  5
AF
330
1F
100
AcDbEntity
  8
CUT
370
    18
100
AcDbLine
 10
64.961392
 20
4.787224
 30
0.0
 11
64.976105
 21
4.872454
 31
0.0
  0
LINE
  5
B1
330
1F
100
AcDbEntity
  8
CUT
370
    18
100
AcDbLine
 10
57.548767
 20
3.195784
 30
0.0
 11
57.546349
 21
3.105431
 31
0.0
  0
LINE
  5
B2
330
1F
100
AcDbEntity
  8
CUT
370
    18
100
AcDbLine
 10
58.01293900000001
 20
4.845944999999999
 30
0.0
 11
58.072771
 21
5.152753999999999
 31
0.0
  0
LINE
  5
B3
330
1F
100
AcDbEntity
  8
CUT
370
    18
100
AcDbLine
 10
64.988953
 20
5.008816
 30
0.0
 11
64.990218
 21
5.100616
 31
0.0
  0
LINE
  5
B4
330
1F
100
AcDbEntity
  8
CUT
370
    18
100
AcDbLine
 10
57.588444
 20
3.402176999999999
 30
0.0
 11
57.56748599999999
 21
3.32478
 31
0.0
  0
LINE
  5
B5
330
1F
100
AcDbEntity
  8
CUT
370
    18
100
AcDbLine
 10
64.674812
 20
3.170422
 30
0.0
 11
64.624881
 21
2.851191
 31
0.0
  0
LINE
  5
B6
330
1F
100
AcDbEntity
  8
1
370
    18
100
AcDbLine
 10
64.890153
 20
5.092923
 30
0.0
 11
64.86248899999999
 21
4.796755999999999
 31
0.0
  0
LINE
  5
B7
330
1F
100
AcDbEntity
  8
1
370
    18
100
AcDbLine
 10
64.985775
 20
4.948605
 30
0.0
 11
64.988953
 21
5.008816
 31
0.0
  0
LINE
  5
B8
330
1F
100
AcDbEntity
  8
1
370
    18
100
AcDbLine
 10
64.976105
 20
4.872454
 30
0.0
 11
64.985775
 21
4.948605
 31
0.0
  0
LINE
  5
B9
330
1F
100
AcDbEntity
  8
1
370
    18
100
AcDbLine
 10
64.608823
 20
6.326027999999999
 30
0.0
 11
64.51979200000001
 21
6.324583999999999
 31
0.0
  0
LINE
  5
BA
330
1F
100
AcDbEntity
  8
1
370
    18
100
AcDbLine
 10
64.99689700000001
 20
5.945460999999999
 30
0.0
 11
64.99647
 21
5.886318
 31
0.0
  0
LINE
  5
BB
330
1F
100
AcDbEntity
  8
1
370
    18
100
AcDbLine
 10
64.34094300000001
 20
6.292292999999999
 30
0.0
 11
64.51743399999999
 21
6.294589
 31
0.0
  0
LINE
  5
BC
330
1F
100
AcDbEntity
  8
1
370
    18
100
AcDbLine
 10
61.326453
 20
6.229737999999999
 30
0.0
 11
64.34094300000001
 21
6.292292999999999
 31
0.0
  0
LINE
  5
BD
330
1F
100
AcDbEntity
  8
1
370
    18
100
AcDbLine
 10
58.51854599999999
 20
6.137932
 30
0.0
 11
61.326453
 21
6.229835999999999
 31
0.0
  0
LINE
  5
BE
330
1F
100
AcDbEntity
  8
1
370
    18
100
AcDbLine
 10
58.51896800000001
 20
6.167372
 30
0.0
 11
64.519784
 21
6.324583999999999
 31
0.0
  0
LINE
  5
BF
330
1F
100
AcDbEntity
  8
1
370
    18
100
AcDbLine
 10
58.11514999999999
 20
4.850327
 30
0.0
 11
58.17220999999999
 21
5.139907
 31
0.0
  0
LINE
  5
C0
330
1F
100
AcDbEntity
  8
1
370
    18
100
AcDbLine
 10
58.233822
 20
5.71138
 30
0.0
 11
58.22821600000001
 21
5.659059
 31
0.0
  0
LINE
  5
C1
330
1F
100
AcDbEntity
  8
1
370
    18
100
AcDbLine
 10
58.240956
 20
5.777969999999999
 30
0.0
 11
58.233822
 21
5.71138
 31
0.0
  0
LINE
  5
C2
330
1F
100
AcDbEntity
  8
1
370
    18
100
AcDbLine
 10
64.283265
 20
-0.612154
 30
0.0
 11
62.060761
 21
-0.322156
 31
0.0
  0
LINE
  5
C3
330
1F
100
AcDbEntity
  8
1
370
    18
100
AcDbLine
 10
64.565922
 20
-0.608671
 30
0.0
 11
64.283265
 21
-0.612154
 31
0.0
  0
LINE
  5
C4
330
1F
100
AcDbEntity
  8
1
370
    18
100
AcDbLine
 10
64.608823
 20
-3.086694
 30
0.0
 11
64.51979200000001
 21
-3.067035999999999
 31
0.0
  0
LINE
  5
C5
330
1F
100
AcDbEntity
  8
1
370
    18
100
AcDbLine
 10
58.51896800000001
 20
-1.893304
 30
0.0
 11
64.519784
 21
-3.067034999999999
 31
0.0
  0
LINE
  5
C6
330
1F
100
AcDbEntity
  8
1
370
    18
100
AcDbLine
 10
62.06012
 20
-0.322074
 30
0.0
 11
61.53060899999999
 21
-0.251723
 31
0.0
  0
LINE
  5
C7
330
1F
100
AcDbEntity
  8
1
370
    18
100
AcDbLine
 10
58.518853
 20
-1.893283
 30
0.0
 11
58.142179
 21
-1.675449
 31
0.0
  0
LINE
  5
C8
330
1F
100
AcDbEntity
  8
1
370
    18
100
AcDbLine
 10
64.96765100000001
 20
-3.077115
 30
0.0
 11
64.99689700000001
 21
-3.030769999999999
 31
0.0
  0
LINE
  5
C9
330
1F
100
AcDbEntity
  8
1
370
    18
100
AcDbLine
 10
64.678026
 20
-4.248374
 30
0.0
 11
64.66792199999999
 21
-4.162814
 31
0.0
  0
LINE
  5
CA
330
1F
100
AcDbEntity
  8
1
370
    18
100
AcDbLine
 10
64.650926
 20
-4.633202999999999
 30
0.0
 11
64.58530299999999
 21
-4.709089999999999
 31
0.0
  0
LINE
  5
CB
330
1F
100
AcDbEntity
  8
1
370
    18
100
AcDbLine
 10
64.68145200000001
 20
-4.528948999999999
 30
0.0
 11
64.650926
 21
-4.633202999999999
 31
0.0
  0
LINE
  5
CC
330
1F
100
AcDbEntity
  8
1
370
    18
100
AcDbLine
 10
59.416421
 20
0.164771
 30
0.0
 11
59.349859
 21
0.235409
 31
0.0
  0
LINE
  5
CD
330
1F
100
AcDbEntity
  8
1
370
    18
100
AcDbLine
 10
58.540886
 20
-0.451682
 30
0.0
 11
58.515046
 21
-0.39665
 31
0.0
  0
LINE
  5
CE
330
1F
100
AcDbEntity
  8
1
370
    18
100
AcDbLine
 10
58.515063
 20
-0.396643
 30
0.0
 11
58.51500600000001
 21
0.102435
 31
0.0
  0
LINE
  5
CF
330
1F
100
AcDbEntity
  8
1
370
    18
100
AcDbLine
 10
59.395296
 20
0.29045
 30
0.0
 11
59.34985799999999
 21
0.235407
 31
0.0
  0
LINE
  5
D0
330
1F
100
AcDbEntity
  8
1
370
    18
100
AcDbLine
 10
58.581926
 20
-0.370445
 30
0.0
 11
58.540886
 21
-0.451682
 31
0.0
  0
LINE
  5
D1
330
1F
100
AcDbEntity
  8
1
370
    18
100
AcDbLine
 10
54.62091700000001
 20
-0.6555640000000001
 30
0.0
 11
54.634456
 21
-0.5941609999999999
 31
0.0
  0
LINE
  5
D2
330
1F
100
AcDbEntity
  8
1
370
    18
100
AcDbLine
 10
53.361601
 20
-1.423613
 30
0.0
 11
53.30110600000001
 21
-1.428154
 31
0.0
  0
LINE
  5
D3
330
1F
100
AcDbEntity
  8
1
370
    18
100
AcDbLine
 10
58.515046
 20
3.866833999999999
 30
0.0
 11
58.423435
 21
3.871097
 31
0.0
  0
LINE
  5
D4
330
1F
100
AcDbEntity
  8
1
370
    18
100
AcDbLine
 10
58.228058
 20
-1.314340999999999
 30
0.0
 11
58.515046
 21
-0.5202590000000001
 31
0.0
  0
LINE
  5
D5
330
1F
100
AcDbEntity
  8
1
370
    18
100
AcDbLine
 10
59.39529799999999
 20
3.818317
 30
0.0
 11
58.515046
 21
3.866833999999999
 31
0.0
  0
LINE
  5
D6
330
1F
100
AcDbEntity
  8
1
370
    18
100
AcDbLine
 10
59.77024100000001
 20
3.795755
 30
0.0
 11
59.454512
 21
3.814982
 31
0.0
  0
LINE
  5
D7
330
1F
100
AcDbEntity
  8
1
370
    18
100
AcDbLine
 10
60.38593800000001
 20
3.566758
 30
0.0
 11
59.770242
 21
3.795766
 31
0.0
  0
LINE
  5
D8
330
1F
100
AcDbEntity
  8
1
370
    18
100
AcDbLine
 10
59.468714
 20
0.216294
 30
0.0
 11
61.69
 21
-0.091649
 31
0.0
  0
LINE
  5
D9
330
1F
100
AcDbEntity
  8
1
370
    18
100
AcDbLine
 10
59.468714
 20
0.216294
 30
0.0
 11
59.416422
 21
0.164771
 31
0.0
  0
LINE
  5
DA
330
1F
100
AcDbEntity
  8
1
370
    18
100
AcDbLine
 10
61.69
 20
-0.091649
 30
0.0
 11
61.67833100000001
 21
-0.155733
 31
0.0
  0
LINE
  5
DB
330
1F
100
AcDbEntity
  8
1
370
    18
100
AcDbLine
 10
61.67833100000001
 20
-0.155733
 30
0.0
 11
59.427981
 21
0.152651
 31
0.0
  0
LINE
  5
DC
330
1F
100
AcDbEntity
  8
1
370
    18
100
AcDbLine
 10
59.395296
 20
0.29045
 30
0.0
 11
59.454514
 21
0.232433
 31
0.0
  0
LINE
  5
DD
330
1F
100
AcDbEntity
  8
1
370
    18
100
AcDbLine
 10
59.454512
 20
3.814982
 30
0.0
 11
59.39529799999999
 21
3.818317
 31
0.0
  0
LINE
  5
DE
330
1F
100
AcDbEntity
  8
1
370
    18
100
AcDbLine
 10
61.706524
 20
-0.093815
 30
0.0
 11
61.694276
 21
-0.157873
 31
0.0
  0
LINE
  5
DF
330
1F
100
AcDbEntity
  8
1
370
    18
100
AcDbLine
 10
61.706524
 20
-0.093815
 30
0.0
 11
64.198482
 21
-0.4251680000000001
 31
0.0
  0
LINE
  5
E0
330
1F
100
AcDbEntity
  8
1
370
    18
100
AcDbLine
 10
64.198482
 20
-0.4251680000000001
 30
0.0
 11
64.186234
 21
-0.485265
 31
0.0
  0
LINE
  5
E1
330
1F
100
AcDbEntity
  8
1
370
    18
100
AcDbLine
 10
64.186234
 20
-0.485265
 30
0.0
 11
61.694276
 21
-0.157873
 31
0.0
  0
LINE
  5
E2
330
1F
100
AcDbEntity
  8
1
370
    18
100
AcDbLine
 10
64.198482
 20
3.521165
 30
0.0
 11
62.77384300000001
 21
3.610425
 31
0.0
  0
LINE
  5
E3
330
1F
100
AcDbEntity
  8
1
370
    18
100
AcDbLine
 10
57.953249
 20
3.887562
 30
0.0
 11
57.696573
 21
3.901928999999999
 31
0.0
  0
LINE
  5
E4
330
1F
100
AcDbEntity
  8
1
370
    18
100
AcDbLine
 10
57.696573
 20
-1.209573
 30
0.0
 11
57.953249
 21
-1.263074999999999
 31
0.0
  0
LINE
  5
E5
330
1F
100
AcDbEntity
  8
1
370
    18
100
AcDbLine
 10
58.223476
 20
-1.316953
 30
0.0
 11
58.159914
 21
-1.357844999999999
 31
0.0
  0
LINE
  5
E6
330
1F
100
AcDbEntity
  8
1
370
    18
100
AcDbLine
 10
58.159913
 20
-1.357844999999999
 30
0.0
 11
57.964289
 21
-1.317782999999999
 31
0.0
  0
LINE
  5
E7
330
1F
100
AcDbEntity
  8
1
370
    18
100
AcDbLine
 10
64.478542
 20
3.474419999999999
 30
0.0
 11
64.198482
 21
3.521165
 31
0.0
  0
LINE
  5
E8
330
1F
100
AcDbEntity
  8
1
370
    18
100
AcDbLine
 10
64.58332099999999
 20
3.396980999999999
 30
0.0
 11
64.478542
 21
3.474419999999999
 31
0.0
  0
LINE
  5
E9
330
1F
100
AcDbEntity
  8
1
370
    18
100
AcDbLine
 10
64.55597799999999
 20
-0.389467
 30
0.0
 11
64.58332099999999
 21
-0.347354
 31
0.0
  0
LINE
  5
EA
330
1F
100
AcDbEntity
  8
1
370
    18
100
AcDbLine
 10
58.171331
 20
-1.357813999999999
 30
0.0
 11
58.232062
 21
-1.327511
 31
0.0
  0
LINE
  5
EB
330
1F
100
AcDbEntity
  8
1
370
    18
100
AcDbLine
 10
64.48493
 20
-0.450474
 30
0.0
 11
64.186234
 21
-0.485265
 31
0.0
  0
LINE
  5
EC
330
1F
100
AcDbEntity
  8
1
370
    18
100
AcDbLine
 10
57.964289
 20
-1.317782999999999
 30
0.0
 11
57.707613
 21
-1.264652
 31
0.0
  0
LINE
  5
ED
330
1F
100
AcDbEntity
  8
1
370
    18
100
AcDbLine
 10
57.121237
 20
-1.14657
 30
0.0
 11
57.134776
 21
-1.091228
 31
0.0
  0
LINE
  5
EE
330
1F
100
AcDbEntity
  8
1
370
    18
100
AcDbLine
 10
57.707613
 20
-1.264652
 30
0.0
 11
57.121237
 21
-1.14657
 31
0.0
  0
LINE
  5
EF
330
1F
100
AcDbEntity
  8
1
370
    18
100
AcDbLine
 10
54.634456
 20
5.24124
 30
0.0
 11
57.134776
 21
5.425819
 31
0.0
  0
LINE
  5
F0
330
1F
100
AcDbEntity
  8
1
370
    18
100
AcDbLine
 10
54.634456
 20
-0.5941609999999999
 30
0.0
 11
57.134776
 21
-1.091228
 31
0.0
  0
LINE
  5
F1
330
1F
100
AcDbEntity
  8
1
370
    18
100
AcDbLine
 10
57.121237
 20
-1.14657
 30
0.0
 11
54.62091700000001
 21
-0.6555640000000001
 31
0.0
  0
LINE
  5
F2
330
1F
100
AcDbEntity
  8
1
370
    18
100
AcDbLine
 10
53.42855799999999
 20
-3.264156999999999
 30
0.0
 11
53.368063
 21
-3.291420999999999
 31
0.0
  0
LINE
  5
F3
330
1F
100
AcDbEntity
  8
1
370
    18
100
AcDbLine
 10
61.227137
 20
3.706904
 30
0.0
 11
61.30882800000001
 21
3.727594999999999
 31
0.0
  0
LINE
  5
F4
330
1F
100
AcDbEntity
  8
1
370
    18
100
AcDbLine
 10
62.694872
 20
3.641955999999999
 30
0.0
 11
62.77372800000001
 21
3.610689999999999
 31
0.0
  0
LINE
  5
F5
330
1F
100
AcDbEntity
  8
1
370
    18
100
AcDbLine
 10
57.01075600000001
 20
-1.119663999999999
 30
0.0
 11
56.95009200000001
 21
-1.219895999999999
 31
0.0
  0
LINE
  5
F6
330
1F
100
AcDbEntity
  8
1
370
    18
100
AcDbLine
 10
60.57395699999999
 20
3.584607
 30
0.0
 11
61.20039000000001
 21
3.732201
 31
0.0
  0
LINE
  5
F7
330
1F
100
AcDbEntity
  8
1
370
    18
100
AcDbLine
 10
62.694675
 20
3.641908999999999
 30
0.0
 11
64.20011999999999
 21
3.548091
 31
0.0
  0
LINE
  5
F8
330
1F
100
AcDbEntity
  8
1
370
    18
100
AcDbLine
 10
57.25797
 20
-2.777376999999999
 30
0.0
 11
57.761382
 21
-3.19355
 31
0.0
  0
LINE
  5
F9
330
1F
100
AcDbEntity
  8
1
370
    18
100
AcDbLine
 10
54.873391
 20
-5.00068
 30
0.0
 11
57.685428
 21
-3.578678
 31
0.0
  0
LINE
  5
FA
330
1F
100
AcDbEntity
  8
1
370
    18
100
AcDbLine
 10
64.20011999999999
 20
3.548091
 30
0.0
 11
64.508756
 21
3.482001999999999
 31
0.0
  0
LINE
  5
FB
330
1F
100
AcDbEntity
  8
1
370
    18
100
AcDbLine
 10
54.829552
 20
-5.050708
 30
0.0
 11
54.899639
 21
-5.024523999999999
 31
0.0
  0
LINE
  5
FC
330
1F
100
AcDbEntity
  8
1
370
    18
100
AcDbLine
 10
61.217245
 20
3.733141
 30
0.0
 11
61.30882800000001
 21
3.727593
 31
0.0
  0
LINE
  5
FD
330
1F
100
AcDbEntity
  8
1
370
    18
100
AcDbLine
 10
59.456728
 20
3.83961
 30
0.0
 11
59.793692
 21
3.819255
 31
0.0
  0
LINE
  5
FE
330
1F
100
AcDbEntity
  8
1
370
    18
100
AcDbLine
 10
59.399587
 20
3.842894
 30
0.0
 11
59.456728
 21
3.83961
 31
0.0
  0
LINE
  5
FF
330
1F
100
AcDbEntity
  8
1
370
    18
100
AcDbLine
 10
58.519335
 20
3.890848999999999
 30
0.0
 11
59.399587
 21
3.842894
 31
0.0
  0
LINE
  5
100
330
1F
100
AcDbEntity
  8
1
370
    18
100
AcDbLine
 10
58.43173199999999
 20
3.895116
 30
0.0
 11
58.519335
 21
3.890848999999999
 31
0.0
  0
LINE
  5
101
330
1F
100
AcDbEntity
  8
1
370
    18
100
AcDbLine
 10
57.732473
 20
3.926219999999999
 30
0.0
 11
57.986588
 21
3.913080999999999
 31
0.0
  0
LINE
  5
102
330
1F
100
AcDbEntity
  8
1
370
    18
100
AcDbLine
 10
54.829552
 20
4.886991
 30
0.0
 11
54.899639
 21
4.867351999999999
 31
0.0
  0
LINE
  5
103
330
1F
100
AcDbEntity
  8
1
370
    18
100
AcDbLine
 10
56.07480500000001
 20
-5.391003999999999
 30
0.0
 11
57.15193299999999
 21
-5.523400999999999
 31
0.0
  0
LINE
  5
104
330
1F
100
AcDbEntity
  8
1
370
    18
100
AcDbLine
 10
56.97323299999999
 20
-1.290051999999999
 30
0.0
 11
56.933328
 21
-1.224954
 31
0.0
  0
LINE
  5
105
330
1F
100
AcDbEntity
  8
1
370
    18
100
AcDbLine
 10
57.379913
 20
-2.122068999999999
 30
0.0
 11
56.97323299999999
 21
-1.290051999999999
 31
0.0
  0
LINE
  5
106
330
1F
100
AcDbEntity
  8
1
370
    18
100
AcDbLine
 10
56.401335
 20
-2.700177999999999
 30
0.0
 11
57.25129599999999
 21
-2.714186999999999
 31
0.0
  0
LINE
  5
107
330
1F
100
AcDbEntity
  8
1
370
    18
100
AcDbLine
 10
55.47437399999999
 20
-2.053634
 30
0.0
 11
55.494847
 21
-2.113690999999999
 31
0.0
  0
LINE
  5
108
330
1F
100
AcDbEntity
  8
1
370
    18
100
AcDbLine
 10
57.25129499999999
 20
-2.714164999999999
 30
0.0
 11
57.257962
 21
-2.777384
 31
0.0
  0
LINE
  5
109
330
1F
100
AcDbEntity
  8
1
370
    18
100
AcDbLine
 10
57.15193299999999
 20
-5.523400999999999
 30
0.0
 11
57.732473
 21
-5.675731999999999
 31
0.0
  0
LINE
  5
10A
330
1F
100
AcDbEntity
  8
1
370
    18
100
AcDbLine
 10
57.732473
 20
-5.675731999999999
 30
0.0
 11
57.986588
 21
-5.790506999999999
 31
0.0
  0
LINE
  5
10B
330
1F
100
AcDbEntity
  8
1
370
    18
100
AcDbLine
 10
53.368063
 20
5.718105
 30
0.0
 11
53.42855799999999
 21
5.683196999999999
 31
0.0
  0
LINE
  5
10C
330
1F
100
AcDbEntity
  8
1
370
    18
100
AcDbLine
 10
64.56900400000001
 20
-4.254321
 30
0.0
 11
64.364181
 21
-3.359828999999999
 31
0.0
  0
LINE
  5
10D
330
1F
100
AcDbEntity
  8
1
370
    18
100
AcDbLine
 10
64.50412299999999
 20
-4.964495999999999
 30
0.0
 11
64.285105
 21
-3.276002999999999
 31
0.0
  0
LINE
  5
10E
330
1F
100
AcDbEntity
  8
1
370
    18
100
AcDbLine
 10
64.349985
 20
-3.242339999999999
 30
0.0
 11
64.285105
 21
-3.276002999999999
 31
0.0
  0
LINE
  5
10F
330
1F
100
AcDbEntity
  8
1
370
    18
100
AcDbLine
 10
64.56900400000001
 20
-4.929926
 30
0.0
 11
64.50412299999999
 21
-4.964495999999999
 31
0.0
  0
LINE
  5
110
330
1F
100
AcDbEntity
  8
1
370
    18
100
AcDbLine
 10
57.761382
 20
-3.19355
 30
0.0
 11
58.146116
 21
-3.287883999999999
 31
0.0
  0
LINE
  5
111
330
1F
100
AcDbEntity
  8
1
370
    18
100
AcDbLine
 10
58.519335
 20
-5.906623
 30
0.0
 11
59.399587
 21
-5.916891999999999
 31
0.0
  0
LINE
  5
112
330
1F
100
AcDbEntity
  8
1
370
    18
100
AcDbLine
 10
58.43173199999999
 20
-5.902841
 30
0.0
 11
58.519335
 21
-5.906623
 31
0.0
  0
LINE
  5
113
330
1F
100
AcDbEntity
  8
1
370
    18
100
AcDbLine
 10
59.456728
 20
-5.916623
 30
0.0
 11
59.793692
 21
-5.909629999999999
 31
0.0
  0
LINE
  5
114
330
1F
100
AcDbEntity
  8
1
370
    18
100
AcDbLine
 10
59.399587
 20
-5.916891999999999
 30
0.0
 11
59.456728
 21
-5.916623
 31
0.0
  0
LINE
  5
115
330
1F
100
AcDbEntity
  8
1
370
    18
100
AcDbLine
 10
60.57393799999999
 20
-5.923388
 30
0.0
 11
61.20036999999999
 21
-5.869072
 31
0.0
  0
LINE
  5
116
330
1F
100
AcDbEntity
  8
1
370
    18
100
AcDbLine
 10
64.285105
 20
-3.276002999999999
 30
0.0
 11
64.26401199999999
 21
-2.996175999999999
 31
0.0
  0
LINE
  5
117
330
1F
100
AcDbEntity
  8
1
370
    18
100
AcDbLine
 10
64.515124
 20
-5.112438
 30
0.0
 11
64.50412299999999
 21
-4.964495999999999
 31
0.0
  0
LINE
  5
118
330
1F
100
AcDbEntity
  8
1
370
    18
100
AcDbLine
 10
64.51761199999999
 20
-5.441338
 30
0.0
 11
64.515124
 21
-5.112438
 31
0.0
  0
LINE
  5
119
330
1F
100
AcDbEntity
  8
1
370
    18
100
AcDbLine
 10
62.694872
 20
-5.838248999999999
 30
0.0
 11
64.20011999999999
 21
-5.790955999999999
 31
0.0
  0
LINE
  5
11A
330
1F
100
AcDbEntity
  8
1
370
    18
100
AcDbLine
 10
61.20037199999999
 20
-5.869080999999999
 30
0.0
 11
61.271636
 21
-5.914252999999999
 31
0.0
  0
LINE
  5
11B
330
1F
100
AcDbEntity
  8
1
370
    18
100
AcDbLine
 10
64.330585
 20
-2.992008
 30
0.0
 11
64.267654
 21
-2.990412
 31
0.0
  0
LINE
  5
11C
330
1F
100
AcDbEntity
  8
1
370
    18
100
AcDbLine
 10
64.330584
 20
-2.992008999999999
 30
0.0
 11
64.349985
 21
-3.242339999999999
 31
0.0
  0
LINE
  5
11D
330
1F
100
AcDbEntity
  8
1
370
    18
100
AcDbLine
 10
57.696573
 20
-5.716012999999999
 30
0.0
 11
57.134776
 21
-5.567783
 31
0.0
  0
LINE
  5
11E
330
1F
100
AcDbEntity
  8
1
370
    18
100
AcDbLine
 10
57.732473
 20
-5.675731999999999
 30
0.0
 11
57.696573
 21
-5.716012999999999
 31
0.0
  0
LINE
  5
11F
330
1F
100
AcDbEntity
  8
1
370
    18
100
AcDbLine
 10
57.953249
 20
-5.830925999999999
 30
0.0
 11
57.696573
 21
-5.716012999999999
 31
0.0
  0
LINE
  5
120
330
1F
100
AcDbEntity
  8
1
370
    18
100
AcDbLine
 10
57.986588
 20
-5.790506999999999
 30
0.0
 11
57.953249
 21
-5.830925999999999
 31
0.0
  0
LINE
  5
121
330
1F
100
AcDbEntity
  8
1
370
    18
100
AcDbLine
 10
58.515046
 20
-5.951577999999999
 30
0.0
 11
58.423435
 21
-5.947668
 31
0.0
  0
LINE
  5
122
330
1F
100
AcDbEntity
  8
1
370
    18
100
AcDbLine
 10
59.39529799999999
 20
-5.961966999999999
 30
0.0
 11
58.515046
 21
-5.951577999999999
 31
0.0
  0
LINE
  5
123
330
1F
100
AcDbEntity
  8
1
370
    18
100
AcDbLine
 10
61.24684399999999
 20
-5.921016999999999
 30
0.0
 11
59.770213
 21
-5.95516
 31
0.0
  0
LINE
  5
124
330
1F
100
AcDbEntity
  8
1
370
    18
100
AcDbLine
 10
59.77020200000001
 20
-5.955155
 30
0.0
 11
59.792318
 21
-5.909658999999999
 31
0.0
  0
LINE
  5
125
330
1F
100
AcDbEntity
  8
1
370
    18
100
AcDbLine
 10
64.56900400000001
 20
-4.929926
 30
0.0
 11
64.580833
 21
-5.087855
 31
0.0
  0
LINE
  5
126
330
1F
100
AcDbEntity
  8
1
370
    18
100
AcDbLine
 10
64.580833
 20
-5.087855
 30
0.0
 11
64.515124
 21
-5.112438
 31
0.0
  0
LINE
  5
127
330
1F
100
AcDbEntity
  8
1
370
    18
100
AcDbLine
 10
59.454512
 20
-5.961674999999999
 30
0.0
 11
59.39529799999999
 21
-5.961966999999999
 31
0.0
  0
LINE
  5
128
330
1F
100
AcDbEntity
  8
1
370
    18
100
AcDbLine
 10
59.770214
 20
-5.955156999999999
 30
0.0
 11
59.454512
 21
-5.961674999999999
 31
0.0
  0
LINE
  5
129
330
1F
100
AcDbEntity
  8
1
370
    18
100
AcDbLine
 10
64.580833
 20
-4.353293999999999
 30
0.0
 11
64.56900400000001
 21
-4.254321
 31
0.0
  0
LINE
  5
12A
330
1F
100
AcDbEntity
  8
1
370
    18
100
AcDbLine
 10
64.580833
 20
-5.087855
 30
0.0
 11
64.58332099999999
 21
-5.416751999999999
 31
0.0
  0
LINE
  5
12B
330
1F
100
AcDbEntity
  8
1
370
    18
100
AcDbLine
 10
64.58332099999999
 20
-5.416751999999999
 30
0.0
 11
64.51761199999999
 21
-5.441338
 31
0.0
  0
LINE
  5
12C
330
1F
100
AcDbEntity
  8
1
370
    18
100
AcDbLine
 10
64.58332099999999
 20
-4.558087
 30
0.0
 11
64.580833
 21
-4.353293999999999
 31
0.0
  0
LINE
  5
12D
330
1F
100
AcDbEntity
  8
1
370
    18
100
AcDbLine
 10
62.77372800000001
 20
-5.881075
 30
0.0
 11
62.694872
 21
-5.838248999999999
 31
0.0
  0
LINE
  5
12E
330
1F
100
AcDbEntity
  8
1
370
    18
100
AcDbLine
 10
62.99838199999999
 20
-5.920355
 30
0.0
 11
62.773892
 21
-5.881098
 31
0.0
  0
LINE
  5
12F
330
1F
100
AcDbEntity
  8
1
370
    18
100
AcDbLine
 10
60.932478
 20
-5.980287999999999
 30
0.0
 11
60.812275
 21
-5.998765
 31
0.0
  0
LINE
  5
130
330
1F
100
AcDbEntity
  8
1
370
    18
100
AcDbLine
 10
64.198482
 20
-5.836391
 30
0.0
 11
62.77372800000001
 21
-5.881075
 31
0.0
  0
LINE
  5
131
330
1F
100
AcDbEntity
  8
1
370
    18
100
AcDbLine
 10
57.121237
 20
5.392258999999999
 30
0.0
 11
54.62091700000001
 21
5.209931
 31
0.0
  0
LINE
  5
132
330
1F
100
AcDbEntity
  8
1
370
    18
100
AcDbLine
 10
57.707613
 20
5.524531999999999
 30
0.0
 11
57.121237
 21
5.392258999999999
 31
0.0
  0
LINE
  5
133
330
1F
100
AcDbEntity
  8
1
370
    18
100
AcDbLine
 10
57.964289
 20
5.626476
 30
0.0
 11
57.707613
 21
5.524531999999999
 31
0.0
  0
LINE
  5
134
330
1F
100
AcDbEntity
  8
1
370
    18
100
AcDbLine
 10
58.159913
 20
5.691005
 30
0.0
 11
57.964289
 21
5.626475
 31
0.0
  0
LINE
  5
135
330
1F
100
AcDbEntity
  8
1
370
    18
100
AcDbLine
 10
57.696573
 20
5.554238999999999
 30
0.0
 11
57.953249
 21
5.656298999999999
 31
0.0
  0
LINE
  5
136
330
1F
100
AcDbEntity
  8
1
370
    18
100
AcDbLine
 10
58.05231
 20
5.692194
 30
0.0
 11
58.131417
 21
5.716308
 31
0.0
  0
LINE
  5
137
330
1F
100
AcDbEntity
  8
1
370
    18
100
AcDbLine
 10
57.953249
 20
5.656299999999999
 30
0.0
 11
58.05231
 21
5.692194
 31
0.0
  0
LINE
  5
138
330
1F
100
AcDbEntity
  8
1
370
    18
100
AcDbLine
 10
62.08848299999999
 20
4.442542999999999
 30
0.0
 11
62.007735
 21
4.428920999999999
 31
0.0
  0
LINE
  5
139
330
1F
100
AcDbEntity
  8
1
370
    18
100
AcDbLine
 10
61.958515
 20
4.405776
 30
0.0
 11
62.007735
 21
4.428920999999999
 31
0.0
  0
LINE
  5
13A
330
1F
100
AcDbEntity
  8
1
370
    18
100
AcDbLine
 10
61.688354
 20
4.543523999999999
 30
0.0
 11
61.958515
 21
4.405776
 31
0.0
  0
LINE
  5
13B
330
1F
100
AcDbEntity
  8
1
370
    18
100
AcDbLine
 10
60.69804699999999
 20
3.659358999999999
 30
0.0
 11
60.645109
 21
3.594427999999999
 31
0.0
  0
LINE
  5
13C
330
1F
100
AcDbEntity
  8
1
370
    18
100
AcDbLine
 10
60.69804699999999
 20
3.659358999999999
 30
0.0
 11
60.74330899999999
 21
3.691730999999999
 31
0.0
  0
LINE
  5
13D
330
1F
100
AcDbEntity
  8
1
370
    18
100
AcDbLine
 10
60.74330899999999
 20
3.691730999999999
 30
0.0
 11
60.74594699999999
 21
4.023183999999999
 31
0.0
  0
LINE
  5
13E
330
1F
100
AcDbEntity
  8
1
370
    18
100
AcDbLine
 10
60.959617
 20
4.389625999999999
 30
0.0
 11
61.249603
 21
4.560019999999999
 31
0.0
  0
LINE
  5
13F
330
1F
100
AcDbEntity
  8
1
370
    18
100
AcDbLine
 10
60.818335
 20
4.422007999999999
 30
0.0
 11
60.649389
 21
4.132266999999999
 31
0.0
  0
LINE
  5
140
330
1F
100
AcDbEntity
  8
1
370
    18
100
AcDbLine
 10
61.249603
 20
4.560019999999999
 30
0.0
 11
61.25662099999999
 21
4.617307
 31
0.0
  0
LINE
  5
141
330
1F
100
AcDbEntity
  8
1
370
    18
100
AcDbLine
 10
61.288887
 20
4.6985
 30
0.0
 11
61.25662099999999
 21
4.617307
 31
0.0
  0
LINE
  5
142
330
1F
100
AcDbEntity
  8
1
370
    18
100
AcDbLine
 10
60.905691
 20
4.411102999999999
 30
0.0
 11
60.959617
 21
4.389625999999999
 31
0.0
  0
LINE
  5
143
330
1F
100
AcDbEntity
  8
1
370
    18
100
AcDbLine
 10
60.905691
 20
4.411102999999999
 30
0.0
 11
60.818335
 21
4.422007999999999
 31
0.0
  0
LINE
  5
144
330
1F
100
AcDbEntity
  8
1
370
    18
100
AcDbLine
 10
64.989758
 20
-2.701541999999999
 30
0.0
 11
64.67696499999999
 21
-0.362637
 31
0.0
  0
LINE
  5
145
330
1F
100
AcDbEntity
  8
1
370
    18
100
AcDbLine
 10
64.668756
 20
-4.599342
 30
0.0
 11
64.867654
 21
-3.663137
 31
0.0
  0
LINE
  5
146
330
1F
100
AcDbEntity
  8
1
370
    18
100
AcDbLine
 10
64.867655
 20
-3.663136
 30
0.0
 11
64.887372
 21
-3.562222
 31
0.0
  0
LINE
  5
147
330
1F
100
AcDbEntity
  8
1
370
    18
100
AcDbLine
 10
64.887373
 20
-3.562219
 30
0.0
 11
64.97097700000001
 21
-3.069377999999999
 31
0.0
  0
LINE
  5
148
330
1F
100
AcDbEntity
  8
1
370
    18
100
AcDbLine
 10
64.48416899999999
 20
-0.4504140000000001
 30
0.0
 11
64.56425300000001
 21
-0.383271
 31
0.0
  0
LINE
  5
149
330
1F
100
AcDbEntity
  8
1
370
    18
100
AcDbLine
 10
64.565079
 20
3.430585999999999
 30
0.0
 11
64.510625
 21
3.48021
 31
0.0
  0
LINE
  5
14A
330
1F
100
AcDbEntity
  8
1
370
    18
100
AcDbLine
 10
53.419185
 20
5.688912
 30
0.0
 11
53.35772399999999
 21
5.724452999999999
 31
0.0
  0
LINE
  5
14B
330
1F
100
AcDbEntity
  8
CUT
370
    18
100
AcDbLine
 10
64.608823
 20
6.326027999999999
 30
0.0
 11
64.51979200000001
 21
6.324583999999999
 31
0.0
  0
LINE
  5
14C
330
1F
100
AcDbEntity
  8
CUT
370
    18
100
AcDbLine
 10
58.02840699999999
 20
1.866877999999999
 30
0.0
 11
64.149297
 21
1.873441999999999
 31
0.0
  0
LINE
  5
14D
330
1F
100
AcDbEntity
  8
CUT
370
    18
100
AcDbLine
 10
57.936799
 20
1.868659
 30
0.0
 11
58.028399
 21
1.866877999999999
 31
0.0
  0
LINE
  5
14E
330
1F
100
AcDbEntity
  8
CUT
370
    18
100
AcDbLine
 10
64.99647
 20
5.886318
 30
0.0
 11
64.99689700000001
 21
5.945460999999999
 31
0.0
  0
LINE
  5
14F
330
1F
100
AcDbEntity
  8
CUT
370
    18
100
AcDbLine
 10
57.540098
 20
2.319728
 30
0.0
 11
57.539762
 21
2.26047
 31
0.0
  0
LINE
  5
150
330
1F
100
AcDbEntity
  8
CUT
370
    18
100
AcDbLine
 10
57.56748599999999
 20
3.32478
 30
0.0
 11
57.548767
 21
3.195784
 31
0.0
  0
LINE
  5
151
330
1F
100
AcDbEntity
  8
CUT
370
    18
100
AcDbLine
 10
64.976105
 20
4.872454
 30
0.0
 11
64.988953
 21
5.008816
 31
0.0
  0
LINE
  5
152
330
1F
100
AcDbEntity
  8
CUT
370
    18
100
AcDbLine
 10
64.519784
 20
6.324583999999999
 30
0.0
 11
58.51896800000001
 21
6.167372
 31
0.0
  0
LINE
  5
153
330
1F
100
AcDbEntity
  8
SK1
370
    13
100
AcDbLine
 10
-24.5
 20
6.349999999999999
 30
0.0
 11
-25.0
 21
5.849999999999999
 31
0.0
  0
LINE
  5
154
330
1F
100
AcDbEntity
  8
SK1
370
    13
100
AcDbLine
 10
-25.0
 20
-5.849999999999999
 30
0.0
 11
-24.5
 21
-6.349999999999999
 31
0.0
  0
LINE
  5
155
102
{ACAD_REACTORS
330
24A
102
}
330
1F
100
AcDbEntity
  8
SK1
370
    13
100
AcDbLine
 10
-24.5
 20
-6.349999999999999
 30
0.0
 11
45.0
 21
-6.349999999999999
 31
0.0
  0
LINE
  5
156
102
{ACAD_REACTORS
330
24A
102
}
330
1F
100
AcDbEntity
  8
SK1
370
    13
100
AcDbLine
 10
45.0
 20
6.349999999999999
 30
0.0
 11
-24.5
 21
6.349999999999999
 31
0.0
  0
LINE
  5
157
330
1F
100
AcDbEntity
  8
1
370
    13
100
AcDbLine
 10
45.940202
 20
-6.015348999999999
 30
0.0
 11
48.776271
 21
-5.760002
 31
0.0
  0
LINE
  5
158
330
1F
100
AcDbEntity
  8
1
370
    13
100
AcDbLine
 10
48.776271
 20
5.760002
 30
0.0
 11
45.940202
 21
6.015348999999999
 31
0.0
  0
LINE
  5
159
330
1F
100
AcDbEntity
  8
1
370
    13
100
AcDbLine
 10
53.326183
 20
5.739859
 30
0.0
 11
49.224634
 21
5.739859
 31
0.0
  0
LINE
  5
15A
330
1F
100
AcDbEntity
  8
1
370
    13
100
AcDbLine
 10
49.224634
 20
-5.739859
 30
0.0
 11
57.134776
 21
-5.739859
 31
0.0
  0
LINE
  5
15B
330
1F
100
AcDbEntity
  8
1
370
    13
100
AcDbLine
 10
57.696573
 20
-5.841732
 30
0.0
 11
57.953249
 21
-5.937985
 31
0.0
  0
LINE
  5
15C
330
1F
100
AcDbEntity
  8
1
370
    13
100
AcDbLine
 10
58.515046
 20
-6.039858999999999
 30
0.0
 11
59.39529799999999
 21
-6.039858999999999
 31
0.0
  0
LINE
  5
15D
330
1F
100
AcDbEntity
  8
1
370
    13
100
AcDbLine
 10
59.454512
 20
-6.038981999999999
 30
0.0
 11
60.817704
 21
-5.998604
 31
0.0
  0
LINE
  5
15E
330
1F
100
AcDbEntity
  8
1
370
    13
100
AcDbLine
 10
64.58333399999999
 20
-5.418261
 30
0.0
 11
64.58333399999999
 21
-4.564741999999999
 31
0.0
  0
LINE
  5
15F
330
1F
100
AcDbEntity
  8
1
370
    13
100
AcDbLine
 10
64.58333399999999
 20
-5.478061
 30
0.0
 11
64.58333399999999
 21
-5.418263999999999
 31
0.0
  0
LINE
  5
160
330
1F
100
AcDbEntity
  8
1
370
    13
100
AcDbLine
 10
63.008301
 20
-5.922876999999999
 30
0.0
 11
64.198482
 21
-5.877773999999999
 31
0.0
  0
LINE
  5
161
330
1F
100
AcDbEntity
  8
1
370
    13
100
AcDbLine
 10
62.51317199999999
 20
4.707087
 30
0.0
 11
62.390471
 21
4.861031999999999
 31
0.0
  0
LINE
  5
162
330
1F
100
AcDbEntity
  8
1
370
    13
100
AcDbLine
 10
60.738455
 20
4.035065
 30
0.0
 11
60.617687
 21
4.186583999999999
 31
0.0
  0
LINE
  5
163
330
1F
100
AcDbEntity
  8
CUT
370
    18
100
AcDbLine
 10
64.674812
 20
3.170422
 30
0.0
 11
64.961392
 21
4.787224
 31
0.0
  0
LINE
  5
164
330
1F
100
AcDbEntity
  8
CUT
370
    18
100
AcDbLine
 10
64.990218
 20
5.100616
 30
0.0
 11
64.99647
 21
5.886318
 31
0.0
  0
LINE
  5
165
330
1F
100
AcDbEntity
  8
80
370
    18
100
AcDbLine
 10
-1.0
 20
0.0
 30
0.0
 11
1.0
 21
0.0
 31
0.0
  0
LINE
  5
167
330
1F
100
AcDbEntity
  8
CUT
370
    18
100
AcDbLine
 10
64.53994200000001
 20
2.222107999999999
 30
0.0
 11
64.624881
 21
2.851191
 31
0.0
  0
LINE
  5
168
102
{ACAD_REACTORS
330
2AD
102
}
330
1F
100
AcDbEntity
  8
80
370
    18
100
AcDbLine
 10
0.0
 20
1.0
 30
0.0
 11
0.0
 21
-1.0
 31
0.0
  0
LINE
  5
169
330
1F
100
AcDbEntity
  8
CUT
370
    18
100
AcDbLine
 10
57.546349
 20
3.105431
 30
0.0
 11
57.540098
 21
2.319728
 31
0.0
  0
LINE
  5
16A
102
{ACAD_REACTORS
330
231
330
264
330
295
330
2AD
102
}
330
1F
100
AcDbEntity
  8
81
370
    18
100
AcDbLine
 10
65.0
 20
5.349999999999999
 30
0.0
 11
65.0
 21
7.349999999999999
 31
0.0
  0
LINE
  5
16B
330
1F
100
AcDbEntity
  8
CUT
370
    18
100
AcDbLine
 10
58.01293900000001
 20
4.845944999999999
 30
0.0
 11
57.588444
 21
3.402176999999999
 31
0.0
  0
LINE
  5
16C
102
{ACAD_REACTORS
330
27E
102
}
330
1F
100
AcDbEntity
  8
81
370
    18
100
AcDbLine
 10
64.0
 20
6.349999999999999
 30
0.0
 11
66.0
 21
6.349999999999999
 31
0.0
  0
LINE
  5
16D
330
1F
100
AcDbEntity
  8
CUT
370
    18
100
AcDbLine
 10
58.14218
 20
5.801320999999999
 30
0.0
 11
58.072771
 21
5.152753999999999
 31
0.0
  0
LINE
  5
16E
330
1F
100
AcDbEntity
  8
NOCUT
370
    18
100
AcDbLine
 10
61.706524
 20
5.972208999999999
 30
0.0
 11
64.198482
 21
5.877773999999999
 31
0.0
  0
LINE
  5
16F
330
1F
100
AcDbEntity
  8
NOCUT
370
    18
100
AcDbLine
 10
45.940202
 20
6.015348999999999
 30
0.0
 11
48.776271
 21
5.760002
 31
0.0
  0
LINE
  5
170
330
1F
100
AcDbEntity
  8
NOCUT
370
    18
100
AcDbLine
 10
-25.0
 20
-5.849999999999999
 30
0.0
 11
-25.0
 21
-2.366025
 31
0.0
  0
LINE
  5
171
330
1F
100
AcDbEntity
  8
NOCUT
370
    18
100
AcDbLine
 10
-25.0
 20
-5.849999999999999
 30
0.0
 11
-24.5
 21
-6.349999999999999
 31
0.0
  0
LINE
  5
172
330
1F
100
AcDbEntity
  8
NOCUT
370
    18
100
AcDbLine
 10
59.454512
 20
6.038981999999999
 30
0.0
 11
61.69
 21
5.972767
 31
0.0
  0
LINE
  5
173
330
1F
100
AcDbEntity
  8
NOCUT
370
    18
100
AcDbLine
 10
64.56900400000001
 20
5.024179
 30
0.0
 11
64.349985
 21
3.614945999999999
 31
0.0
  0
LINE
  5
174
330
1F
100
AcDbEntity
  8
NOCUT
370
    18
100
AcDbLine
 10
45.0
 20
-6.349999999999999
 30
0.0
 11
-24.5
 21
-6.349999999999999
 31
0.0
  0
LINE
  5
175
330
1F
100
AcDbEntity
  8
NOCUT
370
    18
100
AcDbLine
 10
-25.0
 20
2.366025
 30
0.0
 11
-23.5
 21
1.5
 31
0.0
  0
LINE
  5
176
330
1F
100
AcDbEntity
  8
NOCUT
370
    18
100
AcDbLine
 10
59.39529799999999
 20
-6.039858999999999
 30
0.0
 11
58.515046
 21
-6.039858999999999
 31
0.0
  0
LINE
  5
177
330
1F
100
AcDbEntity
  8
NOCUT
370
    18
100
AcDbLine
 10
64.58332099999999
 20
5.4748
 30
0.0
 11
64.580833
 21
5.169601
 31
0.0
  0
LINE
  5
178
330
1F
100
AcDbEntity
  8
NOCUT
370
    18
100
AcDbLine
 10
49.224634
 20
5.739859
 30
0.0
 11
57.134776
 21
5.739859
 31
0.0
  0
LINE
  5
179
330
1F
100
AcDbEntity
  8
NOCUT
370
    18
100
AcDbLine
 10
50.0
 20
1.5
 30
0.0
 11
50.866025
 21
0.0
 31
0.0
  0
LINE
  5
17A
330
1F
100
AcDbEntity
  8
NOCUT
370
    18
100
AcDbLine
 10
57.953249
 20
-5.937985
 30
0.0
 11
57.696573
 21
-5.841732
 31
0.0
  0
LINE
  5
17B
330
1F
100
AcDbEntity
  8
NOCUT
370
    18
100
AcDbLine
 10
64.198482
 20
-5.877773999999999
 30
0.0
 11
61.706524
 21
-5.972208999999999
 31
0.0
  0
LINE
  5
17C
330
1F
100
AcDbEntity
  8
NOCUT
370
    18
100
AcDbLine
 10
48.776271
 20
-5.760002
 30
0.0
 11
45.940202
 21
-6.015348999999999
 31
0.0
  0
LINE
  5
17D
330
1F
100
AcDbEntity
  8
NOCUT
370
    18
100
AcDbLine
 10
50.0
 20
-1.5
 30
0.0
 11
-23.5
 21
-1.5
 31
0.0
  0
LINE
  5
17E
330
1F
100
AcDbEntity
  8
NOCUT
370
    18
100
AcDbLine
 10
-24.5
 20
6.349999999999999
 30
0.0
 11
-25.0
 21
5.849999999999999
 31
0.0
  0
LINE
  5
17F
330
1F
100
AcDbEntity
  8
NOCUT
370
    18
100
AcDbLine
 10
61.69
 20
-5.972767
 30
0.0
 11
59.454512
 21
-6.038981999999999
 31
0.0
  0
LINE
  5
180
330
1F
100
AcDbEntity
  8
NOCUT
370
    18
100
AcDbLine
 10
64.32625999999999
 20
3.307799999999999
 30
0.0
 11
64.32625999999999
 21
-3.307799999999999
 31
0.0
  0
LINE
  5
181
330
1F
100
AcDbEntity
  8
NOCUT
370
    18
100
AcDbLine
 10
-25.0
 20
2.366025
 30
0.0
 11
-25.0
 21
5.849999999999999
 31
0.0
  0
LINE
  5
182
330
1F
100
AcDbEntity
  8
NOCUT
370
    18
100
AcDbLine
 10
-23.5
 20
-1.5
 30
0.0
 11
-25.0
 21
-2.366025
 31
0.0
  0
LINE
  5
183
330
1F
100
AcDbEntity
  8
NOCUT
370
    18
100
AcDbLine
 10
58.515046
 20
6.039858999999999
 30
0.0
 11
59.39529799999999
 21
6.039858999999999
 31
0.0
  0
LINE
  5
184
330
1F
100
AcDbEntity
  8
NOCUT
370
    18
100
AcDbLine
 10
64.349985
 20
-3.614945999999999
 30
0.0
 11
64.56900400000001
 21
-5.024179
 31
0.0
  0
LINE
  5
185
330
1F
100
AcDbEntity
  8
NOCUT
370
    18
100
AcDbLine
 10
-24.5
 20
6.349999999999999
 30
0.0
 11
45.0
 21
6.349999999999999
 31
0.0
  0
LINE
  5
186
330
1F
100
AcDbEntity
  8
NOCUT
370
    18
100
AcDbLine
 10
50.866025
 20
0.0
 30
0.0
 11
50.0
 21
-1.5
 31
0.0
  0
LINE
  5
187
330
1F
100
AcDbEntity
  8
NOCUT
370
    18
100
AcDbLine
 10
57.696573
 20
5.841732
 30
0.0
 11
57.953249
 21
5.937985
 31
0.0
  0
LINE
  5
188
330
1F
100
AcDbEntity
  8
NOCUT
370
    18
100
AcDbLine
 10
64.580833
 20
-5.169601
 30
0.0
 11
64.58332099999999
 21
-5.4748
 31
0.0
  0
LINE
  5
189
330
1F
100
AcDbEntity
  8
NOCUT
370
    18
100
AcDbLine
 10
57.134776
 20
-5.739859
 30
0.0
 11
49.224634
 21
-5.739859
 31
0.0
  0
LINE
  5
18A
330
1F
100
AcDbEntity
  8
1
370
    13
100
AcDbLine
 10
64.58332099999999
 20
3.224898
 30
0.0
 11
64.85858
 21
4.77783
 31
0.0
  0
LINE
  5
18B
330
1F
100
AcDbEntity
  8
1
370
    13
100
AcDbLine
 10
64.961392
 20
4.787224
 30
0.0
 11
64.674812
 21
3.170422
 31
0.0
  0
LINE
  5
18C
330
1F
100
AcDbEntity
  8
1
370
    13
100
AcDbLine
 10
64.89076999999999
 20
5.110200999999999
 30
0.0
 11
64.89689099999999
 21
5.879407999999999
 31
0.0
  0
LINE
  5
18D
330
1F
100
AcDbEntity
  8
1
370
    13
100
AcDbLine
 10
64.99647
 20
5.886318
 30
0.0
 11
64.990218
 21
5.100616
 31
0.0
  0
LINE
  5
18E
330
1F
100
AcDbEntity
  8
1
370
    13
100
AcDbLine
 10
64.624881
 20
2.851191
 30
0.0
 11
64.58332099999999
 21
2.543383
 31
0.0
  0
LINE
  5
18F
330
1F
100
AcDbEntity
  8
1
370
    13
100
AcDbLine
 10
58.114375
 20
4.847584999999999
 30
0.0
 11
57.84181700000001
 21
3.920573
 31
0.0
  0
LINE
  5
190
330
1F
100
AcDbEntity
  8
1
370
    13
100
AcDbLine
 10
57.742376
 20
3.925723
 30
0.0
 11
58.01293900000001
 21
4.845944999999999
 31
0.0
  0
LINE
  5
191
330
1F
100
AcDbEntity
  8
1
370
    13
100
AcDbLine
 10
58.22821600000001
 20
5.659059
 30
0.0
 11
58.17420699999999
 21
5.154393999999999
 31
0.0
  0
LINE
  5
192
330
1F
100
AcDbEntity
  8
1
370
    13
100
AcDbLine
 10
58.072771
 20
5.152753999999999
 30
0.0
 11
58.14218
 21
5.801320999999999
 31
0.0
  0
LINE
  5
193
330
1F
100
AcDbEntity
  8
1
370
    13
100
AcDbLine
 10
58.7947
 20
0.322087
 30
0.0
 11
58.83047600000001
 21
0.231748
 31
0.0
  0
LINE
  5
194
330
1F
100
AcDbEntity
  8
1
370
    13
100
AcDbLine
 10
58.072771
 20
-1.391477
 30
0.0
 11
58.14218
 21
-1.675452999999999
 31
0.0
  0
LINE
  5
195
330
1F
100
AcDbEntity
  8
1
370
    13
100
AcDbLine
 10
59.21517399999999
 20
0.064452
 30
0.0
 11
61.529916
 21
-0.251628
 31
0.0
  0
LINE
  5
196
330
1F
100
AcDbEntity
  8
1
370
    13
100
AcDbLine
 10
64.99647
 20
-3.010480999999999
 30
0.0
 11
64.990218
 21
-2.736849
 31
0.0
  0
LINE
  5
197
330
1F
100
AcDbEntity
  8
1
370
    13
100
AcDbLine
 10
64.67807399999999
 20
-0.378214
 30
0.0
 11
64.68145200000001
 21
-0.5260560000000001
 31
0.0
  0
LINE
  5
198
330
1F
100
AcDbEntity
  8
1
370
    13
100
AcDbLine
 10
64.66705999999999
 20
-0.326538
 30
0.0
 11
64.583318
 21
-0.115078
 31
0.0
  0
LINE
  5
199
330
1F
100
AcDbEntity
  8
1
370
    13
100
AcDbLine
 10
64.66705999999999
 20
-4.159028
 30
0.0
 11
64.413758
 21
-3.045695999999999
 31
0.0
  0
LINE
  5
19A
330
1F
100
AcDbEntity
  8
1
370
    13
100
AcDbLine
 10
64.67807399999999
 20
-4.252285999999999
 30
0.0
 11
64.68145200000001
 21
-4.528955
 31
0.0
  0
LINE
  5
19B
102
{ACAD_REACTORS
330
231
102
}
330
1F
100
AcDbEntity
  8
SK1
370
    13
100
AcDbLine
 10
-25.0
 20
-5.849999999999999
 30
0.0
 11
-25.0
 21
5.849999999999999
 31
0.0
  0
LINE
  5
19C
330
1F
100
AcDbEntity
  8
SK1
370
    13
100
AcDbLine
 10
-24.5
 20
-6.349999999999999
 30
0.0
 11
-24.5
 21
6.349999999999999
 31
0.0
  0
LINE
  5
19D
102
{ACAD_REACTORS
330
295
102
}
330
1F
100
AcDbEntity
  8
SK1
370
    13
100
AcDbLine
 10
45.0
 20
6.349999999999999
 30
0.0
 11
45.0
 21
-6.349999999999999
 31
0.0
  0
LINE
  5
19E
330
1F
100
AcDbEntity
  8
1
370
    13
100
AcDbLine
 10
64.58332099999999
 20
3.396980999999999
 30
0.0
 11
64.58332099999999
 21
-0.346861
 31
0.0
  0
LINE
  5
19F
330
1F
100
AcDbEntity
  8
1
370
    13
100
AcDbLine
 10
62.84510400000001
 20
1.721902
 30
0.0
 11
62.85298100000001
 21
1.37714
 31
0.0
  0
LINE
  5
1A0
330
1F
100
AcDbEntity
  8
1
370
    13
100
AcDbLine
 10
60.25798
 20
-3.109086
 30
0.0
 11
58.146116
 21
-3.287883999999999
 31
0.0
  0
LINE
  5
1A1
330
1F
100
AcDbEntity
  8
1
370
    13
100
AcDbLine
 10
58.473473
 20
-3.350731999999999
 30
0.0
 11
60.22558499999999
 21
-3.163193999999999
 31
0.0
  0
LINE
  5
1A2
330
1F
100
AcDbEntity
  8
1
370
    13
100
AcDbLine
 10
61.779396
 20
-2.980277
 30
0.0
 11
61.578892
 21
-2.997252999999999
 31
0.0
  0
LINE
  5
1A3
330
1F
100
AcDbEntity
  8
1
370
    13
100
AcDbLine
 10
62.295855
 20
-2.62351
 30
0.0
 11
62.265985
 21
-2.941661999999999
 31
0.0
  0
LINE
  5
1A4
330
1F
100
AcDbEntity
  8
1
370
    13
100
AcDbLine
 10
62.265985
 20
-2.941661999999999
 30
0.0
 11
62.02685899999999
 21
-2.964320999999999
 31
0.0
  0
LINE
  5
1A5
330
1F
100
AcDbEntity
  8
1
370
    13
100
AcDbLine
 10
61.587433
 20
-3.017427999999999
 30
0.0
 11
61.83415799999999
 21
-2.991018999999999
 31
0.0
  0
LINE
  5
1A6
330
1F
100
AcDbEntity
  8
1
370
    13
100
AcDbLine
 10
62.265985
 20
-2.941661999999999
 30
0.0
 11
64.26401199999999
 21
-2.996175999999999
 31
0.0
  0
LINE
  5
1A7
330
1F
100
AcDbEntity
  8
1
370
    13
100
AcDbLine
 10
57.52783299999999
 20
3.955826
 30
0.0
 11
58.10506
 21
5.454488999999999
 31
0.0
  0
LINE
  5
1A8
330
1F
100
AcDbEntity
  8
1
370
    13
100
AcDbLine
 10
58.073826
 20
5.162632
 30
0.0
 11
57.60047199999999
 21
3.933655
 31
0.0
  0
LINE
  5
1A9
330
1F
100
AcDbEntity
  8
NOCUT
370
    18
100
AcDbLine
 10
-23.5
 20
1.5
 30
0.0
 11
50.0
 21
1.5
 31
0.0
  0
LINE
  5
1AA
330
1F
100
AcDbEntity
  8
1
370
    13
100
AcDbLine
 10
62.050495
 20
3.854333999999999
 30
0.0
 11
62.132442
 21
3.751520999999999
 31
0.0
  0
LINE
  5
1AB
330
1F
100
AcDbEntity
  8
1
370
    13
100
AcDbLine
 10
61.56708
 20
4.695687
 30
0.0
 11
61.690757
 21
4.540517999999999
 31
0.0
  0
ARC
  5
1AC
330
1F
100
AcDbEntity
  8
1
370
    18
100
AcDbCircle
 10
61.319129
 20
3.990037999999999
 30
0.0
 40
1.465750401889499
100
AcDbArc
 50
156.759775
 51
189.078245
  0
ARC
  5
1AD
330
1F
100
AcDbEntity
  8
1
370
    18
100
AcDbCircle
 10
61.37436999999999
 20
3.969823999999999
 30
0.0
 40
1.524489028656996
100
AcDbArc
 50
98.773709
 51
156.880962
  0
ARC
  5
1AE
330
1F
100
AcDbEntity
  8
1
370
    18
100
AcDbCircle
 10
61.369186
 20
4.045588999999999
 30
0.0
 40
1.448834067909041
100
AcDbArc
 50
38.81835200000001
 51
99.028109
  0
ARC
  5
1AF
330
1F
100
AcDbEntity
  8
1
370
    18
100
AcDbCircle
 10
61.366027
 20
4.057548
 30
0.0
 40
1.443843152915263
100
AcDbArc
 50
342.88759
 51
38.370032
  0
ARC
  5
1B0
330
1F
100
AcDbEntity
  8
1
370
    18
100
AcDbCircle
 10
61.474535
 20
3.925948
 30
0.0
 40
1.402463047182509
100
AcDbArc
 50
38.72165300000001
 51
81.998419
  0
ARC
  5
1B1
330
1F
100
AcDbEntity
  8
1
370
    18
100
AcDbCircle
 10
62.324811
 20
2.078666
 30
0.0
 40
0.603354795070528
100
AcDbArc
 50
254.036227
 51
323.064417
  0
ARC
  5
1B2
330
1F
100
AcDbEntity
  8
1
370
    18
100
AcDbCircle
 10
62.144466
 20
3.953096
 30
0.0
 40
2.454559671961213
100
AcDbArc
 50
243.265668
 51
270.336253
  0
ARC
  5
1B3
330
1F
100
AcDbEntity
  8
1
370
    18
100
AcDbCircle
 10
61.047343
 20
1.962713
 30
0.0
 40
0.2019131428378096
100
AcDbArc
 50
92.102564
 51
267.993034
  0
ARC
  5
1B4
330
1F
100
AcDbEntity
  8
1
370
    18
100
AcDbCircle
 10
61.54365999999999
 20
-0.036407
 30
0.0
 40
2.257806250373368
100
AcDbArc
 50
74.20202299999999
 51
102.891384
  0
ARC
  5
1B5
330
1F
100
AcDbEntity
  8
1
370
    18
100
AcDbCircle
 10
62.15051800000001
 20
1.413019
 30
0.0
 40
0.7231392572751176
100
AcDbArc
 50
24.778883
 51
89.38035000000001
  0
ARC
  5
1B6
330
1F
100
AcDbEntity
  8
1
370
    18
100
AcDbCircle
 10
62.144838
 20
2.808936
 30
0.0
 40
1.337508436959915
100
AcDbArc
 50
256.566511
 51
298.095076
  0
ARC
  5
1B7
330
1F
100
AcDbEntity
  8
1
370
    18
100
AcDbCircle
 10
62.168247
 20
4.165308
 30
0.0
 40
2.67821159389235
100
AcDbArc
 50
248.208101
 51
262.833094
  0
ARC
  5
1B8
330
1F
100
AcDbEntity
  8
1
370
    18
100
AcDbCircle
 10
61.11971
 20
1.935604999999999
 30
0.0
 40
0.2627876267401578
100
AcDbArc
 50
139.090631
 51
281.922223
  0
ARC
  5
1B9
330
1F
100
AcDbEntity
  8
1
370
    18
100
AcDbCircle
 10
61.42683299999999
 20
-0.370646
 30
0.0
 40
2.631595855118848
100
AcDbArc
 50
74.469977
 51
100.862959
  0
ARC
  5
1BA
330
1F
100
AcDbEntity
  8
1
370
    18
100
AcDbCircle
 10
62.08481800000001
 20
1.293382999999999
 30
0.0
 40
0.8727329115074672
100
AcDbArc
 50
29.40686
 51
86.938752
  0
ARC
  5
1BB
330
1F
100
AcDbEntity
  8
1
370
    18
100
AcDbCircle
 10
62.313262
 20
8.658462
 30
0.0
 40
5.032130992623927
100
AcDbArc
 50
258.486299
 51
272.710156
  0
ARC
  5
1BC
330
1F
100
AcDbEntity
  8
1
370
    18
100
AcDbCircle
 10
60.99221400000001
 20
-3.704212
 30
0.0
 40
0.9186850190956311
100
AcDbArc
 50
50.312025
 51
126.493452
  0
ARC
  5
1BD
330
1F
100
AcDbEntity
  8
1
370
    18
100
AcDbCircle
 10
62.023223
 20
-6.636866999999999
 30
0.0
 40
1.043505350568234
100
AcDbArc
 50
49.935699
 51
121.10508
  0
ARC
  5
1BE
330
1F
100
AcDbEntity
  8
1
370
    18
100
AcDbCircle
 10
61.369528
 20
4.036243999999999
 30
0.0
 40
1.313278269249562
100
AcDbArc
 50
45.46359
 51
91.05449399999999
  0
ARC
  5
1BF
330
1F
100
AcDbEntity
  8
1
370
    18
100
AcDbCircle
 10
61.36783900000001
 20
4.04964
 30
0.0
 40
1.304957556331419
100
AcDbArc
 50
341.473666
 51
44.99819
  0
ARC
  5
1C0
330
1F
100
AcDbEntity
  8
1
370
    18
100
AcDbCircle
 10
61.32569
 20
3.989577999999999
 30
0.0
 40
1.328276551751427
100
AcDbArc
 50
152.010183
 51
193.681504
  0
ARC
  5
1C1
330
1F
100
AcDbEntity
  8
1
370
    18
100
AcDbCircle
 10
61.372204
 20
3.9719
 30
0.0
 40
1.377660803483227
100
AcDbArc
 50
91.11651999999999
 51
152.268867
  0
ARC
  5
1C2
330
1F
100
AcDbEntity
  8
1
370
    18
100
AcDbCircle
 10
61.368553
 20
4.036895999999999
 30
0.0
 40
1.303636542898439
100
AcDbArc
 50
45.49739399999999
 51
91.053083
  0
ARC
  5
1C3
330
1F
100
AcDbEntity
  8
1
370
    18
100
AcDbCircle
 10
61.36679
 20
4.050219999999999
 30
0.0
 40
1.29541297591745
100
AcDbArc
 50
341.269899
 51
45.028692
  0
ARC
  5
1C4
330
1F
100
AcDbEntity
  8
1
370
    18
100
AcDbCircle
 10
61.324523
 20
3.990714
 30
0.0
 40
1.317904977800504
100
AcDbArc
 50
152.23842
 51
194.0926639999999
  0
ARC
  5
1C5
330
1F
100
AcDbEntity
  8
1
370
    18
100
AcDbCircle
 10
61.371247
 20
3.973105999999999
 30
0.0
 40
1.367466086009567
100
AcDbArc
 50
91.116822
 51
152.497481
  0
ARC
  5
1C6
330
1F
100
AcDbEntity
  8
1
370
    18
100
AcDbCircle
 10
61.500607
 20
3.900949999999999
 30
0.0
 40
1.294274183780327
100
AcDbArc
 50
357.625194
 51
38.52258
  0
ARC
  5
1C7
330
1F
100
AcDbEntity
  8
1
370
    18
100
AcDbCircle
 10
64.506005
 20
5.90315
 30
0.0
 40
0.3916063029577752
100
AcDbArc
 50
356.524267
 51
88.327681
  0
ARC
  5
1C8
330
1F
100
AcDbEntity
  8
1
370
    18
100
AcDbCircle
 10
64.621002
 20
5.950299
 30
0.0
 40
0.3759267516538548
100
AcDbArc
 50
359.260963
 51
91.85822700000001
  0
ARC
  5
1C9
330
1F
100
AcDbEntity
  8
1
370
    18
100
AcDbCircle
 10
58.586905
 20
5.798186
 30
0.0
 40
0.346552838997854
100
AcDbArc
 50
101.376427
 51
183.343896
  0
ARC
  5
1CA
330
1F
100
AcDbEntity
  8
1
370
    18
100
AcDbCircle
 10
58.54861500000001
 20
5.759915
 30
0.0
 40
0.4085393225672006
100
AcDbArc
 50
94.177669
 51
174.184152
  0
ARC
  5
1CB
330
1F
100
AcDbEntity
  8
1
370
    18
100
AcDbCircle
 10
64.57020899999999
 20
-0.4925810000000001
 30
0.0
 40
0.1161693434407962
100
AcDbArc
 50
267.885189
 51
343.253862
  0
ARC
  5
1CC
330
1F
100
AcDbEntity
  8
1
370
    18
100
AcDbCircle
 10
59.244556
 20
0.703478
 30
0.0
 40
0.6397009377685026
100
AcDbArc
 50
233.075629
 51
267.367373
  0
ARC
  5
1CD
330
1F
100
AcDbEntity
  8
1
370
    18
100
AcDbCircle
 10
64.776976
 20
-2.660163
 30
0.0
 40
0.4584817738307105
100
AcDbArc
 50
248.482489
 51
294.574855
  0
ARC
  5
1CE
330
1F
100
AcDbEntity
  8
1
370
    18
100
AcDbCircle
 10
59.091439
 20
-0.143282
 30
0.0
 40
0.5578306274273991
100
AcDbArc
 50
132.471027
 51
204.026696
  0
ARC
  5
1CF
330
1F
100
AcDbEntity
  8
1
370
    18
100
AcDbCircle
 10
59.014214
 20
-0.099048
 30
0.0
 40
0.4738348051836175
100
AcDbArc
 50
44.898395
 51
129.192976
  0
ARC
  5
1D0
330
1F
100
AcDbEntity
  8
1
370
    18
100
AcDbCircle
 10
59.002506
 20
-0.131624
 30
0.0
 40
0.5766105593098305
100
AcDbArc
 50
47.061877
 51
93.57713100000001
  0
ARC
  5
1D1
330
1F
100
AcDbEntity
  8
1
370
    18
100
AcDbCircle
 10
59.01661899999999
 20
-0.091582
 30
0.0
 40
0.5377829978557021
100
AcDbArc
 50
95.344235
 51
158.85437
  0
ARC
  5
1D2
330
1F
100
AcDbEntity
  8
1
370
    18
100
AcDbCircle
 10
54.152572
 20
-1.484266
 30
0.0
 40
0.7932924025021343
100
AcDbArc
 50
123.063213
 51
175.615062
  0
ARC
  5
1D3
330
1F
100
AcDbEntity
  8
1
370
    18
100
AcDbCircle
 10
54.36914399999999
 20
-1.830710999999999
 30
0.0
 40
1.201815190259845
100
AcDbArc
 50
77.907326
 51
122.705411
  0
ARC
  5
1D4
330
1F
100
AcDbEntity
  8
1
370
    18
100
AcDbCircle
 10
54.373347
 20
-1.858341999999999
 30
0.0
 40
1.290865367412801
100
AcDbArc
 50
78.33001
 51
113.278669
  0
ARC
  5
1D5
330
1F
100
AcDbEntity
  8
1
370
    18
100
AcDbCircle
 10
54.199953
 20
-1.509942999999999
 30
0.0
 40
0.9025600032333079
100
AcDbArc
 50
111.907996
 51
174.800836
  0
ARC
  5
1D6
330
1F
100
AcDbEntity
  8
1
370
    18
100
AcDbCircle
 10
57.253906
 20
-21.875153
 30
0.0
 40
25.77220553815922
100
AcDbArc
 50
87.99982400000001
 51
88.44505699999999
  0
ARC
  5
1D7
330
1F
100
AcDbEntity
  8
1
370
    18
100
AcDbCircle
 10
56.65525
 20
-39.131651
 30
0.0
 40
43.03908451601586
100
AcDbArc
 50
87.64544200000001
 51
88.00515500000001
  0
ARC
  5
1D8
330
1F
100
AcDbEntity
  8
1
370
    18
100
AcDbCircle
 10
66.74049100000001
 20
42.115811
 30
0.0
 40
44.25996521184328
100
AcDbArc
 50
258.746499
 51
258.9052779999999
  0
ARC
  5
1D9
330
1F
100
AcDbEntity
  8
1
370
    18
100
AcDbCircle
 10
66.26928199999999
 20
39.750225
 30
0.0
 40
41.84790495020023
100
AcDbArc
 50
258.537857
 51
258.74719
  0
ARC
  5
1DA
330
1F
100
AcDbEntity
  8
1
370
    18
100
AcDbCircle
 10
60.55611500000001
 20
5.090305999999999
 30
0.0
 40
1.533022158508491
100
AcDbArc
 50
263.626601
 51
295.572292
  0
ARC
  5
1DB
330
1F
100
AcDbEntity
  8
1
370
    18
100
AcDbCircle
 10
61.95156
 20
2.802888
 30
0.0
 40
1.158462661517801
100
AcDbArc
 50
128.706605
 51
176.174564
  0
ARC
  5
1DC
330
1F
100
AcDbEntity
  8
1
370
    18
100
AcDbCircle
 10
62.00328299999999
 20
2.953968
 30
0.0
 40
1.01236929281112
100
AcDbArc
 50
351.534062
 51
40.423219
  0
ARC
  5
1DD
330
1F
100
AcDbEntity
  8
1
370
    18
100
AcDbCircle
 10
64.32545999999999
 20
0.111077
 30
0.0
 40
0.5510736895267451
100
AcDbArc
 50
256.67818
 51
294.727692
  0
ARC
  5
1DE
330
1F
100
AcDbEntity
  8
1
370
    18
100
AcDbCircle
 10
58.06945500000001
 20
7.991836
 30
0.0
 40
4.107670991194113
100
AcDbArc
 50
256.847429
 51
260.458367
  0
ARC
  5
1DF
330
1F
100
AcDbEntity
  8
1
370
    18
100
AcDbCircle
 10
58.028588
 20
7.753779999999999
 30
0.0
 40
3.866134565855309
100
AcDbArc
 50
260.470831
 51
265.073507
  0
ARC
  5
1E0
330
1F
100
AcDbEntity
  8
1
370
    18
100
AcDbCircle
 10
41.890353
 20
-74.78036800000001
 30
0.0
 40
75.24957426716728
100
AcDbArc
 50
77.87468100000001
 51
78.064184
  0
ARC
  5
1E1
330
1F
100
AcDbEntity
  8
1
370
    18
100
AcDbCircle
 10
41.776707
 20
-75.449933
 30
0.0
 40
75.92817170503116
100
AcDbArc
 50
78.08477499999999
 51
78.33020600000001
  0
ARC
  5
1E2
330
1F
100
AcDbEntity
  8
1
370
    18
100
AcDbCircle
 10
61.360601
 20
-2.071372
 30
0.0
 40
8.085121082347285
100
AcDbArc
 50
175.436969
 51
188.679116
  0
ARC
  5
1E3
330
1F
100
AcDbEntity
  8
1
370
    18
100
AcDbCircle
 10
55.68690400000001
 20
-2.970219999999999
 30
0.0
 40
2.340962754158346
100
AcDbArc
 50
187.886334
 51
213.878287
  0
ARC
  5
1E4
330
1F
100
AcDbEntity
  8
1
370
    18
100
AcDbCircle
 10
55.494622
 20
-2.970862999999999
 30
0.0
 40
2.183572946697559
100
AcDbArc
 50
216.677838
 51
252.266986
  0
ARC
  5
1E5
330
1F
100
AcDbEntity
  8
1
370
    18
100
AcDbCircle
 10
57.268877
 20
0.4268970000000001
 30
0.0
 40
5.996179384146877
100
AcDbArc
 50
245.995222
 51
268.718506
  0
ARC
  5
1E6
330
1F
100
AcDbEntity
  8
1
370
    18
100
AcDbCircle
 10
54.369158
 20
8.474572999999999
 30
0.0
 40
3.244198810871421
100
AcDbArc
 50
270.634455
 51
274.690668
  0
ARC
  5
1E7
330
1F
100
AcDbEntity
  8
1
370
    18
100
AcDbCircle
 10
54.37088000000001
 20
8.388564999999999
 30
0.0
 40
3.158177208142726
100
AcDbArc
 50
265.309507
 51
270.620484
  0
ARC
  5
1E8
330
1F
100
AcDbEntity
  8
1
370
    18
100
AcDbCircle
 10
66.34342099999999
 20
23.790635
 30
0.0
 40
22.24805082408968
100
AcDbArc
 50
234.323197
 51
235.504362
  0
ARC
  5
1E9
330
1F
100
AcDbEntity
  8
1
370
    18
100
AcDbCircle
 10
57.076128
 20
10.510216
 30
0.0
 40
6.05538771115573
100
AcDbArc
 50
236.6071160000001
 51
248.222348
  0
ARC
  5
1EA
330
1F
100
AcDbEntity
  8
1
370
    18
100
AcDbCircle
 10
58.97334499999999
 20
12.143031
 30
0.0
 40
8.355893476131312
100
AcDbArc
 50
240.27007
 51
257.28905
  0
ARC
  5
1EB
330
1F
100
AcDbEntity
  8
1
370
    18
100
AcDbCircle
 10
61.07626299999999
 20
-2.064452999999999
 30
0.0
 40
7.741232332651656
100
AcDbArc
 50
175.251467
 51
188.915391
  0
ARC
  5
1EC
330
1F
100
AcDbEntity
  8
1
370
    18
100
AcDbCircle
 10
56.665986
 20
-3.272715
 30
0.0
 40
2.072385339565388
100
AcDbArc
 50
82.120419
 51
117.317669
  0
ARC
  5
1ED
330
1F
100
AcDbEntity
  8
1
370
    18
100
AcDbCircle
 10
55.958114
 20
-1.868651999999999
 30
0.0
 40
0.5002887572608317
100
AcDbArc
 50
119.085174
 51
167.769725
  0
ARC
  5
1EE
330
1F
100
AcDbEntity
  8
1
370
    18
100
AcDbCircle
 10
60.543426
 20
4.898042
 30
0.0
 40
1.313789980641858
100
AcDbArc
 50
235.210919
 51
271.331633
  0
ARC
  5
1EF
330
1F
100
AcDbEntity
  8
1
370
    18
100
AcDbCircle
 10
56.24181
 20
-1.889715
 30
0.0
 40
0.7827662906741713
100
AcDbArc
 50
170.662561
 51
215.170572
  0
ARC
  5
1F0
330
1F
100
AcDbEntity
  8
1
370
    18
100
AcDbCircle
 10
56.39760899999999
 20
-1.748383
 30
0.0
 40
0.991867487058227
100
AcDbArc
 50
216.660411
 51
249.984461
  0
ARC
  5
1F1
330
1F
100
AcDbEntity
  8
1
370
    18
100
AcDbCircle
 10
56.854436
 20
-0.300606
 30
0.0
 40
2.509434778833775
100
AcDbArc
 50
251.498478
 51
279.253505
  0
ARC
  5
1F2
330
1F
100
AcDbEntity
  8
1
370
    18
100
AcDbCircle
 10
55.602361
 20
-2.801086
 30
0.0
 40
2.317241748322359
100
AcDbArc
 50
225.290354
 51
251.664235
  0
ARC
  5
1F3
330
1F
100
AcDbEntity
  8
1
370
    18
100
AcDbCircle
 10
55.54176899999999
 20
-3.010451999999999
 30
0.0
 40
2.12837540215884
100
AcDbArc
 50
186.845698
 51
222.483344
  0
ARC
  5
1F4
330
1F
100
AcDbEntity
  8
1
370
    18
100
AcDbCircle
 10
52.57490799999999
 20
-132.74457
 30
0.0
 40
136.7651494820839
100
AcDbArc
 50
87.54561800000001
 51
87.63041899999999
  0
ARC
  5
1F5
330
1F
100
AcDbEntity
  8
1
370
    18
100
AcDbCircle
 10
56.261663
 20
-43.570174
 30
0.0
 40
47.51457509649251
100
AcDbArc
 50
87.626404
 51
87.919531
  0
ARC
  5
1F6
330
1F
100
AcDbEntity
  8
1
370
    18
100
AcDbCircle
 10
57.993014
 20
7.741132
 30
0.0
 40
3.823798176266323
100
AcDbArc
 50
262.352668
 51
266.093036
  0
ARC
  5
1F7
330
1F
100
AcDbEntity
  8
1
370
    18
100
AcDbCircle
 10
58.02492700000001
 20
7.975825999999999
 30
0.0
 40
4.060652328090727
100
AcDbArc
 50
257.585142
 51
262.347064
  0
ARC
  5
1F8
330
1F
100
AcDbEntity
  8
1
370
    18
100
AcDbCircle
 10
58.948354
 20
12.117661
 30
0.0
 40
8.304170622895103
100
AcDbArc
 50
240.820142
 51
257.506575
  0
ARC
  5
1F9
330
1F
100
AcDbEntity
  8
1
370
    18
100
AcDbCircle
 10
56.789585
 20
-1.031572999999999
 30
0.0
 40
4.417641490147626
100
AcDbArc
 50
244.670745
 51
260.688529
  0
ARC
  5
1FA
330
1F
100
AcDbEntity
  8
1
370
    18
100
AcDbCircle
 10
56.78542499999999
 20
-2.302982
 30
0.0
 40
0.6214063534495371
100
AcDbArc
 50
318.567405
 51
16.925972
  0
ARC
  5
1FB
330
1F
100
AcDbEntity
  8
1
370
    18
100
AcDbCircle
 10
56.499348
 20
-1.531576
 30
0.0
 40
1.172705519618103
100
AcDbArc
 50
214.737462
 51
265.205708
  0
ARC
  5
1FC
330
1F
100
AcDbEntity
  8
1
370
    18
100
AcDbCircle
 10
56.703989
 20
-4.664276
 30
0.0
 40
3.443625016116406
100
AcDbArc
 50
91.077524
 51
94.92564300000001
  0
ARC
  5
1FD
330
1F
100
AcDbEntity
  8
1
370
    18
100
AcDbCircle
 10
56.719124
 20
-5.426130999999999
 30
0.0
 40
4.205629585138832
100
AcDbArc
 50
87.07758899999999
 51
91.08849300000001
  0
ARC
  5
1FE
330
1F
100
AcDbEntity
  8
1
370
    18
100
AcDbCircle
 10
58.53325699999999
 20
-4.563053
 30
0.0
 40
1.343628877076179
100
AcDbArc
 50
256.933666
 51
265.666586
  0
ARC
  5
1FF
330
1F
100
AcDbEntity
  8
1
370
    18
100
AcDbCircle
 10
58.53764
 20
-4.549036
 30
0.0
 40
1.358274854669894
100
AcDbArc
 50
246.0649970000001
 51
256.887241
  0
ARC
  5
200
330
1F
100
AcDbEntity
  8
1
370
    18
100
AcDbCircle
 10
57.149349
 20
10.653978
 30
0.0
 40
6.206267687170458
100
AcDbArc
 50
239.207242
 51
248.4865720000001
  0
ARC
  5
201
330
1F
100
AcDbEntity
  8
1
370
    18
100
AcDbCircle
 10
59.85723499999999
 20
14.785576
 30
0.0
 40
11.14367025719302
100
AcDbArc
 50
234.7679299999999
 51
238.122138
  0
ARC
  5
202
330
1F
100
AcDbEntity
  8
1
370
    18
100
AcDbCircle
 10
149.611575
 20
7.108238
 30
0.0
 40
85.89037344866904
100
AcDbArc
 50
187.557665
 51
188.056949
  0
ARC
  5
203
330
1F
100
AcDbEntity
  8
1
370
    18
100
AcDbCircle
 10
117.989521
 20
2.930588
 30
0.0
 40
53.9935629539832
100
AcDbArc
 50
186.564815
 51
187.576446
  0
ARC
  5
204
330
1F
100
AcDbEntity
  8
1
370
    18
100
AcDbCircle
 10
60.278539
 20
-0.8749309999999999
 30
0.0
 40
5.057091973694816
100
AcDbArc
 50
264.499897
 51
273.348714
  0
ARC
  5
205
330
1F
100
AcDbEntity
  8
1
370
    18
100
AcDbCircle
 10
64.178945
 20
-5.452758
 30
0.0
 40
0.3388595730519572
100
AcDbArc
 50
273.582649
 51
1.931310999999999
  0
ARC
  5
206
330
1F
100
AcDbEntity
  8
1
370
    18
100
AcDbCircle
 10
58.53463699999999
 20
-4.499355999999999
 30
0.0
 40
1.45295990934175
100
AcDbArc
 50
246.413027
 51
254.789185
  0
ARC
  5
207
330
1F
100
AcDbEntity
  8
1
370
    18
100
AcDbCircle
 10
58.529192
 20
-4.519048999999999
 30
0.0
 40
1.432528156745855
100
AcDbArc
 50
254.792692
 51
265.766253
  0
ARC
  5
208
330
1F
100
AcDbEntity
  8
1
370
    18
100
AcDbCircle
 10
63.668692
 20
-19.63022699999999
 30
0.0
 40
13.92148368723344
100
AcDbArc
 50
100.018381
 51
101.335061
  0
ARC
  5
209
330
1F
100
AcDbEntity
  8
1
370
    18
100
AcDbCircle
 10
64.177722
 20
-5.431071
 30
0.0
 40
0.4058518902990884
100
AcDbArc
 50
272.93206
 51
2.02184
  0
ARC
  5
20A
330
1F
100
AcDbEntity
  8
1
370
    18
100
AcDbCircle
 10
54.443334
 20
8.429292
 30
0.0
 40
3.224173503744546
100
AcDbArc
 50
265.021257
 51
268.611378
  0
ARC
  5
20B
330
1F
100
AcDbEntity
  8
1
370
    18
100
AcDbCircle
 10
54.445674
 20
8.342432999999999
 30
0.0
 40
3.137399688819543
100
AcDbArc
 50
268.530231
 51
273.20199
  0
ARC
  5
20C
330
1F
100
AcDbEntity
  8
1
370
    18
100
AcDbCircle
 10
57.006174
 20
7.280786999999999
 30
0.0
 40
1.859467701486934
100
AcDbArc
 50
283.909044
 51
291.795101
  0
ARC
  5
20D
330
1F
100
AcDbEntity
  8
1
370
    18
100
AcDbCircle
 10
57.007174
 20
7.276175
 30
0.0
 40
1.85475119752866
100
AcDbArc
 50
273.944913
 51
283.91332
  0
ARC
  5
20E
330
1F
100
AcDbEntity
  8
1
370
    18
100
AcDbCircle
 10
61.460866
 20
4.370712999999999
 30
0.0
 40
0.3701632158387632
100
AcDbArc
 50
99.42676200000001
 51
117.684547
  0
ARC
  5
20F
330
1F
100
AcDbEntity
  8
1
370
    18
100
AcDbCircle
 10
61.460766
 20
4.371116999999999
 30
0.0
 40
0.3697483775778582
100
AcDbArc
 50
76.250428
 51
99.42180999999999
  0
ARC
  5
210
330
1F
100
AcDbEntity
  8
CUT
370
    18
100
AcDbCircle
 10
64.13966600000001
 20
2.277401999999999
 30
0.0
 40
0.404076538965959
100
AcDbArc
 50
271.382222
 51
352.136118
  0
ARC
  5
211
330
1F
100
AcDbEntity
  8
CUT
370
    18
100
AcDbCircle
 10
64.62096999999999
 20
5.950266
 30
0.0
 40
0.3759579345452755
100
AcDbArc
 50
359.265935
 51
91.85325400000001
  0
ARC
  5
212
330
1F
100
AcDbEntity
  8
CUT
370
    18
100
AcDbCircle
 10
57.93480999999999
 20
2.263715
 30
0.0
 40
0.3950612317236679
100
AcDbArc
 50
180.469012
 51
270.290035
  0
ARC
  5
213
330
1F
100
AcDbEntity
  8
CUT
370
    18
100
AcDbCircle
 10
58.54875899999999
 20
5.759767
 30
0.0
 40
0.4086971371451674
100
AcDbArc
 50
94.19623299999999
 51
174.165588
  0
ARC
  5
214
330
1F
100
AcDbEntity
  8
1
370
    13
100
AcDbCircle
 10
46.119547
 20
8.007291
 30
0.0
 40
2.0
100
AcDbArc
 50
235.959859
 51
264.855227
  0
ARC
  5
215
330
1F
100
AcDbEntity
  8
1
370
    13
100
AcDbCircle
 10
49.224634
 20
10.739859
 30
0.0
 40
5.0
100
AcDbArc
 50
264.855227
 51
270.0
  0
ARC
  5
216
330
1F
100
AcDbEntity
  8
1
370
    13
100
AcDbCircle
 10
49.224634
 20
-10.739859
 30
0.0
 40
5.0
100
AcDbArc
 50
90.0
 51
95.14477300000001
  0
ARC
  5
217
330
1F
100
AcDbEntity
  8
1
370
    13
100
AcDbCircle
 10
57.134776
 20
-7.339858999999999
 30
0.0
 40
1.6
100
AcDbArc
 50
69.443955
 51
90.0
  0
ARC
  5
218
330
1F
100
AcDbEntity
  8
1
370
    13
100
AcDbCircle
 10
58.515046
 20
-4.439858999999999
 30
0.0
 40
1.6
100
AcDbArc
 50
249.443955
 51
270.0
  0
ARC
  5
219
330
1F
100
AcDbEntity
  8
1
370
    13
100
AcDbCircle
 10
59.39529799999999
 20
-4.039858999999999
 30
0.0
 40
2.0
100
AcDbArc
 50
270.0
 51
271.6965990000001
  0
ARC
  5
21A
330
1F
100
AcDbEntity
  8
1
370
    13
100
AcDbCircle
 10
64.183334
 20
-5.478061
 30
0.0
 40
0.4
100
AcDbArc
 50
272.170242
 51
0.0
  0
ARC
  5
21B
330
1F
100
AcDbEntity
  8
NOCUT
370
    18
100
AcDbCircle
 10
58.515046
 20
-4.439858999999999
 30
0.0
 40
1.6
100
AcDbArc
 50
249.443955
 51
270.0
  0
ARC
  5
21C
330
1F
100
AcDbEntity
  8
NOCUT
370
    18
100
AcDbCircle
 10
64.183334
 20
5.478061
 30
0.0
 40
0.4
100
AcDbArc
 50
359.532955
 51
87.829758
  0
ARC
  5
21D
330
1F
100
AcDbEntity
  8
NOCUT
370
    18
100
AcDbCircle
 10
49.224634
 20
10.739859
 30
0.0
 40
5.0
100
AcDbArc
 50
264.855227
 51
270.0
  0
ARC
  5
21E
330
1F
100
AcDbEntity
  8
NOCUT
370
    18
100
AcDbCircle
 10
59.39529799999999
 20
4.039858999999999
 30
0.0
 40
2.0
100
AcDbArc
 50
88.303401
 51
90.0
  0
ARC
  5
21F
330
1F
100
AcDbEntity
  8
NOCUT
370
    18
100
AcDbCircle
 10
66.32625999999999
 20
-3.307799999999999
 30
0.0
 40
2.0
100
AcDbArc
 50
180.0
 51
188.834045
  0
ARC
  5
220
330
1F
100
AcDbEntity
  8
NOCUT
370
    18
100
AcDbCircle
 10
46.119547
 20
-8.007291
 30
0.0
 40
2.0
100
AcDbArc
 50
95.14477300000001
 51
124.040141
  0
ARC
  5
221
330
1F
100
AcDbEntity
  8
NOCUT
370
    18
100
AcDbCircle
 10
63.580866
 20
-5.177751999999999
 30
0.0
 40
1.0
100
AcDbArc
 50
0.467045
 51
8.834044999999999
  0
ARC
  5
222
330
1F
100
AcDbEntity
  8
NOCUT
370
    18
100
AcDbCircle
 10
57.134776
 20
-7.339858999999999
 30
0.0
 40
1.6
100
AcDbArc
 50
69.443955
 51
90.0
  0
ARC
  5
223
330
1F
100
AcDbEntity
  8
NOCUT
370
    18
100
AcDbCircle
 10
64.183334
 20
-5.478061
 30
0.0
 40
0.4
100
AcDbArc
 50
272.170242
 51
0.467045
  0
ARC
  5
224
330
1F
100
AcDbEntity
  8
NOCUT
370
    18
100
AcDbCircle
 10
58.515046
 20
4.439858999999999
 30
0.0
 40
1.6
100
AcDbArc
 50
90.0
 51
110.556045
  0
ARC
  5
225
330
1F
100
AcDbEntity
  8
NOCUT
370
    18
100
AcDbCircle
 10
59.39529799999999
 20
-4.039858999999999
 30
0.0
 40
2.0
100
AcDbArc
 50
270.0
 51
271.6965990000001
  0
ARC
  5
226
330
1F
100
AcDbEntity
  8
NOCUT
370
    18
100
AcDbCircle
 10
49.224634
 20
-10.739859
 30
0.0
 40
5.0
100
AcDbArc
 50
90.0
 51
95.14477300000001
  0
ARC
  5
227
330
1F
100
AcDbEntity
  8
NOCUT
370
    18
100
AcDbCircle
 10
66.32625999999999
 20
3.307799999999999
 30
0.0
 40
2.0
100
AcDbArc
 50
171.165955
 51
180.0
  0
ARC
  5
228
330
1F
100
AcDbEntity
  8
NOCUT
370
    18
100
AcDbCircle
 10
46.119547
 20
8.007291
 30
0.0
 40
2.0
100
AcDbArc
 50
235.959859
 51
264.855227
  0
ARC
  5
229
330
1F
100
AcDbEntity
  8
NOCUT
370
    18
100
AcDbCircle
 10
57.134776
 20
7.339858999999999
 30
0.0
 40
1.6
100
AcDbArc
 50
270.0
 51
290.556045
  0
ARC
  5
22A
330
1F
100
AcDbEntity
  8
NOCUT
370
    18
100
AcDbCircle
 10
63.580866
 20
5.177751999999999
 30
0.0
 40
1.0
100
AcDbArc
 50
351.165955
 51
359.532955
  0
ARC
  5
22B
330
1F
100
AcDbEntity
  8
1
370
    13
100
AcDbCircle
 10
46.119547
 20
-8.007291
 30
0.0
 40
2.0
100
AcDbArc
 50
95.14477300000001
 51
124.040141
  0
MTEXT
  5
22C
330
1F
100
AcDbEntity
  8
SK6
370
    13
100
AcDbMText
 10
-24.8675
 20
55.722404
 30
0.0
 40
2.5
 41
0.0
 71
     7
 72
     5
  1
\fArial|b0|i0;\W1.0000;050A3R079C050-ISAD07D-C
  7
Arial
 73
     2
 44
1.047437
1001
ACAD
1000
MTEXTBEGIN
1070
    73
1070
     2
1070
    44
1040
1.047437
1070
    74
1070
     0
1000
MTEXTEND
  0
DIMENSION
  5
22F
102
{ACAD_XDICTIONARY
360
230
102
}
102
{ACAD_REACTORS
330
231
102
}
330
1F
100
AcDbEntity
  8
SK2
370
    13
100
AcDbDimension
  2
_U0
 10
65.0
 20
43.844884
 30
0.0
 11
20.0
 21
43.844884
 31
0.0
 70
   160
 42
90.0
 52
90.0
  3
Standard
100
AcDbAlignedDimension
 13
-25.0
 23
5.849999999999999
 33
0.0
 14
65.0
 24
7.349999999999999
 34
0.0
100
AcDbRotatedDimension
1001
ACAD
1000
DSTYLE
1002
{
1070
   371
1070
    13
1070
   372
1070
    13
1070
   170
1070
     0
1070
   144
1040
1.0
1070
   277
1070
     2
1070
   284
1070
     8
1070
   278
1070
    44
1070
   146
1040
1.0
1070
   345
1005
16
1070
   347
1005
16
1070
   346
1005
16
1070
   344
1005
0
1070
   343
1005
0
1070
   172
1070
     1
1070
    76
1070
     0
1070
    75
1070
     0
1070
   282
1070
     0
1070
   281
1070
     0
1070
    71
1070
     0
1070
    74
1070
     0
1070
   279
1070
     0
1070
   173
1070
     1
1070
   340
1005
22D
1070
   271
1070
     1
1070
   272
1070
     2
1070
    77
1070
     1
1070
    73
1070
     1
1070
   171
1070
     3
1070
   274
1070
     4
1070
   177
1070
    95
1070
   176
1070
    95
1070
   178
1070
    95
1070
    78
1070
     8
1070
    48
1040
-0.1
1070
    41
1040
2.5
1070
   147
1040
1.25
1070
    42
1040
1.0
1070
    44
1040
2.0
1070
   140
1040
2.5
1002
}
1001
ACAD_DSTYLE_DIM_LINETYPE
1070
   380
1005
16
1001
ACAD_DSTYLE_DIM_EXT1_LINETYPE
1070
   381
1005
16
1001
ACAD_DSTYLE_DIM_EXT2_LINETYPE
1070
   382
1005
16
  0
DIMENSION
  5
248
102
{ACAD_XDICTIONARY
360
249
102
}
102
{ACAD_REACTORS
330
24A
102
}
330
1F
100
AcDbEntity
  8
SK2
370
    13
100
AcDbDimension
  2
_U1
 10
-37.957196
 20
-6.349999999999999
 30
0.0
 11
-37.957196
 21
20.731334
 31
0.0
 70
   160
 42
12.7
 52
90.0
  3
Standard
100
AcDbAlignedDimension
 13
45.0
 23
6.349999999999999
 33
0.0
 14
-24.5
 24
-6.349999999999999
 34
0.0
 50
-90.0
100
AcDbRotatedDimension
1001
ACAD
1000
DSTYLE
1002
{
1070
   371
1070
    13
1070
   372
1070
    13
1070
     3
1000
%%c<>
1070
   170
1070
     0
1070
   144
1040
1.0
1070
   277
1070
     2
1070
   284
1070
     8
1070
   278
1070
    44
1070
   146
1040
1.0
1070
   345
1005
16
1070
   347
1005
16
1070
   346
1005
16
1070
   344
1005
0
1070
   343
1005
0
1070
   172
1070
     1
1070
    76
1070
     0
1070
    75
1070
     0
1070
   282
1070
     0
1070
   281
1070
     0
1070
    71
1070
     0
1070
    74
1070
     0
1070
   279
1070
     0
1070
   173
1070
     1
1070
   340
1005
22D
1070
   271
1070
     1
1070
   272
1070
     2
1070
    77
1070
     1
1070
    73
1070
     0
1070
   171
1070
     3
1070
   274
1070
     4
1070
   177
1070
    95
1070
   176
1070
    95
1070
   178
1070
    95
1070
    78
1070
     8
1070
    48
1040
-0.1
1070
    41
1040
2.5
1070
   147
1040
1.25
1070
    42
1040
1.0
1070
    44
1040
2.0
1070
   140
1040
2.5
1002
}
1001
ACAD_DSTYLE_DIM_LINETYPE
1070
   380
1005
16
1001
ACAD_DSTYLE_DIM_EXT1_LINETYPE
1070
   381
1005
16
1001
ACAD_DSTYLE_DIM_EXT2_LINETYPE
1070
   382
1005
16
  0
DIMENSION
  5
262
102
{ACAD_XDICTIONARY
360
263
102
}
102
{ACAD_REACTORS
330
264
102
}
330
1F
100
AcDbEntity
  8
2
370
    13
100
AcDbDimension
  2
_U2
 10
65.0
 20
11.844884
 30
0.0
 11
76.177524
 21
11.844884
 31
0.0
 70
   160
 42
5.014041430971019
 52
90.0
  3
Standard
100
AcDbAlignedDimension
 13
59.98595856902898
 23
6.188672573244645
 33
0.0
 14
65.0
 24
7.349999999999999
 34
0.0
100
AcDbRotatedDimension
1001
ACAD
1000
DSTYLE
1002
{
1070
   371
1070
    13
1070
   372
1070
    13
1070
   170
1070
     0
1070
   144
1040
1.0
1070
   277
1070
     2
1070
   284
1070
     8
1070
   278
1070
    44
1070
   146
1040
1.0
1070
   345
1005
16
1070
   347
1005
16
1070
   346
1005
16
1070
   344
1005
0
1070
   343
1005
0
1070
   172
1070
     1
1070
    76
1070
     0
1070
    75
1070
     0
1070
   282
1070
     0
1070
   281
1070
     0
1070
    71
1070
     0
1070
    74
1070
     0
1070
   279
1070
     0
1070
   173
1070
     1
1070
   340
1005
22D
1070
   271
1070
     1
1070
   272
1070
     2
1070
    77
1070
     1
1070
    73
1070
     1
1070
   171
1070
     3
1070
   274
1070
     4
1070
   177
1070
   254
1070
   176
1070
   254
1070
   178
1070
   254
1070
    78
1070
     8
1070
    48
1040
-0.1
1070
    41
1040
2.5
1070
   147
1040
1.25
1070
    42
1040
1.0
1070
    44
1040
2.0
1070
   140
1040
2.5
1002
}
1001
ACAD_DSTYLE_DIM_LINETYPE
1070
   380
1005
16
1001
ACAD_DSTYLE_DIM_EXT1_LINETYPE
1070
   381
1005
16
1001
ACAD_DSTYLE_DIM_EXT2_LINETYPE
1070
   382
1005
16
  0
DIMENSION
  5
27C
102
{ACAD_XDICTIONARY
360
27D
102
}
102
{ACAD_REACTORS
330
27E
102
}
330
1F
100
AcDbEntity
  8
2
370
    13
100
AcDbDimension
  2
_U3
 10
76.042804
 20
-6.349999999999999
 30
0.0
 11
76.042804
 21
-20.731334
 31
0.0
 70
   160
 42
12.7
 52
90.0
  3
Standard
100
AcDbAlignedDimension
 13
64.0
 23
6.349999999999999
 33
0.0
 14
65.0
 24
-6.349999999999999
 34
0.0
 50
-90.0
100
AcDbRotatedDimension
1001
ACAD
1000
DSTYLE
1002
{
1070
   371
1070
    13
1070
   372
1070
    13
1070
     3
1000
%%c<>
1070
   170
1070
     0
1070
   144
1040
1.0
1070
   277
1070
     2
1070
   284
1070
     8
1070
   278
1070
    44
1070
   146
1040
1.0
1070
   345
1005
16
1070
   347
1005
16
1070
   346
1005
16
1070
   344
1005
0
1070
   343
1005
0
1070
   172
1070
     1
1070
    76
1070
     1
1070
   281
1070
     0
1070
    71
1070
     0
1070
    74
1070
     0
1070
   279
1070
     0
1070
   173
1070
     1
1070
   340
1005
22D
1070
   271
1070
     2
1070
   272
1070
     2
1070
    77
1070
     1
1070
    73
1070
     0
1070
   171
1070
     3
1070
   274
1070
     4
1070
   282
1070
     1
1070
   177
1070
   254
1070
   176
1070
   254
1070
   178
1070
   254
1070
    78
1070
     8
1070
    48
1040
-0.1
1070
    41
1040
2.5
1070
   147
1040
1.25
1070
    42
1040
1.0
1070
    44
1040
2.0
1070
   140
1040
2.5
1002
}
1001
ACAD_DSTYLE_DIM_LINETYPE
1070
   380
1005
16
1001
ACAD_DSTYLE_DIM_EXT1_LINETYPE
1070
   381
1005
16
1001
ACAD_DSTYLE_DIM_EXT2_LINETYPE
1070
   382
1005
16
  0
DIMENSION
  5
293
102
{ACAD_XDICTIONARY
360
294
102
}
102
{ACAD_REACTORS
330
295
102
}
330
1F
100
AcDbEntity
  8
2
370
    13
100
AcDbDimension
  2
_U4
 10
65.0
 20
27.84488400000001
 30
0.0
 11
55.0
 21
27.84488400000001
 31
0.0
 70
   160
 42
20.0
 52
90.0
  3
Standard
100
AcDbAlignedDimension
 13
45.0
 23
6.349999999999999
 33
0.0
 14
65.0
 24
7.349999999999999
 34
0.0
100
AcDbRotatedDimension
1001
ACAD
1000
DSTYLE
1002
{
1070
   371
1070
    13
1070
   372
1070
    13
1070
   170
1070
     0
1070
   144
1040
1.0
1070
   277
1070
     2
1070
   284
1070
     8
1070
   278
1070
    44
1070
   146
1040
1.0
1070
   345
1005
16
1070
   347
1005
16
1070
   346
1005
16
1070
   344
1005
0
1070
   343
1005
0
1070
   172
1070
     1
1070
    76
1070
     0
1070
    75
1070
     0
1070
   282
1070
     0
1070
   281
1070
     0
1070
    71
1070
     0
1070
    74
1070
     0
1070
   279
1070
     0
1070
   173
1070
     1
1070
   340
1005
22D
1070
   271
1070
     1
1070
   272
1070
     2
1070
    77
1070
     1
1070
    73
1070
     1
1070
   171
1070
     3
1070
   274
1070
     4
1070
   177
1070
   254
1070
   176
1070
   254
1070
   178
1070
   254
1070
    78
1070
     8
1070
    48
1040
-0.1
1070
    41
1040
2.5
1070
   147
1040
1.25
1070
    42
1040
1.0
1070
    44
1040
2.0
1070
   140
1040
2.5
1002
}
1001
ACAD_DSTYLE_DIM_LINETYPE
1070
   380
1005
16
1001
ACAD_DSTYLE_DIM_EXT1_LINETYPE
1070
   381
1005
16
1001
ACAD_DSTYLE_DIM_EXT2_LINETYPE
1070
   382
1005
16
  0
DIMENSION
  5
2AB
102
{ACAD_XDICTIONARY
360
2AC
102
}
102
{ACAD_REACTORS
330
2AD
102
}
330
1F
100
AcDbEntity
  8
SK2
370
    13
100
AcDbDimension
  2
_U5
 10
65.0
 20
35.844884
 30
0.0
 11
32.5
 21
35.844884
 31
0.0
 70
   160
 42
65.0
 52
90.0
  3
Standard
100
AcDbAlignedDimension
 13
0.0
 23
1.0
 33
0.0
 14
65.0
 24
7.349999999999999
 34
0.0
100
AcDbRotatedDimension
1001
ACAD
1000
DSTYLE
1002
{
1070
   371
1070
    13
1070
   372
1070
    13
1070
   170
1070
     0
1070
   144
1040
1.0
1070
   277
1070
     2
1070
   284
1070
     8
1070
   278
1070
    44
1070
   146
1040
1.0
1070
   345
1005
16
1070
   347
1005
16
1070
   346
1005
16
1070
   344
1005
0
1070
   343
1005
0
1070
   172
1070
     1
1070
    76
1070
     0
1070
    75
1070
     0
1070
   282
1070
     0
1070
   281
1070
     0
1070
    71
1070
     0
1070
    74
1070
     0
1070
   279
1070
     0
1070
   173
1070
     1
1070
   340
1005
22D
1070
   271
1070
     1
1070
   272
1070
     2
1070
    77
1070
     1
1070
    73
1070
     1
1070
   171
1070
     3
1070
   274
1070
     4
1070
   177
1070
    95
1070
   176
1070
    95
1070
   178
1070
    95
1070
    78
1070
     8
1070
    48
1040
-0.1
1070
    41
1040
2.5
1070
   147
1040
1.25
1070
    42
1040
1.0
1070
    44
1040
2.0
1070
   140
1040
2.5
1002
}
1001
ACAD_DSTYLE_DIM_LINETYPE
1070
   380
1005
16
1001
ACAD_DSTYLE_DIM_EXT1_LINETYPE
1070
   381
1005
16
1001
ACAD_DSTYLE_DIM_EXT2_LINETYPE
1070
   382
1005
16
  0
ENDSEC
  0
SECTION
  2
OBJECTS
  0
DICTIONARY
  5
C
330
0
100
AcDbDictionary
281
     1
  3
ACAD_CIP_PREVIOUS_PRODUCT_INFO
350
62E
  3
ACAD_COLOR
350
627
  3
ACAD_DETAILVIEWSTYLE
350
322
  3
ACAD_GROUP
350
D
  3
ACAD_LAYOUT
350
1A
  3
ACAD_MATERIAL
350
43
  3
ACAD_MLEADERSTYLE
350
6B
  3
ACAD_MLINESTYLE
350
17
  3
ACAD_PLOTSETTINGS
350
19
  3
ACAD_PLOTSTYLENAME
350
E
  3
ACAD_SCALELIST
350
47
  3
ACAD_SECTIONVIEWSTYLE
350
323
  3
ACAD_TABLESTYLE
350
69
  3
ACAD_VISUALSTYLE
350
2A
  3
ACDB_RECOMPOSE_DATA
350
643
  3
AcDbVariableDictionary
350
2DF
  3
DWGPROPS
350
644
  0
DICTIONARY
  5
230
330
22F
100
AcDbDictionary
280
     1
281
     1
  3
ACAD_DIMASSOC
360
231
  0
DICTIONARY
  5
249
330
248
100
AcDbDictionary
280
     1
281
     1
  3
ACAD_DIMASSOC
360
24A
  0
DICTIONARY
  5
263
330
262
100
AcDbDictionary
280
     1
281
     1
  3
ACAD_DIMASSOC
360
264
  0
DICTIONARY
  5
27D
330
27C
100
AcDbDictionary
280
     1
281
     1
  3
ACAD_DIMASSOC
360
27E
  0
DICTIONARY
  5
294
330
293
100
AcDbDictionary
280
     1
281
     1
  3
ACAD_DIMASSOC
360
295
  0
DICTIONARY
  5
2AC
330
2AB
100
AcDbDictionary
280
     1
281
     1
  3
ACAD_DIMASSOC
360
2AD
  0
XRECORD
  5
62E
102
{ACAD_REACTORS
330
C
102
}
330
C
100
AcDbXrecord
280
     1
300
ACD
300
2019
300
87084ACD_2019_0F
  0
DICTIONARY
  5
627
102
{ACAD_REACTORS
330
C
102
}
330
C
100
AcDbDictionary
281
     1
  0
DICTIONARY
  5
322
102
{ACAD_REACTORS
330
C
102
}
330
C
100
AcDbDictionary
281
     1
  3
Metric50
350
629
  0
DICTIONARY
  5
D
102
{ACAD_REACTORS
330
C
102
}
330
C
100
AcDbDictionary
281
     1
  0
DICTIONARY
  5
1A
102
{ACAD_REACTORS
330
C
102
}
330
C
100
AcDbDictionary
281
     1
  3
Layout1
350
1E
  3
Layout2
350
26
  3
Model
350
22
  0
DICTIONARY
  5
43
102
{ACAD_REACTORS
330
C
102
}
330
C
100
AcDbDictionary
281
     1
  3
ByBlock
350
45
  3
ByLayer
350
44
  3
Global
350
46
  0
DICTIONARY
  5
6B
102
{ACAD_REACTORS
330
C
102
}
330
C
100
AcDbDictionary
281
     1
  3
Standard
350
6C
  0
DICTIONARY
  5
17
102
{ACAD_REACTORS
330
C
102
}
330
C
100
AcDbDictionary
281
     1
  3
Standard
350
18
  0
DICTIONARY
  5
19
102
{ACAD_REACTORS
330
C
102
}
330
C
100
AcDbDictionary
281
     1
  0
ACDBDICTIONARYWDFLT
  5
E
102
{ACAD_REACTORS
330
C
102
}
330
C
100
AcDbDictionary
281
     1
  3
Normal
350
F
100
AcDbDictionaryWithDefault
340
F
  0
DICTIONARY
  5
47
102
{ACAD_REACTORS
330
C
102
}
330
C
100
AcDbDictionary
281
     1
  3
A0
350
48
  3
A1
350
49
  3
A2
350
4A
  3
A3
350
4B
  3
A4
350
4C
  3
A5
350
4D
  3
A6
350
4E
  3
A7
350
4F
  3
A8
350
50
  3
A9
350
51
  3
B0
350
52
  3
B1
350
53
  3
B2
350
54
  3
B3
350
55
  3
B4
350
56
  3
B5
350
57
  3
B6
350
58
  3
B7
350
59
  3
B8
350
5A
  3
B9
350
5B
  3
C0
350
5C
  3
C1
350
5D
  3
C2
350
5E
  3
C3
350
5F
  3
C4
350
60
  3
C5
350
61
  3
C6
350
62
  3
C7
350
63
  3
C8
350
64
  3
C9
350
65
  3
D0
350
66
  3
D1
350
67
  3
D2
350
68
  0
DICTIONARY
  5
323
102
{ACAD_REACTORS
330
C
102
}
330
C
100
AcDbDictionary
281
     1
  3
Metric50
350
628
  0
DICTIONARY
  5
69
102
{ACAD_REACTORS
330
C
102
}
330
C
100
AcDbDictionary
281
     1
  3
Standard
350
6A
  0
DICTIONARY
  5
2A
102
{ACAD_REACTORS
330
C
102
}
330
C
100
AcDbDictionary
281
     1
  3
2dWireframe
350
2F
  3
Basic
350
32
  3
Brighten
350
36
  3
ColorChange
350
3A
  3
Conceptual
350
34
  3
Dim
350
35
  3
EdgeColorOff
350
3D
  3
Facepattern
350
39
  3
Flat
350
2B
  3
FlatWithEdges
350
2C
  3
Gouraud
350
2D
  3
GouraudWithEdges
350
2E
  3
Hidden
350
31
  3
JitterOff
350
3B
  3
Linepattern
350
38
  3
OverhangOff
350
3C
  3
Realistic
350
33
  3
Shaded
350
42
  3
Shaded with edges
350
41
  3
Shades of Gray
350
3E
  3
Sketchy
350
3F
  3
Thicken
350
37
  3
Wireframe
350
30
  3
X-Ray
350
40
  0
XRECORD
  5
643
102
{ACAD_REACTORS
330
C
102
}
330
C
100
AcDbXrecord
280
     1
 90
        1
330
6A
  0
DICTIONARY
  5
2DF
102
{ACAD_REACTORS
330
C
102
}
330
C
100
AcDbDictionary
281
     1
  3
CANNOSCALE
350
2E0
  3
CMLEADERSTYLE
350
321
  3
CTABLESTYLE
350
320
  3
CVIEWDETAILSTYLE
350
63A
  3
CVIEWSECTIONSTYLE
350
63B
  3
DIMASSOC
350
63F
  3
HIDETEXT
350
63E
  3
INDEXCTL
350
63D
  3
MSLTSCALE
350
2E1
  3
SORTENTS
350
63C
  3
XCLIPFRAME
350
640
  0
XRECORD
  5
644
102
{ACAD_REACTORS
330
C
102
}
330
C
100
AcDbXrecord
280
     1
  1
DWGPROPS COOKIE
  2

  3

  4

  6

  7

  8
fo3459
  9

300
=
301
=
302
=
303
=
304
=
305
=
306
=
307
=
308
=
309
=
 40
0.000462974537037
 41
2459080.479166667
 42
2459080.513344907
  1

 90
        0
  0
DIMASSOC
  5
231
102
{ACAD_REACTORS
330
230
102
}
330
230
100
AcDbDimAssoc
330
22F
 90
        3
 70
     0
 71
     1
  1
AcDbOsnapPointRef
 72
     1
331
19B
 73
     2
 91
        1
 40
1.0
 10
-25.0
 20
5.849999999999999
 30
0.0
 75
     0
  1
AcDbOsnapPointRef
 72
     1
331
16A
 73
     2
 91
        2
 40
1.0
 10
65.0
 20
7.349999999999999
 30
0.0
 75
     0
  0
DIMASSOC
  5
24A
102
{ACAD_REACTORS
330
249
102
}
330
249
100
AcDbDimAssoc
330
248
 90
        3
 70
     0
 71
     1
  1
AcDbOsnapPointRef
 72
    13
331
156
 73
     2
 91
        1
 40
0.0
 10
45.0
 20
6.349999999999999
 30
0.0
 75
     0
  1
AcDbOsnapPointRef
 72
    13
331
155
 73
     2
 91
        2
 40
0.0
 10
-24.5
 20
-6.349999999999999
 30
0.0
 75
     0
  0
DIMASSOC
  5
264
102
{ACAD_REACTORS
330
263
102
}
330
263
100
AcDbDimAssoc
330
262
 90
        2
 70
     0
 71
     1
  1
AcDbOsnapPointRef
 72
     1
331
16A
 73
     2
 91
        2
 40
1.0
 10
65.0
 20
7.349999999999999
 30
0.0
 75
     0
  0
DIMASSOC
  5
27E
102
{ACAD_REACTORS
330
27D
102
}
330
27D
100
AcDbDimAssoc
330
27C
 90
        3
 70
     0
 71
     1
  1
AcDbOsnapPointRef
 72
    13
331
16C
 73
     2
 91
        1
 40
0.0
 10
64.0
 20
6.349999999999999
 30
0.0
 75
     0
  1
AcDbOsnapPointRef
 72
     4
331
73
 73
     3
 91
        2
 40
0.0
 10
65.0
 20
-6.349999999999999
 30
0.0
 75
     0
  0
DIMASSOC
  5
295
102
{ACAD_REACTORS
330
294
102
}
330
294
100
AcDbDimAssoc
330
293
 90
        3
 70
     0
 71
     1
  1
AcDbOsnapPointRef
 72
    13
331
19D
 73
     2
 91
        1
 40
0.0
 10
45.0
 20
6.349999999999999
 30
0.0
 75
     0
  1
AcDbOsnapPointRef
 72
     1
331
16A
 73
     2
 91
        2
 40
1.0
 10
65.0
 20
7.349999999999999
 30
0.0
 75
     0
  0
DIMASSOC
  5
2AD
102
{ACAD_REACTORS
330
2AC
102
}
330
2AC
100
AcDbDimAssoc
330
2AB
 90
        3
 70
     0
 71
     1
  1
AcDbOsnapPointRef
 72
    13
331
168
 73
     2
 91
        1
 40
0.0
 10
0.0
 20
1.0
 30
0.0
 75
     0
  1
AcDbOsnapPointRef
 72
     1
331
16A
 73
     2
 91
        2
 40
1.0
 10
65.0
 20
7.349999999999999
 30
0.0
 75
     0
  0
ACDBDETAILVIEWSTYLE
  5
629
102
{ACAD_XDICTIONARY
360
67E
102
}
102
{ACAD_REACTORS
330
322
102
}
330
322
100
AcDbModelDocViewStyle
 70
     0
  3
Metric50
290
     0
100
AcDbDetailViewStyle
 70
     0
 71
     0
 90
        3
 71
     1
340
11
 40
5.0
340
0
 40
5.0
300

 40
0.0
280
     1
 71
     2
340
16
 90
       25
 71
     3
340
11
 40
5.0
 90
        0
 40
15.0
 90
        1
300
%<\AcVar ViewDetailId>% (%<\AcVar ViewScale \f "%sn">%)
 71
     4
340
16
 90
       25
340
16
 90
       25
280
     0
  0
LAYOUT
  5
1E
102
{ACAD_XDICTIONARY
360
645
102
}
102
{ACAD_REACTORS
330
1A
102
}
330
1A
100
AcDbPlotSettings
  1

  2
none_device
  4

  6

 40
0.0
 41
0.0
 42
0.0
 43
0.0
 44
0.0
 45
0.0
 46
0.0
 47
0.0
 48
0.0
 49
0.0
140
0.0
141
0.0
142
1.0
143
1.0
 70
   688
 72
     0
 73
     0
 74
     5
  7

 75
    16
147
1.0
148
0.0
149
0.0
100
AcDbLayout
  1
Layout1
 70
     1
 71
     1
 10
-0.5
 20
-0.5
 11
5.0
 21
5.0
 12
0.0
 22
0.0
 32
0.0
 14
-0.5
 24
-0.5
 34
-0.5
 15
5.0
 25
5.0
 35
5.0
146
0.0
 13
0.0
 23
0.0
 33
0.0
 16
1.0
 26
0.0
 36
0.0
 17
0.0
 27
1.0
 37
0.0
 76
     0
330
1B
  0
LAYOUT
  5
26
102
{ACAD_XDICTIONARY
360
649
102
}
102
{ACAD_REACTORS
330
1A
102
}
330
1A
100
AcDbPlotSettings
  1

  2
none_device
  4

  6

 40
0.0
 41
0.0
 42
0.0
 43
0.0
 44
0.0
 45
0.0
 46
0.0
 47
0.0
 48
0.0
 49
0.0
140
0.0
141
0.0
142
1.0
143
1.0
 70
   688
 72
     0
 73
     0
 74
     5
  7

 75
    16
147
1.0
148
0.0
149
0.0
100
AcDbLayout
  1
Layout2
 70
     1
 71
     2
 10
0.0
 20
0.0
 11
0.0
 21
0.0
 12
0.0
 22
0.0
 32
0.0
 14
0.0
 24
0.0
 34
0.0
 15
0.0
 25
0.0
 35
0.0
146
0.0
 13
0.0
 23
0.0
 33
0.0
 16
1.0
 26
0.0
 36
0.0
 17
0.0
 27
1.0
 37
0.0
 76
     0
330
23
  0
LAYOUT
  5
22
102
{ACAD_XDICTIONARY
360
647
102
}
102
{ACAD_REACTORS
330
1A
102
}
330
1A
100
AcDbPlotSettings
  1

  2
none_device
  4
Letter_(8.50_x_11.00_Inches)
  6

 40
6.349999999999999
 41
6.349999999999999
 42
6.350005
 43
6.350005
 44
215.9
 45
279.4
 46
0.0
 47
0.0
 48
0.0
 49
0.0
140
0.0
141
0.0
142
1.0
143
1.0
 70
  1712
 72
     0
 73
     0
 74
     0
  7

 75
     0
147
1.0
148
0.0
149
0.0
100
AcDbLayout
  1
Model
 70
     1
 71
     0
 10
-0.5
 20
-0.5
 11
5.0
 21
5.0
 12
0.0
 22
0.0
 32
0.0
 14
-0.5
 24
-0.5
 34
-0.5
 15
5.0
 25
5.0
 35
5.0
146
0.0
 13
0.0
 23
0.0
 33
0.0
 16
1.0
 26
0.0
 36
0.0
 17
0.0
 27
1.0
 37
0.0
 76
     0
330
1F
331
29
  0
MATERIAL
  5
45
102
{ACAD_XDICTIONARY
360
315
102
}
102
{ACAD_REACTORS
330
43
102
}
330
43
100
AcDbMaterial
  1
ByBlock
  0
MATERIAL
  5
44
102
{ACAD_XDICTIONARY
360
313
102
}
102
{ACAD_REACTORS
330
43
102
}
330
43
100
AcDbMaterial
  1
ByLayer
  0
MATERIAL
  5
46
102
{ACAD_XDICTIONARY
360
317
102
}
102
{ACAD_REACTORS
330
43
102
}
330
43
100
AcDbMaterial
  1
Global
  0
MLEADERSTYLE
  5
6C
102
{ACAD_REACTORS
330
6B
102
}
330
6B
100
AcDbMLeaderStyle
170
     2
171
     1
172
     0
 90
        2
 40
0.0
 41
0.0
173
     1
 91
-1056964608
340
14
 92
       -2
290
     1
 42
0.09
291
     1
 43
0.36
  3
Standard
 44
0.18
300

342
11
174
     1
178
     6
175
     1
176
     0
 93
-1056964608
 45
0.18
292
     0
297
     0
 46
0.18
 94
-1056964608
 47
1.0
 49
1.0
140
1.0
293
     1
141
0.0
294
     1
177
     0
142
1.0
295
     0
296
     0
143
0.125
1001
ACAD_MLEADERVER
1070
     2
  0
MLINESTYLE
  5
18
102
{ACAD_REACTORS
330
17
102
}
330
17
100
AcDbMlineStyle
  2
STANDARD
 70
     0
  3

 62
   256
 51
90.0
 52
90.0
 71
     2
 49
0.5
 62
   256
  6
BYLAYER
 49
-0.5
 62
   256
  6
BYLAYER
  0
ACDBPLACEHOLDER
  5
F
102
{ACAD_REACTORS
330
E
102
}
330
E
  0
SCALE
  5
48
102
{ACAD_REACTORS
330
47
102
}
330
47
100
AcDbScale
 70
     0
300
1:1
140
1.0
141
1.0
290
     1
  0
SCALE
  5
49
102
{ACAD_REACTORS
330
47
102
}
330
47
100
AcDbScale
 70
     0
300
1:2
140
1.0
141
2.0
290
     0
  0
SCALE
  5
4A
102
{ACAD_REACTORS
330
47
102
}
330
47
100
AcDbScale
 70
     0
300
1:4
140
1.0
141
4.0
290
     0
  0
SCALE
  5
4B
102
{ACAD_REACTORS
330
47
102
}
330
47
100
AcDbScale
 70
     0
300
1:5
140
1.0
141
5.0
290
     0
  0
SCALE
  5
4C
102
{ACAD_REACTORS
330
47
102
}
330
47
100
AcDbScale
 70
     0
300
1:8
140
1.0
141
8.0
290
     0
  0
SCALE
  5
4D
102
{ACAD_REACTORS
330
47
102
}
330
47
100
AcDbScale
 70
     0
300
1:10
140
1.0
141
10.0
290
     0
  0
SCALE
  5
4E
102
{ACAD_REACTORS
330
47
102
}
330
47
100
AcDbScale
 70
     0
300
1:16
140
1.0
141
16.0
290
     0
  0
SCALE
  5
4F
102
{ACAD_REACTORS
330
47
102
}
330
47
100
AcDbScale
 70
     0
300
1:20
140
1.0
141
20.0
290
     0
  0
SCALE
  5
50
102
{ACAD_REACTORS
330
47
102
}
330
47
100
AcDbScale
 70
     0
300
1:30
140
1.0
141
30.0
290
     0
  0
SCALE
  5
51
102
{ACAD_REACTORS
330
47
102
}
330
47
100
AcDbScale
 70
     0
300
1:40
140
1.0
141
40.0
290
     0
  0
SCALE
  5
52
102
{ACAD_REACTORS
330
47
102
}
330
47
100
AcDbScale
 70
     0
300
1:50
140
1.0
141
50.0
290
     0
  0
SCALE
  5
53
102
{ACAD_REACTORS
330
47
102
}
330
47
100
AcDbScale
 70
     0
300
1:100
140
1.0
141
100.0
290
     0
  0
SCALE
  5
54
102
{ACAD_REACTORS
330
47
102
}
330
47
100
AcDbScale
 70
     0
300
2:1
140
2.0
141
1.0
290
     0
  0
SCALE
  5
55
102
{ACAD_REACTORS
330
47
102
}
330
47
100
AcDbScale
 70
     0
300
4:1
140
4.0
141
1.0
290
     0
  0
SCALE
  5
56
102
{ACAD_REACTORS
330
47
102
}
330
47
100
AcDbScale
 70
     0
300
8:1
140
8.0
141
1.0
290
     0
  0
SCALE
  5
57
102
{ACAD_REACTORS
330
47
102
}
330
47
100
AcDbScale
 70
     0
300
10:1
140
10.0
141
1.0
290
     0
  0
SCALE
  5
58
102
{ACAD_REACTORS
330
47
102
}
330
47
100
AcDbScale
 70
     0
300
100:1
140
100.0
141
1.0
290
     0
  0
SCALE
  5
59
102
{ACAD_REACTORS
330
47
102
}
330
47
100
AcDbScale
 70
     0
300
1/128" = 1'-0"
140
0.007812
141
12.0
290
     0
  0
SCALE
  5
5A
102
{ACAD_REACTORS
330
47
102
}
330
47
100
AcDbScale
 70
     0
300
1/64" = 1'-0"
140
0.015625
141
12.0
290
     0
  0
SCALE
  5
5B
102
{ACAD_REACTORS
330
47
102
}
330
47
100
AcDbScale
 70
     0
300
1/32" = 1'-0"
140
0.03125
141
12.0
290
     0
  0
SCALE
  5
5C
102
{ACAD_REACTORS
330
47
102
}
330
47
100
AcDbScale
 70
     0
300
1/16" = 1'-0"
140
0.0625
141
12.0
290
     0
  0
SCALE
  5
5D
102
{ACAD_REACTORS
330
47
102
}
330
47
100
AcDbScale
 70
     0
300
3/32" = 1'-0"
140
0.09375
141
12.0
290
     0
  0
SCALE
  5
5E
102
{ACAD_REACTORS
330
47
102
}
330
47
100
AcDbScale
 70
     0
300
1/8" = 1'-0"
140
0.125
141
12.0
290
     0
  0
SCALE
  5
5F
102
{ACAD_REACTORS
330
47
102
}
330
47
100
AcDbScale
 70
     0
300
3/16" = 1'-0"
140
0.1875
141
12.0
290
     0
  0
SCALE
  5
60
102
{ACAD_REACTORS
330
47
102
}
330
47
100
AcDbScale
 70
     0
300
1/4" = 1'-0"
140
0.25
141
12.0
290
     0
  0
SCALE
  5
61
102
{ACAD_REACTORS
330
47
102
}
330
47
100
AcDbScale
 70
     0
300
3/8" = 1'-0"
140
0.375
141
12.0
290
     0
  0
SCALE
  5
62
102
{ACAD_REACTORS
330
47
102
}
330
47
100
AcDbScale
 70
     0
300
1/2" = 1'-0"
140
0.5
141
12.0
290
     0
  0
SCALE
  5
63
102
{ACAD_REACTORS
330
47
102
}
330
47
100
AcDbScale
 70
     0
300
3/4" = 1'-0"
140
0.75
141
12.0
290
     0
  0
SCALE
  5
64
102
{ACAD_REACTORS
330
47
102
}
330
47
100
AcDbScale
 70
     0
300
1" = 1'-0"
140
1.0
141
12.0
290
     0
  0
SCALE
  5
65
102
{ACAD_REACTORS
330
47
102
}
330
47
100
AcDbScale
 70
     0
300
1-1/2" = 1'-0"
140
1.5
141
12.0
290
     0
  0
SCALE
  5
66
102
{ACAD_REACTORS
330
47
102
}
330
47
100
AcDbScale
 70
     0
300
3" = 1'-0"
140
3.0
141
12.0
290
     0
  0
SCALE
  5
67
102
{ACAD_REACTORS
330
47
102
}
330
47
100
AcDbScale
 70
     0
300
6" = 1'-0"
140
6.0
141
12.0
290
     0
  0
SCALE
  5
68
102
{ACAD_REACTORS
330
47
102
}
330
47
100
AcDbScale
 70
     0
300
1'-0" = 1'-0"
140
12.0
141
12.0
290
     0
  0
ACDBSECTIONVIEWSTYLE
  5
628
102
{ACAD_XDICTIONARY
360
67C
102
}
102
{ACAD_REACTORS
330
323
102
}
330
323
100
AcDbModelDocViewStyle
 70
     0
  3
Metric50
290
     0
100
AcDbSectionViewStyle
 70
     0
 71
     0
 90
      102
 71
     1
340
11
 40
5.0
340
0
340
0
 40
5.0
300
I, O, Q, S, X, Z
 40
10.0
 90
        0
 40
2.5
 90
        0
 71
     2
340
16
 90
       25
340
16
 90
       50
 40
5.0
 40
2.5
 40
5.0
 71
     3
340
11
 40
5.0
 90
        0
 40
15.0
 90
        1
300
%<\AcVar ViewSectionStartId>%-%<\AcVar ViewSectionEndId>% (%<\AcVar ViewScale \f "%sn">%)
 71
     4
300
ANSI31
 40
1.0
 90
        0
290
     0
290
     0
 90
        6
 40
0.0
 40
1.570796326794896
 40
0.2617993877991494
 40
1.308996938995747
 40
-0.2617993877991494
 40
1.832595714594046
  0
TABLESTYLE
  5
6A
102
{ACAD_XDICTIONARY
360
319
102
}
102
{ACAD_REACTORS
330
69
102
}
330
69
100
AcDbTableStyle
  3
Standard
 70
     0
 71
     0
 40
0.06
 41
0.06
280
     0
281
     0
  7
Standard
140
0.18
170
     2
 62
     0
 63
     7
283
     0
274
    -2
284
     1
 64
     0
275
    -2
285
     1
 65
     0
276
    -2
286
     1
 66
     0
277
    -2
287
     1
 67
     0
278
    -2
288
     1
 68
     0
279
    -2
289
     1
 69
     0
  7
Standard
140
0.25
170
     5
 62
     0
 63
     7
283
     0
274
    -2
284
     1
 64
     0
275
    -2
285
     1
 65
     0
276
    -2
286
     1
 66
     0
277
    -2
287
     1
 67
     0
278
    -2
288
     1
 68
     0
279
    -2
289
     1
 69
     0
  7
Standard
140
0.18
170
     5
 62
     0
 63
     7
283
     0
274
    -2
284
     1
 64
     0
275
    -2
285
     1
 65
     0
276
    -2
286
     1
 66
     0
277
    -2
287
     1
 67
     0
278
    -2
288
     1
 68
     0
279
    -2
289
     1
 69
     0
  0
VISUALSTYLE
  5
2F
102
{ACAD_XDICTIONARY
360
653
102
}
102
{ACAD_REACTORS
330
2A
102
}
330
2A
100
AcDbVisualStyle
  2

 70
     4
 71
     0
 72
     2
 73
     0
 90
        0
 40
-0.6
 41
-30.0
 62
     5
 63
     7
 74
     1
 91
        4
 64
     7
 65
   257
 75
     1
175
     1
 42
1.0
 92
        0
 66
   257
 43
1.0
 76
     1
 77
     6
 78
     2
 67
     7
 79
     5
170
     0
171
     0
290
     0
174
     0
 93
        1
 44
0.0
173
     0
291
     0
 45
0.0
1001
ACAD
1000
AcDbSavedByObjectVersion
1070
     0
  0
VISUALSTYLE
  5
32
102
{ACAD_XDICTIONARY
360
659
102
}
102
{ACAD_REACTORS
330
2A
102
}
330
2A
100
AcDbVisualStyle
  2

 70
     7
 71
     1
 72
     0
 73
     1
 90
        0
 40
-0.6
 41
-30.0
 62
     5
 63
     7
 74
     0
 91
        4
 64
     7
 65
   257
 75
     1
175
     1
 42
1.0
 92
        8
 66
     7
 43
1.0
 76
     1
 77
     6
 78
     2
 67
     7
 79
     5
170
     0
171
     0
290
     0
174
     0
 93
        1
 44
0.0
173
     0
291
     1
 45
0.0
1001
ACAD
1000
AcDbSavedByObjectVersion
1070
     0
  0
VISUALSTYLE
  5
36
102
{ACAD_XDICTIONARY
360
661
102
}
102
{ACAD_REACTORS
330
2A
102
}
330
2A
100
AcDbVisualStyle
  2

 70
    12
 71
     2
 72
     2
 73
     0
 90
        0
 40
-0.6
 41
-30.0
 62
     5
 63
     7
 74
     1
 91
        4
 64
     7
 65
   257
 75
     1
175
     1
 42
1.0
 92
        8
 66
     7
 43
1.0
 76
     1
 77
     6
 78
     2
 67
     7
 79
     5
170
     0
171
     0
290
     0
174
     0
 93
        1
 44
50.0
173
     0
291
     1
 45
0.0
1001
ACAD
1000
AcDbSavedByObjectVersion
1070
     0
  0
VISUALSTYLE
  5
3A
102
{ACAD_XDICTIONARY
360
669
102
}
102
{ACAD_REACTORS
330
2A
102
}
330
2A
100
AcDbVisualStyle
  2

 70
    16
 71
     2
 72
     2
 73
     3
 90
        0
 40
-0.6
 41
-30.0
 62
     5
 63
     8
 74
     1
 91
        4
 64
     7
 65
   257
 75
     1
175
     1
 42
1.0
 92
        8
 66
     8
 43
1.0
 76
     1
 77
     6
 78
     2
 67
     7
 79
     5
170
     0
171
     0
290
     0
174
     0
 93
        1
 44
0.0
173
     0
291
     1
 45
0.0
1001
ACAD
1000
AcDbSavedByObjectVersion
1070
     0
  0
VISUALSTYLE
  5
34
102
{ACAD_XDICTIONARY
360
65D
102
}
102
{ACAD_REACTORS
330
2A
102
}
330
2A
100
AcDbVisualStyle
  2

 70
     9
 71
     3
 72
     2
 73
     0
 90
        0
 40
-0.6
 41
-30.0
 62
     5
 63
     7
 74
     2
 91
        2
 64
     7
 65
   257
 75
     1
175
     1
 42
179.0
 92
        8
 66
     7
 43
1.0
 76
     1
 77
     6
 78
     2
 67
     7
 79
     3
170
     0
171
     0
290
     0
174
     0
 93
        1
 44
0.0
173
     0
291
     0
 45
0.0
1001
ACAD
1000
AcDbSavedByObjectVersion
1070
     0
  0
VISUALSTYLE
  5
35
102
{ACAD_XDICTIONARY
360
65F
102
}
102
{ACAD_REACTORS
330
2A
102
}
330
2A
100
AcDbVisualStyle
  2

 70
    11
 71
     2
 72
     2
 73
     0
 90
        0
 40
-0.6
 41
-30.0
 62
     5
 63
     7
 74
     1
 91
        4
 64
     7
 65
   257
 75
     1
175
     1
 42
1.0
 92
        8
 66
     7
 43
1.0
 76
     1
 77
     6
 78
     2
 67
     7
 79
     5
170
     0
171
     0
290
     0
174
     0
 93
        1
 44
-50.0
173
     0
291
     1
 45
0.0
1001
ACAD
1000
AcDbSavedByObjectVersion
1070
     0
  0
VISUALSTYLE
  5
3D
102
{ACAD_XDICTIONARY
360
66F
102
}
102
{ACAD_REACTORS
330
2A
102
}
330
2A
100
AcDbVisualStyle
  2

 70
    22
 71
     2
 72
     2
 73
     0
 90
        0
 40
-0.6
 41
-30.0
 62
     5
 63
     7
 74
     1
 91
        4
 64
     7
 65
   257
 75
     1
175
     1
 42
1.0
 92
        8
 66
     7
 43
1.0
 76
     1
 77
     6
 78
     2
 67
     7
 79
     5
170
     0
171
     0
290
     0
174
     0
 93
        1
 44
0.0
173
     0
291
     1
 45
0.0
1001
ACAD
1000
AcDbSavedByObjectVersion
1070
     0
  0
VISUALSTYLE
  5
39
102
{ACAD_XDICTIONARY
360
667
102
}
102
{ACAD_REACTORS
330
2A
102
}
330
2A
100
AcDbVisualStyle
  2

 70
    15
 71
     2
 72
     2
 73
     0
 90
        0
 40
-0.6
 41
-30.0
 62
     5
 63
     7
 74
     1
 91
        4
 64
     7
 65
   257
 75
     1
175
     1
 42
1.0
 92
        8
 66
     7
 43
1.0
 76
     1
 77
     6
 78
     2
 67
     7
 79
     5
170
     0
171
     0
290
     0
174
     0
 93
        1
 44
0.0
173
     0
291
     1
 45
0.0
1001
ACAD
1000
AcDbSavedByObjectVersion
1070
     0
  0
VISUALSTYLE
  5
2B
102
{ACAD_XDICTIONARY
360
64B
102
}
102
{ACAD_REACTORS
330
2A
102
}
330
2A
100
AcDbVisualStyle
  2

 70
     0
 71
     2
 72
     1
 73
     1
 90
        2
 40
-0.6
 41
30.0
 62
     5
 63
     7
 74
     0
 91
        0
 64
     7
 65
   257
 75
     1
175
     1
 42
1.0
 92
        8
 66
     7
 43
1.0
 76
     1
 77
     6
 78
     2
 67
     7
 79
     5
170
     0
171
     0
290
     0
174
     0
 93
       13
 44
0.0
173
     0
291
     1
 45
0.0
1001
ACAD
1000
AcDbSavedByObjectVersion
1070
     0
  0
VISUALSTYLE
  5
2C
102
{ACAD_XDICTIONARY
360
64D
102
}
102
{ACAD_REACTORS
330
2A
102
}
330
2A
100
AcDbVisualStyle
  2

 70
     1
 71
     2
 72
     1
 73
     1
 90
        2
 40
-0.6
 41
30.0
 62
     5
 63
     7
 74
     1
 91
        0
 64
     7
 65
   257
 75
     1
175
     1
 42
1.0
 92
        0
 66
   257
 43
1.0
 76
     1
 77
     6
 78
     2
 67
     7
 79
     5
170
     0
171
     0
290
     0
174
     0
 93
       13
 44
0.0
173
     0
291
     1
 45
0.0
1001
ACAD
1000
AcDbSavedByObjectVersion
1070
     0
  0
VISUALSTYLE
  5
2D
102
{ACAD_XDICTIONARY
360
64F
102
}
102
{ACAD_REACTORS
330
2A
102
}
330
2A
100
AcDbVisualStyle
  2

 70
     2
 71
     2
 72
     2
 73
     1
 90
        2
 40
-0.6
 41
30.0
 62
     5
 63
     7
 74
     0
 91
        0
 64
     7
 65
   257
 75
     1
175
     1
 42
1.0
 92
        0
 66
     7
 43
1.0
 76
     1
 77
     6
 78
     2
 67
     7
 79
     5
170
     0
171
     0
290
     0
174
     0
 93
       13
 44
0.0
173
     0
291
     1
 45
0.0
1001
ACAD
1000
AcDbSavedByObjectVersion
1070
     0
  0
VISUALSTYLE
  5
2E
102
{ACAD_XDICTIONARY
360
651
102
}
102
{ACAD_REACTORS
330
2A
102
}
330
2A
100
AcDbVisualStyle
  2

 70
     3
 71
     2
 72
     2
 73
     1
 90
        2
 40
-0.6
 41
30.0
 62
     5
 63
     7
 74
     1
 91
        0
 64
     7
 65
   257
 75
     1
175
     1
 42
1.0
 92
        0
 66
   257
 43
1.0
 76
     1
 77
     6
 78
     2
 67
     7
 79
     5
170
     0
171
     0
290
     0
174
     0
 93
       13
 44
0.0
173
     0
291
     1
 45
0.0
1001
ACAD
1000
AcDbSavedByObjectVersion
1070
     0
  0
VISUALSTYLE
  5
31
102
{ACAD_XDICTIONARY
360
657
102
}
102
{ACAD_REACTORS
330
2A
102
}
330
2A
100
AcDbVisualStyle
  2

 70
     6
 71
     1
 72
     2
 73
     2
 90
        0
 40
-0.6
 41
-30.0
 62
     5
 63
     7
 74
     2
 91
        2
 64
     7
 65
   257
 75
     2
175
     1
 42
40.0
 92
        0
 66
   257
 43
1.0
 76
     1
 77
     6
 78
     2
 67
     7
 79
     3
170
     0
171
     0
290
     0
174
     0
 93
        1
 44
0.0
173
     0
291
     0
 45
0.0
1001
ACAD
1000
AcDbSavedByObjectVersion
1070
     0
  0
VISUALSTYLE
  5
3B
102
{ACAD_XDICTIONARY
360
66B
102
}
102
{ACAD_REACTORS
330
2A
102
}
330
2A
100
AcDbVisualStyle
  2

 70
    20
 71
     2
 72
     2
 73
     0
 90
        0
 40
-0.6
 41
-30.0
 62
     5
 63
     7
 74
     1
 91
        4
 64
     7
 65
   257
 75
     1
175
     1
 42
1.0
 92
       10
 66
     7
 43
1.0
 76
     1
 77
     6
 78
     2
 67
     7
 79
     5
170
     0
171
     0
290
     0
174
     0
 93
        1
 44
0.0
173
     0
291
     1
 45
0.0
1001
ACAD
1000
AcDbSavedByObjectVersion
1070
     0
  0
VISUALSTYLE
  5
38
102
{ACAD_XDICTIONARY
360
665
102
}
102
{ACAD_REACTORS
330
2A
102
}
330
2A
100
AcDbVisualStyle
  2

 70
    14
 71
     2
 72
     2
 73
     0
 90
        0
 40
-0.6
 41
-30.0
 62
     5
 63
     7
 74
     1
 91
        4
 64
     7
 65
   257
 75
     7
175
     7
 42
1.0
 92
        8
 66
     7
 43
1.0
 76
     1
 77
     6
 78
     2
 67
     7
 79
     5
170
     0
171
     0
290
     0
174
     0
 93
        1
 44
0.0
173
     0
291
     1
 45
0.0
1001
ACAD
1000
AcDbSavedByObjectVersion
1070
     0
  0
VISUALSTYLE
  5
3C
102
{ACAD_XDICTIONARY
360
66D
102
}
102
{ACAD_REACTORS
330
2A
102
}
330
2A
100
AcDbVisualStyle
  2

 70
    21
 71
     2
 72
     2
 73
     0
 90
        0
 40
-0.6
 41
-30.0
 62
     5
 63
     7
 74
     1
 91
        4
 64
     7
 65
   257
 75
     1
175
     1
 42
1.0
 92
        9
 66
     7
 43
1.0
 76
     1
 77
     6
 78
     2
 67
     7
 79
     5
170
     0
171
     0
290
     0
174
     0
 93
        1
 44
0.0
173
     0
291
     1
 45
0.0
1001
ACAD
1000
AcDbSavedByObjectVersion
1070
     0
  0
VISUALSTYLE
  5
33
102
{ACAD_XDICTIONARY
360
65B
102
}
102
{ACAD_REACTORS
330
2A
102
}
330
2A
100
AcDbVisualStyle
  2

 70
     8
 71
     2
 72
     3
 73
     0
 90
        2
 40
-0.6
 41
30.0
 62
     5
 63
     7
 74
     0
 91
        0
 64
     7
 65
   257
 75
     1
175
     1
 42
1.0
 92
        8
 66
   257
 43
1.0
 76
     1
 77
     6
 78
     2
 67
     7
 79
     3
170
     0
171
     0
290
     0
174
     0
 93
       13
 44
0.0
173
     0
291
     0
 45
0.0
1001
ACAD
1000
AcDbSavedByObjectVersion
1070
     0
  0
VISUALSTYLE
  5
42
102
{ACAD_XDICTIONARY
360
679
102
}
102
{ACAD_REACTORS
330
2A
102
}
330
2A
100
AcDbVisualStyle
  2

 70
    27
 71
     2
 72
     2
 73
     1
 90
        2
 40
-0.6
 41
30.0
 62
     5
 63
     7
 74
     0
 91
        4
 64
     7
 65
   257
 75
     1
175
     1
 42
1.0
 92
        8
 66
   257
 43
1.0
 76
     1
 77
     6
 78
     2
 67
     8
 79
     3
170
     0
171
     0
290
     0
174
     0
 93
        5
 44
0.0
173
     0
291
     0
 45
0.0
1001
ACAD
1000
AcDbSavedByObjectVersion
1070
     0
  0
VISUALSTYLE
  5
41
102
{ACAD_XDICTIONARY
360
677
102
}
102
{ACAD_REACTORS
330
2A
102
}
330
2A
100
AcDbVisualStyle
  2

 70
    26
 71
     2
 72
     2
 73
     1
 90
        2
 40
-0.6
 41
30.0
 62
     5
 63
     7
 74
     1
 91
       10
 64
     7
 65
   257
 75
     2
175
     1
 42
1.0
 92
        8
 66
   257
 43
1.0
 76
     1
 77
     6
 78
     2
 67
     7
 79
     3
170
     0
171
     0
290
     0
174
     0
 93
        5
 44
0.0
173
     0
291
     0
 45
0.0
1001
ACAD
1000
AcDbSavedByObjectVersion
1070
     0
  0
VISUALSTYLE
  5
3E
102
{ACAD_XDICTIONARY
360
671
102
}
102
{ACAD_REACTORS
330
2A
102
}
330
2A
100
AcDbVisualStyle
  2

 70
    23
 71
     2
 72
     2
 73
     3
 90
        0
 40
-0.6
 41
-30.0
 62
     5
 63
     7
 74
     2
 91
        2
 64
     7
 65
     7
 75
     1
175
     1
 42
40.0
 92
        8
 66
     7
 43
1.0
 76
     1
 77
     6
 78
     2
 67
     7
 79
     3
170
     0
171
     0
290
     0
174
     0
 93
        1
 44
0.0
173
     0
291
     0
 45
0.0
1001
ACAD
1000
AcDbSavedByObjectVersion
1070
     0
  0
VISUALSTYLE
  5
3F
102
{ACAD_XDICTIONARY
360
673
102
}
102
{ACAD_REACTORS
330
2A
102
}
330
2A
100
AcDbVisualStyle
  2

 70
    24
 71
     1
 72
     2
 73
     2
 90
        0
 40
-0.6
 41
-30.0
 62
     5
 63
     7
 74
     2
 91
        2
 64
     7
 65
     7
 75
     1
175
     1
 42
40.0
 92
       11
 66
     7
 43
1.0
 76
     1
 77
     6
 78
     2
 67
     7
 79
     6
170
     0
171
     0
290
     0
174
     0
 93
        1
 44
0.0
173
     0
291
     0
 45
0.0
1001
ACAD
1000
AcDbSavedByObjectVersion
1070
     0
  0
VISUALSTYLE
  5
37
102
{ACAD_XDICTIONARY
360
663
102
}
102
{ACAD_REACTORS
330
2A
102
}
330
2A
100
AcDbVisualStyle
  2

 70
    13
 71
     2
 72
     2
 73
     0
 90
        0
 40
-0.6
 41
-30.0
 62
     5
 63
     7
 74
     1
 91
        4
 64
     7
 65
   257
 75
     1
175
     1
 42
1.0
 92
       12
 66
     7
 43
1.0
 76
     1
 77
     6
 78
     2
 67
     7
 79
     5
170
     0
171
     0
290
     0
174
     0
 93
        1
 44
0.0
173
     0
291
     1
 45
0.0
1001
ACAD
1000
AcDbSavedByObjectVersion
1070
     0
  0
VISUALSTYLE
  5
30
102
{ACAD_XDICTIONARY
360
655
102
}
102
{ACAD_REACTORS
330
2A
102
}
330
2A
100
AcDbVisualStyle
  2

 70
     5
 71
     0
 72
     2
 73
     0
 90
        0
 40
-0.6
 41
-30.0
 62
     5
 63
     7
 74
     1
 91
        4
 64
     7
 65
   257
 75
     1
175
     1
 42
1.0
 92
        0
 66
   257
 43
1.0
 76
     1
 77
     6
 78
     2
 67
     7
 79
     3
170
     0
171
     0
290
     0
174
     0
 93
        1
 44
0.0
173
     0
291
     0
 45
0.0
1001
ACAD
1000
AcDbSavedByObjectVersion
1070
     0
  0
VISUALSTYLE
  5
40
102
{ACAD_XDICTIONARY
360
675
102
}
102
{ACAD_REACTORS
330
2A
102
}
330
2A
100
AcDbVisualStyle
  2

 70
    25
 71
     2
 72
     2
 73
     1
 90
        1
 40
0.5
 41
-30.0
 62
     5
 63
     7
 74
     1
 91
        0
 64
     7
 65
   257
 75
     1
175
     1
 42
1.0
 92
        8
 66
     7
 43
1.0
 76
     1
 77
     6
 78
     2
 67
     7
 79
     3
170
     0
171
     0
290
     0
174
     0
 93
       13
 44
0.0
173
     0
291
     0
 45
0.0
1001
ACAD
1000
AcDbSavedByObjectVersion
1070
     0
  0
DICTIONARYVAR
  5
2E0
102
{ACAD_REACTORS
330
2DF
102
}
330
2DF
100
DictionaryVariables
280
     0
  1
1:1
  0
DICTIONARYVAR
  5
321
102
{ACAD_REACTORS
330
2DF
102
}
330
2DF
100
DictionaryVariables
280
     0
  1
STANDARD
  0
DICTIONARYVAR
  5
320
102
{ACAD_REACTORS
330
2DF
102
}
330
2DF
100
DictionaryVariables
280
     0
  1
STANDARD
  0
DICTIONARYVAR
  5
63A
102
{ACAD_REACTORS
330
2DF
102
}
330
2DF
100
DictionaryVariables
280
     0
  1
Metric50
  0
DICTIONARYVAR
  5
63B
102
{ACAD_REACTORS
330
2DF
102
}
330
2DF
100
DictionaryVariables
280
     0
  1
Metric50
  0
DICTIONARYVAR
  5
63F
102
{ACAD_REACTORS
330
2DF
102
}
330
2DF
100
DictionaryVariables
280
     0
  1
2
  0
DICTIONARYVAR
  5
63E
102
{ACAD_REACTORS
330
2DF
102
}
330
2DF
100
DictionaryVariables
280
     0
  1
1
  0
DICTIONARYVAR
  5
63D
102
{ACAD_REACTORS
330
2DF
102
}
330
2DF
100
DictionaryVariables
280
     0
  1
0
  0
DICTIONARYVAR
  5
2E1
102
{ACAD_REACTORS
330
2DF
102
}
330
2DF
100
DictionaryVariables
280
     0
  1
1
  0
DICTIONARYVAR
  5
63C
102
{ACAD_REACTORS
330
2DF
102
}
330
2DF
100
DictionaryVariables
280
     0
  1
127
  0
DICTIONARYVAR
  5
640
102
{ACAD_REACTORS
330
2DF
102
}
330
2DF
100
DictionaryVariables
280
     0
  1
2
  0
DICTIONARY
  5
67E
330
629
100
AcDbDictionary
280
     1
281
     1
  3
ACAD_XREC_ROUNDTRIP
360
67F
  0
DICTIONARY
  5
645
330
1E
100
AcDbDictionary
280
     1
281
     1
  3
ACAD_XREC_ROUNDTRIP
360
646
  0
DICTIONARY
  5
649
330
26
100
AcDbDictionary
280
     1
281
     1
  3
ACAD_XREC_ROUNDTRIP
360
64A
  0
DICTIONARY
  5
647
330
22
100
AcDbDictionary
280
     1
281
     1
  3
ACAD_XREC_ROUNDTRIP
360
648
  0
DICTIONARY
  5
315
330
45
100
AcDbDictionary
280
     1
281
     1
  3
ACAD_XREC_ROUNDTRIP
360
316
  0
DICTIONARY
  5
313
330
44
100
AcDbDictionary
280
     1
281
     1
  3
ACAD_XREC_ROUNDTRIP
360
314
  0
DICTIONARY
  5
317
330
46
100
AcDbDictionary
280
     1
281
     1
  3
ACAD_XREC_ROUNDTRIP
360
318
  0
DICTIONARY
  5
67C
330
628
100
AcDbDictionary
280
     1
281
     1
  3
ACAD_XREC_ROUNDTRIP
360
67D
  0
DICTIONARY
  5
319
330
6A
100
AcDbDictionary
280
     1
281
     1
  3
ACAD_ROUNDTRIP_2008_TABLESTYLE_CELLSTYLEMAP
360
642
  3
ACAD_XREC_ROUNDTRIP
360
67B
  0
DICTIONARY
  5
653
330
2F
100
AcDbDictionary
280
     1
281
     1
  3
ACAD_XREC_ROUNDTRIP
360
654
  0
DICTIONARY
  5
659
330
32
100
AcDbDictionary
280
     1
281
     1
  3
ACAD_XREC_ROUNDTRIP
360
65A
  0
DICTIONARY
  5
661
330
36
100
AcDbDictionary
280
     1
281
     1
  3
ACAD_XREC_ROUNDTRIP
360
662
  0
DICTIONARY
  5
669
330
3A
100
AcDbDictionary
280
     1
281
     1
  3
ACAD_XREC_ROUNDTRIP
360
66A
  0
DICTIONARY
  5
65D
330
34
100
AcDbDictionary
280
     1
281
     1
  3
ACAD_XREC_ROUNDTRIP
360
65E
  0
DICTIONARY
  5
65F
330
35
100
AcDbDictionary
280
     1
281
     1
  3
ACAD_XREC_ROUNDTRIP
360
660
  0
DICTIONARY
  5
66F
330
3D
100
AcDbDictionary
280
     1
281
     1
  3
ACAD_XREC_ROUNDTRIP
360
670
  0
DICTIONARY
  5
667
330
39
100
AcDbDictionary
280
     1
281
     1
  3
ACAD_XREC_ROUNDTRIP
360
668
  0
DICTIONARY
  5
64B
330
2B
100
AcDbDictionary
280
     1
281
     1
  3
ACAD_XREC_ROUNDTRIP
360
64C
  0
DICTIONARY
  5
64D
330
2C
100
AcDbDictionary
280
     1
281
     1
  3
ACAD_XREC_ROUNDTRIP
360
64E
  0
DICTIONARY
  5
64F
330
2D
100
AcDbDictionary
280
     1
281
     1
  3
ACAD_XREC_ROUNDTRIP
360
650
  0
DICTIONARY
  5
651
330
2E
100
AcDbDictionary
280
     1
281
     1
  3
ACAD_XREC_ROUNDTRIP
360
652
  0
DICTIONARY
  5
657
330
31
100
AcDbDictionary
280
     1
281
     1
  3
ACAD_XREC_ROUNDTRIP
360
658
  0
DICTIONARY
  5
66B
330
3B
100
AcDbDictionary
280
     1
281
     1
  3
ACAD_XREC_ROUNDTRIP
360
66C
  0
DICTIONARY
  5
665
330
38
100
AcDbDictionary
280
     1
281
     1
  3
ACAD_XREC_ROUNDTRIP
360
666
  0
DICTIONARY
  5
66D
330
3C
100
AcDbDictionary
280
     1
281
     1
  3
ACAD_XREC_ROUNDTRIP
360
66E
  0
DICTIONARY
  5
65B
330
33
100
AcDbDictionary
280
     1
281
     1
  3
ACAD_XREC_ROUNDTRIP
360
65C
  0
DICTIONARY
  5
679
330
42
100
AcDbDictionary
280
     1
281
     1
  3
ACAD_XREC_ROUNDTRIP
360
67A
  0
DICTIONARY
  5
677
330
41
100
AcDbDictionary
280
     1
281
     1
  3
ACAD_XREC_ROUNDTRIP
360
678
  0
DICTIONARY
  5
671
330
3E
100
AcDbDictionary
280
     1
281
     1
  3
ACAD_XREC_ROUNDTRIP
360
672
  0
DICTIONARY
  5
673
330
3F
100
AcDbDictionary
280
     1
281
     1
  3
ACAD_XREC_ROUNDTRIP
360
674
  0
DICTIONARY
  5
663
330
37
100
AcDbDictionary
280
     1
281
     1
  3
ACAD_XREC_ROUNDTRIP
360
664
  0
DICTIONARY
  5
655
330
30
100
AcDbDictionary
280
     1
281
     1
  3
ACAD_XREC_ROUNDTRIP
360
656
  0
DICTIONARY
  5
675
330
40
100
AcDbDictionary
280
     1
281
     1
  3
ACAD_XREC_ROUNDTRIP
360
676
  0
XRECORD
  5
67F
102
{ACAD_REACTORS
330
67E
102
}
330
67E
100
AcDbXrecord
280
     1
102
DISPLAYNAME
  1
Metric50
102
FLAGS
 90
        0
  0
XRECORD
  5
646
102
{ACAD_REACTORS
330
645
102
}
330
645
100
AcDbXrecord
280
     1
102
SHADEPLOT
 70
     0
102
SHADEPLOTRESLEVEL
 70
     2
102
SHADEPLOTCUSTOMDPI
 70
   300
  0
XRECORD
  5
64A
102
{ACAD_REACTORS
330
649
102
}
330
649
100
AcDbXrecord
280
     1
102
SHADEPLOT
 70
     0
102
SHADEPLOTRESLEVEL
 70
     2
102
SHADEPLOTCUSTOMDPI
 70
   300
  0
XRECORD
  5
648
102
{ACAD_REACTORS
330
647
102
}
330
647
100
AcDbXrecord
280
     1
102
SHADEPLOT
 70
     0
102
SHADEPLOTRESLEVEL
 70
     2
102
SHADEPLOTCUSTOMDPI
 70
   300
  0
XRECORD
  5
316
102
{ACAD_REACTORS
330
315
102
}
330
315
100
AcDbXrecord
280
     1
102
MATERIAL
148
0.0
149
0.0
149
0.0
 93
        0
 94
      127
282
     0
 72
     1
 77
     1
171
     1
175
     1
179
     1
273
     0
  0
XRECORD
  5
314
102
{ACAD_REACTORS
330
313
102
}
330
313
100
AcDbXrecord
280
     1
102
MATERIAL
148
0.0
149
0.0
149
0.0
 93
        0
 94
      127
282
     0
 72
     1
 77
     1
171
     1
175
     1
179
     1
273
     0
  0
XRECORD
  5
318
102
{ACAD_REACTORS
330
317
102
}
330
317
100
AcDbXrecord
280
     1
102
MATERIAL
148
0.0
149
0.0
149
0.0
 93
        0
 94
      127
282
     0
 72
     1
 77
     1
171
     1
175
     1
179
     1
273
     0
  0
XRECORD
  5
67D
102
{ACAD_REACTORS
330
67C
102
}
330
67C
100
AcDbXrecord
280
     1
102
DISPLAYNAME
  1
Metric50
102
FLAGS
 90
        0
  0
CELLSTYLEMAP
  5
642
102
{ACAD_REACTORS
330
319
102
}
330
319
100
AcDbCellStyleMap
 90
        3
300
CELLSTYLE
  1
TABLEFORMAT_BEGIN
 90
        5
170
     1
 91
        0
 92
    32768
 62
   257
 93
        1
300
CONTENTFORMAT
  1
CONTENTFORMAT_BEGIN
 90
        0
 91
        0
 92
        4
 93
        0
300

 40
0.0
140
1.0
 94
        5
 62
     0
340
11
144
0.25
309
CONTENTFORMAT_END
171
     1
301
MARGIN
  1
CELLMARGIN_BEGIN
 40
0.06
 40
0.06
 40
0.06
 40
0.06
 40
0.18
 40
0.18
309
CELLMARGIN_END
 94
        6
 95
        1
302
GRIDFORMAT
  1
GRIDFORMAT_BEGIN
 90
        0
 91
        1
 62
     0
 92
       -2
340
14
 93
        0
 40
0.045
309
GRIDFORMAT_END
 95
        2
302
GRIDFORMAT
  1
GRIDFORMAT_BEGIN
 90
        0
 91
        1
 62
     0
 92
       -2
340
14
 93
        0
 40
0.045
309
GRIDFORMAT_END
 95
        4
302
GRIDFORMAT
  1
GRIDFORMAT_BEGIN
 90
        0
 91
        1
 62
     0
 92
       -2
340
14
 93
        0
 40
0.045
309
GRIDFORMAT_END
 95
        8
302
GRIDFORMAT
  1
GRIDFORMAT_BEGIN
 90
        0
 91
        1
 62
     0
 92
       -2
340
14
 93
        0
 40
0.045
309
GRIDFORMAT_END
 95
       16
302
GRIDFORMAT
  1
GRIDFORMAT_BEGIN
 90
        0
 91
        1
 62
     0
 92
       -2
340
14
 93
        0
 40
0.045
309
GRIDFORMAT_END
 95
       32
302
GRIDFORMAT
  1
GRIDFORMAT_BEGIN
 90
        0
 91
        1
 62
     0
 92
       -2
340
14
 93
        0
 40
0.045
309
GRIDFORMAT_END
309
TABLEFORMAT_END
  1
CELLSTYLE_BEGIN
 90
        1
 91
        1
300
_TITLE
309
CELLSTYLE_END
300
CELLSTYLE
  1
TABLEFORMAT_BEGIN
 90
        5
170
     1
 91
        0
 92
        0
 62
   257
 93
        1
300
CONTENTFORMAT
  1
CONTENTFORMAT_BEGIN
 90
        0
 91
        0
 92
        4
 93
        0
300

 40
0.0
140
1.0
 94
        5
 62
     0
340
11
144
0.18
309
CONTENTFORMAT_END
171
     1
301
MARGIN
  1
CELLMARGIN_BEGIN
 40
0.06
 40
0.06
 40
0.06
 40
0.06
 40
0.18
 40
0.18
309
CELLMARGIN_END
 94
        6
 95
        1
302
GRIDFORMAT
  1
GRIDFORMAT_BEGIN
 90
        0
 91
        1
 62
     0
 92
       -2
340
14
 93
        0
 40
0.045
309
GRIDFORMAT_END
 95
        2
302
GRIDFORMAT
  1
GRIDFORMAT_BEGIN
 90
        0
 91
        1
 62
     0
 92
       -2
340
14
 93
        0
 40
0.045
309
GRIDFORMAT_END
 95
        4
302
GRIDFORMAT
  1
GRIDFORMAT_BEGIN
 90
        0
 91
        1
 62
     0
 92
       -2
340
14
 93
        0
 40
0.045
309
GRIDFORMAT_END
 95
        8
302
GRIDFORMAT
  1
GRIDFORMAT_BEGIN
 90
        0
 91
        1
 62
     0
 92
       -2
340
14
 93
        0
 40
0.045
309
GRIDFORMAT_END
 95
       16
302
GRIDFORMAT
  1
GRIDFORMAT_BEGIN
 90
        0
 91
        1
 62
     0
 92
       -2
340
14
 93
        0
 40
0.045
309
GRIDFORMAT_END
 95
       32
302
GRIDFORMAT
  1
GRIDFORMAT_BEGIN
 90
        0
 91
        1
 62
     0
 92
       -2
340
14
 93
        0
 40
0.045
309
GRIDFORMAT_END
309
TABLEFORMAT_END
  1
CELLSTYLE_BEGIN
 90
        2
 91
        1
300
_HEADER
309
CELLSTYLE_END
300
CELLSTYLE
  1
TABLEFORMAT_BEGIN
 90
        5
170
     1
 91
        0
 92
        0
 62
   257
 93
        1
300
CONTENTFORMAT
  1
CONTENTFORMAT_BEGIN
 90
        0
 91
        0
 92
        4
 93
        0
300

 40
0.0
140
1.0
 94
        2
 62
     0
340
11
144
0.18
309
CONTENTFORMAT_END
171
     1
301
MARGIN
  1
CELLMARGIN_BEGIN
 40
0.06
 40
0.06
 40
0.06
 40
0.06
 40
0.18
 40
0.18
309
CELLMARGIN_END
 94
        6
 95
        1
302
GRIDFORMAT
  1
GRIDFORMAT_BEGIN
 90
        0
 91
        1
 62
     0
 92
       -2
340
14
 93
        0
 40
0.045
309
GRIDFORMAT_END
 95
        2
302
GRIDFORMAT
  1
GRIDFORMAT_BEGIN
 90
        0
 91
        1
 62
     0
 92
       -2
340
14
 93
        0
 40
0.045
309
GRIDFORMAT_END
 95
        4
302
GRIDFORMAT
  1
GRIDFORMAT_BEGIN
 90
        0
 91
        1
 62
     0
 92
       -2
340
14
 93
        0
 40
0.045
309
GRIDFORMAT_END
 95
        8
302
GRIDFORMAT
  1
GRIDFORMAT_BEGIN
 90
        0
 91
        1
 62
     0
 92
       -2
340
14
 93
        0
 40
0.045
309
GRIDFORMAT_END
 95
       16
302
GRIDFORMAT
  1
GRIDFORMAT_BEGIN
 90
        0
 91
        1
 62
     0
 92
       -2
340
14
 93
        0
 40
0.045
309
GRIDFORMAT_END
 95
       32
302
GRIDFORMAT
  1
GRIDFORMAT_BEGIN
 90
        0
 91
        1
 62
     0
 92
       -2
340
14
 93
        0
 40
0.045
309
GRIDFORMAT_END
309
TABLEFORMAT_END
  1
CELLSTYLE_BEGIN
 90
        3
 91
        2
300
_DATA
309
CELLSTYLE_END
  0
XRECORD
  5
67B
102
{ACAD_REACTORS
330
319
102
}
330
319
100
AcDbXrecord
280
     1
102
ACAD_ROUNDTRIP_PRE2007_TABLESTYLE
 90
        4
 91
        0
  1

 92
        4
 93
        0
  2

 94
        4
 95
        0
  3

  0
XRECORD
  5
654
102
{ACAD_REACTORS
330
653
102
}
330
653
100
AcDbXrecord
280
     1
102
RTVSPost2010Prop28
280
     1
102
RTVSPost2010PropOp28
 70
     1
102
RTVSPost2010Prop29
280
     1
102
RTVSPost2010PropOp29
 70
     1
102
RTVSPost2010Prop30
280
     0
102
RTVSPost2010PropOp30
 70
     1
102
RTVSPost2010Prop31
280
     0
102
RTVSPost2010PropOp31
 70
     1
102
RTVSPost2010Prop32
280
     0
102
RTVSPost2010PropOp32
 70
     1
102
RTVSPost2010Prop33
280
     0
102
RTVSPost2010PropOp33
 70
     1
102
RTVSPost2010Prop34
280
     0
102
RTVSPost2010PropOp34
 70
     1
102
RTVSPost2010Prop35
280
     0
102
RTVSPost2010PropOp35
 70
     1
102
RTVSPost2010Prop36
280
     0
102
RTVSPost2010PropOp36
 70
     1
102
RTVSPost2010Prop37
 90
       50
102
RTVSPost2010PropOp37
 70
     1
102
RTVSPost2010Prop38
140
0.0
102
RTVSPost2010PropOp38
 70
     1
102
RTVSPost2010Prop39
140
1.0
102
RTVSPost2010PropOp39
 70
     1
102
RTVSPost2010Prop40
 90
        0
102
RTVSPost2010PropOp40
 70
     1
102
RTVSPost2010Prop41ColorIndex
 90
       18
102
RTVSPost2010Prop41ColorRGB
 90
        0
102
RTVSPost2010PropOp41
 70
     1
102
RTVSPost2010Prop42
 90
       50
102
RTVSPost2010PropOp42
 70
     1
102
RTVSPost2010Prop43
 90
        3
102
RTVSPost2010PropOp43
 70
     1
102
RTVSPost2010Prop44ColorIndex
 90
        5
102
RTVSPost2010Prop44ColorRGB
 90
      255
102
RTVSPost2010PropOp44
 70
     1
102
RTVSPost2010Prop45
280
     0
102
RTVSPost2010PropOp45
 70
     1
102
RTVSPost2010Prop46
 90
       50
102
RTVSPost2010PropOp46
 70
     1
102
RTVSPost2010Prop47
 90
       50
102
RTVSPost2010PropOp47
 70
     1
102
RTVSPost2010Prop48
 90
       50
102
RTVSPost2010PropOp48
 70
     1
102
RTVSPost2010Prop49
280
     0
102
RTVSPost2010PropOp49
 70
     1
102
RTVSPost2010Prop50
 90
       50
102
RTVSPost2010PropOp50
 70
     1
102
RTVSPost2010Prop51ColorIndex
 90
      256
102
RTVSPost2010Prop51ColorRGB
 90
-16777216
102
RTVSPost2010PropOp51
 70
     0
102
RTVSPost2010Prop52
140
1.0
102
RTVSPost2010PropOp52
 70
     0
102
RTVSPost2010Prop53
 90
        2
102
RTVSPost2010PropOp53
 70
     1
102
RTVSPost2010Prop54
  1
strokes_ogs.tif
102
RTVSPost2010PropOp54
 70
     1
102
RTVSPost2010Prop55
280
     0
102
RTVSPost2010PropOp55
 70
     1
102
RTVSPost2010Prop56
140
1.0
102
RTVSPost2010PropOp56
 70
     1
102
RTVSPost2010Prop57
140
1.0
102
RTVSPost2010PropOp57
 70
     1
102
RTVSPropertyOp0
 70
     1
102
RTVSPropertyOp1
 70
     1
102
RTVSPropertyOp2
 70
     1
102
RTVSPropertyOp3
 70
     1
102
RTVSPropertyOp4
 70
     1
102
RTVSPropertyOp5
 70
     1
102
RTVSPropertyOp6
 70
     1
102
RTVSPropertyOp7
 70
     1
102
RTVSPropertyOp8
 70
     1
102
RTVSPropertyOp9
 70
     1
102
RTVSPropertyOp10
 70
     1
102
RTVSPropertyOp11
 70
     1
102
RTVSPropertyOp12
 70
     1
102
RTVSPropertyOp13
 70
     1
102
RTVSPropertyOp14
 70
     1
102
RTVSPropertyOp15
 70
     1
102
RTVSPropertyOp16
 70
     1
102
RTVSPropertyOp17
 70
     1
102
RTVSPropertyOp18
 70
     1
102
RTVSPropertyOp19
 70
     1
102
RTVSPropertyOp20
 70
     1
102
RTVSPropertyOp21
 70
     1
102
RTVSPropertyOp22
 70
     1
102
RTVSPropertyOp23
 70
     1
102
RTVSPropertyOp24
 70
     1
102
RTVSPropertyOp25
 70
     1
102
RTVSPropertyOp26
 70
     1
102
RTVSPropertyOp27
 70
     1
102
RTVSPropertyOp28
 70
     1
102
RTVSPropertyOp29
 70
     1
102
RTVSPropertyOp30
 70
     1
102
RTVSPropertyOp31
 70
     1
102
RTVSPropertyOp32
 70
     1
102
RTVSPropertyOp33
 70
     1
102
RTVSPropertyOp34
 70
     1
102
RTVSPropertyOp35
 70
     1
102
RTVSPropertyOp36
 70
     1
102
RTVSPropertyOp37
 70
     1
102
RTVSPropertyOp38
 70
     1
102
RTVSPropertyOp39
 70
     1
102
RTVSPropertyOp40
 70
     1
102
RTVSPropertyOp41
 70
     1
102
RTVSPropertyOp42
 70
     1
102
RTVSPropertyOp43
 70
     1
102
RTVSPropertyOp44
 70
     1
102
RTVSPropertyOp45
 70
     1
102
RTVSPropertyOp46
 70
     1
102
RTVSPropertyOp47
 70
     1
102
RTVSPropertyOp48
 70
     1
102
RTVSPropertyOp49
 70
     1
102
RTVSPropertyOp50
 70
     1
102
RTVSPropertyOp51
 70
     0
102
RTVSPropertyOp52
 70
     0
102
RTVSPropertyOp53
 70
     1
102
RTVSPropertyOp54
 70
     1
102
RTVSPropertyOp55
 70
     1
102
RTVSPropertyOp56
 70
     1
102
RTVSPropertyOp57
 70
     1
102
RTVSPropertyOp58
 70
     1
102
RTVSPropertyOp59
 70
     1
102
RTVSPropertyOp60
 70
     1
102
RTVSPropertyOp61
 70
     1
102
RTVSPropertyOp62
 70
     1
  0
XRECORD
  5
65A
102
{ACAD_REACTORS
330
659
102
}
330
659
100
AcDbXrecord
280
     1
102
RTVSPost2010Prop28
280
     0
102
RTVSPost2010PropOp28
 70
     1
102
RTVSPost2010Prop29
280
     1
102
RTVSPost2010PropOp29
 70
     1
102
RTVSPost2010Prop30
280
     1
102
RTVSPost2010PropOp30
 70
     1
102
RTVSPost2010Prop31
280
     0
102
RTVSPost2010PropOp31
 70
     1
102
RTVSPost2010Prop32
280
     0
102
RTVSPost2010PropOp32
 70
     1
102
RTVSPost2010Prop33
280
     0
102
RTVSPost2010PropOp33
 70
     1
102
RTVSPost2010Prop34
280
     0
102
RTVSPost2010PropOp34
 70
     1
102
RTVSPost2010Prop35
280
     0
102
RTVSPost2010PropOp35
 70
     1
102
RTVSPost2010Prop36
280
     0
102
RTVSPost2010PropOp36
 70
     1
102
RTVSPost2010Prop37
 90
       50
102
RTVSPost2010PropOp37
 70
     1
102
RTVSPost2010Prop38
140
0.0
102
RTVSPost2010PropOp38
 70
     1
102
RTVSPost2010Prop39
140
1.0
102
RTVSPost2010PropOp39
 70
     1
102
RTVSPost2010Prop40
 90
        0
102
RTVSPost2010PropOp40
 70
     1
102
RTVSPost2010Prop41ColorIndex
 90
       18
102
RTVSPost2010Prop41ColorRGB
 90
        0
102
RTVSPost2010PropOp41
 70
     1
102
RTVSPost2010Prop42
 90
       50
102
RTVSPost2010PropOp42
 70
     1
102
RTVSPost2010Prop43
 90
        3
102
RTVSPost2010PropOp43
 70
     1
102
RTVSPost2010Prop44ColorIndex
 90
        5
102
RTVSPost2010Prop44ColorRGB
 90
      255
102
RTVSPost2010PropOp44
 70
     1
102
RTVSPost2010Prop45
280
     0
102
RTVSPost2010PropOp45
 70
     1
102
RTVSPost2010Prop46
 90
       50
102
RTVSPost2010PropOp46
 70
     1
102
RTVSPost2010Prop47
 90
       50
102
RTVSPost2010PropOp47
 70
     1
102
RTVSPost2010Prop48
 90
       50
102
RTVSPost2010PropOp48
 70
     1
102
RTVSPost2010Prop49
280
     0
102
RTVSPost2010PropOp49
 70
     1
102
RTVSPost2010Prop50
 90
       50
102
RTVSPost2010PropOp50
 70
     1
102
RTVSPost2010Prop51ColorIndex
 90
      256
102
RTVSPost2010Prop51ColorRGB
 90
-16777216
102
RTVSPost2010PropOp51
 70
     0
102
RTVSPost2010Prop52
140
1.0
102
RTVSPost2010PropOp52
 70
     0
102
RTVSPost2010Prop53
 90
        2
102
RTVSPost2010PropOp53
 70
     1
102
RTVSPost2010Prop54
  1
strokes_ogs.tif
102
RTVSPost2010PropOp54
 70
     1
102
RTVSPost2010Prop55
280
     0
102
RTVSPost2010PropOp55
 70
     1
102
RTVSPost2010Prop56
140
1.0
102
RTVSPost2010PropOp56
 70
     1
102
RTVSPost2010Prop57
140
1.0
102
RTVSPost2010PropOp57
 70
     1
102
RTVSPropertyOp0
 70
     1
102
RTVSPropertyOp1
 70
     1
102
RTVSPropertyOp2
 70
     1
102
RTVSPropertyOp3
 70
     1
102
RTVSPropertyOp4
 70
     1
102
RTVSPropertyOp5
 70
     1
102
RTVSPropertyOp6
 70
     1
102
RTVSPropertyOp7
 70
     1
102
RTVSPropertyOp8
 70
     1
102
RTVSPropertyOp9
 70
     1
102
RTVSPropertyOp10
 70
     1
102
RTVSPropertyOp11
 70
     1
102
RTVSPropertyOp12
 70
     1
102
RTVSPropertyOp13
 70
     1
102
RTVSPropertyOp14
 70
     1
102
RTVSPropertyOp15
 70
     1
102
RTVSPropertyOp16
 70
     1
102
RTVSPropertyOp17
 70
     1
102
RTVSPropertyOp18
 70
     1
102
RTVSPropertyOp19
 70
     1
102
RTVSPropertyOp20
 70
     1
102
RTVSPropertyOp21
 70
     1
102
RTVSPropertyOp22
 70
     1
102
RTVSPropertyOp23
 70
     1
102
RTVSPropertyOp24
 70
     1
102
RTVSPropertyOp25
 70
     1
102
RTVSPropertyOp26
 70
     1
102
RTVSPropertyOp27
 70
     1
102
RTVSPropertyOp28
 70
     1
102
RTVSPropertyOp29
 70
     1
102
RTVSPropertyOp30
 70
     1
102
RTVSPropertyOp31
 70
     1
102
RTVSPropertyOp32
 70
     1
102
RTVSPropertyOp33
 70
     1
102
RTVSPropertyOp34
 70
     1
102
RTVSPropertyOp35
 70
     1
102
RTVSPropertyOp36
 70
     1
102
RTVSPropertyOp37
 70
     1
102
RTVSPropertyOp38
 70
     1
102
RTVSPropertyOp39
 70
     1
102
RTVSPropertyOp40
 70
     1
102
RTVSPropertyOp41
 70
     1
102
RTVSPropertyOp42
 70
     1
102
RTVSPropertyOp43
 70
     1
102
RTVSPropertyOp44
 70
     1
102
RTVSPropertyOp45
 70
     1
102
RTVSPropertyOp46
 70
     1
102
RTVSPropertyOp47
 70
     1
102
RTVSPropertyOp48
 70
     1
102
RTVSPropertyOp49
 70
     1
102
RTVSPropertyOp50
 70
     1
102
RTVSPropertyOp51
 70
     0
102
RTVSPropertyOp52
 70
     0
102
RTVSPropertyOp53
 70
     1
102
RTVSPropertyOp54
 70
     1
102
RTVSPropertyOp55
 70
     1
102
RTVSPropertyOp56
 70
     1
102
RTVSPropertyOp57
 70
     1
102
RTVSPropertyOp58
 70
     1
102
RTVSPropertyOp59
 70
     1
102
RTVSPropertyOp60
 70
     1
102
RTVSPropertyOp61
 70
     1
102
RTVSPropertyOp62
 70
     1
  0
XRECORD
  5
662
102
{ACAD_REACTORS
330
661
102
}
330
661
100
AcDbXrecord
280
     1
102
RTVSPost2010Prop28
280
     0
102
RTVSPost2010PropOp28
 70
     1
102
RTVSPost2010Prop29
280
     1
102
RTVSPost2010PropOp29
 70
     1
102
RTVSPost2010Prop30
280
     1
102
RTVSPost2010PropOp30
 70
     1
102
RTVSPost2010Prop31
280
     0
102
RTVSPost2010PropOp31
 70
     1
102
RTVSPost2010Prop32
280
     0
102
RTVSPost2010PropOp32
 70
     1
102
RTVSPost2010Prop33
280
     0
102
RTVSPost2010PropOp33
 70
     1
102
RTVSPost2010Prop34
280
     0
102
RTVSPost2010PropOp34
 70
     1
102
RTVSPost2010Prop35
280
     0
102
RTVSPost2010PropOp35
 70
     1
102
RTVSPost2010Prop36
280
     0
102
RTVSPost2010PropOp36
 70
     1
102
RTVSPost2010Prop37
 90
       50
102
RTVSPost2010PropOp37
 70
     1
102
RTVSPost2010Prop38
140
0.0
102
RTVSPost2010PropOp38
 70
     1
102
RTVSPost2010Prop39
140
1.0
102
RTVSPost2010PropOp39
 70
     1
102
RTVSPost2010Prop40
 90
        0
102
RTVSPost2010PropOp40
 70
     1
102
RTVSPost2010Prop41ColorIndex
 90
       18
102
RTVSPost2010Prop41ColorRGB
 90
        0
102
RTVSPost2010PropOp41
 70
     1
102
RTVSPost2010Prop42
 90
       50
102
RTVSPost2010PropOp42
 70
     1
102
RTVSPost2010Prop43
 90
        3
102
RTVSPost2010PropOp43
 70
     1
102
RTVSPost2010Prop44ColorIndex
 90
        5
102
RTVSPost2010Prop44ColorRGB
 90
      255
102
RTVSPost2010PropOp44
 70
     1
102
RTVSPost2010Prop45
280
     0
102
RTVSPost2010PropOp45
 70
     1
102
RTVSPost2010Prop46
 90
       50
102
RTVSPost2010PropOp46
 70
     1
102
RTVSPost2010Prop47
 90
       50
102
RTVSPost2010PropOp47
 70
     1
102
RTVSPost2010Prop48
 90
       50
102
RTVSPost2010PropOp48
 70
     1
102
RTVSPost2010Prop49
280
     0
102
RTVSPost2010PropOp49
 70
     1
102
RTVSPost2010Prop50
 90
       50
102
RTVSPost2010PropOp50
 70
     1
102
RTVSPost2010Prop51ColorIndex
 90
      256
102
RTVSPost2010Prop51ColorRGB
 90
-16777216
102
RTVSPost2010PropOp51
 70
     0
102
RTVSPost2010Prop52
140
1.0
102
RTVSPost2010PropOp52
 70
     0
102
RTVSPost2010Prop53
 90
        2
102
RTVSPost2010PropOp53
 70
     1
102
RTVSPost2010Prop54
  1
strokes_ogs.tif
102
RTVSPost2010PropOp54
 70
     1
102
RTVSPost2010Prop55
280
     0
102
RTVSPost2010PropOp55
 70
     1
102
RTVSPost2010Prop56
140
1.0
102
RTVSPost2010PropOp56
 70
     1
102
RTVSPost2010Prop57
140
1.0
102
RTVSPost2010PropOp57
 70
     1
102
RTVSPropertyOp0
 70
     1
102
RTVSPropertyOp1
 70
     1
102
RTVSPropertyOp2
 70
     1
102
RTVSPropertyOp3
 70
     1
102
RTVSPropertyOp4
 70
     1
102
RTVSPropertyOp5
 70
     1
102
RTVSPropertyOp6
 70
     1
102
RTVSPropertyOp7
 70
     1
102
RTVSPropertyOp8
 70
     1
102
RTVSPropertyOp9
 70
     1
102
RTVSPropertyOp10
 70
     1
102
RTVSPropertyOp11
 70
     1
102
RTVSPropertyOp12
 70
     1
102
RTVSPropertyOp13
 70
     1
102
RTVSPropertyOp14
 70
     1
102
RTVSPropertyOp15
 70
     1
102
RTVSPropertyOp16
 70
     1
102
RTVSPropertyOp17
 70
     1
102
RTVSPropertyOp18
 70
     1
102
RTVSPropertyOp19
 70
     1
102
RTVSPropertyOp20
 70
     1
102
RTVSPropertyOp21
 70
     1
102
RTVSPropertyOp22
 70
     1
102
RTVSPropertyOp23
 70
     1
102
RTVSPropertyOp24
 70
     1
102
RTVSPropertyOp25
 70
     1
102
RTVSPropertyOp26
 70
     1
102
RTVSPropertyOp27
 70
     1
102
RTVSPropertyOp28
 70
     1
102
RTVSPropertyOp29
 70
     1
102
RTVSPropertyOp30
 70
     1
102
RTVSPropertyOp31
 70
     1
102
RTVSPropertyOp32
 70
     1
102
RTVSPropertyOp33
 70
     1
102
RTVSPropertyOp34
 70
     1
102
RTVSPropertyOp35
 70
     1
102
RTVSPropertyOp36
 70
     1
102
RTVSPropertyOp37
 70
     1
102
RTVSPropertyOp38
 70
     1
102
RTVSPropertyOp39
 70
     1
102
RTVSPropertyOp40
 70
     1
102
RTVSPropertyOp41
 70
     1
102
RTVSPropertyOp42
 70
     1
102
RTVSPropertyOp43
 70
     1
102
RTVSPropertyOp44
 70
     1
102
RTVSPropertyOp45
 70
     1
102
RTVSPropertyOp46
 70
     1
102
RTVSPropertyOp47
 70
     1
102
RTVSPropertyOp48
 70
     1
102
RTVSPropertyOp49
 70
     1
102
RTVSPropertyOp50
 70
     1
102
RTVSPropertyOp51
 70
     0
102
RTVSPropertyOp52
 70
     0
102
RTVSPropertyOp53
 70
     1
102
RTVSPropertyOp54
 70
     1
102
RTVSPropertyOp55
 70
     1
102
RTVSPropertyOp56
 70
     1
102
RTVSPropertyOp57
 70
     1
102
RTVSPropertyOp58
 70
     1
102
RTVSPropertyOp59
 70
     1
102
RTVSPropertyOp60
 70
     1
102
RTVSPropertyOp61
 70
     1
102
RTVSPropertyOp62
 70
     1
  0
XRECORD
  5
66A
102
{ACAD_REACTORS
330
669
102
}
330
669
100
AcDbXrecord
280
     1
102
RTVSPost2010Prop28
280
     0
102
RTVSPost2010PropOp28
 70
     1
102
RTVSPost2010Prop29
280
     1
102
RTVSPost2010PropOp29
 70
     1
102
RTVSPost2010Prop30
280
     1
102
RTVSPost2010PropOp30
 70
     1
102
RTVSPost2010Prop31
280
     0
102
RTVSPost2010PropOp31
 70
     1
102
RTVSPost2010Prop32
280
     0
102
RTVSPost2010PropOp32
 70
     1
102
RTVSPost2010Prop33
280
     0
102
RTVSPost2010PropOp33
 70
     1
102
RTVSPost2010Prop34
280
     0
102
RTVSPost2010PropOp34
 70
     1
102
RTVSPost2010Prop35
280
     0
102
RTVSPost2010PropOp35
 70
     1
102
RTVSPost2010Prop36
280
     0
102
RTVSPost2010PropOp36
 70
     1
102
RTVSPost2010Prop37
 90
       50
102
RTVSPost2010PropOp37
 70
     1
102
RTVSPost2010Prop38
140
0.0
102
RTVSPost2010PropOp38
 70
     1
102
RTVSPost2010Prop39
140
1.0
102
RTVSPost2010PropOp39
 70
     1
102
RTVSPost2010Prop40
 90
        0
102
RTVSPost2010PropOp40
 70
     1
102
RTVSPost2010Prop41ColorIndex
 90
       18
102
RTVSPost2010Prop41ColorRGB
 90
        0
102
RTVSPost2010PropOp41
 70
     1
102
RTVSPost2010Prop42
 90
       50
102
RTVSPost2010PropOp42
 70
     1
102
RTVSPost2010Prop43
 90
        3
102
RTVSPost2010PropOp43
 70
     1
102
RTVSPost2010Prop44ColorIndex
 90
        5
102
RTVSPost2010Prop44ColorRGB
 90
      255
102
RTVSPost2010PropOp44
 70
     1
102
RTVSPost2010Prop45
280
     0
102
RTVSPost2010PropOp45
 70
     1
102
RTVSPost2010Prop46
 90
       50
102
RTVSPost2010PropOp46
 70
     1
102
RTVSPost2010Prop47
 90
       50
102
RTVSPost2010PropOp47
 70
     1
102
RTVSPost2010Prop48
 90
       50
102
RTVSPost2010PropOp48
 70
     1
102
RTVSPost2010Prop49
280
     0
102
RTVSPost2010PropOp49
 70
     1
102
RTVSPost2010Prop50
 90
       50
102
RTVSPost2010PropOp50
 70
     1
102
RTVSPost2010Prop51ColorIndex
 90
      256
102
RTVSPost2010Prop51ColorRGB
 90
-16777216
102
RTVSPost2010PropOp51
 70
     0
102
RTVSPost2010Prop52
140
1.0
102
RTVSPost2010PropOp52
 70
     0
102
RTVSPost2010Prop53
 90
        2
102
RTVSPost2010PropOp53
 70
     1
102
RTVSPost2010Prop54
  1
strokes_ogs.tif
102
RTVSPost2010PropOp54
 70
     1
102
RTVSPost2010Prop55
280
     0
102
RTVSPost2010PropOp55
 70
     1
102
RTVSPost2010Prop56
140
1.0
102
RTVSPost2010PropOp56
 70
     1
102
RTVSPost2010Prop57
140
1.0
102
RTVSPost2010PropOp57
 70
     1
102
RTVSPropertyOp0
 70
     1
102
RTVSPropertyOp1
 70
     1
102
RTVSPropertyOp2
 70
     1
102
RTVSPropertyOp3
 70
     1
102
RTVSPropertyOp4
 70
     1
102
RTVSPropertyOp5
 70
     1
102
RTVSPropertyOp6
 70
     1
102
RTVSPropertyOp7
 70
     1
102
RTVSPropertyOp8
 70
     1
102
RTVSPropertyOp9
 70
     1
102
RTVSPropertyOp10
 70
     1
102
RTVSPropertyOp11
 70
     1
102
RTVSPropertyOp12
 70
     1
102
RTVSPropertyOp13
 70
     1
102
RTVSPropertyOp14
 70
     1
102
RTVSPropertyOp15
 70
     1
102
RTVSPropertyOp16
 70
     1
102
RTVSPropertyOp17
 70
     1
102
RTVSPropertyOp18
 70
     1
102
RTVSPropertyOp19
 70
     1
102
RTVSPropertyOp20
 70
     1
102
RTVSPropertyOp21
 70
     1
102
RTVSPropertyOp22
 70
     1
102
RTVSPropertyOp23
 70
     1
102
RTVSPropertyOp24
 70
     1
102
RTVSPropertyOp25
 70
     1
102
RTVSPropertyOp26
 70
     1
102
RTVSPropertyOp27
 70
     1
102
RTVSPropertyOp28
 70
     1
102
RTVSPropertyOp29
 70
     1
102
RTVSPropertyOp30
 70
     1
102
RTVSPropertyOp31
 70
     1
102
RTVSPropertyOp32
 70
     1
102
RTVSPropertyOp33
 70
     1
102
RTVSPropertyOp34
 70
     1
102
RTVSPropertyOp35
 70
     1
102
RTVSPropertyOp36
 70
     1
102
RTVSPropertyOp37
 70
     1
102
RTVSPropertyOp38
 70
     1
102
RTVSPropertyOp39
 70
     1
102
RTVSPropertyOp40
 70
     1
102
RTVSPropertyOp41
 70
     1
102
RTVSPropertyOp42
 70
     1
102
RTVSPropertyOp43
 70
     1
102
RTVSPropertyOp44
 70
     1
102
RTVSPropertyOp45
 70
     1
102
RTVSPropertyOp46
 70
     1
102
RTVSPropertyOp47
 70
     1
102
RTVSPropertyOp48
 70
     1
102
RTVSPropertyOp49
 70
     1
102
RTVSPropertyOp50
 70
     1
102
RTVSPropertyOp51
 70
     0
102
RTVSPropertyOp52
 70
     0
102
RTVSPropertyOp53
 70
     1
102
RTVSPropertyOp54
 70
     1
102
RTVSPropertyOp55
 70
     1
102
RTVSPropertyOp56
 70
     1
102
RTVSPropertyOp57
 70
     1
102
RTVSPropertyOp58
 70
     1
102
RTVSPropertyOp59
 70
     1
102
RTVSPropertyOp60
 70
     1
102
RTVSPropertyOp61
 70
     1
102
RTVSPropertyOp62
 70
     1
  0
XRECORD
  5
65E
102
{ACAD_REACTORS
330
65D
102
}
330
65D
100
AcDbXrecord
280
     1
102
RTVSPost2010Prop28
280
     0
102
RTVSPost2010PropOp28
 70
     1
102
RTVSPost2010Prop29
280
     1
102
RTVSPost2010PropOp29
 70
     1
102
RTVSPost2010Prop30
280
     1
102
RTVSPost2010PropOp30
 70
     1
102
RTVSPost2010Prop31
280
     0
102
RTVSPost2010PropOp31
 70
     1
102
RTVSPost2010Prop32
280
     0
102
RTVSPost2010PropOp32
 70
     1
102
RTVSPost2010Prop33
280
     0
102
RTVSPost2010PropOp33
 70
     1
102
RTVSPost2010Prop34
280
     0
102
RTVSPost2010PropOp34
 70
     1
102
RTVSPost2010Prop35
280
     0
102
RTVSPost2010PropOp35
 70
     1
102
RTVSPost2010Prop36
280
     0
102
RTVSPost2010PropOp36
 70
     1
102
RTVSPost2010Prop37
 90
       50
102
RTVSPost2010PropOp37
 70
     1
102
RTVSPost2010Prop38
140
0.0
102
RTVSPost2010PropOp38
 70
     1
102
RTVSPost2010Prop39
140
1.0
102
RTVSPost2010PropOp39
 70
     1
102
RTVSPost2010Prop40
 90
        0
102
RTVSPost2010PropOp40
 70
     1
102
RTVSPost2010Prop41ColorIndex
 90
       18
102
RTVSPost2010Prop41ColorRGB
 90
        0
102
RTVSPost2010PropOp41
 70
     1
102
RTVSPost2010Prop42
 90
       50
102
RTVSPost2010PropOp42
 70
     1
102
RTVSPost2010Prop43
 90
        3
102
RTVSPost2010PropOp43
 70
     1
102
RTVSPost2010Prop44ColorIndex
 90
        5
102
RTVSPost2010Prop44ColorRGB
 90
      255
102
RTVSPost2010PropOp44
 70
     1
102
RTVSPost2010Prop45
280
     0
102
RTVSPost2010PropOp45
 70
     1
102
RTVSPost2010Prop46
 90
       50
102
RTVSPost2010PropOp46
 70
     1
102
RTVSPost2010Prop47
 90
       50
102
RTVSPost2010PropOp47
 70
     1
102
RTVSPost2010Prop48
 90
       50
102
RTVSPost2010PropOp48
 70
     1
102
RTVSPost2010Prop49
280
     0
102
RTVSPost2010PropOp49
 70
     1
102
RTVSPost2010Prop50
 90
       50
102
RTVSPost2010PropOp50
 70
     1
102
RTVSPost2010Prop51ColorIndex
 90
      256
102
RTVSPost2010Prop51ColorRGB
 90
-16777216
102
RTVSPost2010PropOp51
 70
     0
102
RTVSPost2010Prop52
140
1.0
102
RTVSPost2010PropOp52
 70
     0
102
RTVSPost2010Prop53
 90
        2
102
RTVSPost2010PropOp53
 70
     1
102
RTVSPost2010Prop54
  1
strokes_ogs.tif
102
RTVSPost2010PropOp54
 70
     1
102
RTVSPost2010Prop55
280
     0
102
RTVSPost2010PropOp55
 70
     1
102
RTVSPost2010Prop56
140
1.0
102
RTVSPost2010PropOp56
 70
     1
102
RTVSPost2010Prop57
140
1.0
102
RTVSPost2010PropOp57
 70
     1
102
RTVSPropertyOp0
 70
     1
102
RTVSPropertyOp1
 70
     1
102
RTVSPropertyOp2
 70
     1
102
RTVSPropertyOp3
 70
     1
102
RTVSPropertyOp4
 70
     1
102
RTVSPropertyOp5
 70
     1
102
RTVSPropertyOp6
 70
     1
102
RTVSPropertyOp7
 70
     1
102
RTVSPropertyOp8
 70
     1
102
RTVSPropertyOp9
 70
     1
102
RTVSPropertyOp10
 70
     1
102
RTVSPropertyOp11
 70
     1
102
RTVSPropertyOp12
 70
     1
102
RTVSPropertyOp13
 70
     1
102
RTVSPropertyOp14
 70
     1
102
RTVSPropertyOp15
 70
     1
102
RTVSPropertyOp16
 70
     1
102
RTVSPropertyOp17
 70
     1
102
RTVSPropertyOp18
 70
     1
102
RTVSPropertyOp19
 70
     1
102
RTVSPropertyOp20
 70
     1
102
RTVSPropertyOp21
 70
     1
102
RTVSPropertyOp22
 70
     1
102
RTVSPropertyOp23
 70
     1
102
RTVSPropertyOp24
 70
     1
102
RTVSPropertyOp25
 70
     1
102
RTVSPropertyOp26
 70
     1
102
RTVSPropertyOp27
 70
     1
102
RTVSPropertyOp28
 70
     1
102
RTVSPropertyOp29
 70
     1
102
RTVSPropertyOp30
 70
     1
102
RTVSPropertyOp31
 70
     1
102
RTVSPropertyOp32
 70
     1
102
RTVSPropertyOp33
 70
     1
102
RTVSPropertyOp34
 70
     1
102
RTVSPropertyOp35
 70
     1
102
RTVSPropertyOp36
 70
     1
102
RTVSPropertyOp37
 70
     1
102
RTVSPropertyOp38
 70
     1
102
RTVSPropertyOp39
 70
     1
102
RTVSPropertyOp40
 70
     1
102
RTVSPropertyOp41
 70
     1
102
RTVSPropertyOp42
 70
     1
102
RTVSPropertyOp43
 70
     1
102
RTVSPropertyOp44
 70
     1
102
RTVSPropertyOp45
 70
     1
102
RTVSPropertyOp46
 70
     1
102
RTVSPropertyOp47
 70
     1
102
RTVSPropertyOp48
 70
     1
102
RTVSPropertyOp49
 70
     1
102
RTVSPropertyOp50
 70
     1
102
RTVSPropertyOp51
 70
     0
102
RTVSPropertyOp52
 70
     0
102
RTVSPropertyOp53
 70
     1
102
RTVSPropertyOp54
 70
     1
102
RTVSPropertyOp55
 70
     1
102
RTVSPropertyOp56
 70
     1
102
RTVSPropertyOp57
 70
     1
102
RTVSPropertyOp58
 70
     1
102
RTVSPropertyOp59
 70
     1
102
RTVSPropertyOp60
 70
     1
102
RTVSPropertyOp61
 70
     1
102
RTVSPropertyOp62
 70
     1
  0
XRECORD
  5
660
102
{ACAD_REACTORS
330
65F
102
}
330
65F
100
AcDbXrecord
280
     1
102
RTVSPost2010Prop28
280
     0
102
RTVSPost2010PropOp28
 70
     1
102
RTVSPost2010Prop29
280
     1
102
RTVSPost2010PropOp29
 70
     1
102
RTVSPost2010Prop30
280
     1
102
RTVSPost2010PropOp30
 70
     1
102
RTVSPost2010Prop31
280
     0
102
RTVSPost2010PropOp31
 70
     1
102
RTVSPost2010Prop32
280
     0
102
RTVSPost2010PropOp32
 70
     1
102
RTVSPost2010Prop33
280
     0
102
RTVSPost2010PropOp33
 70
     1
102
RTVSPost2010Prop34
280
     0
102
RTVSPost2010PropOp34
 70
     1
102
RTVSPost2010Prop35
280
     0
102
RTVSPost2010PropOp35
 70
     1
102
RTVSPost2010Prop36
280
     0
102
RTVSPost2010PropOp36
 70
     1
102
RTVSPost2010Prop37
 90
       50
102
RTVSPost2010PropOp37
 70
     1
102
RTVSPost2010Prop38
140
0.0
102
RTVSPost2010PropOp38
 70
     1
102
RTVSPost2010Prop39
140
1.0
102
RTVSPost2010PropOp39
 70
     1
102
RTVSPost2010Prop40
 90
        0
102
RTVSPost2010PropOp40
 70
     1
102
RTVSPost2010Prop41ColorIndex
 90
       18
102
RTVSPost2010Prop41ColorRGB
 90
        0
102
RTVSPost2010PropOp41
 70
     1
102
RTVSPost2010Prop42
 90
       50
102
RTVSPost2010PropOp42
 70
     1
102
RTVSPost2010Prop43
 90
        3
102
RTVSPost2010PropOp43
 70
     1
102
RTVSPost2010Prop44ColorIndex
 90
        5
102
RTVSPost2010Prop44ColorRGB
 90
      255
102
RTVSPost2010PropOp44
 70
     1
102
RTVSPost2010Prop45
280
     0
102
RTVSPost2010PropOp45
 70
     1
102
RTVSPost2010Prop46
 90
       50
102
RTVSPost2010PropOp46
 70
     1
102
RTVSPost2010Prop47
 90
       50
102
RTVSPost2010PropOp47
 70
     1
102
RTVSPost2010Prop48
 90
       50
102
RTVSPost2010PropOp48
 70
     1
102
RTVSPost2010Prop49
280
     0
102
RTVSPost2010PropOp49
 70
     1
102
RTVSPost2010Prop50
 90
       50
102
RTVSPost2010PropOp50
 70
     1
102
RTVSPost2010Prop51ColorIndex
 90
      256
102
RTVSPost2010Prop51ColorRGB
 90
-16777216
102
RTVSPost2010PropOp51
 70
     0
102
RTVSPost2010Prop52
140
1.0
102
RTVSPost2010PropOp52
 70
     0
102
RTVSPost2010Prop53
 90
        2
102
RTVSPost2010PropOp53
 70
     1
102
RTVSPost2010Prop54
  1
strokes_ogs.tif
102
RTVSPost2010PropOp54
 70
     1
102
RTVSPost2010Prop55
280
     0
102
RTVSPost2010PropOp55
 70
     1
102
RTVSPost2010Prop56
140
1.0
102
RTVSPost2010PropOp56
 70
     1
102
RTVSPost2010Prop57
140
1.0
102
RTVSPost2010PropOp57
 70
     1
102
RTVSPropertyOp0
 70
     1
102
RTVSPropertyOp1
 70
     1
102
RTVSPropertyOp2
 70
     1
102
RTVSPropertyOp3
 70
     1
102
RTVSPropertyOp4
 70
     1
102
RTVSPropertyOp5
 70
     1
102
RTVSPropertyOp6
 70
     1
102
RTVSPropertyOp7
 70
     1
102
RTVSPropertyOp8
 70
     1
102
RTVSPropertyOp9
 70
     1
102
RTVSPropertyOp10
 70
     1
102
RTVSPropertyOp11
 70
     1
102
RTVSPropertyOp12
 70
     1
102
RTVSPropertyOp13
 70
     1
102
RTVSPropertyOp14
 70
     1
102
RTVSPropertyOp15
 70
     1
102
RTVSPropertyOp16
 70
     1
102
RTVSPropertyOp17
 70
     1
102
RTVSPropertyOp18
 70
     1
102
RTVSPropertyOp19
 70
     1
102
RTVSPropertyOp20
 70
     1
102
RTVSPropertyOp21
 70
     1
102
RTVSPropertyOp22
 70
     1
102
RTVSPropertyOp23
 70
     1
102
RTVSPropertyOp24
 70
     1
102
RTVSPropertyOp25
 70
     1
102
RTVSPropertyOp26
 70
     1
102
RTVSPropertyOp27
 70
     1
102
RTVSPropertyOp28
 70
     1
102
RTVSPropertyOp29
 70
     1
102
RTVSPropertyOp30
 70
     1
102
RTVSPropertyOp31
 70
     1
102
RTVSPropertyOp32
 70
     1
102
RTVSPropertyOp33
 70
     1
102
RTVSPropertyOp34
 70
     1
102
RTVSPropertyOp35
 70
     1
102
RTVSPropertyOp36
 70
     1
102
RTVSPropertyOp37
 70
     1
102
RTVSPropertyOp38
 70
     1
102
RTVSPropertyOp39
 70
     1
102
RTVSPropertyOp40
 70
     1
102
RTVSPropertyOp41
 70
     1
102
RTVSPropertyOp42
 70
     1
102
RTVSPropertyOp43
 70
     1
102
RTVSPropertyOp44
 70
     1
102
RTVSPropertyOp45
 70
     1
102
RTVSPropertyOp46
 70
     1
102
RTVSPropertyOp47
 70
     1
102
RTVSPropertyOp48
 70
     1
102
RTVSPropertyOp49
 70
     1
102
RTVSPropertyOp50
 70
     1
102
RTVSPropertyOp51
 70
     0
102
RTVSPropertyOp52
 70
     0
102
RTVSPropertyOp53
 70
     1
102
RTVSPropertyOp54
 70
     1
102
RTVSPropertyOp55
 70
     1
102
RTVSPropertyOp56
 70
     1
102
RTVSPropertyOp57
 70
     1
102
RTVSPropertyOp58
 70
     1
102
RTVSPropertyOp59
 70
     1
102
RTVSPropertyOp60
 70
     1
102
RTVSPropertyOp61
 70
     1
102
RTVSPropertyOp62
 70
     1
  0
XRECORD
  5
670
102
{ACAD_REACTORS
330
66F
102
}
330
66F
100
AcDbXrecord
280
     1
102
RTVSPost2010Prop28
280
     0
102
RTVSPost2010PropOp28
 70
     0
102
RTVSPost2010Prop29
280
     1
102
RTVSPost2010PropOp29
 70
     0
102
RTVSPost2010Prop30
280
     1
102
RTVSPost2010PropOp30
 70
     0
102
RTVSPost2010Prop31
280
     0
102
RTVSPost2010PropOp31
 70
     0
102
RTVSPost2010Prop32
280
     0
102
RTVSPost2010PropOp32
 70
     0
102
RTVSPost2010Prop33
280
     0
102
RTVSPost2010PropOp33
 70
     0
102
RTVSPost2010Prop34
280
     0
102
RTVSPost2010PropOp34
 70
     0
102
RTVSPost2010Prop35
280
     0
102
RTVSPost2010PropOp35
 70
     0
102
RTVSPost2010Prop36
280
     0
102
RTVSPost2010PropOp36
 70
     0
102
RTVSPost2010Prop37
 90
       50
102
RTVSPost2010PropOp37
 70
     0
102
RTVSPost2010Prop38
140
0.0
102
RTVSPost2010PropOp38
 70
     0
102
RTVSPost2010Prop39
140
1.0
102
RTVSPost2010PropOp39
 70
     0
102
RTVSPost2010Prop40
 90
        0
102
RTVSPost2010PropOp40
 70
     0
102
RTVSPost2010Prop41ColorIndex
 90
       18
102
RTVSPost2010Prop41ColorRGB
 90
        0
102
RTVSPost2010PropOp41
 70
     0
102
RTVSPost2010Prop42
 90
       50
102
RTVSPost2010PropOp42
 70
     0
102
RTVSPost2010Prop43
 90
        3
102
RTVSPost2010PropOp43
 70
     0
102
RTVSPost2010Prop44ColorIndex
 90
        5
102
RTVSPost2010Prop44ColorRGB
 90
      255
102
RTVSPost2010PropOp44
 70
     0
102
RTVSPost2010Prop45
280
     0
102
RTVSPost2010PropOp45
 70
     0
102
RTVSPost2010Prop46
 90
       50
102
RTVSPost2010PropOp46
 70
     0
102
RTVSPost2010Prop47
 90
       50
102
RTVSPost2010PropOp47
 70
     0
102
RTVSPost2010Prop48
 90
       50
102
RTVSPost2010PropOp48
 70
     0
102
RTVSPost2010Prop49
280
     0
102
RTVSPost2010PropOp49
 70
     0
102
RTVSPost2010Prop50
 90
       50
102
RTVSPost2010PropOp50
 70
     0
102
RTVSPost2010Prop51ColorIndex
 90
      256
102
RTVSPost2010Prop51ColorRGB
 90
-16777216
102
RTVSPost2010PropOp51
 70
     0
102
RTVSPost2010Prop52
140
1.0
102
RTVSPost2010PropOp52
 70
     0
102
RTVSPost2010Prop53
 90
        2
102
RTVSPost2010PropOp53
 70
     0
102
RTVSPost2010Prop54
  1
strokes_ogs.tif
102
RTVSPost2010PropOp54
 70
     0
102
RTVSPost2010Prop55
280
     0
102
RTVSPost2010PropOp55
 70
     0
102
RTVSPost2010Prop56
140
1.0
102
RTVSPost2010PropOp56
 70
     0
102
RTVSPost2010Prop57
140
1.0
102
RTVSPost2010PropOp57
 70
     0
102
RTVSPropertyOp0
 70
     0
102
RTVSPropertyOp1
 70
     0
102
RTVSPropertyOp2
 70
     0
102
RTVSPropertyOp3
 70
     0
102
RTVSPropertyOp4
 70
     0
102
RTVSPropertyOp5
 70
     0
102
RTVSPropertyOp6
 70
     0
102
RTVSPropertyOp7
 70
     0
102
RTVSPropertyOp8
 70
     0
102
RTVSPropertyOp9
 70
     0
102
RTVSPropertyOp10
 70
     0
102
RTVSPropertyOp11
 70
     0
102
RTVSPropertyOp12
 70
     0
102
RTVSPropertyOp13
 70
     0
102
RTVSPropertyOp14
 70
     2
102
RTVSPropertyOp15
 70
     0
102
RTVSPropertyOp16
 70
     0
102
RTVSPropertyOp17
 70
     0
102
RTVSPropertyOp18
 70
     0
102
RTVSPropertyOp19
 70
     0
102
RTVSPropertyOp20
 70
     0
102
RTVSPropertyOp21
 70
     0
102
RTVSPropertyOp22
 70
     0
102
RTVSPropertyOp23
 70
     0
102
RTVSPropertyOp24
 70
     0
102
RTVSPropertyOp25
 70
     0
102
RTVSPropertyOp26
 70
     0
102
RTVSPropertyOp27
 70
     0
102
RTVSPropertyOp28
 70
     0
102
RTVSPropertyOp29
 70
     0
102
RTVSPropertyOp30
 70
     0
102
RTVSPropertyOp31
 70
     0
102
RTVSPropertyOp32
 70
     0
102
RTVSPropertyOp33
 70
     0
102
RTVSPropertyOp34
 70
     0
102
RTVSPropertyOp35
 70
     0
102
RTVSPropertyOp36
 70
     0
102
RTVSPropertyOp37
 70
     0
102
RTVSPropertyOp38
 70
     0
102
RTVSPropertyOp39
 70
     0
102
RTVSPropertyOp40
 70
     0
102
RTVSPropertyOp41
 70
     0
102
RTVSPropertyOp42
 70
     0
102
RTVSPropertyOp43
 70
     0
102
RTVSPropertyOp44
 70
     0
102
RTVSPropertyOp45
 70
     0
102
RTVSPropertyOp46
 70
     0
102
RTVSPropertyOp47
 70
     0
102
RTVSPropertyOp48
 70
     0
102
RTVSPropertyOp49
 70
     0
102
RTVSPropertyOp50
 70
     0
102
RTVSPropertyOp51
 70
     0
102
RTVSPropertyOp52
 70
     0
102
RTVSPropertyOp53
 70
     0
102
RTVSPropertyOp54
 70
     0
102
RTVSPropertyOp55
 70
     0
102
RTVSPropertyOp56
 70
     0
102
RTVSPropertyOp57
 70
     0
102
RTVSPropertyOp58
 70
     1
102
RTVSPropertyOp59
 70
     1
102
RTVSPropertyOp60
 70
     1
102
RTVSPropertyOp61
 70
     1
102
RTVSPropertyOp62
 70
     1
  0
XRECORD
  5
668
102
{ACAD_REACTORS
330
667
102
}
330
667
100
AcDbXrecord
280
     1
102
RTVSPost2010Prop28
280
     0
102
RTVSPost2010PropOp28
 70
     1
102
RTVSPost2010Prop29
280
     1
102
RTVSPost2010PropOp29
 70
     1
102
RTVSPost2010Prop30
280
     1
102
RTVSPost2010PropOp30
 70
     1
102
RTVSPost2010Prop31
280
     0
102
RTVSPost2010PropOp31
 70
     1
102
RTVSPost2010Prop32
280
     0
102
RTVSPost2010PropOp32
 70
     1
102
RTVSPost2010Prop33
280
     0
102
RTVSPost2010PropOp33
 70
     1
102
RTVSPost2010Prop34
280
     0
102
RTVSPost2010PropOp34
 70
     1
102
RTVSPost2010Prop35
280
     0
102
RTVSPost2010PropOp35
 70
     1
102
RTVSPost2010Prop36
280
     0
102
RTVSPost2010PropOp36
 70
     1
102
RTVSPost2010Prop37
 90
       50
102
RTVSPost2010PropOp37
 70
     1
102
RTVSPost2010Prop38
140
0.0
102
RTVSPost2010PropOp38
 70
     1
102
RTVSPost2010Prop39
140
1.0
102
RTVSPost2010PropOp39
 70
     1
102
RTVSPost2010Prop40
 90
        0
102
RTVSPost2010PropOp40
 70
     1
102
RTVSPost2010Prop41ColorIndex
 90
       18
102
RTVSPost2010Prop41ColorRGB
 90
        0
102
RTVSPost2010PropOp41
 70
     1
102
RTVSPost2010Prop42
 90
       50
102
RTVSPost2010PropOp42
 70
     1
102
RTVSPost2010Prop43
 90
        3
102
RTVSPost2010PropOp43
 70
     1
102
RTVSPost2010Prop44ColorIndex
 90
        5
102
RTVSPost2010Prop44ColorRGB
 90
      255
102
RTVSPost2010PropOp44
 70
     1
102
RTVSPost2010Prop45
280
     0
102
RTVSPost2010PropOp45
 70
     1
102
RTVSPost2010Prop46
 90
       50
102
RTVSPost2010PropOp46
 70
     1
102
RTVSPost2010Prop47
 90
       50
102
RTVSPost2010PropOp47
 70
     1
102
RTVSPost2010Prop48
 90
       50
102
RTVSPost2010PropOp48
 70
     1
102
RTVSPost2010Prop49
280
     0
102
RTVSPost2010PropOp49
 70
     1
102
RTVSPost2010Prop50
 90
       50
102
RTVSPost2010PropOp50
 70
     1
102
RTVSPost2010Prop51ColorIndex
 90
      256
102
RTVSPost2010Prop51ColorRGB
 90
-16777216
102
RTVSPost2010PropOp51
 70
     0
102
RTVSPost2010Prop52
140
1.0
102
RTVSPost2010PropOp52
 70
     0
102
RTVSPost2010Prop53
 90
        2
102
RTVSPost2010PropOp53
 70
     1
102
RTVSPost2010Prop54
  1
strokes_ogs.tif
102
RTVSPost2010PropOp54
 70
     1
102
RTVSPost2010Prop55
280
     0
102
RTVSPost2010PropOp55
 70
     1
102
RTVSPost2010Prop56
140
1.0
102
RTVSPost2010PropOp56
 70
     1
102
RTVSPost2010Prop57
140
1.0
102
RTVSPost2010PropOp57
 70
     1
102
RTVSPropertyOp0
 70
     1
102
RTVSPropertyOp1
 70
     1
102
RTVSPropertyOp2
 70
     1
102
RTVSPropertyOp3
 70
     1
102
RTVSPropertyOp4
 70
     1
102
RTVSPropertyOp5
 70
     1
102
RTVSPropertyOp6
 70
     1
102
RTVSPropertyOp7
 70
     1
102
RTVSPropertyOp8
 70
     1
102
RTVSPropertyOp9
 70
     1
102
RTVSPropertyOp10
 70
     1
102
RTVSPropertyOp11
 70
     1
102
RTVSPropertyOp12
 70
     1
102
RTVSPropertyOp13
 70
     1
102
RTVSPropertyOp14
 70
     1
102
RTVSPropertyOp15
 70
     1
102
RTVSPropertyOp16
 70
     1
102
RTVSPropertyOp17
 70
     1
102
RTVSPropertyOp18
 70
     1
102
RTVSPropertyOp19
 70
     1
102
RTVSPropertyOp20
 70
     1
102
RTVSPropertyOp21
 70
     1
102
RTVSPropertyOp22
 70
     1
102
RTVSPropertyOp23
 70
     1
102
RTVSPropertyOp24
 70
     1
102
RTVSPropertyOp25
 70
     1
102
RTVSPropertyOp26
 70
     1
102
RTVSPropertyOp27
 70
     1
102
RTVSPropertyOp28
 70
     1
102
RTVSPropertyOp29
 70
     1
102
RTVSPropertyOp30
 70
     1
102
RTVSPropertyOp31
 70
     1
102
RTVSPropertyOp32
 70
     1
102
RTVSPropertyOp33
 70
     1
102
RTVSPropertyOp34
 70
     1
102
RTVSPropertyOp35
 70
     1
102
RTVSPropertyOp36
 70
     1
102
RTVSPropertyOp37
 70
     1
102
RTVSPropertyOp38
 70
     1
102
RTVSPropertyOp39
 70
     1
102
RTVSPropertyOp40
 70
     1
102
RTVSPropertyOp41
 70
     1
102
RTVSPropertyOp42
 70
     1
102
RTVSPropertyOp43
 70
     1
102
RTVSPropertyOp44
 70
     1
102
RTVSPropertyOp45
 70
     1
102
RTVSPropertyOp46
 70
     1
102
RTVSPropertyOp47
 70
     1
102
RTVSPropertyOp48
 70
     1
102
RTVSPropertyOp49
 70
     1
102
RTVSPropertyOp50
 70
     1
102
RTVSPropertyOp51
 70
     0
102
RTVSPropertyOp52
 70
     0
102
RTVSPropertyOp53
 70
     1
102
RTVSPropertyOp54
 70
     1
102
RTVSPropertyOp55
 70
     1
102
RTVSPropertyOp56
 70
     1
102
RTVSPropertyOp57
 70
     1
102
RTVSPropertyOp58
 70
     1
102
RTVSPropertyOp59
 70
     1
102
RTVSPropertyOp60
 70
     1
102
RTVSPropertyOp61
 70
     1
102
RTVSPropertyOp62
 70
     1
  0
XRECORD
  5
64C
102
{ACAD_REACTORS
330
64B
102
}
330
64B
100
AcDbXrecord
280
     1
102
RTVSPost2010Prop28
280
     0
102
RTVSPost2010PropOp28
 70
     1
102
RTVSPost2010Prop29
280
     1
102
RTVSPost2010PropOp29
 70
     1
102
RTVSPost2010Prop30
280
     1
102
RTVSPost2010PropOp30
 70
     1
102
RTVSPost2010Prop31
280
     0
102
RTVSPost2010PropOp31
 70
     1
102
RTVSPost2010Prop32
280
     0
102
RTVSPost2010PropOp32
 70
     1
102
RTVSPost2010Prop33
280
     0
102
RTVSPost2010PropOp33
 70
     1
102
RTVSPost2010Prop34
280
     0
102
RTVSPost2010PropOp34
 70
     1
102
RTVSPost2010Prop35
280
     0
102
RTVSPost2010PropOp35
 70
     1
102
RTVSPost2010Prop36
280
     0
102
RTVSPost2010PropOp36
 70
     1
102
RTVSPost2010Prop37
 90
       50
102
RTVSPost2010PropOp37
 70
     1
102
RTVSPost2010Prop38
140
0.0
102
RTVSPost2010PropOp38
 70
     1
102
RTVSPost2010Prop39
140
1.0
102
RTVSPost2010PropOp39
 70
     1
102
RTVSPost2010Prop40
 90
        0
102
RTVSPost2010PropOp40
 70
     1
102
RTVSPost2010Prop41ColorIndex
 90
       18
102
RTVSPost2010Prop41ColorRGB
 90
        0
102
RTVSPost2010PropOp41
 70
     1
102
RTVSPost2010Prop42
 90
       50
102
RTVSPost2010PropOp42
 70
     1
102
RTVSPost2010Prop43
 90
        3
102
RTVSPost2010PropOp43
 70
     1
102
RTVSPost2010Prop44ColorIndex
 90
        5
102
RTVSPost2010Prop44ColorRGB
 90
      255
102
RTVSPost2010PropOp44
 70
     1
102
RTVSPost2010Prop45
280
     0
102
RTVSPost2010PropOp45
 70
     1
102
RTVSPost2010Prop46
 90
       50
102
RTVSPost2010PropOp46
 70
     1
102
RTVSPost2010Prop47
 90
       50
102
RTVSPost2010PropOp47
 70
     1
102
RTVSPost2010Prop48
 90
       50
102
RTVSPost2010PropOp48
 70
     1
102
RTVSPost2010Prop49
280
     0
102
RTVSPost2010PropOp49
 70
     1
102
RTVSPost2010Prop50
 90
       50
102
RTVSPost2010PropOp50
 70
     1
102
RTVSPost2010Prop51ColorIndex
 90
      256
102
RTVSPost2010Prop51ColorRGB
 90
-16777216
102
RTVSPost2010PropOp51
 70
     0
102
RTVSPost2010Prop52
140
1.0
102
RTVSPost2010PropOp52
 70
     0
102
RTVSPost2010Prop53
 90
        2
102
RTVSPost2010PropOp53
 70
     1
102
RTVSPost2010Prop54
  1
strokes_ogs.tif
102
RTVSPost2010PropOp54
 70
     1
102
RTVSPost2010Prop55
280
     0
102
RTVSPost2010PropOp55
 70
     1
102
RTVSPost2010Prop56
140
1.0
102
RTVSPost2010PropOp56
 70
     1
102
RTVSPost2010Prop57
140
1.0
102
RTVSPost2010PropOp57
 70
     1
102
RTVSPropertyOp0
 70
     1
102
RTVSPropertyOp1
 70
     1
102
RTVSPropertyOp2
 70
     1
102
RTVSPropertyOp3
 70
     1
102
RTVSPropertyOp4
 70
     1
102
RTVSPropertyOp5
 70
     1
102
RTVSPropertyOp6
 70
     1
102
RTVSPropertyOp7
 70
     1
102
RTVSPropertyOp8
 70
     1
102
RTVSPropertyOp9
 70
     1
102
RTVSPropertyOp10
 70
     1
102
RTVSPropertyOp11
 70
     1
102
RTVSPropertyOp12
 70
     1
102
RTVSPropertyOp13
 70
     1
102
RTVSPropertyOp14
 70
     1
102
RTVSPropertyOp15
 70
     1
102
RTVSPropertyOp16
 70
     1
102
RTVSPropertyOp17
 70
     1
102
RTVSPropertyOp18
 70
     1
102
RTVSPropertyOp19
 70
     1
102
RTVSPropertyOp20
 70
     1
102
RTVSPropertyOp21
 70
     1
102
RTVSPropertyOp22
 70
     1
102
RTVSPropertyOp23
 70
     1
102
RTVSPropertyOp24
 70
     1
102
RTVSPropertyOp25
 70
     1
102
RTVSPropertyOp26
 70
     1
102
RTVSPropertyOp27
 70
     1
102
RTVSPropertyOp28
 70
     1
102
RTVSPropertyOp29
 70
     1
102
RTVSPropertyOp30
 70
     1
102
RTVSPropertyOp31
 70
     1
102
RTVSPropertyOp32
 70
     1
102
RTVSPropertyOp33
 70
     1
102
RTVSPropertyOp34
 70
     1
102
RTVSPropertyOp35
 70
     1
102
RTVSPropertyOp36
 70
     1
102
RTVSPropertyOp37
 70
     1
102
RTVSPropertyOp38
 70
     1
102
RTVSPropertyOp39
 70
     1
102
RTVSPropertyOp40
 70
     1
102
RTVSPropertyOp41
 70
     1
102
RTVSPropertyOp42
 70
     1
102
RTVSPropertyOp43
 70
     1
102
RTVSPropertyOp44
 70
     1
102
RTVSPropertyOp45
 70
     1
102
RTVSPropertyOp46
 70
     1
102
RTVSPropertyOp47
 70
     1
102
RTVSPropertyOp48
 70
     1
102
RTVSPropertyOp49
 70
     1
102
RTVSPropertyOp50
 70
     1
102
RTVSPropertyOp51
 70
     0
102
RTVSPropertyOp52
 70
     0
102
RTVSPropertyOp53
 70
     1
102
RTVSPropertyOp54
 70
     1
102
RTVSPropertyOp55
 70
     1
102
RTVSPropertyOp56
 70
     1
102
RTVSPropertyOp57
 70
     1
102
RTVSPropertyOp58
 70
     1
102
RTVSPropertyOp59
 70
     1
102
RTVSPropertyOp60
 70
     1
102
RTVSPropertyOp61
 70
     1
102
RTVSPropertyOp62
 70
     1
  0
XRECORD
  5
64E
102
{ACAD_REACTORS
330
64D
102
}
330
64D
100
AcDbXrecord
280
     1
102
RTVSPost2010Prop28
280
     0
102
RTVSPost2010PropOp28
 70
     1
102
RTVSPost2010Prop29
280
     1
102
RTVSPost2010PropOp29
 70
     1
102
RTVSPost2010Prop30
280
     1
102
RTVSPost2010PropOp30
 70
     1
102
RTVSPost2010Prop31
280
     0
102
RTVSPost2010PropOp31
 70
     1
102
RTVSPost2010Prop32
280
     0
102
RTVSPost2010PropOp32
 70
     1
102
RTVSPost2010Prop33
280
     0
102
RTVSPost2010PropOp33
 70
     1
102
RTVSPost2010Prop34
280
     0
102
RTVSPost2010PropOp34
 70
     1
102
RTVSPost2010Prop35
280
     0
102
RTVSPost2010PropOp35
 70
     1
102
RTVSPost2010Prop36
280
     0
102
RTVSPost2010PropOp36
 70
     1
102
RTVSPost2010Prop37
 90
       50
102
RTVSPost2010PropOp37
 70
     1
102
RTVSPost2010Prop38
140
0.0
102
RTVSPost2010PropOp38
 70
     1
102
RTVSPost2010Prop39
140
1.0
102
RTVSPost2010PropOp39
 70
     1
102
RTVSPost2010Prop40
 90
        0
102
RTVSPost2010PropOp40
 70
     1
102
RTVSPost2010Prop41ColorIndex
 90
       18
102
RTVSPost2010Prop41ColorRGB
 90
        0
102
RTVSPost2010PropOp41
 70
     1
102
RTVSPost2010Prop42
 90
       50
102
RTVSPost2010PropOp42
 70
     1
102
RTVSPost2010Prop43
 90
        3
102
RTVSPost2010PropOp43
 70
     1
102
RTVSPost2010Prop44ColorIndex
 90
        5
102
RTVSPost2010Prop44ColorRGB
 90
      255
102
RTVSPost2010PropOp44
 70
     1
102
RTVSPost2010Prop45
280
     0
102
RTVSPost2010PropOp45
 70
     1
102
RTVSPost2010Prop46
 90
       50
102
RTVSPost2010PropOp46
 70
     1
102
RTVSPost2010Prop47
 90
       50
102
RTVSPost2010PropOp47
 70
     1
102
RTVSPost2010Prop48
 90
       50
102
RTVSPost2010PropOp48
 70
     1
102
RTVSPost2010Prop49
280
     0
102
RTVSPost2010PropOp49
 70
     1
102
RTVSPost2010Prop50
 90
       50
102
RTVSPost2010PropOp50
 70
     1
102
RTVSPost2010Prop51ColorIndex
 90
      256
102
RTVSPost2010Prop51ColorRGB
 90
-16777216
102
RTVSPost2010PropOp51
 70
     0
102
RTVSPost2010Prop52
140
1.0
102
RTVSPost2010PropOp52
 70
     0
102
RTVSPost2010Prop53
 90
        2
102
RTVSPost2010PropOp53
 70
     1
102
RTVSPost2010Prop54
  1
strokes_ogs.tif
102
RTVSPost2010PropOp54
 70
     1
102
RTVSPost2010Prop55
280
     0
102
RTVSPost2010PropOp55
 70
     1
102
RTVSPost2010Prop56
140
1.0
102
RTVSPost2010PropOp56
 70
     1
102
RTVSPost2010Prop57
140
1.0
102
RTVSPost2010PropOp57
 70
     1
102
RTVSPropertyOp0
 70
     1
102
RTVSPropertyOp1
 70
     1
102
RTVSPropertyOp2
 70
     1
102
RTVSPropertyOp3
 70
     1
102
RTVSPropertyOp4
 70
     1
102
RTVSPropertyOp5
 70
     1
102
RTVSPropertyOp6
 70
     1
102
RTVSPropertyOp7
 70
     1
102
RTVSPropertyOp8
 70
     1
102
RTVSPropertyOp9
 70
     1
102
RTVSPropertyOp10
 70
     1
102
RTVSPropertyOp11
 70
     1
102
RTVSPropertyOp12
 70
     1
102
RTVSPropertyOp13
 70
     1
102
RTVSPropertyOp14
 70
     1
102
RTVSPropertyOp15
 70
     1
102
RTVSPropertyOp16
 70
     1
102
RTVSPropertyOp17
 70
     1
102
RTVSPropertyOp18
 70
     1
102
RTVSPropertyOp19
 70
     1
102
RTVSPropertyOp20
 70
     1
102
RTVSPropertyOp21
 70
     1
102
RTVSPropertyOp22
 70
     1
102
RTVSPropertyOp23
 70
     1
102
RTVSPropertyOp24
 70
     1
102
RTVSPropertyOp25
 70
     1
102
RTVSPropertyOp26
 70
     1
102
RTVSPropertyOp27
 70
     1
102
RTVSPropertyOp28
 70
     1
102
RTVSPropertyOp29
 70
     1
102
RTVSPropertyOp30
 70
     1
102
RTVSPropertyOp31
 70
     1
102
RTVSPropertyOp32
 70
     1
102
RTVSPropertyOp33
 70
     1
102
RTVSPropertyOp34
 70
     1
102
RTVSPropertyOp35
 70
     1
102
RTVSPropertyOp36
 70
     1
102
RTVSPropertyOp37
 70
     1
102
RTVSPropertyOp38
 70
     1
102
RTVSPropertyOp39
 70
     1
102
RTVSPropertyOp40
 70
     1
102
RTVSPropertyOp41
 70
     1
102
RTVSPropertyOp42
 70
     1
102
RTVSPropertyOp43
 70
     1
102
RTVSPropertyOp44
 70
     1
102
RTVSPropertyOp45
 70
     1
102
RTVSPropertyOp46
 70
     1
102
RTVSPropertyOp47
 70
     1
102
RTVSPropertyOp48
 70
     1
102
RTVSPropertyOp49
 70
     1
102
RTVSPropertyOp50
 70
     1
102
RTVSPropertyOp51
 70
     0
102
RTVSPropertyOp52
 70
     0
102
RTVSPropertyOp53
 70
     1
102
RTVSPropertyOp54
 70
     1
102
RTVSPropertyOp55
 70
     1
102
RTVSPropertyOp56
 70
     1
102
RTVSPropertyOp57
 70
     1
102
RTVSPropertyOp58
 70
     1
102
RTVSPropertyOp59
 70
     1
102
RTVSPropertyOp60
 70
     1
102
RTVSPropertyOp61
 70
     1
102
RTVSPropertyOp62
 70
     1
  0
XRECORD
  5
650
102
{ACAD_REACTORS
330
64F
102
}
330
64F
100
AcDbXrecord
280
     1
102
RTVSPost2010Prop28
280
     0
102
RTVSPost2010PropOp28
 70
     1
102
RTVSPost2010Prop29
280
     1
102
RTVSPost2010PropOp29
 70
     1
102
RTVSPost2010Prop30
280
     1
102
RTVSPost2010PropOp30
 70
     1
102
RTVSPost2010Prop31
280
     0
102
RTVSPost2010PropOp31
 70
     1
102
RTVSPost2010Prop32
280
     0
102
RTVSPost2010PropOp32
 70
     1
102
RTVSPost2010Prop33
280
     0
102
RTVSPost2010PropOp33
 70
     1
102
RTVSPost2010Prop34
280
     0
102
RTVSPost2010PropOp34
 70
     1
102
RTVSPost2010Prop35
280
     0
102
RTVSPost2010PropOp35
 70
     1
102
RTVSPost2010Prop36
280
     0
102
RTVSPost2010PropOp36
 70
     1
102
RTVSPost2010Prop37
 90
       50
102
RTVSPost2010PropOp37
 70
     1
102
RTVSPost2010Prop38
140
0.0
102
RTVSPost2010PropOp38
 70
     1
102
RTVSPost2010Prop39
140
1.0
102
RTVSPost2010PropOp39
 70
     1
102
RTVSPost2010Prop40
 90
        0
102
RTVSPost2010PropOp40
 70
     1
102
RTVSPost2010Prop41ColorIndex
 90
       18
102
RTVSPost2010Prop41ColorRGB
 90
        0
102
RTVSPost2010PropOp41
 70
     1
102
RTVSPost2010Prop42
 90
       50
102
RTVSPost2010PropOp42
 70
     1
102
RTVSPost2010Prop43
 90
        3
102
RTVSPost2010PropOp43
 70
     1
102
RTVSPost2010Prop44ColorIndex
 90
        5
102
RTVSPost2010Prop44ColorRGB
 90
      255
102
RTVSPost2010PropOp44
 70
     1
102
RTVSPost2010Prop45
280
     0
102
RTVSPost2010PropOp45
 70
     1
102
RTVSPost2010Prop46
 90
       50
102
RTVSPost2010PropOp46
 70
     1
102
RTVSPost2010Prop47
 90
       50
102
RTVSPost2010PropOp47
 70
     1
102
RTVSPost2010Prop48
 90
       50
102
RTVSPost2010PropOp48
 70
     1
102
RTVSPost2010Prop49
280
     0
102
RTVSPost2010PropOp49
 70
     1
102
RTVSPost2010Prop50
 90
       50
102
RTVSPost2010PropOp50
 70
     1
102
RTVSPost2010Prop51ColorIndex
 90
      256
102
RTVSPost2010Prop51ColorRGB
 90
-16777216
102
RTVSPost2010PropOp51
 70
     0
102
RTVSPost2010Prop52
140
1.0
102
RTVSPost2010PropOp52
 70
     0
102
RTVSPost2010Prop53
 90
        2
102
RTVSPost2010PropOp53
 70
     1
102
RTVSPost2010Prop54
  1
strokes_ogs.tif
102
RTVSPost2010PropOp54
 70
     1
102
RTVSPost2010Prop55
280
     0
102
RTVSPost2010PropOp55
 70
     1
102
RTVSPost2010Prop56
140
1.0
102
RTVSPost2010PropOp56
 70
     1
102
RTVSPost2010Prop57
140
1.0
102
RTVSPost2010PropOp57
 70
     1
102
RTVSPropertyOp0
 70
     1
102
RTVSPropertyOp1
 70
     1
102
RTVSPropertyOp2
 70
     1
102
RTVSPropertyOp3
 70
     1
102
RTVSPropertyOp4
 70
     1
102
RTVSPropertyOp5
 70
     1
102
RTVSPropertyOp6
 70
     1
102
RTVSPropertyOp7
 70
     1
102
RTVSPropertyOp8
 70
     1
102
RTVSPropertyOp9
 70
     1
102
RTVSPropertyOp10
 70
     1
102
RTVSPropertyOp11
 70
     1
102
RTVSPropertyOp12
 70
     1
102
RTVSPropertyOp13
 70
     1
102
RTVSPropertyOp14
 70
     1
102
RTVSPropertyOp15
 70
     1
102
RTVSPropertyOp16
 70
     1
102
RTVSPropertyOp17
 70
     1
102
RTVSPropertyOp18
 70
     1
102
RTVSPropertyOp19
 70
     1
102
RTVSPropertyOp20
 70
     1
102
RTVSPropertyOp21
 70
     1
102
RTVSPropertyOp22
 70
     1
102
RTVSPropertyOp23
 70
     1
102
RTVSPropertyOp24
 70
     1
102
RTVSPropertyOp25
 70
     1
102
RTVSPropertyOp26
 70
     1
102
RTVSPropertyOp27
 70
     1
102
RTVSPropertyOp28
 70
     1
102
RTVSPropertyOp29
 70
     1
102
RTVSPropertyOp30
 70
     1
102
RTVSPropertyOp31
 70
     1
102
RTVSPropertyOp32
 70
     1
102
RTVSPropertyOp33
 70
     1
102
RTVSPropertyOp34
 70
     1
102
RTVSPropertyOp35
 70
     1
102
RTVSPropertyOp36
 70
     1
102
RTVSPropertyOp37
 70
     1
102
RTVSPropertyOp38
 70
     1
102
RTVSPropertyOp39
 70
     1
102
RTVSPropertyOp40
 70
     1
102
RTVSPropertyOp41
 70
     1
102
RTVSPropertyOp42
 70
     1
102
RTVSPropertyOp43
 70
     1
102
RTVSPropertyOp44
 70
     1
102
RTVSPropertyOp45
 70
     1
102
RTVSPropertyOp46
 70
     1
102
RTVSPropertyOp47
 70
     1
102
RTVSPropertyOp48
 70
     1
102
RTVSPropertyOp49
 70
     1
102
RTVSPropertyOp50
 70
     1
102
RTVSPropertyOp51
 70
     0
102
RTVSPropertyOp52
 70
     0
102
RTVSPropertyOp53
 70
     1
102
RTVSPropertyOp54
 70
     1
102
RTVSPropertyOp55
 70
     1
102
RTVSPropertyOp56
 70
     1
102
RTVSPropertyOp57
 70
     1
102
RTVSPropertyOp58
 70
     1
102
RTVSPropertyOp59
 70
     1
102
RTVSPropertyOp60
 70
     1
102
RTVSPropertyOp61
 70
     1
102
RTVSPropertyOp62
 70
     1
  0
XRECORD
  5
652
102
{ACAD_REACTORS
330
651
102
}
330
651
100
AcDbXrecord
280
     1
102
RTVSPost2010Prop28
280
     0
102
RTVSPost2010PropOp28
 70
     1
102
RTVSPost2010Prop29
280
     1
102
RTVSPost2010PropOp29
 70
     1
102
RTVSPost2010Prop30
280
     1
102
RTVSPost2010PropOp30
 70
     1
102
RTVSPost2010Prop31
280
     0
102
RTVSPost2010PropOp31
 70
     1
102
RTVSPost2010Prop32
280
     0
102
RTVSPost2010PropOp32
 70
     1
102
RTVSPost2010Prop33
280
     0
102
RTVSPost2010PropOp33
 70
     1
102
RTVSPost2010Prop34
280
     0
102
RTVSPost2010PropOp34
 70
     1
102
RTVSPost2010Prop35
280
     0
102
RTVSPost2010PropOp35
 70
     1
102
RTVSPost2010Prop36
280
     0
102
RTVSPost2010PropOp36
 70
     1
102
RTVSPost2010Prop37
 90
       50
102
RTVSPost2010PropOp37
 70
     1
102
RTVSPost2010Prop38
140
0.0
102
RTVSPost2010PropOp38
 70
     1
102
RTVSPost2010Prop39
140
1.0
102
RTVSPost2010PropOp39
 70
     1
102
RTVSPost2010Prop40
 90
        0
102
RTVSPost2010PropOp40
 70
     1
102
RTVSPost2010Prop41ColorIndex
 90
       18
102
RTVSPost2010Prop41ColorRGB
 90
        0
102
RTVSPost2010PropOp41
 70
     1
102
RTVSPost2010Prop42
 90
       50
102
RTVSPost2010PropOp42
 70
     1
102
RTVSPost2010Prop43
 90
        3
102
RTVSPost2010PropOp43
 70
     1
102
RTVSPost2010Prop44ColorIndex
 90
        5
102
RTVSPost2010Prop44ColorRGB
 90
      255
102
RTVSPost2010PropOp44
 70
     1
102
RTVSPost2010Prop45
280
     0
102
RTVSPost2010PropOp45
 70
     1
102
RTVSPost2010Prop46
 90
       50
102
RTVSPost2010PropOp46
 70
     1
102
RTVSPost2010Prop47
 90
       50
102
RTVSPost2010PropOp47
 70
     1
102
RTVSPost2010Prop48
 90
       50
102
RTVSPost2010PropOp48
 70
     1
102
RTVSPost2010Prop49
280
     0
102
RTVSPost2010PropOp49
 70
     1
102
RTVSPost2010Prop50
 90
       50
102
RTVSPost2010PropOp50
 70
     1
102
RTVSPost2010Prop51ColorIndex
 90
      256
102
RTVSPost2010Prop51ColorRGB
 90
-16777216
102
RTVSPost2010PropOp51
 70
     0
102
RTVSPost2010Prop52
140
1.0
102
RTVSPost2010PropOp52
 70
     0
102
RTVSPost2010Prop53
 90
        2
102
RTVSPost2010PropOp53
 70
     1
102
RTVSPost2010Prop54
  1
strokes_ogs.tif
102
RTVSPost2010PropOp54
 70
     1
102
RTVSPost2010Prop55
280
     0
102
RTVSPost2010PropOp55
 70
     1
102
RTVSPost2010Prop56
140
1.0
102
RTVSPost2010PropOp56
 70
     1
102
RTVSPost2010Prop57
140
1.0
102
RTVSPost2010PropOp57
 70
     1
102
RTVSPropertyOp0
 70
     1
102
RTVSPropertyOp1
 70
     1
102
RTVSPropertyOp2
 70
     1
102
RTVSPropertyOp3
 70
     1
102
RTVSPropertyOp4
 70
     1
102
RTVSPropertyOp5
 70
     1
102
RTVSPropertyOp6
 70
     1
102
RTVSPropertyOp7
 70
     1
102
RTVSPropertyOp8
 70
     1
102
RTVSPropertyOp9
 70
     1
102
RTVSPropertyOp10
 70
     1
102
RTVSPropertyOp11
 70
     1
102
RTVSPropertyOp12
 70
     1
102
RTVSPropertyOp13
 70
     1
102
RTVSPropertyOp14
 70
     1
102
RTVSPropertyOp15
 70
     1
102
RTVSPropertyOp16
 70
     1
102
RTVSPropertyOp17
 70
     1
102
RTVSPropertyOp18
 70
     1
102
RTVSPropertyOp19
 70
     1
102
RTVSPropertyOp20
 70
     1
102
RTVSPropertyOp21
 70
     1
102
RTVSPropertyOp22
 70
     1
102
RTVSPropertyOp23
 70
     1
102
RTVSPropertyOp24
 70
     1
102
RTVSPropertyOp25
 70
     1
102
RTVSPropertyOp26
 70
     1
102
RTVSPropertyOp27
 70
     1
102
RTVSPropertyOp28
 70
     1
102
RTVSPropertyOp29
 70
     1
102
RTVSPropertyOp30
 70
     1
102
RTVSPropertyOp31
 70
     1
102
RTVSPropertyOp32
 70
     1
102
RTVSPropertyOp33
 70
     1
102
RTVSPropertyOp34
 70
     1
102
RTVSPropertyOp35
 70
     1
102
RTVSPropertyOp36
 70
     1
102
RTVSPropertyOp37
 70
     1
102
RTVSPropertyOp38
 70
     1
102
RTVSPropertyOp39
 70
     1
102
RTVSPropertyOp40
 70
     1
102
RTVSPropertyOp41
 70
     1
102
RTVSPropertyOp42
 70
     1
102
RTVSPropertyOp43
 70
     1
102
RTVSPropertyOp44
 70
     1
102
RTVSPropertyOp45
 70
     1
102
RTVSPropertyOp46
 70
     1
102
RTVSPropertyOp47
 70
     1
102
RTVSPropertyOp48
 70
     1
102
RTVSPropertyOp49
 70
     1
102
RTVSPropertyOp50
 70
     1
102
RTVSPropertyOp51
 70
     0
102
RTVSPropertyOp52
 70
     0
102
RTVSPropertyOp53
 70
     1
102
RTVSPropertyOp54
 70
     1
102
RTVSPropertyOp55
 70
     1
102
RTVSPropertyOp56
 70
     1
102
RTVSPropertyOp57
 70
     1
102
RTVSPropertyOp58
 70
     1
102
RTVSPropertyOp59
 70
     1
102
RTVSPropertyOp60
 70
     1
102
RTVSPropertyOp61
 70
     1
102
RTVSPropertyOp62
 70
     1
  0
XRECORD
  5
658
102
{ACAD_REACTORS
330
657
102
}
330
657
100
AcDbXrecord
280
     1
102
RTVSPost2010Prop28
280
     0
102
RTVSPost2010PropOp28
 70
     1
102
RTVSPost2010Prop29
280
     1
102
RTVSPost2010PropOp29
 70
     1
102
RTVSPost2010Prop30
280
     1
102
RTVSPost2010PropOp30
 70
     1
102
RTVSPost2010Prop31
280
     0
102
RTVSPost2010PropOp31
 70
     1
102
RTVSPost2010Prop32
280
     0
102
RTVSPost2010PropOp32
 70
     1
102
RTVSPost2010Prop33
280
     0
102
RTVSPost2010PropOp33
 70
     1
102
RTVSPost2010Prop34
280
     0
102
RTVSPost2010PropOp34
 70
     1
102
RTVSPost2010Prop35
280
     0
102
RTVSPost2010PropOp35
 70
     1
102
RTVSPost2010Prop36
280
     0
102
RTVSPost2010PropOp36
 70
     1
102
RTVSPost2010Prop37
 90
       50
102
RTVSPost2010PropOp37
 70
     1
102
RTVSPost2010Prop38
140
0.0
102
RTVSPost2010PropOp38
 70
     1
102
RTVSPost2010Prop39
140
1.0
102
RTVSPost2010PropOp39
 70
     1
102
RTVSPost2010Prop40
 90
        0
102
RTVSPost2010PropOp40
 70
     1
102
RTVSPost2010Prop41ColorIndex
 90
       18
102
RTVSPost2010Prop41ColorRGB
 90
        0
102
RTVSPost2010PropOp41
 70
     1
102
RTVSPost2010Prop42
 90
       50
102
RTVSPost2010PropOp42
 70
     1
102
RTVSPost2010Prop43
 90
        3
102
RTVSPost2010PropOp43
 70
     1
102
RTVSPost2010Prop44ColorIndex
 90
        5
102
RTVSPost2010Prop44ColorRGB
 90
      255
102
RTVSPost2010PropOp44
 70
     1
102
RTVSPost2010Prop45
280
     0
102
RTVSPost2010PropOp45
 70
     1
102
RTVSPost2010Prop46
 90
       50
102
RTVSPost2010PropOp46
 70
     1
102
RTVSPost2010Prop47
 90
       50
102
RTVSPost2010PropOp47
 70
     1
102
RTVSPost2010Prop48
 90
       50
102
RTVSPost2010PropOp48
 70
     1
102
RTVSPost2010Prop49
280
     0
102
RTVSPost2010PropOp49
 70
     1
102
RTVSPost2010Prop50
 90
       50
102
RTVSPost2010PropOp50
 70
     1
102
RTVSPost2010Prop51ColorIndex
 90
      256
102
RTVSPost2010Prop51ColorRGB
 90
-16777216
102
RTVSPost2010PropOp51
 70
     0
102
RTVSPost2010Prop52
140
1.0
102
RTVSPost2010PropOp52
 70
     0
102
RTVSPost2010Prop53
 90
        2
102
RTVSPost2010PropOp53
 70
     1
102
RTVSPost2010Prop54
  1
strokes_ogs.tif
102
RTVSPost2010PropOp54
 70
     1
102
RTVSPost2010Prop55
280
     0
102
RTVSPost2010PropOp55
 70
     1
102
RTVSPost2010Prop56
140
1.0
102
RTVSPost2010PropOp56
 70
     1
102
RTVSPost2010Prop57
140
1.0
102
RTVSPost2010PropOp57
 70
     1
102
RTVSPropertyOp0
 70
     1
102
RTVSPropertyOp1
 70
     1
102
RTVSPropertyOp2
 70
     1
102
RTVSPropertyOp3
 70
     1
102
RTVSPropertyOp4
 70
     1
102
RTVSPropertyOp5
 70
     1
102
RTVSPropertyOp6
 70
     1
102
RTVSPropertyOp7
 70
     1
102
RTVSPropertyOp8
 70
     1
102
RTVSPropertyOp9
 70
     1
102
RTVSPropertyOp10
 70
     1
102
RTVSPropertyOp11
 70
     1
102
RTVSPropertyOp12
 70
     1
102
RTVSPropertyOp13
 70
     1
102
RTVSPropertyOp14
 70
     1
102
RTVSPropertyOp15
 70
     1
102
RTVSPropertyOp16
 70
     1
102
RTVSPropertyOp17
 70
     1
102
RTVSPropertyOp18
 70
     1
102
RTVSPropertyOp19
 70
     1
102
RTVSPropertyOp20
 70
     1
102
RTVSPropertyOp21
 70
     1
102
RTVSPropertyOp22
 70
     1
102
RTVSPropertyOp23
 70
     1
102
RTVSPropertyOp24
 70
     1
102
RTVSPropertyOp25
 70
     1
102
RTVSPropertyOp26
 70
     1
102
RTVSPropertyOp27
 70
     1
102
RTVSPropertyOp28
 70
     1
102
RTVSPropertyOp29
 70
     1
102
RTVSPropertyOp30
 70
     1
102
RTVSPropertyOp31
 70
     1
102
RTVSPropertyOp32
 70
     1
102
RTVSPropertyOp33
 70
     1
102
RTVSPropertyOp34
 70
     1
102
RTVSPropertyOp35
 70
     1
102
RTVSPropertyOp36
 70
     1
102
RTVSPropertyOp37
 70
     1
102
RTVSPropertyOp38
 70
     1
102
RTVSPropertyOp39
 70
     1
102
RTVSPropertyOp40
 70
     1
102
RTVSPropertyOp41
 70
     1
102
RTVSPropertyOp42
 70
     1
102
RTVSPropertyOp43
 70
     1
102
RTVSPropertyOp44
 70
     1
102
RTVSPropertyOp45
 70
     1
102
RTVSPropertyOp46
 70
     1
102
RTVSPropertyOp47
 70
     1
102
RTVSPropertyOp48
 70
     1
102
RTVSPropertyOp49
 70
     1
102
RTVSPropertyOp50
 70
     1
102
RTVSPropertyOp51
 70
     0
102
RTVSPropertyOp52
 70
     0
102
RTVSPropertyOp53
 70
     1
102
RTVSPropertyOp54
 70
     1
102
RTVSPropertyOp55
 70
     1
102
RTVSPropertyOp56
 70
     1
102
RTVSPropertyOp57
 70
     1
102
RTVSPropertyOp58
 70
     1
102
RTVSPropertyOp59
 70
     1
102
RTVSPropertyOp60
 70
     1
102
RTVSPropertyOp61
 70
     1
102
RTVSPropertyOp62
 70
     1
  0
XRECORD
  5
66C
102
{ACAD_REACTORS
330
66B
102
}
330
66B
100
AcDbXrecord
280
     1
102
RTVSPost2010Prop28
280
     0
102
RTVSPost2010PropOp28
 70
     0
102
RTVSPost2010Prop29
280
     1
102
RTVSPost2010PropOp29
 70
     0
102
RTVSPost2010Prop30
280
     1
102
RTVSPost2010PropOp30
 70
     0
102
RTVSPost2010Prop31
280
     0
102
RTVSPost2010PropOp31
 70
     0
102
RTVSPost2010Prop32
280
     0
102
RTVSPost2010PropOp32
 70
     0
102
RTVSPost2010Prop33
280
     0
102
RTVSPost2010PropOp33
 70
     0
102
RTVSPost2010Prop34
280
     0
102
RTVSPost2010PropOp34
 70
     0
102
RTVSPost2010Prop35
280
     0
102
RTVSPost2010PropOp35
 70
     0
102
RTVSPost2010Prop36
280
     0
102
RTVSPost2010PropOp36
 70
     0
102
RTVSPost2010Prop37
 90
       50
102
RTVSPost2010PropOp37
 70
     0
102
RTVSPost2010Prop38
140
0.0
102
RTVSPost2010PropOp38
 70
     0
102
RTVSPost2010Prop39
140
1.0
102
RTVSPost2010PropOp39
 70
     0
102
RTVSPost2010Prop40
 90
        0
102
RTVSPost2010PropOp40
 70
     0
102
RTVSPost2010Prop41ColorIndex
 90
       18
102
RTVSPost2010Prop41ColorRGB
 90
        0
102
RTVSPost2010PropOp41
 70
     0
102
RTVSPost2010Prop42
 90
       50
102
RTVSPost2010PropOp42
 70
     0
102
RTVSPost2010Prop43
 90
        3
102
RTVSPost2010PropOp43
 70
     0
102
RTVSPost2010Prop44ColorIndex
 90
        5
102
RTVSPost2010Prop44ColorRGB
 90
      255
102
RTVSPost2010PropOp44
 70
     0
102
RTVSPost2010Prop45
280
     0
102
RTVSPost2010PropOp45
 70
     0
102
RTVSPost2010Prop46
 90
       50
102
RTVSPost2010PropOp46
 70
     0
102
RTVSPost2010Prop47
 90
       50
102
RTVSPost2010PropOp47
 70
     0
102
RTVSPost2010Prop48
 90
       50
102
RTVSPost2010PropOp48
 70
     0
102
RTVSPost2010Prop49
280
     0
102
RTVSPost2010PropOp49
 70
     0
102
RTVSPost2010Prop50
 90
       50
102
RTVSPost2010PropOp50
 70
     0
102
RTVSPost2010Prop51ColorIndex
 90
      256
102
RTVSPost2010Prop51ColorRGB
 90
-16777216
102
RTVSPost2010PropOp51
 70
     0
102
RTVSPost2010Prop52
140
1.0
102
RTVSPost2010PropOp52
 70
     0
102
RTVSPost2010Prop53
 90
        2
102
RTVSPost2010PropOp53
 70
     0
102
RTVSPost2010Prop54
  1
strokes_ogs.tif
102
RTVSPost2010PropOp54
 70
     0
102
RTVSPost2010Prop55
280
     0
102
RTVSPost2010PropOp55
 70
     0
102
RTVSPost2010Prop56
140
1.0
102
RTVSPost2010PropOp56
 70
     0
102
RTVSPost2010Prop57
140
1.0
102
RTVSPost2010PropOp57
 70
     0
102
RTVSPropertyOp0
 70
     0
102
RTVSPropertyOp1
 70
     0
102
RTVSPropertyOp2
 70
     0
102
RTVSPropertyOp3
 70
     0
102
RTVSPropertyOp4
 70
     0
102
RTVSPropertyOp5
 70
     0
102
RTVSPropertyOp6
 70
     0
102
RTVSPropertyOp7
 70
     0
102
RTVSPropertyOp8
 70
     0
102
RTVSPropertyOp9
 70
     0
102
RTVSPropertyOp10
 70
     0
102
RTVSPropertyOp11
 70
     0
102
RTVSPropertyOp12
 70
     0
102
RTVSPropertyOp13
 70
     0
102
RTVSPropertyOp14
 70
     2
102
RTVSPropertyOp15
 70
     0
102
RTVSPropertyOp16
 70
     0
102
RTVSPropertyOp17
 70
     0
102
RTVSPropertyOp18
 70
     0
102
RTVSPropertyOp19
 70
     0
102
RTVSPropertyOp20
 70
     0
102
RTVSPropertyOp21
 70
     0
102
RTVSPropertyOp22
 70
     0
102
RTVSPropertyOp23
 70
     0
102
RTVSPropertyOp24
 70
     0
102
RTVSPropertyOp25
 70
     0
102
RTVSPropertyOp26
 70
     0
102
RTVSPropertyOp27
 70
     0
102
RTVSPropertyOp28
 70
     0
102
RTVSPropertyOp29
 70
     0
102
RTVSPropertyOp30
 70
     0
102
RTVSPropertyOp31
 70
     0
102
RTVSPropertyOp32
 70
     0
102
RTVSPropertyOp33
 70
     0
102
RTVSPropertyOp34
 70
     0
102
RTVSPropertyOp35
 70
     0
102
RTVSPropertyOp36
 70
     0
102
RTVSPropertyOp37
 70
     0
102
RTVSPropertyOp38
 70
     0
102
RTVSPropertyOp39
 70
     0
102
RTVSPropertyOp40
 70
     0
102
RTVSPropertyOp41
 70
     0
102
RTVSPropertyOp42
 70
     0
102
RTVSPropertyOp43
 70
     0
102
RTVSPropertyOp44
 70
     0
102
RTVSPropertyOp45
 70
     0
102
RTVSPropertyOp46
 70
     0
102
RTVSPropertyOp47
 70
     0
102
RTVSPropertyOp48
 70
     0
102
RTVSPropertyOp49
 70
     0
102
RTVSPropertyOp50
 70
     0
102
RTVSPropertyOp51
 70
     0
102
RTVSPropertyOp52
 70
     0
102
RTVSPropertyOp53
 70
     0
102
RTVSPropertyOp54
 70
     0
102
RTVSPropertyOp55
 70
     0
102
RTVSPropertyOp56
 70
     0
102
RTVSPropertyOp57
 70
     0
102
RTVSPropertyOp58
 70
     1
102
RTVSPropertyOp59
 70
     1
102
RTVSPropertyOp60
 70
     1
102
RTVSPropertyOp61
 70
     1
102
RTVSPropertyOp62
 70
     1
  0
XRECORD
  5
666
102
{ACAD_REACTORS
330
665
102
}
330
665
100
AcDbXrecord
280
     1
102
RTVSPost2010Prop28
280
     0
102
RTVSPost2010PropOp28
 70
     1
102
RTVSPost2010Prop29
280
     1
102
RTVSPost2010PropOp29
 70
     1
102
RTVSPost2010Prop30
280
     1
102
RTVSPost2010PropOp30
 70
     1
102
RTVSPost2010Prop31
280
     0
102
RTVSPost2010PropOp31
 70
     1
102
RTVSPost2010Prop32
280
     0
102
RTVSPost2010PropOp32
 70
     1
102
RTVSPost2010Prop33
280
     0
102
RTVSPost2010PropOp33
 70
     1
102
RTVSPost2010Prop34
280
     0
102
RTVSPost2010PropOp34
 70
     1
102
RTVSPost2010Prop35
280
     0
102
RTVSPost2010PropOp35
 70
     1
102
RTVSPost2010Prop36
280
     0
102
RTVSPost2010PropOp36
 70
     1
102
RTVSPost2010Prop37
 90
       50
102
RTVSPost2010PropOp37
 70
     1
102
RTVSPost2010Prop38
140
0.0
102
RTVSPost2010PropOp38
 70
     1
102
RTVSPost2010Prop39
140
1.0
102
RTVSPost2010PropOp39
 70
     1
102
RTVSPost2010Prop40
 90
        0
102
RTVSPost2010PropOp40
 70
     1
102
RTVSPost2010Prop41ColorIndex
 90
       18
102
RTVSPost2010Prop41ColorRGB
 90
        0
102
RTVSPost2010PropOp41
 70
     1
102
RTVSPost2010Prop42
 90
       50
102
RTVSPost2010PropOp42
 70
     1
102
RTVSPost2010Prop43
 90
        3
102
RTVSPost2010PropOp43
 70
     1
102
RTVSPost2010Prop44ColorIndex
 90
        5
102
RTVSPost2010Prop44ColorRGB
 90
      255
102
RTVSPost2010PropOp44
 70
     1
102
RTVSPost2010Prop45
280
     0
102
RTVSPost2010PropOp45
 70
     1
102
RTVSPost2010Prop46
 90
       50
102
RTVSPost2010PropOp46
 70
     1
102
RTVSPost2010Prop47
 90
       50
102
RTVSPost2010PropOp47
 70
     1
102
RTVSPost2010Prop48
 90
       50
102
RTVSPost2010PropOp48
 70
     1
102
RTVSPost2010Prop49
280
     0
102
RTVSPost2010PropOp49
 70
     1
102
RTVSPost2010Prop50
 90
       50
102
RTVSPost2010PropOp50
 70
     1
102
RTVSPost2010Prop51ColorIndex
 90
      256
102
RTVSPost2010Prop51ColorRGB
 90
-16777216
102
RTVSPost2010PropOp51
 70
     0
102
RTVSPost2010Prop52
140
1.0
102
RTVSPost2010PropOp52
 70
     0
102
RTVSPost2010Prop53
 90
        2
102
RTVSPost2010PropOp53
 70
     1
102
RTVSPost2010Prop54
  1
strokes_ogs.tif
102
RTVSPost2010PropOp54
 70
     1
102
RTVSPost2010Prop55
280
     0
102
RTVSPost2010PropOp55
 70
     1
102
RTVSPost2010Prop56
140
1.0
102
RTVSPost2010PropOp56
 70
     1
102
RTVSPost2010Prop57
140
1.0
102
RTVSPost2010PropOp57
 70
     1
102
RTVSPropertyOp0
 70
     1
102
RTVSPropertyOp1
 70
     1
102
RTVSPropertyOp2
 70
     1
102
RTVSPropertyOp3
 70
     1
102
RTVSPropertyOp4
 70
     1
102
RTVSPropertyOp5
 70
     1
102
RTVSPropertyOp6
 70
     1
102
RTVSPropertyOp7
 70
     1
102
RTVSPropertyOp8
 70
     1
102
RTVSPropertyOp9
 70
     1
102
RTVSPropertyOp10
 70
     1
102
RTVSPropertyOp11
 70
     1
102
RTVSPropertyOp12
 70
     1
102
RTVSPropertyOp13
 70
     1
102
RTVSPropertyOp14
 70
     1
102
RTVSPropertyOp15
 70
     1
102
RTVSPropertyOp16
 70
     1
102
RTVSPropertyOp17
 70
     1
102
RTVSPropertyOp18
 70
     1
102
RTVSPropertyOp19
 70
     1
102
RTVSPropertyOp20
 70
     1
102
RTVSPropertyOp21
 70
     1
102
RTVSPropertyOp22
 70
     1
102
RTVSPropertyOp23
 70
     1
102
RTVSPropertyOp24
 70
     1
102
RTVSPropertyOp25
 70
     1
102
RTVSPropertyOp26
 70
     1
102
RTVSPropertyOp27
 70
     1
102
RTVSPropertyOp28
 70
     1
102
RTVSPropertyOp29
 70
     1
102
RTVSPropertyOp30
 70
     1
102
RTVSPropertyOp31
 70
     1
102
RTVSPropertyOp32
 70
     1
102
RTVSPropertyOp33
 70
     1
102
RTVSPropertyOp34
 70
     1
102
RTVSPropertyOp35
 70
     1
102
RTVSPropertyOp36
 70
     1
102
RTVSPropertyOp37
 70
     1
102
RTVSPropertyOp38
 70
     1
102
RTVSPropertyOp39
 70
     1
102
RTVSPropertyOp40
 70
     1
102
RTVSPropertyOp41
 70
     1
102
RTVSPropertyOp42
 70
     1
102
RTVSPropertyOp43
 70
     1
102
RTVSPropertyOp44
 70
     1
102
RTVSPropertyOp45
 70
     1
102
RTVSPropertyOp46
 70
     1
102
RTVSPropertyOp47
 70
     1
102
RTVSPropertyOp48
 70
     1
102
RTVSPropertyOp49
 70
     1
102
RTVSPropertyOp50
 70
     1
102
RTVSPropertyOp51
 70
     0
102
RTVSPropertyOp52
 70
     0
102
RTVSPropertyOp53
 70
     1
102
RTVSPropertyOp54
 70
     1
102
RTVSPropertyOp55
 70
     1
102
RTVSPropertyOp56
 70
     1
102
RTVSPropertyOp57
 70
     1
102
RTVSPropertyOp58
 70
     1
102
RTVSPropertyOp59
 70
     1
102
RTVSPropertyOp60
 70
     1
102
RTVSPropertyOp61
 70
     1
102
RTVSPropertyOp62
 70
     1
  0
XRECORD
  5
66E
102
{ACAD_REACTORS
330
66D
102
}
330
66D
100
AcDbXrecord
280
     1
102
RTVSPost2010Prop28
280
     0
102
RTVSPost2010PropOp28
 70
     0
102
RTVSPost2010Prop29
280
     1
102
RTVSPost2010PropOp29
 70
     0
102
RTVSPost2010Prop30
280
     1
102
RTVSPost2010PropOp30
 70
     0
102
RTVSPost2010Prop31
280
     0
102
RTVSPost2010PropOp31
 70
     0
102
RTVSPost2010Prop32
280
     0
102
RTVSPost2010PropOp32
 70
     0
102
RTVSPost2010Prop33
280
     0
102
RTVSPost2010PropOp33
 70
     0
102
RTVSPost2010Prop34
280
     0
102
RTVSPost2010PropOp34
 70
     0
102
RTVSPost2010Prop35
280
     0
102
RTVSPost2010PropOp35
 70
     0
102
RTVSPost2010Prop36
280
     0
102
RTVSPost2010PropOp36
 70
     0
102
RTVSPost2010Prop37
 90
       50
102
RTVSPost2010PropOp37
 70
     0
102
RTVSPost2010Prop38
140
0.0
102
RTVSPost2010PropOp38
 70
     0
102
RTVSPost2010Prop39
140
1.0
102
RTVSPost2010PropOp39
 70
     0
102
RTVSPost2010Prop40
 90
        0
102
RTVSPost2010PropOp40
 70
     0
102
RTVSPost2010Prop41ColorIndex
 90
       18
102
RTVSPost2010Prop41ColorRGB
 90
        0
102
RTVSPost2010PropOp41
 70
     0
102
RTVSPost2010Prop42
 90
       50
102
RTVSPost2010PropOp42
 70
     0
102
RTVSPost2010Prop43
 90
        3
102
RTVSPost2010PropOp43
 70
     0
102
RTVSPost2010Prop44ColorIndex
 90
        5
102
RTVSPost2010Prop44ColorRGB
 90
      255
102
RTVSPost2010PropOp44
 70
     0
102
RTVSPost2010Prop45
280
     0
102
RTVSPost2010PropOp45
 70
     0
102
RTVSPost2010Prop46
 90
       50
102
RTVSPost2010PropOp46
 70
     0
102
RTVSPost2010Prop47
 90
       50
102
RTVSPost2010PropOp47
 70
     0
102
RTVSPost2010Prop48
 90
       50
102
RTVSPost2010PropOp48
 70
     0
102
RTVSPost2010Prop49
280
     0
102
RTVSPost2010PropOp49
 70
     0
102
RTVSPost2010Prop50
 90
       50
102
RTVSPost2010PropOp50
 70
     0
102
RTVSPost2010Prop51ColorIndex
 90
      256
102
RTVSPost2010Prop51ColorRGB
 90
-16777216
102
RTVSPost2010PropOp51
 70
     0
102
RTVSPost2010Prop52
140
1.0
102
RTVSPost2010PropOp52
 70
     0
102
RTVSPost2010Prop53
 90
        2
102
RTVSPost2010PropOp53
 70
     0
102
RTVSPost2010Prop54
  1
strokes_ogs.tif
102
RTVSPost2010PropOp54
 70
     0
102
RTVSPost2010Prop55
280
     0
102
RTVSPost2010PropOp55
 70
     0
102
RTVSPost2010Prop56
140
1.0
102
RTVSPost2010PropOp56
 70
     0
102
RTVSPost2010Prop57
140
1.0
102
RTVSPost2010PropOp57
 70
     0
102
RTVSPropertyOp0
 70
     0
102
RTVSPropertyOp1
 70
     0
102
RTVSPropertyOp2
 70
     0
102
RTVSPropertyOp3
 70
     0
102
RTVSPropertyOp4
 70
     0
102
RTVSPropertyOp5
 70
     0
102
RTVSPropertyOp6
 70
     0
102
RTVSPropertyOp7
 70
     0
102
RTVSPropertyOp8
 70
     0
102
RTVSPropertyOp9
 70
     0
102
RTVSPropertyOp10
 70
     0
102
RTVSPropertyOp11
 70
     0
102
RTVSPropertyOp12
 70
     0
102
RTVSPropertyOp13
 70
     0
102
RTVSPropertyOp14
 70
     2
102
RTVSPropertyOp15
 70
     0
102
RTVSPropertyOp16
 70
     0
102
RTVSPropertyOp17
 70
     0
102
RTVSPropertyOp18
 70
     0
102
RTVSPropertyOp19
 70
     0
102
RTVSPropertyOp20
 70
     0
102
RTVSPropertyOp21
 70
     0
102
RTVSPropertyOp22
 70
     0
102
RTVSPropertyOp23
 70
     0
102
RTVSPropertyOp24
 70
     0
102
RTVSPropertyOp25
 70
     0
102
RTVSPropertyOp26
 70
     0
102
RTVSPropertyOp27
 70
     0
102
RTVSPropertyOp28
 70
     0
102
RTVSPropertyOp29
 70
     0
102
RTVSPropertyOp30
 70
     0
102
RTVSPropertyOp31
 70
     0
102
RTVSPropertyOp32
 70
     0
102
RTVSPropertyOp33
 70
     0
102
RTVSPropertyOp34
 70
     0
102
RTVSPropertyOp35
 70
     0
102
RTVSPropertyOp36
 70
     0
102
RTVSPropertyOp37
 70
     0
102
RTVSPropertyOp38
 70
     0
102
RTVSPropertyOp39
 70
     0
102
RTVSPropertyOp40
 70
     0
102
RTVSPropertyOp41
 70
     0
102
RTVSPropertyOp42
 70
     0
102
RTVSPropertyOp43
 70
     0
102
RTVSPropertyOp44
 70
     0
102
RTVSPropertyOp45
 70
     0
102
RTVSPropertyOp46
 70
     0
102
RTVSPropertyOp47
 70
     0
102
RTVSPropertyOp48
 70
     0
102
RTVSPropertyOp49
 70
     0
102
RTVSPropertyOp50
 70
     0
102
RTVSPropertyOp51
 70
     0
102
RTVSPropertyOp52
 70
     0
102
RTVSPropertyOp53
 70
     0
102
RTVSPropertyOp54
 70
     0
102
RTVSPropertyOp55
 70
     0
102
RTVSPropertyOp56
 70
     0
102
RTVSPropertyOp57
 70
     0
102
RTVSPropertyOp58
 70
     1
102
RTVSPropertyOp59
 70
     1
102
RTVSPropertyOp60
 70
     1
102
RTVSPropertyOp61
 70
     1
102
RTVSPropertyOp62
 70
     1
  0
XRECORD
  5
65C
102
{ACAD_REACTORS
330
65B
102
}
330
65B
100
AcDbXrecord
280
     1
102
RTVSPost2010Prop28
280
     0
102
RTVSPost2010PropOp28
 70
     1
102
RTVSPost2010Prop29
280
     1
102
RTVSPost2010PropOp29
 70
     1
102
RTVSPost2010Prop30
280
     1
102
RTVSPost2010PropOp30
 70
     1
102
RTVSPost2010Prop31
280
     0
102
RTVSPost2010PropOp31
 70
     1
102
RTVSPost2010Prop32
280
     0
102
RTVSPost2010PropOp32
 70
     1
102
RTVSPost2010Prop33
280
     0
102
RTVSPost2010PropOp33
 70
     1
102
RTVSPost2010Prop34
280
     0
102
RTVSPost2010PropOp34
 70
     1
102
RTVSPost2010Prop35
280
     0
102
RTVSPost2010PropOp35
 70
     1
102
RTVSPost2010Prop36
280
     0
102
RTVSPost2010PropOp36
 70
     1
102
RTVSPost2010Prop37
 90
       50
102
RTVSPost2010PropOp37
 70
     1
102
RTVSPost2010Prop38
140
0.0
102
RTVSPost2010PropOp38
 70
     1
102
RTVSPost2010Prop39
140
1.0
102
RTVSPost2010PropOp39
 70
     1
102
RTVSPost2010Prop40
 90
        0
102
RTVSPost2010PropOp40
 70
     1
102
RTVSPost2010Prop41ColorIndex
 90
       18
102
RTVSPost2010Prop41ColorRGB
 90
        0
102
RTVSPost2010PropOp41
 70
     1
102
RTVSPost2010Prop42
 90
       50
102
RTVSPost2010PropOp42
 70
     1
102
RTVSPost2010Prop43
 90
        3
102
RTVSPost2010PropOp43
 70
     1
102
RTVSPost2010Prop44ColorIndex
 90
        5
102
RTVSPost2010Prop44ColorRGB
 90
      255
102
RTVSPost2010PropOp44
 70
     1
102
RTVSPost2010Prop45
280
     0
102
RTVSPost2010PropOp45
 70
     1
102
RTVSPost2010Prop46
 90
       50
102
RTVSPost2010PropOp46
 70
     1
102
RTVSPost2010Prop47
 90
       50
102
RTVSPost2010PropOp47
 70
     1
102
RTVSPost2010Prop48
 90
       50
102
RTVSPost2010PropOp48
 70
     1
102
RTVSPost2010Prop49
280
     0
102
RTVSPost2010PropOp49
 70
     1
102
RTVSPost2010Prop50
 90
       50
102
RTVSPost2010PropOp50
 70
     1
102
RTVSPost2010Prop51ColorIndex
 90
      256
102
RTVSPost2010Prop51ColorRGB
 90
-16777216
102
RTVSPost2010PropOp51
 70
     0
102
RTVSPost2010Prop52
140
1.0
102
RTVSPost2010PropOp52
 70
     0
102
RTVSPost2010Prop53
 90
        2
102
RTVSPost2010PropOp53
 70
     1
102
RTVSPost2010Prop54
  1
strokes_ogs.tif
102
RTVSPost2010PropOp54
 70
     1
102
RTVSPost2010Prop55
280
     0
102
RTVSPost2010PropOp55
 70
     1
102
RTVSPost2010Prop56
140
1.0
102
RTVSPost2010PropOp56
 70
     1
102
RTVSPost2010Prop57
140
1.0
102
RTVSPost2010PropOp57
 70
     1
102
RTVSPropertyOp0
 70
     1
102
RTVSPropertyOp1
 70
     1
102
RTVSPropertyOp2
 70
     1
102
RTVSPropertyOp3
 70
     1
102
RTVSPropertyOp4
 70
     1
102
RTVSPropertyOp5
 70
     1
102
RTVSPropertyOp6
 70
     1
102
RTVSPropertyOp7
 70
     1
102
RTVSPropertyOp8
 70
     1
102
RTVSPropertyOp9
 70
     1
102
RTVSPropertyOp10
 70
     1
102
RTVSPropertyOp11
 70
     1
102
RTVSPropertyOp12
 70
     1
102
RTVSPropertyOp13
 70
     1
102
RTVSPropertyOp14
 70
     1
102
RTVSPropertyOp15
 70
     1
102
RTVSPropertyOp16
 70
     1
102
RTVSPropertyOp17
 70
     1
102
RTVSPropertyOp18
 70
     1
102
RTVSPropertyOp19
 70
     1
102
RTVSPropertyOp20
 70
     1
102
RTVSPropertyOp21
 70
     1
102
RTVSPropertyOp22
 70
     1
102
RTVSPropertyOp23
 70
     1
102
RTVSPropertyOp24
 70
     1
102
RTVSPropertyOp25
 70
     1
102
RTVSPropertyOp26
 70
     1
102
RTVSPropertyOp27
 70
     1
102
RTVSPropertyOp28
 70
     1
102
RTVSPropertyOp29
 70
     1
102
RTVSPropertyOp30
 70
     1
102
RTVSPropertyOp31
 70
     1
102
RTVSPropertyOp32
 70
     1
102
RTVSPropertyOp33
 70
     1
102
RTVSPropertyOp34
 70
     1
102
RTVSPropertyOp35
 70
     1
102
RTVSPropertyOp36
 70
     1
102
RTVSPropertyOp37
 70
     1
102
RTVSPropertyOp38
 70
     1
102
RTVSPropertyOp39
 70
     1
102
RTVSPropertyOp40
 70
     1
102
RTVSPropertyOp41
 70
     1
102
RTVSPropertyOp42
 70
     1
102
RTVSPropertyOp43
 70
     1
102
RTVSPropertyOp44
 70
     1
102
RTVSPropertyOp45
 70
     1
102
RTVSPropertyOp46
 70
     1
102
RTVSPropertyOp47
 70
     1
102
RTVSPropertyOp48
 70
     1
102
RTVSPropertyOp49
 70
     1
102
RTVSPropertyOp50
 70
     1
102
RTVSPropertyOp51
 70
     0
102
RTVSPropertyOp52
 70
     0
102
RTVSPropertyOp53
 70
     1
102
RTVSPropertyOp54
 70
     1
102
RTVSPropertyOp55
 70
     1
102
RTVSPropertyOp56
 70
     1
102
RTVSPropertyOp57
 70
     1
102
RTVSPropertyOp58
 70
     1
102
RTVSPropertyOp59
 70
     1
102
RTVSPropertyOp60
 70
     1
102
RTVSPropertyOp61
 70
     1
102
RTVSPropertyOp62
 70
     1
  0
XRECORD
  5
67A
102
{ACAD_REACTORS
330
679
102
}
330
679
100
AcDbXrecord
280
     1
102
RTVSPost2010Prop28
280
     0
102
RTVSPost2010PropOp28
 70
     1
102
RTVSPost2010Prop29
280
     1
102
RTVSPost2010PropOp29
 70
     1
102
RTVSPost2010Prop30
280
     1
102
RTVSPost2010PropOp30
 70
     1
102
RTVSPost2010Prop31
280
     0
102
RTVSPost2010PropOp31
 70
     1
102
RTVSPost2010Prop32
280
     0
102
RTVSPost2010PropOp32
 70
     1
102
RTVSPost2010Prop33
280
     0
102
RTVSPost2010PropOp33
 70
     1
102
RTVSPost2010Prop34
280
     0
102
RTVSPost2010PropOp34
 70
     1
102
RTVSPost2010Prop35
280
     0
102
RTVSPost2010PropOp35
 70
     1
102
RTVSPost2010Prop36
280
     0
102
RTVSPost2010PropOp36
 70
     1
102
RTVSPost2010Prop37
 90
       50
102
RTVSPost2010PropOp37
 70
     1
102
RTVSPost2010Prop38
140
0.0
102
RTVSPost2010PropOp38
 70
     1
102
RTVSPost2010Prop39
140
1.0
102
RTVSPost2010PropOp39
 70
     1
102
RTVSPost2010Prop40
 90
        0
102
RTVSPost2010PropOp40
 70
     1
102
RTVSPost2010Prop41ColorIndex
 90
       18
102
RTVSPost2010Prop41ColorRGB
 90
        0
102
RTVSPost2010PropOp41
 70
     1
102
RTVSPost2010Prop42
 90
       50
102
RTVSPost2010PropOp42
 70
     1
102
RTVSPost2010Prop43
 90
        3
102
RTVSPost2010PropOp43
 70
     1
102
RTVSPost2010Prop44ColorIndex
 90
        5
102
RTVSPost2010Prop44ColorRGB
 90
      255
102
RTVSPost2010PropOp44
 70
     1
102
RTVSPost2010Prop45
280
     0
102
RTVSPost2010PropOp45
 70
     1
102
RTVSPost2010Prop46
 90
       50
102
RTVSPost2010PropOp46
 70
     1
102
RTVSPost2010Prop47
 90
       50
102
RTVSPost2010PropOp47
 70
     1
102
RTVSPost2010Prop48
 90
       50
102
RTVSPost2010PropOp48
 70
     1
102
RTVSPost2010Prop49
280
     0
102
RTVSPost2010PropOp49
 70
     1
102
RTVSPost2010Prop50
 90
       50
102
RTVSPost2010PropOp50
 70
     1
102
RTVSPost2010Prop51ColorIndex
 90
      256
102
RTVSPost2010Prop51ColorRGB
 90
-16777216
102
RTVSPost2010PropOp51
 70
     0
102
RTVSPost2010Prop52
140
1.0
102
RTVSPost2010PropOp52
 70
     0
102
RTVSPost2010Prop53
 90
        2
102
RTVSPost2010PropOp53
 70
     1
102
RTVSPost2010Prop54
  1
strokes_ogs.tif
102
RTVSPost2010PropOp54
 70
     1
102
RTVSPost2010Prop55
280
     0
102
RTVSPost2010PropOp55
 70
     1
102
RTVSPost2010Prop56
140
1.0
102
RTVSPost2010PropOp56
 70
     1
102
RTVSPost2010Prop57
140
1.0
102
RTVSPost2010PropOp57
 70
     1
102
RTVSPropertyOp0
 70
     1
102
RTVSPropertyOp1
 70
     1
102
RTVSPropertyOp2
 70
     1
102
RTVSPropertyOp3
 70
     1
102
RTVSPropertyOp4
 70
     1
102
RTVSPropertyOp5
 70
     1
102
RTVSPropertyOp6
 70
     1
102
RTVSPropertyOp7
 70
     1
102
RTVSPropertyOp8
 70
     1
102
RTVSPropertyOp9
 70
     1
102
RTVSPropertyOp10
 70
     1
102
RTVSPropertyOp11
 70
     1
102
RTVSPropertyOp12
 70
     1
102
RTVSPropertyOp13
 70
     1
102
RTVSPropertyOp14
 70
     1
102
RTVSPropertyOp15
 70
     1
102
RTVSPropertyOp16
 70
     1
102
RTVSPropertyOp17
 70
     1
102
RTVSPropertyOp18
 70
     1
102
RTVSPropertyOp19
 70
     1
102
RTVSPropertyOp20
 70
     1
102
RTVSPropertyOp21
 70
     1
102
RTVSPropertyOp22
 70
     1
102
RTVSPropertyOp23
 70
     1
102
RTVSPropertyOp24
 70
     1
102
RTVSPropertyOp25
 70
     1
102
RTVSPropertyOp26
 70
     1
102
RTVSPropertyOp27
 70
     1
102
RTVSPropertyOp28
 70
     1
102
RTVSPropertyOp29
 70
     1
102
RTVSPropertyOp30
 70
     1
102
RTVSPropertyOp31
 70
     1
102
RTVSPropertyOp32
 70
     1
102
RTVSPropertyOp33
 70
     1
102
RTVSPropertyOp34
 70
     1
102
RTVSPropertyOp35
 70
     1
102
RTVSPropertyOp36
 70
     1
102
RTVSPropertyOp37
 70
     1
102
RTVSPropertyOp38
 70
     1
102
RTVSPropertyOp39
 70
     1
102
RTVSPropertyOp40
 70
     1
102
RTVSPropertyOp41
 70
     1
102
RTVSPropertyOp42
 70
     1
102
RTVSPropertyOp43
 70
     1
102
RTVSPropertyOp44
 70
     1
102
RTVSPropertyOp45
 70
     1
102
RTVSPropertyOp46
 70
     1
102
RTVSPropertyOp47
 70
     1
102
RTVSPropertyOp48
 70
     1
102
RTVSPropertyOp49
 70
     1
102
RTVSPropertyOp50
 70
     1
102
RTVSPropertyOp51
 70
     0
102
RTVSPropertyOp52
 70
     0
102
RTVSPropertyOp53
 70
     1
102
RTVSPropertyOp54
 70
     1
102
RTVSPropertyOp55
 70
     1
102
RTVSPropertyOp56
 70
     1
102
RTVSPropertyOp57
 70
     1
102
RTVSPropertyOp58
 70
     1
102
RTVSPropertyOp59
 70
     1
102
RTVSPropertyOp60
 70
     1
102
RTVSPropertyOp61
 70
     1
102
RTVSPropertyOp62
 70
     1
  0
XRECORD
  5
678
102
{ACAD_REACTORS
330
677
102
}
330
677
100
AcDbXrecord
280
     1
102
RTVSPost2010Prop28
280
     0
102
RTVSPost2010PropOp28
 70
     1
102
RTVSPost2010Prop29
280
     1
102
RTVSPost2010PropOp29
 70
     1
102
RTVSPost2010Prop30
280
     1
102
RTVSPost2010PropOp30
 70
     1
102
RTVSPost2010Prop31
280
     0
102
RTVSPost2010PropOp31
 70
     1
102
RTVSPost2010Prop32
280
     0
102
RTVSPost2010PropOp32
 70
     1
102
RTVSPost2010Prop33
280
     0
102
RTVSPost2010PropOp33
 70
     1
102
RTVSPost2010Prop34
280
     0
102
RTVSPost2010PropOp34
 70
     1
102
RTVSPost2010Prop35
280
     0
102
RTVSPost2010PropOp35
 70
     1
102
RTVSPost2010Prop36
280
     0
102
RTVSPost2010PropOp36
 70
     1
102
RTVSPost2010Prop37
 90
       50
102
RTVSPost2010PropOp37
 70
     1
102
RTVSPost2010Prop38
140
0.0
102
RTVSPost2010PropOp38
 70
     1
102
RTVSPost2010Prop39
140
1.0
102
RTVSPost2010PropOp39
 70
     1
102
RTVSPost2010Prop40
 90
        0
102
RTVSPost2010PropOp40
 70
     1
102
RTVSPost2010Prop41ColorIndex
 90
       18
102
RTVSPost2010Prop41ColorRGB
 90
        0
102
RTVSPost2010PropOp41
 70
     1
102
RTVSPost2010Prop42
 90
       50
102
RTVSPost2010PropOp42
 70
     1
102
RTVSPost2010Prop43
 90
        3
102
RTVSPost2010PropOp43
 70
     1
102
RTVSPost2010Prop44ColorIndex
 90
        5
102
RTVSPost2010Prop44ColorRGB
 90
      255
102
RTVSPost2010PropOp44
 70
     1
102
RTVSPost2010Prop45
280
     0
102
RTVSPost2010PropOp45
 70
     1
102
RTVSPost2010Prop46
 90
       50
102
RTVSPost2010PropOp46
 70
     1
102
RTVSPost2010Prop47
 90
       50
102
RTVSPost2010PropOp47
 70
     1
102
RTVSPost2010Prop48
 90
       50
102
RTVSPost2010PropOp48
 70
     1
102
RTVSPost2010Prop49
280
     0
102
RTVSPost2010PropOp49
 70
     1
102
RTVSPost2010Prop50
 90
       50
102
RTVSPost2010PropOp50
 70
     1
102
RTVSPost2010Prop51ColorIndex
 90
      256
102
RTVSPost2010Prop51ColorRGB
 90
-16777216
102
RTVSPost2010PropOp51
 70
     0
102
RTVSPost2010Prop52
140
1.0
102
RTVSPost2010PropOp52
 70
     0
102
RTVSPost2010Prop53
 90
        2
102
RTVSPost2010PropOp53
 70
     1
102
RTVSPost2010Prop54
  1
strokes_ogs.tif
102
RTVSPost2010PropOp54
 70
     1
102
RTVSPost2010Prop55
280
     0
102
RTVSPost2010PropOp55
 70
     1
102
RTVSPost2010Prop56
140
1.0
102
RTVSPost2010PropOp56
 70
     1
102
RTVSPost2010Prop57
140
1.0
102
RTVSPost2010PropOp57
 70
     1
102
RTVSPropertyOp0
 70
     1
102
RTVSPropertyOp1
 70
     1
102
RTVSPropertyOp2
 70
     1
102
RTVSPropertyOp3
 70
     1
102
RTVSPropertyOp4
 70
     1
102
RTVSPropertyOp5
 70
     1
102
RTVSPropertyOp6
 70
     1
102
RTVSPropertyOp7
 70
     1
102
RTVSPropertyOp8
 70
     1
102
RTVSPropertyOp9
 70
     1
102
RTVSPropertyOp10
 70
     1
102
RTVSPropertyOp11
 70
     1
102
RTVSPropertyOp12
 70
     1
102
RTVSPropertyOp13
 70
     1
102
RTVSPropertyOp14
 70
     1
102
RTVSPropertyOp15
 70
     1
102
RTVSPropertyOp16
 70
     1
102
RTVSPropertyOp17
 70
     1
102
RTVSPropertyOp18
 70
     1
102
RTVSPropertyOp19
 70
     1
102
RTVSPropertyOp20
 70
     1
102
RTVSPropertyOp21
 70
     1
102
RTVSPropertyOp22
 70
     1
102
RTVSPropertyOp23
 70
     1
102
RTVSPropertyOp24
 70
     1
102
RTVSPropertyOp25
 70
     1
102
RTVSPropertyOp26
 70
     1
102
RTVSPropertyOp27
 70
     1
102
RTVSPropertyOp28
 70
     1
102
RTVSPropertyOp29
 70
     1
102
RTVSPropertyOp30
 70
     1
102
RTVSPropertyOp31
 70
     1
102
RTVSPropertyOp32
 70
     1
102
RTVSPropertyOp33
 70
     1
102
RTVSPropertyOp34
 70
     1
102
RTVSPropertyOp35
 70
     1
102
RTVSPropertyOp36
 70
     1
102
RTVSPropertyOp37
 70
     1
102
RTVSPropertyOp38
 70
     1
102
RTVSPropertyOp39
 70
     1
102
RTVSPropertyOp40
 70
     1
102
RTVSPropertyOp41
 70
     1
102
RTVSPropertyOp42
 70
     1
102
RTVSPropertyOp43
 70
     1
102
RTVSPropertyOp44
 70
     1
102
RTVSPropertyOp45
 70
     1
102
RTVSPropertyOp46
 70
     1
102
RTVSPropertyOp47
 70
     1
102
RTVSPropertyOp48
 70
     1
102
RTVSPropertyOp49
 70
     1
102
RTVSPropertyOp50
 70
     1
102
RTVSPropertyOp51
 70
     0
102
RTVSPropertyOp52
 70
     0
102
RTVSPropertyOp53
 70
     1
102
RTVSPropertyOp54
 70
     1
102
RTVSPropertyOp55
 70
     1
102
RTVSPropertyOp56
 70
     1
102
RTVSPropertyOp57
 70
     1
102
RTVSPropertyOp58
 70
     1
102
RTVSPropertyOp59
 70
     1
102
RTVSPropertyOp60
 70
     1
102
RTVSPropertyOp61
 70
     1
102
RTVSPropertyOp62
 70
     1
  0
XRECORD
  5
672
102
{ACAD_REACTORS
330
671
102
}
330
671
100
AcDbXrecord
280
     1
102
RTVSPost2010Prop28
280
     0
102
RTVSPost2010PropOp28
 70
     1
102
RTVSPost2010Prop29
280
     1
102
RTVSPost2010PropOp29
 70
     1
102
RTVSPost2010Prop30
280
     1
102
RTVSPost2010PropOp30
 70
     1
102
RTVSPost2010Prop31
280
     0
102
RTVSPost2010PropOp31
 70
     1
102
RTVSPost2010Prop32
280
     0
102
RTVSPost2010PropOp32
 70
     1
102
RTVSPost2010Prop33
280
     0
102
RTVSPost2010PropOp33
 70
     1
102
RTVSPost2010Prop34
280
     0
102
RTVSPost2010PropOp34
 70
     1
102
RTVSPost2010Prop35
280
     0
102
RTVSPost2010PropOp35
 70
     1
102
RTVSPost2010Prop36
280
     0
102
RTVSPost2010PropOp36
 70
     1
102
RTVSPost2010Prop37
 90
       50
102
RTVSPost2010PropOp37
 70
     1
102
RTVSPost2010Prop38
140
0.0
102
RTVSPost2010PropOp38
 70
     1
102
RTVSPost2010Prop39
140
1.0
102
RTVSPost2010PropOp39
 70
     1
102
RTVSPost2010Prop40
 90
        0
102
RTVSPost2010PropOp40
 70
     1
102
RTVSPost2010Prop41ColorIndex
 90
       18
102
RTVSPost2010Prop41ColorRGB
 90
        0
102
RTVSPost2010PropOp41
 70
     1
102
RTVSPost2010Prop42
 90
       50
102
RTVSPost2010PropOp42
 70
     1
102
RTVSPost2010Prop43
 90
        3
102
RTVSPost2010PropOp43
 70
     1
102
RTVSPost2010Prop44ColorIndex
 90
        5
102
RTVSPost2010Prop44ColorRGB
 90
      255
102
RTVSPost2010PropOp44
 70
     1
102
RTVSPost2010Prop45
280
     0
102
RTVSPost2010PropOp45
 70
     1
102
RTVSPost2010Prop46
 90
       50
102
RTVSPost2010PropOp46
 70
     1
102
RTVSPost2010Prop47
 90
       50
102
RTVSPost2010PropOp47
 70
     1
102
RTVSPost2010Prop48
 90
       50
102
RTVSPost2010PropOp48
 70
     1
102
RTVSPost2010Prop49
280
     0
102
RTVSPost2010PropOp49
 70
     1
102
RTVSPost2010Prop50
 90
       50
102
RTVSPost2010PropOp50
 70
     1
102
RTVSPost2010Prop51ColorIndex
 90
      256
102
RTVSPost2010Prop51ColorRGB
 90
-16777216
102
RTVSPost2010PropOp51
 70
     0
102
RTVSPost2010Prop52
140
1.0
102
RTVSPost2010PropOp52
 70
     0
102
RTVSPost2010Prop53
 90
        2
102
RTVSPost2010PropOp53
 70
     1
102
RTVSPost2010Prop54
  1
strokes_ogs.tif
102
RTVSPost2010PropOp54
 70
     1
102
RTVSPost2010Prop55
280
     0
102
RTVSPost2010PropOp55
 70
     1
102
RTVSPost2010Prop56
140
1.0
102
RTVSPost2010PropOp56
 70
     1
102
RTVSPost2010Prop57
140
1.0
102
RTVSPost2010PropOp57
 70
     1
102
RTVSPropertyOp0
 70
     1
102
RTVSPropertyOp1
 70
     1
102
RTVSPropertyOp2
 70
     1
102
RTVSPropertyOp3
 70
     1
102
RTVSPropertyOp4
 70
     1
102
RTVSPropertyOp5
 70
     1
102
RTVSPropertyOp6
 70
     1
102
RTVSPropertyOp7
 70
     1
102
RTVSPropertyOp8
 70
     1
102
RTVSPropertyOp9
 70
     1
102
RTVSPropertyOp10
 70
     1
102
RTVSPropertyOp11
 70
     1
102
RTVSPropertyOp12
 70
     1
102
RTVSPropertyOp13
 70
     1
102
RTVSPropertyOp14
 70
     1
102
RTVSPropertyOp15
 70
     1
102
RTVSPropertyOp16
 70
     1
102
RTVSPropertyOp17
 70
     1
102
RTVSPropertyOp18
 70
     1
102
RTVSPropertyOp19
 70
     1
102
RTVSPropertyOp20
 70
     1
102
RTVSPropertyOp21
 70
     1
102
RTVSPropertyOp22
 70
     1
102
RTVSPropertyOp23
 70
     1
102
RTVSPropertyOp24
 70
     1
102
RTVSPropertyOp25
 70
     1
102
RTVSPropertyOp26
 70
     1
102
RTVSPropertyOp27
 70
     1
102
RTVSPropertyOp28
 70
     1
102
RTVSPropertyOp29
 70
     1
102
RTVSPropertyOp30
 70
     1
102
RTVSPropertyOp31
 70
     1
102
RTVSPropertyOp32
 70
     1
102
RTVSPropertyOp33
 70
     1
102
RTVSPropertyOp34
 70
     1
102
RTVSPropertyOp35
 70
     1
102
RTVSPropertyOp36
 70
     1
102
RTVSPropertyOp37
 70
     1
102
RTVSPropertyOp38
 70
     1
102
RTVSPropertyOp39
 70
     1
102
RTVSPropertyOp40
 70
     1
102
RTVSPropertyOp41
 70
     1
102
RTVSPropertyOp42
 70
     1
102
RTVSPropertyOp43
 70
     1
102
RTVSPropertyOp44
 70
     1
102
RTVSPropertyOp45
 70
     1
102
RTVSPropertyOp46
 70
     1
102
RTVSPropertyOp47
 70
     1
102
RTVSPropertyOp48
 70
     1
102
RTVSPropertyOp49
 70
     1
102
RTVSPropertyOp50
 70
     1
102
RTVSPropertyOp51
 70
     0
102
RTVSPropertyOp52
 70
     0
102
RTVSPropertyOp53
 70
     1
102
RTVSPropertyOp54
 70
     1
102
RTVSPropertyOp55
 70
     1
102
RTVSPropertyOp56
 70
     1
102
RTVSPropertyOp57
 70
     1
102
RTVSPropertyOp58
 70
     1
102
RTVSPropertyOp59
 70
     1
102
RTVSPropertyOp60
 70
     1
102
RTVSPropertyOp61
 70
     1
102
RTVSPropertyOp62
 70
     1
  0
XRECORD
  5
674
102
{ACAD_REACTORS
330
673
102
}
330
673
100
AcDbXrecord
280
     1
102
RTVSPost2010Prop28
280
     0
102
RTVSPost2010PropOp28
 70
     1
102
RTVSPost2010Prop29
280
     1
102
RTVSPost2010PropOp29
 70
     1
102
RTVSPost2010Prop30
280
     1
102
RTVSPost2010PropOp30
 70
     1
102
RTVSPost2010Prop31
280
     0
102
RTVSPost2010PropOp31
 70
     1
102
RTVSPost2010Prop32
280
     0
102
RTVSPost2010PropOp32
 70
     1
102
RTVSPost2010Prop33
280
     0
102
RTVSPost2010PropOp33
 70
     1
102
RTVSPost2010Prop34
280
     0
102
RTVSPost2010PropOp34
 70
     1
102
RTVSPost2010Prop35
280
     0
102
RTVSPost2010PropOp35
 70
     1
102
RTVSPost2010Prop36
280
     0
102
RTVSPost2010PropOp36
 70
     1
102
RTVSPost2010Prop37
 90
       50
102
RTVSPost2010PropOp37
 70
     1
102
RTVSPost2010Prop38
140
0.0
102
RTVSPost2010PropOp38
 70
     1
102
RTVSPost2010Prop39
140
1.0
102
RTVSPost2010PropOp39
 70
     1
102
RTVSPost2010Prop40
 90
        0
102
RTVSPost2010PropOp40
 70
     1
102
RTVSPost2010Prop41ColorIndex
 90
       18
102
RTVSPost2010Prop41ColorRGB
 90
        0
102
RTVSPost2010PropOp41
 70
     1
102
RTVSPost2010Prop42
 90
       50
102
RTVSPost2010PropOp42
 70
     1
102
RTVSPost2010Prop43
 90
        3
102
RTVSPost2010PropOp43
 70
     1
102
RTVSPost2010Prop44ColorIndex
 90
        5
102
RTVSPost2010Prop44ColorRGB
 90
      255
102
RTVSPost2010PropOp44
 70
     1
102
RTVSPost2010Prop45
280
     0
102
RTVSPost2010PropOp45
 70
     1
102
RTVSPost2010Prop46
 90
       50
102
RTVSPost2010PropOp46
 70
     1
102
RTVSPost2010Prop47
 90
       50
102
RTVSPost2010PropOp47
 70
     1
102
RTVSPost2010Prop48
 90
       50
102
RTVSPost2010PropOp48
 70
     1
102
RTVSPost2010Prop49
280
     0
102
RTVSPost2010PropOp49
 70
     1
102
RTVSPost2010Prop50
 90
       50
102
RTVSPost2010PropOp50
 70
     1
102
RTVSPost2010Prop51ColorIndex
 90
      256
102
RTVSPost2010Prop51ColorRGB
 90
-16777216
102
RTVSPost2010PropOp51
 70
     0
102
RTVSPost2010Prop52
140
1.0
102
RTVSPost2010PropOp52
 70
     0
102
RTVSPost2010Prop53
 90
        2
102
RTVSPost2010PropOp53
 70
     1
102
RTVSPost2010Prop54
  1
strokes_ogs.tif
102
RTVSPost2010PropOp54
 70
     1
102
RTVSPost2010Prop55
280
     0
102
RTVSPost2010PropOp55
 70
     1
102
RTVSPost2010Prop56
140
1.0
102
RTVSPost2010PropOp56
 70
     1
102
RTVSPost2010Prop57
140
1.0
102
RTVSPost2010PropOp57
 70
     1
102
RTVSPropertyOp0
 70
     1
102
RTVSPropertyOp1
 70
     1
102
RTVSPropertyOp2
 70
     1
102
RTVSPropertyOp3
 70
     1
102
RTVSPropertyOp4
 70
     1
102
RTVSPropertyOp5
 70
     1
102
RTVSPropertyOp6
 70
     1
102
RTVSPropertyOp7
 70
     1
102
RTVSPropertyOp8
 70
     1
102
RTVSPropertyOp9
 70
     1
102
RTVSPropertyOp10
 70
     1
102
RTVSPropertyOp11
 70
     1
102
RTVSPropertyOp12
 70
     1
102
RTVSPropertyOp13
 70
     1
102
RTVSPropertyOp14
 70
     1
102
RTVSPropertyOp15
 70
     1
102
RTVSPropertyOp16
 70
     1
102
RTVSPropertyOp17
 70
     1
102
RTVSPropertyOp18
 70
     1
102
RTVSPropertyOp19
 70
     1
102
RTVSPropertyOp20
 70
     1
102
RTVSPropertyOp21
 70
     1
102
RTVSPropertyOp22
 70
     1
102
RTVSPropertyOp23
 70
     1
102
RTVSPropertyOp24
 70
     1
102
RTVSPropertyOp25
 70
     1
102
RTVSPropertyOp26
 70
     1
102
RTVSPropertyOp27
 70
     1
102
RTVSPropertyOp28
 70
     1
102
RTVSPropertyOp29
 70
     1
102
RTVSPropertyOp30
 70
     1
102
RTVSPropertyOp31
 70
     1
102
RTVSPropertyOp32
 70
     1
102
RTVSPropertyOp33
 70
     1
102
RTVSPropertyOp34
 70
     1
102
RTVSPropertyOp35
 70
     1
102
RTVSPropertyOp36
 70
     1
102
RTVSPropertyOp37
 70
     1
102
RTVSPropertyOp38
 70
     1
102
RTVSPropertyOp39
 70
     1
102
RTVSPropertyOp40
 70
     1
102
RTVSPropertyOp41
 70
     1
102
RTVSPropertyOp42
 70
     1
102
RTVSPropertyOp43
 70
     1
102
RTVSPropertyOp44
 70
     1
102
RTVSPropertyOp45
 70
     1
102
RTVSPropertyOp46
 70
     1
102
RTVSPropertyOp47
 70
     1
102
RTVSPropertyOp48
 70
     1
102
RTVSPropertyOp49
 70
     1
102
RTVSPropertyOp50
 70
     1
102
RTVSPropertyOp51
 70
     0
102
RTVSPropertyOp52
 70
     0
102
RTVSPropertyOp53
 70
     1
102
RTVSPropertyOp54
 70
     1
102
RTVSPropertyOp55
 70
     1
102
RTVSPropertyOp56
 70
     1
102
RTVSPropertyOp57
 70
     1
102
RTVSPropertyOp58
 70
     1
102
RTVSPropertyOp59
 70
     1
102
RTVSPropertyOp60
 70
     1
102
RTVSPropertyOp61
 70
     1
102
RTVSPropertyOp62
 70
     1
  0
XRECORD
  5
664
102
{ACAD_REACTORS
330
663
102
}
330
663
100
AcDbXrecord
280
     1
102
RTVSPost2010Prop28
280
     0
102
RTVSPost2010PropOp28
 70
     1
102
RTVSPost2010Prop29
280
     1
102
RTVSPost2010PropOp29
 70
     1
102
RTVSPost2010Prop30
280
     1
102
RTVSPost2010PropOp30
 70
     1
102
RTVSPost2010Prop31
280
     0
102
RTVSPost2010PropOp31
 70
     1
102
RTVSPost2010Prop32
280
     0
102
RTVSPost2010PropOp32
 70
     1
102
RTVSPost2010Prop33
280
     0
102
RTVSPost2010PropOp33
 70
     1
102
RTVSPost2010Prop34
280
     0
102
RTVSPost2010PropOp34
 70
     1
102
RTVSPost2010Prop35
280
     0
102
RTVSPost2010PropOp35
 70
     1
102
RTVSPost2010Prop36
280
     0
102
RTVSPost2010PropOp36
 70
     1
102
RTVSPost2010Prop37
 90
       50
102
RTVSPost2010PropOp37
 70
     1
102
RTVSPost2010Prop38
140
0.0
102
RTVSPost2010PropOp38
 70
     1
102
RTVSPost2010Prop39
140
1.0
102
RTVSPost2010PropOp39
 70
     1
102
RTVSPost2010Prop40
 90
        0
102
RTVSPost2010PropOp40
 70
     1
102
RTVSPost2010Prop41ColorIndex
 90
       18
102
RTVSPost2010Prop41ColorRGB
 90
        0
102
RTVSPost2010PropOp41
 70
     1
102
RTVSPost2010Prop42
 90
       50
102
RTVSPost2010PropOp42
 70
     1
102
RTVSPost2010Prop43
 90
        3
102
RTVSPost2010PropOp43
 70
     1
102
RTVSPost2010Prop44ColorIndex
 90
        5
102
RTVSPost2010Prop44ColorRGB
 90
      255
102
RTVSPost2010PropOp44
 70
     1
102
RTVSPost2010Prop45
280
     0
102
RTVSPost2010PropOp45
 70
     1
102
RTVSPost2010Prop46
 90
       50
102
RTVSPost2010PropOp46
 70
     1
102
RTVSPost2010Prop47
 90
       50
102
RTVSPost2010PropOp47
 70
     1
102
RTVSPost2010Prop48
 90
       50
102
RTVSPost2010PropOp48
 70
     1
102
RTVSPost2010Prop49
280
     0
102
RTVSPost2010PropOp49
 70
     1
102
RTVSPost2010Prop50
 90
       50
102
RTVSPost2010PropOp50
 70
     1
102
RTVSPost2010Prop51ColorIndex
 90
      256
102
RTVSPost2010Prop51ColorRGB
 90
-16777216
102
RTVSPost2010PropOp51
 70
     0
102
RTVSPost2010Prop52
140
1.0
102
RTVSPost2010PropOp52
 70
     0
102
RTVSPost2010Prop53
 90
        2
102
RTVSPost2010PropOp53
 70
     1
102
RTVSPost2010Prop54
  1
strokes_ogs.tif
102
RTVSPost2010PropOp54
 70
     1
102
RTVSPost2010Prop55
280
     0
102
RTVSPost2010PropOp55
 70
     1
102
RTVSPost2010Prop56
140
1.0
102
RTVSPost2010PropOp56
 70
     1
102
RTVSPost2010Prop57
140
1.0
102
RTVSPost2010PropOp57
 70
     1
102
RTVSPropertyOp0
 70
     1
102
RTVSPropertyOp1
 70
     1
102
RTVSPropertyOp2
 70
     1
102
RTVSPropertyOp3
 70
     1
102
RTVSPropertyOp4
 70
     1
102
RTVSPropertyOp5
 70
     1
102
RTVSPropertyOp6
 70
     1
102
RTVSPropertyOp7
 70
     1
102
RTVSPropertyOp8
 70
     1
102
RTVSPropertyOp9
 70
     1
102
RTVSPropertyOp10
 70
     1
102
RTVSPropertyOp11
 70
     1
102
RTVSPropertyOp12
 70
     1
102
RTVSPropertyOp13
 70
     1
102
RTVSPropertyOp14
 70
     1
102
RTVSPropertyOp15
 70
     1
102
RTVSPropertyOp16
 70
     1
102
RTVSPropertyOp17
 70
     1
102
RTVSPropertyOp18
 70
     1
102
RTVSPropertyOp19
 70
     1
102
RTVSPropertyOp20
 70
     1
102
RTVSPropertyOp21
 70
     1
102
RTVSPropertyOp22
 70
     1
102
RTVSPropertyOp23
 70
     1
102
RTVSPropertyOp24
 70
     1
102
RTVSPropertyOp25
 70
     1
102
RTVSPropertyOp26
 70
     1
102
RTVSPropertyOp27
 70
     1
102
RTVSPropertyOp28
 70
     1
102
RTVSPropertyOp29
 70
     1
102
RTVSPropertyOp30
 70
     1
102
RTVSPropertyOp31
 70
     1
102
RTVSPropertyOp32
 70
     1
102
RTVSPropertyOp33
 70
     1
102
RTVSPropertyOp34
 70
     1
102
RTVSPropertyOp35
 70
     1
102
RTVSPropertyOp36
 70
     1
102
RTVSPropertyOp37
 70
     1
102
RTVSPropertyOp38
 70
     1
102
RTVSPropertyOp39
 70
     1
102
RTVSPropertyOp40
 70
     1
102
RTVSPropertyOp41
 70
     1
102
RTVSPropertyOp42
 70
     1
102
RTVSPropertyOp43
 70
     1
102
RTVSPropertyOp44
 70
     1
102
RTVSPropertyOp45
 70
     1
102
RTVSPropertyOp46
 70
     1
102
RTVSPropertyOp47
 70
     1
102
RTVSPropertyOp48
 70
     1
102
RTVSPropertyOp49
 70
     1
102
RTVSPropertyOp50
 70
     1
102
RTVSPropertyOp51
 70
     0
102
RTVSPropertyOp52
 70
     0
102
RTVSPropertyOp53
 70
     1
102
RTVSPropertyOp54
 70
     1
102
RTVSPropertyOp55
 70
     1
102
RTVSPropertyOp56
 70
     1
102
RTVSPropertyOp57
 70
     1
102
RTVSPropertyOp58
 70
     1
102
RTVSPropertyOp59
 70
     1
102
RTVSPropertyOp60
 70
     1
102
RTVSPropertyOp61
 70
     1
102
RTVSPropertyOp62
 70
     1
  0
XRECORD
  5
656
102
{ACAD_REACTORS
330
655
102
}
330
655
100
AcDbXrecord
280
     1
102
RTVSPost2010Prop28
280
     0
102
RTVSPost2010PropOp28
 70
     1
102
RTVSPost2010Prop29
280
     1
102
RTVSPost2010PropOp29
 70
     1
102
RTVSPost2010Prop30
280
     1
102
RTVSPost2010PropOp30
 70
     1
102
RTVSPost2010Prop31
280
     0
102
RTVSPost2010PropOp31
 70
     1
102
RTVSPost2010Prop32
280
     0
102
RTVSPost2010PropOp32
 70
     1
102
RTVSPost2010Prop33
280
     0
102
RTVSPost2010PropOp33
 70
     1
102
RTVSPost2010Prop34
280
     0
102
RTVSPost2010PropOp34
 70
     1
102
RTVSPost2010Prop35
280
     0
102
RTVSPost2010PropOp35
 70
     1
102
RTVSPost2010Prop36
280
     0
102
RTVSPost2010PropOp36
 70
     1
102
RTVSPost2010Prop37
 90
       50
102
RTVSPost2010PropOp37
 70
     1
102
RTVSPost2010Prop38
140
0.0
102
RTVSPost2010PropOp38
 70
     1
102
RTVSPost2010Prop39
140
1.0
102
RTVSPost2010PropOp39
 70
     1
102
RTVSPost2010Prop40
 90
        0
102
RTVSPost2010PropOp40
 70
     1
102
RTVSPost2010Prop41ColorIndex
 90
       18
102
RTVSPost2010Prop41ColorRGB
 90
        0
102
RTVSPost2010PropOp41
 70
     1
102
RTVSPost2010Prop42
 90
       50
102
RTVSPost2010PropOp42
 70
     1
102
RTVSPost2010Prop43
 90
        3
102
RTVSPost2010PropOp43
 70
     1
102
RTVSPost2010Prop44ColorIndex
 90
        5
102
RTVSPost2010Prop44ColorRGB
 90
      255
102
RTVSPost2010PropOp44
 70
     1
102
RTVSPost2010Prop45
280
     0
102
RTVSPost2010PropOp45
 70
     1
102
RTVSPost2010Prop46
 90
       50
102
RTVSPost2010PropOp46
 70
     1
102
RTVSPost2010Prop47
 90
       50
102
RTVSPost2010PropOp47
 70
     1
102
RTVSPost2010Prop48
 90
       50
102
RTVSPost2010PropOp48
 70
     1
102
RTVSPost2010Prop49
280
     0
102
RTVSPost2010PropOp49
 70
     1
102
RTVSPost2010Prop50
 90
       50
102
RTVSPost2010PropOp50
 70
     1
102
RTVSPost2010Prop51ColorIndex
 90
      256
102
RTVSPost2010Prop51ColorRGB
 90
-16777216
102
RTVSPost2010PropOp51
 70
     0
102
RTVSPost2010Prop52
140
1.0
102
RTVSPost2010PropOp52
 70
     0
102
RTVSPost2010Prop53
 90
        2
102
RTVSPost2010PropOp53
 70
     1
102
RTVSPost2010Prop54
  1
strokes_ogs.tif
102
RTVSPost2010PropOp54
 70
     1
102
RTVSPost2010Prop55
280
     0
102
RTVSPost2010PropOp55
 70
     1
102
RTVSPost2010Prop56
140
1.0
102
RTVSPost2010PropOp56
 70
     1
102
RTVSPost2010Prop57
140
1.0
102
RTVSPost2010PropOp57
 70
     1
102
RTVSPropertyOp0
 70
     1
102
RTVSPropertyOp1
 70
     1
102
RTVSPropertyOp2
 70
     1
102
RTVSPropertyOp3
 70
     1
102
RTVSPropertyOp4
 70
     1
102
RTVSPropertyOp5
 70
     1
102
RTVSPropertyOp6
 70
     1
102
RTVSPropertyOp7
 70
     1
102
RTVSPropertyOp8
 70
     1
102
RTVSPropertyOp9
 70
     1
102
RTVSPropertyOp10
 70
     1
102
RTVSPropertyOp11
 70
     1
102
RTVSPropertyOp12
 70
     1
102
RTVSPropertyOp13
 70
     1
102
RTVSPropertyOp14
 70
     1
102
RTVSPropertyOp15
 70
     1
102
RTVSPropertyOp16
 70
     1
102
RTVSPropertyOp17
 70
     1
102
RTVSPropertyOp18
 70
     1
102
RTVSPropertyOp19
 70
     1
102
RTVSPropertyOp20
 70
     1
102
RTVSPropertyOp21
 70
     1
102
RTVSPropertyOp22
 70
     1
102
RTVSPropertyOp23
 70
     1
102
RTVSPropertyOp24
 70
     1
102
RTVSPropertyOp25
 70
     1
102
RTVSPropertyOp26
 70
     1
102
RTVSPropertyOp27
 70
     1
102
RTVSPropertyOp28
 70
     1
102
RTVSPropertyOp29
 70
     1
102
RTVSPropertyOp30
 70
     1
102
RTVSPropertyOp31
 70
     1
102
RTVSPropertyOp32
 70
     1
102
RTVSPropertyOp33
 70
     1
102
RTVSPropertyOp34
 70
     1
102
RTVSPropertyOp35
 70
     1
102
RTVSPropertyOp36
 70
     1
102
RTVSPropertyOp37
 70
     1
102
RTVSPropertyOp38
 70
     1
102
RTVSPropertyOp39
 70
     1
102
RTVSPropertyOp40
 70
     1
102
RTVSPropertyOp41
 70
     1
102
RTVSPropertyOp42
 70
     1
102
RTVSPropertyOp43
 70
     1
102
RTVSPropertyOp44
 70
     1
102
RTVSPropertyOp45
 70
     1
102
RTVSPropertyOp46
 70
     1
102
RTVSPropertyOp47
 70
     1
102
RTVSPropertyOp48
 70
     1
102
RTVSPropertyOp49
 70
     1
102
RTVSPropertyOp50
 70
     1
102
RTVSPropertyOp51
 70
     0
102
RTVSPropertyOp52
 70
     0
102
RTVSPropertyOp53
 70
     1
102
RTVSPropertyOp54
 70
     1
102
RTVSPropertyOp55
 70
     1
102
RTVSPropertyOp56
 70
     1
102
RTVSPropertyOp57
 70
     1
102
RTVSPropertyOp58
 70
     1
102
RTVSPropertyOp59
 70
     1
102
RTVSPropertyOp60
 70
     1
102
RTVSPropertyOp61
 70
     1
102
RTVSPropertyOp62
 70
     1
  0
XRECORD
  5
676
102
{ACAD_REACTORS
330
675
102
}
330
675
100
AcDbXrecord
280
     1
102
RTVSPost2010Prop28
280
     0
102
RTVSPost2010PropOp28
 70
     1
102
RTVSPost2010Prop29
280
     1
102
RTVSPost2010PropOp29
 70
     1
102
RTVSPost2010Prop30
280
     1
102
RTVSPost2010PropOp30
 70
     1
102
RTVSPost2010Prop31
280
     0
102
RTVSPost2010PropOp31
 70
     1
102
RTVSPost2010Prop32
280
     0
102
RTVSPost2010PropOp32
 70
     1
102
RTVSPost2010Prop33
280
     0
102
RTVSPost2010PropOp33
 70
     1
102
RTVSPost2010Prop34
280
     0
102
RTVSPost2010PropOp34
 70
     1
102
RTVSPost2010Prop35
280
     0
102
RTVSPost2010PropOp35
 70
     1
102
RTVSPost2010Prop36
280
     0
102
RTVSPost2010PropOp36
 70
     1
102
RTVSPost2010Prop37
 90
       50
102
RTVSPost2010PropOp37
 70
     1
102
RTVSPost2010Prop38
140
0.0
102
RTVSPost2010PropOp38
 70
     1
102
RTVSPost2010Prop39
140
1.0
102
RTVSPost2010PropOp39
 70
     1
102
RTVSPost2010Prop40
 90
        0
102
RTVSPost2010PropOp40
 70
     1
102
RTVSPost2010Prop41ColorIndex
 90
       18
102
RTVSPost2010Prop41ColorRGB
 90
        0
102
RTVSPost2010PropOp41
 70
     1
102
RTVSPost2010Prop42
 90
       50
102
RTVSPost2010PropOp42
 70
     1
102
RTVSPost2010Prop43
 90
        3
102
RTVSPost2010PropOp43
 70
     1
102
RTVSPost2010Prop44ColorIndex
 90
        5
102
RTVSPost2010Prop44ColorRGB
 90
      255
102
RTVSPost2010PropOp44
 70
     1
102
RTVSPost2010Prop45
280
     0
102
RTVSPost2010PropOp45
 70
     1
102
RTVSPost2010Prop46
 90
       50
102
RTVSPost2010PropOp46
 70
     1
102
RTVSPost2010Prop47
 90
       50
102
RTVSPost2010PropOp47
 70
     1
102
RTVSPost2010Prop48
 90
       50
102
RTVSPost2010PropOp48
 70
     1
102
RTVSPost2010Prop49
280
     0
102
RTVSPost2010PropOp49
 70
     1
102
RTVSPost2010Prop50
 90
       50
102
RTVSPost2010PropOp50
 70
     1
102
RTVSPost2010Prop51ColorIndex
 90
      256
102
RTVSPost2010Prop51ColorRGB
 90
-16777216
102
RTVSPost2010PropOp51
 70
     0
102
RTVSPost2010Prop52
140
1.0
102
RTVSPost2010PropOp52
 70
     0
102
RTVSPost2010Prop53
 90
        2
102
RTVSPost2010PropOp53
 70
     1
102
RTVSPost2010Prop54
  1
strokes_ogs.tif
102
RTVSPost2010PropOp54
 70
     1
102
RTVSPost2010Prop55
280
     0
102
RTVSPost2010PropOp55
 70
     1
102
RTVSPost2010Prop56
140
1.0
102
RTVSPost2010PropOp56
 70
     1
102
RTVSPost2010Prop57
140
1.0
102
RTVSPost2010PropOp57
 70
     1
102
RTVSPropertyOp0
 70
     1
102
RTVSPropertyOp1
 70
     1
102
RTVSPropertyOp2
 70
     1
102
RTVSPropertyOp3
 70
     1
102
RTVSPropertyOp4
 70
     1
102
RTVSPropertyOp5
 70
     1
102
RTVSPropertyOp6
 70
     1
102
RTVSPropertyOp7
 70
     1
102
RTVSPropertyOp8
 70
     1
102
RTVSPropertyOp9
 70
     1
102
RTVSPropertyOp10
 70
     1
102
RTVSPropertyOp11
 70
     1
102
RTVSPropertyOp12
 70
     1
102
RTVSPropertyOp13
 70
     1
102
RTVSPropertyOp14
 70
     1
102
RTVSPropertyOp15
 70
     1
102
RTVSPropertyOp16
 70
     1
102
RTVSPropertyOp17
 70
     1
102
RTVSPropertyOp18
 70
     1
102
RTVSPropertyOp19
 70
     1
102
RTVSPropertyOp20
 70
     1
102
RTVSPropertyOp21
 70
     1
102
RTVSPropertyOp22
 70
     1
102
RTVSPropertyOp23
 70
     1
102
RTVSPropertyOp24
 70
     1
102
RTVSPropertyOp25
 70
     1
102
RTVSPropertyOp26
 70
     1
102
RTVSPropertyOp27
 70
     1
102
RTVSPropertyOp28
 70
     1
102
RTVSPropertyOp29
 70
     1
102
RTVSPropertyOp30
 70
     1
102
RTVSPropertyOp31
 70
     1
102
RTVSPropertyOp32
 70
     1
102
RTVSPropertyOp33
 70
     1
102
RTVSPropertyOp34
 70
     1
102
RTVSPropertyOp35
 70
     1
102
RTVSPropertyOp36
 70
     1
102
RTVSPropertyOp37
 70
     1
102
RTVSPropertyOp38
 70
     1
102
RTVSPropertyOp39
 70
     1
102
RTVSPropertyOp40
 70
     1
102
RTVSPropertyOp41
 70
     1
102
RTVSPropertyOp42
 70
     1
102
RTVSPropertyOp43
 70
     1
102
RTVSPropertyOp44
 70
     1
102
RTVSPropertyOp45
 70
     1
102
RTVSPropertyOp46
 70
     1
102
RTVSPropertyOp47
 70
     1
102
RTVSPropertyOp48
 70
     1
102
RTVSPropertyOp49
 70
     1
102
RTVSPropertyOp50
 70
     1
102
RTVSPropertyOp51
 70
     0
102
RTVSPropertyOp52
 70
     0
102
RTVSPropertyOp53
 70
     1
102
RTVSPropertyOp54
 70
     1
102
RTVSPropertyOp55
 70
     1
102
RTVSPropertyOp56
 70
     1
102
RTVSPropertyOp57
 70
     1
102
RTVSPropertyOp58
 70
     1
102
RTVSPropertyOp59
 70
     1
102
RTVSPropertyOp60
 70
     1
102
RTVSPropertyOp61
 70
     1
102
RTVSPropertyOp62
 70
     1
  0
ENDSEC
  0
EOF
